osu file format v14

[General]
AudioFilename: audio.mp3
AudioLeadIn: 0
PreviewTime: 17033
Countdown: 0
SampleSet: Soft
StackLeniency: 0.3
Mode: 0
LetterboxInBreaks: 0
WidescreenStoryboard: 1

[Editor]
DistanceSpacing: 1
BeatDivisor: 1
GridSize: 8
TimelineZoom: 2.699999

[Metadata]
Title:Cho*Cho*Kou*So*ku*De*Mae*Sai*Soku!!! Speed*Star*Kanade
TitleUnicode:超☆超☆光☆速☆出☆前☆最☆速!!! スピード★スター★かなで
Artist:Camellia feat. Nanahira
ArtistUnicode:かめりあ feat. ななひら
Creator:My Angel RangE
Version:BASIC
Source:SOUND VOLTEX IV HEAVENLY HAVEN
Tags:the 6th kac original song contest sdvx 4 speedcore
BeatmapID:1243789
BeatmapSetID:584801

[Difficulty]
HPDrainRate:2
CircleSize:2
OverallDifficulty:2
ApproachRate:2
SliderMultiplier:0.55000000596046
SliderTickRate:1

[Events]
//Background and Video events
0,0,"ewr.png",0,0
//Break Periods
//Storyboard Layer 0 (Background)
//Storyboard Layer 1 (Fail)
//Storyboard Layer 2 (Pass)
//Storyboard Layer 3 (Foreground)
//Storyboard Sound Samples

[TimingPoints]
606,923.076923076923,4,2,2,60,1,0
606,-26,4,2,2,60,0,0
11682,1000,4,2,2,60,1,0
11682,-24,4,2,2,60,0,0
12682,1090.90909090909,4,2,2,60,1,0
12682,-22,4,2,2,60,0,0
13772,1200,4,2,2,60,1,0
13772,-20,4,2,2,60,0,0
14297,1333.33333333333,4,2,2,60,1,0
14297,-18,4,2,2,60,0,0
14880,1500,4,2,2,60,1,0
14880,-16,4,2,2,60,0,0
15536,120,4,2,2,60,1,0
15536,-200,4,2,2,60,0,0
60656,-200,4,2,2,60,0,1
83696,-200,4,2,2,60,0,0
89456,107.142857142857,4,2,2,60,1,0
89456,-224,4,2,2,60,0,0
90313,96.7741935483871,4,2,2,60,1,0
90313,-248,4,2,2,60,0,0
91087,88.2352941176471,4,2,2,60,1,0
91087,-272,4,2,2,60,0,0
91792,81.0810810810811,4,2,2,60,1,0
91792,-296,4,2,2,60,0,0
92440,75,4,2,2,60,1,0
92440,-320,4,2,2,60,0,0
93040,69.7674418604651,4,2,2,20,1,0
93040,-344,4,2,2,20,0,0
93598,65.2173913043478,4,2,2,20,1,0
93598,-368,4,2,2,20,0,0
94380,62.5,4,2,2,20,1,0
94380,-384,4,2,2,20,0,0
96130,60.0600600600601,4,2,2,60,1,0
96130,-399.6,4,2,2,60,0,0
96610,-399.6,4,2,2,60,0,1
104298,-399.6,4,2,2,60,0,0
112466,1000,4,2,2,60,1,0
112466,-24,4,2,2,60,0,0
113466,1090.90909090909,4,2,2,60,1,0
113466,-22,4,2,2,60,0,0
114556,1200,4,2,2,60,1,0
114556,-20,4,2,2,60,0,0
115081,1333.33333333333,4,2,2,60,1,0
115081,-18,4,2,2,60,0,0
115664,1500,4,2,2,60,1,0
115664,-16,4,2,2,60,0,0
116320,2000,4,2,2,60,1,0
116320,-12,4,2,2,60,0,0

[Colours]
Combo1 : 255,160,66
Combo2 : 168,81,255
Combo3 : 255,128,255
Combo4 : 0,140,140

[HitObjects]
17,106,606,6,0,B|67:78|67:78|236:107,1,211.538463830946
409,12,2452,2,0,P|356:147|409:256,1,211.538463830946
510,365,4298,2,0,B|447:324|447:324|267:362,1,211.538463830946
102,362,6144,2,0,B|53:322|53:322|104:130,1,211.538463830946
265,297,7990,5,0,0:0:0:0:
422,155,8913,1,0,0:0:0:0:
248,33,9836,2,0,L|-42:21,1,211.538463830946
165,194,11682,2,0,L|435:153,1,229.166669150192
185,19,13772,6,0,L|173:143,1,120.312501303851
58,206,14880,1,0,0:0:0:0:
120,342,15536,6,0,L|230:351,1,110.000001192092
312,278,16496,2,0,L|422:269,1,110.000001192092
481,176,17456,6,0,P|481:102|465:62,1,110.000001192092
366,28,18416,2,0,L|253:39,1,110.000001192092
173,111,19376,2,0,B|157:155|157:155|176:225,2,110.000001192092
385,51,21296,6,0,B|417:93|417:93|390:266,1,220.000002384184
434,359,22736,1,0,0:0:0:0:
324,346,23216,2,0,L|205:357,1,110.000001192092
118,302,24176,2,0,L|109:189,1,110.000001192092
37,109,25136,5,0,0:0:0:0:
107,24,25616,1,0,0:0:0:0:
186,100,26096,2,0,L|378:83,1,192.500002086161
447,201,27536,1,0,0:0:0:0:
347,247,28016,2,0,L|233:236,1,110.000001192092
141,290,28976,6,0,P|128:219|141:182,1,110.000001192092
221,111,29936,1,0,0:0:0:0:
221,111,31616,6,0,L|278:114,1,55.000000596046
377,70,32336,2,0,B|392:97|392:97|377:185,1,110.000001192092
296,248,33296,2,0,L|179:243,1,110.000001192092
186,243,35216,6,0,B|174:209|174:209|184:134,1,110.000001192092
231,36,36176,1,0,0:0:0:0:
121,43,36656,2,0,L|57:36,2,55.000000596046
183,135,37616,6,0,L|299:128,1,110.000001192092
360,41,38576,2,0,P|394:76|402:135,1,110.000001192092
339,225,39536,2,0,P|328:275|343:334,1,110.000001192092
437,277,40496,2,0,P|450:224|439:170,1,110.000001192092
383,75,41456,5,0,0:0:0:0:
299,146,41936,1,0,0:0:0:0:
206,86,42416,2,0,L|92:94,1,110.000001192092
58,197,43376,6,0,L|74:310,1,110.000001192092
169,360,44336,2,0,L|184:251,1,110.000001192092
118,162,45296,5,0,0:0:0:0:
161,60,45776,1,0,0:0:0:0:
258,110,46256,2,0,L|372:108,1,110.000001192092
445,30,47216,5,0,0:0:0:0:
509,119,47696,1,0,0:0:0:0:
439,204,48176,2,0,L|450:323,2,110.000001192092
81,346,50816,6,0,L|148:340,1,55.000000596046
451,245,52496,2,0,L|330:235,1,110.000001192092
153,121,53936,6,0,B|140:146|140:146|149:206,1,82.500000894069
56,302,54896,2,0,P|95:326|215:324,1,165.000001788138
294,183,56336,1,0,0:0:0:0:
206,116,56816,6,0,B|179:94|179:94|196:234,1,165.000001788138
342,297,58256,2,0,L|345:186,1,110.000001192092
65,97,60656,6,0,L|293:84,1,220.000002384184
433,206,62456,2,0,L|178:192,1,247.500002682207
37,69,64376,2,0,B|28:109|37:136|37:136|48:166|37:208,1,137.500001490115
8,281,65336,2,0,L|163:289,1,137.500001490115
209,340,66296,6,0,B|279:338|279:338|377:353|377:353|462:350,1,247.500002682207
494,277,67736,1,0,0:0:0:0:
363,234,68336,2,0,B|349:208|349:208|358:117,1,110.000001192092
404,28,69296,2,0,L|288:37,1,110.000001192092
246,104,70136,6,0,P|197:105|106:77,1,137.500001490115
20,19,71216,1,0,0:0:0:0:
15,128,71696,1,0,0:0:0:0:
15,128,72056,2,0,L|24:271,1,137.500001490115
79,325,73016,2,0,L|222:320,1,137.500001490115
289,358,73976,2,0,P|291:300|301:243,1,110.000001192092
258,146,74936,2,0,L|168:159,2,82.500000894069
335,176,76016,1,0,0:0:0:0:
335,176,76256,6,0,P|355:86|318:20,1,165.000001788138
211,105,77576,1,0,0:0:0:0:
211,105,77816,2,0,L|216:243,1,137.500001490115
178,316,78776,2,0,L|31:325,1,137.500001490115
24,159,80096,6,0,L|199:174,1,165.000001788138
322,202,81416,1,0,0:0:0:0:
322,202,81656,2,0,P|324:159|316:128,2,68.7500007450575
263,260,82616,2,0,P|256:293|259:327,1,68.7500007450575
316,365,83216,2,0,L|374:359,1,55.000000596046
424,371,83696,2,0,L|431:250,1,110.000001192092
509,184,84656,6,0,P|480:158|404:155,1,110.000001192092
326,222,85616,2,0,P|271:222|228:190,1,110.000001192092
291,99,86576,2,0,P|214:80|178:95,2,110.000001192092
91,192,88496,5,0,0:0:0:0:
91,192,89456,5,0,0:0:0:0:
106,298,90313,6,0,L|286:285,1,177.419356761439
433,342,91792,6,0,L|421:262,1,74.3243251297919
383,204,92440,6,0,L|392:120,1,68.7500007450575
434,82,93040,1,0,0:0:0:0:
306,80,93598,6,0,L|178:94,1,119.565218687057
132,67,94380,2,0,B|121:151|121:151|145:238|145:238|134:356|134:356|108:246,1,401.041671012835
12,199,96610,6,0,L|5:83,1,110.110109621567
98,30,97571,2,0,P|159:20|207:44,1,110.110109621567
266,128,98532,2,0,P|322:129|372:103,1,110.110109621567
411,3,99493,2,0,P|454:31|471:78,2,96.3463459188708
280,47,100934,6,0,P|265:89|276:155,1,110.110109621567
367,212,101895,2,0,L|369:301,1,82.582582216175
305,347,102616,2,0,L|482:332,1,165.16516443235
421,234,103817,1,0,0:0:0:0:
502,159,104298,6,0,L|510:43,1,110.110109621567
403,79,105259,2,0,L|410:188,1,110.110109621567
323,257,106220,2,0,P|261:263|217:243,1,110.110109621567
231,134,107181,2,0,P|284:126|335:146,1,110.110109621567
398,236,108142,2,0,P|435:194|442:133,2,110.110109621567
427,342,109583,1,0,0:0:0:0:
256,192,109643,12,0,111685,0:0:0:0:
390,133,112466,6,0,L|245:132,1,143.22916821887
174,85,113466,2,0,L|90:95,2,78.1250008466562
246,132,114556,2,0,L|236:256,1,120.312501303851
134,338,115664,2,0,L|115:176,1,150.390626629813
256,192,116445,12,0,118320,0:0:0:0:
