osu file format v14

[General]
AudioFilename: audio.mp3
AudioLeadIn: 0
PreviewTime: 17033
Countdown: 0
SampleSet: Soft
StackLeniency: 0.3
Mode: 0
LetterboxInBreaks: 0
WidescreenStoryboard: 1

[Editor]
DistanceSpacing: 1.5
BeatDivisor: 2
GridSize: 8
TimelineZoom: 2.399999

[Metadata]
Title:Cho*Cho*Kou*So*ku*De*Mae*Sai*Soku!!! Speed*Star*Kanade
TitleUnicode:超☆超☆光☆速☆出☆前☆最☆速!!! スピード★スター★かなで
Artist:Camellia feat. Nanahira
ArtistUnicode:かめりあ feat. ななひら
Creator:My Angel RangE
Version:ADVANCED
Source:SOUND VOLTEX IV HEAVENLY HAVEN
Tags:the 6th kac original song contest sdvx 4 speedcore
BeatmapID:1803004
BeatmapSetID:584801

[Difficulty]
HPDrainRate:4
CircleSize:3.4
OverallDifficulty:5
ApproachRate:8
SliderMultiplier:1.15000000596046
SliderTickRate:1

[Events]
//Background and Video events
0,0,"ewr.png",0,0
//Break Periods
2,30136,30866
//Storyboard Layer 0 (Background)
//Storyboard Layer 1 (Fail)
//Storyboard Layer 2 (Pass)
//Storyboard Layer 3 (Foreground)
//Storyboard Sound Samples

[TimingPoints]
606,923.076923076923,4,2,2,60,1,0
606,-66.6666666666667,4,2,2,60,0,0
11682,1000,4,2,2,60,1,0
11682,-66.6666666666667,4,2,2,60,0,0
12682,1090.90909090909,4,2,2,60,1,0
13772,1200,4,2,2,60,1,0
14297,1333.33333333333,4,2,2,60,1,0
14880,1500,4,2,2,60,1,0
14880,-66.6666666666667,4,2,2,60,0,0
15536,120,4,2,2,60,1,0
15536,-250.000000000001,4,2,2,60,0,0
17456,-222.222222222222,4,2,2,60,0,0
28966,-166.666666666667,4,2,2,60,0,0
31616,-142.857142857143,4,2,2,60,0,0
31856,-200,4,2,2,60,0,0
35216,-142.857142857143,4,2,2,60,0,0
35696,-200,4,2,2,60,0,0
37606,-285.714285714286,4,2,2,60,0,0
45296,-200,4,2,2,60,0,0
49126,-200,4,2,2,60,0,0
60656,-166.666666666667,4,2,2,60,0,1
75046,-142.857142857143,4,2,2,60,0,1
76006,-200,4,2,2,60,0,1
76246,-142.857142857143,4,2,2,60,0,1
84406,-125,4,2,2,60,0,0
84646,-142.857142857143,4,2,2,60,0,0
85366,-125,4,2,2,60,0,0
85606,-142.857142857143,4,2,2,60,0,0
86326,-200,4,2,2,60,0,0
86566,-142.857142857143,4,2,2,60,0,0
87526,-200,4,2,2,60,0,0
88486,-111.111111111111,4,2,2,60,0,0
89456,107.142857142857,4,2,2,60,1,0
90313,96.7741935483871,4,2,2,60,1,0
90313,-200,4,2,2,60,0,0
91087,88.2352941176471,4,2,2,60,1,0
91792,81.0810810810811,4,2,2,60,1,0
92440,75,4,2,2,60,1,0
93040,69.7674418604651,4,2,2,20,1,0
93598,65.2173913043478,4,2,2,20,1,0
93598,-200,4,2,2,20,0,0
94380,62.5,4,2,2,20,1,0
94380,-200,4,2,2,20,0,0
96130,60.0600600600601,4,2,2,60,1,0
96130,-333.333333333333,4,2,2,60,0,0
96600,-250,4,2,2,60,0,1
102606,-250,4,2,2,20,0,1
103086,-250,4,2,2,50,0,1
104288,-333.333333333333,4,2,2,60,0,0
106210,-200,4,2,2,60,0,0
109092,-200,4,2,2,60,0,0
112466,1000,4,2,2,60,1,0
112466,-45.4545454545455,4,2,2,60,0,0
113466,1090.90909090909,4,2,2,60,1,0
113466,-43.4782608695652,4,2,2,60,0,0
114556,1200,4,2,2,60,1,0
115081,1333.33333333333,4,2,2,60,1,0
115664,1500,4,2,2,60,1,0
116320,2000,4,2,2,60,1,0
116320,-333.333333333333,4,2,2,60,0,0

[Colours]
Combo1 : 255,160,66
Combo2 : 168,81,255
Combo3 : 255,128,255
Combo4 : 0,140,140

[HitObjects]
59,133,606,6,0,P|111:117|168:124,1,107.812504671514
214,157,1356,1,0,0:0:0:0:
214,157,1529,2,0,P|225:115|213:89,2,64.6875028029083
146,203,2452,6,0,L|152:297,1,86.250003737211
184,341,3086,1,0,0:0:0:0:
184,342,3375,2,0,P|213:353|248:349,2,64.6875028029083
227,272,4298,6,0,P|224:223|244:184,1,86.250003737211
314,157,4990,1,0,0:0:0:0:
314,157,5221,2,0,L|380:152,2,64.6875028029083
243,115,6144,2,0,L|177:110,2,64.6875028029083
305,61,7067,2,0,L|397:50,1,86.250003737211
451,40,7702,1,0,0:0:0:0:
451,40,7990,6,0,L|447:124,1,75.4687532700597
401,156,8567,2,0,L|361:161,1,32.3437514014541
316,128,8913,2,0,L|244:115,2,64.6875028029083
340,206,9836,6,0,L|346:301,1,86.250003737211
304,338,10471,2,0,L|272:341,1,32.3437514014541
222,304,10817,2,0,L|163:303,2,53.9062523357569
266,260,11567,1,0,0:0:0:0:
266,260,11682,6,0,L|260:190,2,64.6875028029083
312,280,12682,2,0,L|347:275,1,35.9375001862644
376,352,13432,2,0,L|349:355,1,21.5625001117586
329,352,13772,6,0,L|293:360,1,35.9375001862644
270,353,14297,6,0,L|233:343,1,35.9375001862644
184,357,14880,6,0,L|124:368,1,53.9062523357569
17,290,15536,6,0,L|12:179,1,92.0000004768368
65,127,15896,1,0,0:0:0:0:
65,127,16016,2,0,P|97:123|122:126,1,46.0000002384184
174,184,16256,2,0,P|196:184|219:180,1,46.0000002384184
286,125,16496,2,0,P|269:166|310:310,1,184.000000953674
461,362,17216,1,0,0:0:0:0:
461,362,17456,6,0,P|461:315|450:301,1,51.7499986889361
384,247,17696,2,0,P|378:224|385:187,1,51.7499986889361
449,125,17936,1,0,0:0:0:0:
449,125,18416,6,0,P|423:99|392:98,1,51.7499986889361
311,104,18656,2,0,P|309:75|326:39,1,51.7499986889361
400,1,18896,1,0,0:0:0:0:
470,315,19376,6,0,B|433:315|433:315|371:339|371:339|306:340,1,155.249996066808
257,263,19856,2,0,P|219:267|199:282,1,51.7499986889361
149,353,20096,2,0,P|111:349|91:334,1,51.7499986889361
59,252,20336,5,0,0:0:0:0:
59,252,20576,1,0,0:0:0:0:
201,116,20816,2,0,P|207:85|195:53,1,51.7499986889361
107,90,21056,2,0,P|102:115|107:140,1,51.7499986889361
171,215,21296,6,0,P|174:236|168:273,1,51.7499986889361
84,313,21536,2,0,P|101:338|132:357,1,51.7499986889361
216,358,21776,2,0,B|244:343|244:343|269:356|269:356|335:356,1,103.499997377872
393,300,22136,1,0,0:0:0:0:
393,300,22256,6,0,P|399:258|390:239,1,51.7499986889361
317,189,22496,2,0,P|309:164|313:139,1,51.7499986889361
375,62,22736,2,0,P|321:39|230:86,1,155.249996066808
164,143,23216,6,0,P|129:151|108:148,1,51.7499986889361
92,53,23456,2,0,P|127:45|148:48,1,51.7499986889361
237,75,23696,2,0,P|263:136|251:184,1,103.499997377872
185,237,24056,1,0,0:0:0:0:
185,237,24176,6,0,B|152:262|152:262|32:263,1,155.249996066808
97,341,24656,2,0,L|269:340,1,155.249996066808
348,361,25136,6,0,P|353:334|344:307,1,51.7499986889361
271,246,25376,2,0,P|265:220|272:196,1,51.7499986889361
348,133,25616,2,0,L|459:133,1,103.499997377872
498,46,25976,1,0,0:0:0:0:
498,46,26096,6,0,L|431:48,1,51.7499986889361
348,43,26336,2,0,L|281:41,1,51.7499986889361
223,107,26576,2,0,P|214:131|217:156,2,51.7499986889361
314,142,26936,1,0,0:0:0:0:
314,142,27296,6,0,L|321:265,1,103.499997377872
279,334,27656,1,0,0:0:0:0:
279,334,27776,2,0,P|253:353|223:353,1,51.7499986889361
149,304,28016,6,0,B|100:316|100:316|47:299|47:299|101:291,1,155.249996066808
158,215,28496,2,0,B|207:203|207:203|260:220|260:220|206:228,1,155.249996066808
124,129,28976,5,0,0:0:0:0:
124,129,29216,2,0,L|119:55,1,68.9999982519148
216,148,29456,1,0,0:0:0:0:
216,148,29696,2,0,L|211:74,1,68.9999982519148
305,170,29936,5,0,0:0:0:0:
305,170,31616,6,0,L|296:284,1,80.4999979605672
239,328,31856,6,0,P|229:336|173:340,1,57.500000298023
115,275,32096,2,0,P|125:267|181:263,1,57.500000298023
213,171,32336,2,0,L|210:101,1,57.500000298023
125,63,32576,2,0,L|122:120,1,57.500000298023
42,178,32816,6,0,B|23:266|23:266|51:331|51:331|66:260,1,230.000001192092
208,129,33536,1,0,0:0:0:0:
268,206,33656,2,0,P|229:224|200:225,1,57.500000298023
250,278,35216,6,0,B|304:279|304:279|354:258|354:258|442:257,1,160.999995921134
233,166,35696,6,0,P|166:207|172:365,1,230.000001192092
353,367,36416,1,0,0:0:0:0:
353,367,36656,2,0,L|356:296,1,57.500000298023
410,227,36896,2,0,L|407:156,1,57.500000298023
359,83,37136,1,0,0:0:0:0:
359,83,37616,6,0,P|319:91|266:76,1,80.4999979605672
162,13,38096,1,0,0:0:0:0:
162,13,38336,1,0,0:0:0:0:
113,140,38576,2,0,L|126:237,1,80.4999979605672
252,266,39056,2,0,L|262:186,1,80.4999979605672
332,303,39536,6,0,P|265:353|186:325,1,160.999995921134
98,237,40256,1,0,0:0:0:0:
98,237,40496,2,0,L|131:157,1,80.4999979605672
247,92,40976,2,0,L|165:57,1,80.4999979605672
223,187,41456,6,0,P|281:185|344:94,1,160.999995921134
442,203,42176,1,0,0:0:0:0:
442,203,42416,2,0,L|449:292,1,80.4999979605672
341,368,42896,2,0,L|334:287,1,80.4999979605672
327,151,43376,5,0,0:0:0:0:
179,86,43856,1,0,0:0:0:0:
54,187,44336,1,0,0:0:0:0:
112,336,44816,1,0,0:0:0:0:
112,336,45296,6,0,L|189:328,1,57.500000298023
257,288,45536,2,0,L|312:303,1,57.500000298023
404,338,45776,1,0,0:0:0:0:
404,338,45896,2,0,P|408:290|397:266,1,57.500000298023
338,210,46136,6,0,P|327:155|352:85,1,115.000000596046
409,26,46496,2,0,P|387:5|350:0,1,57.500000298023
273,42,46736,2,0,P|252:62|225:69,1,57.500000298023
136,27,46976,2,0,P|124:60|131:93,1,57.500000298023
187,159,47216,6,0,B|187:204|187:204|170:240|170:240|170:279,1,115.000000596046
119,354,47576,1,0,0:0:0:0:
69,269,47696,2,0,L|68:205,2,57.500000298023
119,354,48056,6,0,P|185:369|245:331,1,115.000000596046
307,295,48416,1,0,0:0:0:0:
225,117,48656,2,0,P|159:102|99:140,1,115.000000596046
173,201,49016,2,0,L|172:270,1,57.500000298023
173,201,50816,6,0,L|172:319,1,115.000000596046
172,315,52496,2,0,L|312:315,1,115.000000596046
483,313,52976,1,0,0:0:0:0:
483,313,53936,6,0,L|291:314,2,172.500000894069
306,228,54896,6,0,L|179:229,1,115.000000596046
111,171,55256,2,0,P|90:223|104:278,1,115.000000596046
193,319,55616,2,0,L|320:320,1,115.000000596046
394,368,55976,2,0,P|408:313|387:260,1,115.000000596046
297,220,56336,5,0,0:0:0:0:
297,220,56576,1,0,0:0:0:0:
297,220,56816,2,0,P|289:163|318:100,1,115.000000596046
361,26,57176,2,0,L|231:39,1,115.000000596046
152,9,57536,2,0,P|150:57|200:124,1,115.000000596046
259,176,57896,2,0,B|237:197|237:197|136:197,1,115.000000596046
69,142,58256,5,0,0:0:0:0:
69,142,58376,1,0,0:0:0:0:
357,91,58736,1,0,0:0:0:0:
357,91,60416,1,0,0:0:0:0:
357,91,60656,6,0,L|286:85,1,68.9999982519148
196,38,60896,2,0,L|127:43,1,68.9999982519148
