osu file format v14

[General]
AudioFilename: audio.mp3
AudioLeadIn: 0
PreviewTime: 86213
Countdown: 0
SampleSet: Soft
StackLeniency: 0.7
Mode: 3
LetterboxInBreaks: 0
SpecialStyle: 0
WidescreenStoryboard: 0

[Editor]
DistanceSpacing: 0.8
BeatDivisor: 4
GridSize: 16
TimelineZoom: 2.399999

[Metadata]
Title:Bikkurisasetara Okoru yo!
TitleUnicode:びっくりさせたらおこるよ!
Artist:Camellia feat. Nanahira
ArtistUnicode:かめりあ feat. ななひら
Creator:Rhezie
Version:03:00 AM
Source:
Tags:featured artist fa kamelcamellia cametek alternative rock pop jpop j-pop Denpa Japanese Versus! Basasu! ばーさす! Confetto stop jumpscare or i'll get mad at you
BeatmapID:3577055
BeatmapSetID:1748739

[Difficulty]
HPDrainRate:8.8
CircleSize:4
OverallDifficulty:8.4
ApproachRate:5
SliderMultiplier:1.4
SliderTickRate:1

[Events]
//Background and Video events
0,0,"BG.jpeg",0,0
//Break Periods
//Storyboard Layer 0 (Background)
//Storyboard Layer 1 (Fail)
//Storyboard Layer 2 (Pass)
//Storyboard Layer 3 (Foreground)
//Storyboard Layer 4 (Overlay)
//Storyboard Sound Samples

[TimingPoints]
29004,279.06976744186,4,2,1,70,1,0
88027,-100,4,2,1,70,0,1
113841,-100,4,2,1,70,0,0
113980,-100,4,2,1,30,0,0
123329,-100,4,2,1,70,0,0
192957,-100,4,2,1,70,0,1
218213,-100,4,2,1,70,0,0
232166,-100,4,2,1,70,0,1
253934,-100,4,2,1,70,0,0

[HitObjects]
192,192,29004,128,0,30120:0:0:0:0:
320,192,30120,128,0,30678:0:0:0:0:
64,192,30399,128,0,30957:0:0:0:0:
448,192,30678,128,0,30957:0:0:0:0:
192,192,30957,1,0,0:0:0:0:
320,192,30957,1,0,0:0:0:0:
448,192,31097,1,0,0:0:0:0:
64,192,31236,1,2,0:0:0:0:
320,192,31236,1,4,0:0:0:0:
448,192,31236,128,0,31376:0:0:0:0:
192,192,31376,1,0,0:0:0:0:
320,192,31445,1,0,0:0:0:0:
64,192,31515,128,2,31655:0:0:0:0:
192,192,31515,1,8,0:0:0:0:
448,192,31515,1,0,0:0:0:0:
320,192,31655,1,0,0:0:0:0:
64,192,31794,1,2,0:0:0:0:
320,192,31794,128,0,31934:0:0:0:0:
192,192,31934,1,0,0:0:0:0:
64,192,32073,1,2,0:0:0:0:
320,192,32073,1,8,0:0:0:0:
448,192,32073,128,0,32213:0:0:0:0:
192,192,32213,1,0,0:0:0:0:
64,192,32352,1,2,0:0:0:0:
320,192,32352,1,0,0:0:0:0:
64,192,32492,1,0,0:0:0:0:
192,192,32631,1,2,0:0:0:0:
320,192,32631,1,8,0:0:0:0:
448,192,32631,1,0,0:0:0:0:
448,192,32771,128,0,33050:0:0:0:0:
64,192,32910,1,2,0:0:0:0:
192,192,32910,1,0,0:0:0:0:
320,192,33050,1,0,0:0:0:0:
64,192,33190,1,2,0:0:0:0:
192,192,33190,1,8,0:0:0:0:
448,192,33190,1,0,0:0:0:0:
192,192,33329,1,2,0:0:0:0:
320,192,33329,1,0,0:0:0:0:
320,192,33469,1,2,0:0:0:0:
448,192,33469,1,0,0:0:0:0:
192,192,33608,1,0,0:0:0:0:
448,192,33678,1,0,0:0:0:0:
64,192,33748,1,2,0:0:0:0:
192,192,33748,1,8,0:0:0:0:
320,192,33748,1,0,0:0:0:0:
448,192,33887,1,0,0:0:0:0:
64,192,34027,1,2,0:0:0:0:
448,192,34027,128,0,34166:0:0:0:0:
64,192,34166,1,0,0:0:0:0:
192,192,34306,128,2,34445:0:0:0:0:
320,192,34306,1,8,0:0:0:0:
448,192,34306,1,0,0:0:0:0:
320,192,34445,1,0,0:0:0:0:
64,192,34585,1,2,0:0:0:0:
448,192,34585,1,0,0:0:0:0:
64,192,34724,128,0,34864:0:0:0:0:
192,192,34864,1,2,0:0:0:0:
320,192,34864,1,8,0:0:0:0:
448,192,34864,1,0,0:0:0:0:
64,192,35004,1,0,0:0:0:0:
320,192,35143,128,2,35352:0:0:0:0:
448,192,35143,128,0,35352:0:0:0:0:
192,192,35352,1,2,0:0:0:0:
64,192,35422,128,2,35631:0:0:0:0:
320,192,35422,1,8,0:0:0:0:
448,192,35422,128,0,35631:0:0:0:0:
192,192,35562,1,2,0:0:0:0:
64,192,35701,1,2,0:0:0:0:
192,192,35701,128,0,35841:0:0:0:0:
448,192,35701,1,0,0:0:0:0:
320,192,35841,1,0,0:0:0:0:
64,192,35910,1,0,0:0:0:0:
192,192,35980,1,2,0:0:0:0:
320,192,35980,1,8,0:0:0:0:
448,192,35980,128,0,36120:0:0:0:0:
64,192,36120,1,0,0:0:0:0:
64,192,36259,128,2,36399:0:0:0:0:
448,192,36259,1,0,0:0:0:0:
320,192,36399,1,0,0:0:0:0:
64,192,36538,1,2,0:0:0:0:
192,192,36538,128,8,36678:0:0:0:0:
448,192,36538,1,0,0:0:0:0:
320,192,36678,1,0,0:0:0:0:
448,192,36817,1,0,0:0:0:0:
64,192,36817,1,2,0:0:0:0:
448,192,36957,1,0,0:0:0:0:
64,192,37097,1,2,0:0:0:0:
192,192,37097,1,8,0:0:0:0:
320,192,37097,1,0,0:0:0:0:
192,192,37236,128,0,37515:0:0:0:0:
320,192,37376,1,2,0:0:0:0:
448,192,37376,1,0,0:0:0:0:
64,192,37515,1,0,0:0:0:0:
192,192,37655,1,2,0:0:0:0:
320,192,37655,1,8,0:0:0:0:
448,192,37655,1,0,0:0:0:0:
64,192,37794,1,2,0:0:0:0:
320,192,37794,1,0,0:0:0:0:
64,192,37934,1,2,0:0:0:0:
192,192,37934,1,0,0:0:0:0:
448,192,38073,1,0,0:0:0:0:
64,192,38143,1,0,0:0:0:0:
192,192,38213,1,2,0:0:0:0:
320,192,38213,1,8,0:0:0:0:
448,192,38213,128,0,38283:0:0:0:0:
64,192,38352,128,0,38422:0:0:0:0:
64,192,38492,1,2,0:0:0:0:
320,192,38492,1,0,0:0:0:0:
448,192,38631,1,0,0:0:0:0:
192,192,38771,1,2,0:0:0:0:
320,192,38771,1,8,0:0:0:0:
448,192,38771,128,0,38841:0:0:0:0:
64,192,38910,128,2,38980:0:0:0:0:
320,192,38980,1,2,0:0:0:0:
448,192,38980,1,0,0:0:0:0:
64,192,39050,128,2,39329:0:0:0:0:
192,192,39050,128,4,39329:0:0:0:0:
448,192,39190,1,0,0:0:0:0:
320,192,39259,1,0,0:0:0:0:
448,192,39329,1,0,0:0:0:0:
320,192,39469,1,0,0:0:0:0:
64,192,39608,128,2,39748:0:0:0:0:
320,192,39608,1,0,0:0:0:0:
448,192,39608,128,0,39748:0:0:0:0:
192,192,39748,1,0,0:0:0:0:
320,192,39817,1,0,0:0:0:0:
64,192,39887,128,2,39957:0:0:0:0:
192,192,39887,128,0,39957:0:0:0:0:
448,192,39957,1,0,0:0:0:0:
192,192,40027,128,0,40097:0:0:0:0:
64,192,40027,128,0,40097:0:0:0:0:
448,192,40097,1,0,0:0:0:0:
64,192,40166,128,2,40306:0:0:0:0:
192,192,40166,1,4,0:0:0:0:
320,192,40166,1,0,0:0:0:0:
448,192,40306,1,0,0:0:0:0:
192,192,40376,1,0,0:0:0:0:
64,192,40445,1,2,0:0:0:0:
320,192,40445,128,8,40585:0:0:0:0:
448,192,40445,1,0,0:0:0:0:
192,192,40585,1,0,0:0:0:0:
192,192,40724,128,2,40864:0:0:0:0:
320,192,40724,1,0,0:0:0:0:
448,192,40864,1,0,0:0:0:0:
64,192,41004,128,2,41143:0:0:0:0:
192,192,41004,1,8,0:0:0:0:
320,192,41004,1,0,0:0:0:0:
448,192,41143,1,0,0:0:0:0:
320,192,41283,1,0,0:0:0:0:
192,192,41283,1,2,0:0:0:0:
320,192,41422,1,0,0:0:0:0:
64,192,41562,1,2,0:0:0:0:
192,192,41562,1,8,0:0:0:0:
448,192,41562,1,0,0:0:0:0:
64,192,41701,128,0,41980:0:0:0:0:
320,192,41841,1,2,0:0:0:0:
448,192,41841,1,0,0:0:0:0:
192,192,41980,1,0,0:0:0:0:
64,192,42120,1,2,0:0:0:0:
320,192,42120,1,8,0:0:0:0:
448,192,42120,1,0,0:0:0:0:
192,192,42259,1,2,0:0:0:0:
448,192,42259,1,0,0:0:0:0:
64,192,42399,1,2,0:0:0:0:
192,192,42399,1,0,0:0:0:0:
448,192,42538,1,0,0:0:0:0:
64,192,42608,1,0,0:0:0:0:
192,192,42678,1,2,0:0:0:0:
320,192,42678,1,8,0:0:0:0:
448,192,42678,1,0,0:0:0:0:
64,192,42817,1,0,0:0:0:0:
64,192,42957,128,2,43097:0:0:0:0:
320,192,42957,1,0,0:0:0:0:
320,192,43097,1,0,0:0:0:0:
64,192,43236,1,2,0:0:0:0:
192,192,43236,1,8,0:0:0:0:
448,192,43236,128,0,43376:0:0:0:0:
192,192,43376,1,0,0:0:0:0:
64,192,43515,128,2,43655:0:0:0:0:
320,192,43515,1,0,0:0:0:0:
320,192,43655,128,0,43794:0:0:0:0:
64,192,43794,1,2,0:0:0:0:
192,192,43794,1,8,0:0:0:0:
448,192,43794,1,0,0:0:0:0:
320,192,43934,1,0,0:0:0:0:
64,192,44073,128,2,44283:0:0:0:0:
192,192,44073,128,0,44283:0:0:0:0:
448,192,44283,1,2,0:0:0:0:
64,192,44352,128,2,44562:0:0:0:0:
192,192,44352,1,8,0:0:0:0:
320,192,44352,128,0,44562:0:0:0:0:
448,192,44492,1,2,0:0:0:0:
64,192,44631,1,2,0:0:0:0:
320,192,44631,1,0,0:0:0:0:
448,192,44631,128,0,44771:0:0:0:0:
192,192,44771,1,0,0:0:0:0:
320,192,44841,1,0,0:0:0:0:
64,192,44910,128,2,45050:0:0:0:0:
192,192,44910,1,8,0:0:0:0:
448,192,44910,1,0,0:0:0:0:
320,192,45050,1,0,0:0:0:0:
64,192,45190,1,2,0:0:0:0:
320,192,45190,128,0,45329:0:0:0:0:
192,192,45329,1,0,0:0:0:0:
64,192,45469,1,2,0:0:0:0:
320,192,45469,1,8,0:0:0:0:
448,192,45469,128,0,45608:0:0:0:0:
192,192,45608,1,0,0:0:0:0:
64,192,45748,1,2,0:0:0:0:
320,192,45748,1,0,0:0:0:0:
64,192,45887,1,0,0:0:0:0:
192,192,46027,1,2,0:0:0:0:
320,192,46027,1,8,0:0:0:0:
448,192,46027,1,0,0:0:0:0:
448,192,46166,128,0,46445:0:0:0:0:
64,192,46306,1,2,0:0:0:0:
192,192,46306,1,0,0:0:0:0:
320,192,46445,1,0,0:0:0:0:
192,192,46515,1,0,0:0:0:0:
64,192,46585,1,2,0:0:0:0:
320,192,46585,1,8,0:0:0:0:
448,192,46585,1,0,0:0:0:0:
192,192,46655,1,0,0:0:0:0:
64,192,46724,1,2,0:0:0:0:
448,192,46724,1,0,0:0:0:0:
320,192,46794,1,0,0:0:0:0:
64,192,46864,128,2,47004:0:0:0:0:
192,192,46864,128,4,47004:0:0:0:0:
448,192,46864,128,0,47143:0:0:0:0:
320,192,47004,1,0,0:0:0:0:
192,192,47143,128,0,47213:0:0:0:0:
192,192,47283,128,0,47352:0:0:0:0:
64,192,47422,128,2,47701:0:0:0:0:
320,192,47422,128,4,47562:0:0:0:0:
448,192,47422,128,0,47562:0:0:0:0:
192,192,47562,1,0,0:0:0:0:
320,192,47701,128,0,47771:0:0:0:0:
320,192,47841,128,0,47910:0:0:0:0:
64,192,47980,128,2,48120:0:0:0:0:
192,192,47980,128,0,48120:0:0:0:0:
448,192,47980,128,4,48120:0:0:0:0:
320,192,48120,1,0,0:0:0:0:
64,192,48259,1,2,0:0:0:0:
448,192,48259,128,4,48538:0:0:0:0:
320,192,48259,128,0,48817:0:0:0:0:
64,192,48538,128,2,48817:0:0:0:0:
192,192,48538,128,4,48817:0:0:0:0:
448,192,48817,1,0,0:0:0:0:
64,192,48887,1,0,0:0:0:0:
320,192,48957,1,0,0:0:0:0:
192,192,49027,1,0,0:0:0:0:
64,192,49097,1,2,0:0:0:0:
448,192,49097,1,4,0:0:0:0:
320,192,49097,1,0,0:0:0:0:
192,192,49236,1,0,0:0:0:0:
64,192,49376,1,2,0:0:0:0:
192,192,49376,1,8,0:0:0:0:
448,192,49376,1,0,0:0:0:0:
320,192,49515,1,0,0:0:0:0:
448,192,49515,1,0,0:0:0:0:
64,192,49655,1,2,0:0:0:0:
192,192,49655,128,0,49934:0:0:0:0:
320,192,49794,1,0,0:0:0:0:
64,192,49934,1,2,0:0:0:0:
320,192,49934,1,8,0:0:0:0:
448,192,49934,1,0,0:0:0:0:
192,192,50073,1,0,0:0:0:0:
448,192,50073,1,0,0:0:0:0:
64,192,50213,1,2,0:0:0:0:
320,192,50213,128,0,50352:0:0:0:0:
64,192,50352,1,0,0:0:0:0:
192,192,50492,128,2,50631:0:0:0:0:
320,192,50492,1,8,0:0:0:0:
448,192,50492,1,0,0:0:0:0:
448,192,50631,1,0,0:0:0:0:
64,192,50771,1,2,0:0:0:0:
320,192,50771,1,0,0:0:0:0:
192,192,50910,1,0,0:0:0:0:
448,192,50910,1,0,0:0:0:0:
64,192,51050,1,2,0:0:0:0:
320,192,51050,1,8,0:0:0:0:
448,192,51050,128,0,51329:0:0:0:0:
64,192,51190,1,2,0:0:0:0:
192,192,51190,1,0,0:0:0:0:
64,192,51329,1,2,0:0:0:0:
192,192,51329,1,0,0:0:0:0:
320,192,51469,1,0,0:0:0:0:
64,192,51608,1,2,0:0:0:0:
320,192,51608,1,8,0:0:0:0:
448,192,51608,1,0,0:0:0:0:
192,192,51748,1,0,0:0:0:0:
448,192,51748,1,0,0:0:0:0:
192,192,51887,1,2,0:0:0:0:
320,192,51887,1,0,0:0:0:0:
64,192,52027,1,0,0:0:0:0:
320,192,52027,1,0,0:0:0:0:
64,192,52166,1,2,0:0:0:0:
192,192,52166,1,8,0:0:0:0:
448,192,52166,1,0,0:0:0:0:
448,192,52306,1,0,0:0:0:0:
320,192,52306,1,0,0:0:0:0:
64,192,52445,1,2,0:0:0:0:
320,192,52445,128,0,52585:0:0:0:0:
192,192,52585,1,0,0:0:0:0:
64,192,52724,1,2,0:0:0:0:
192,192,52724,128,8,52864:0:0:0:0:
320,192,52724,1,0,0:0:0:0:
448,192,52864,1,0,0:0:0:0:
192,192,53003,1,2,0:0:0:0:
448,192,53003,128,0,53143:0:0:0:0:
64,192,53143,1,0,0:0:0:0:
320,192,53213,1,2,0:0:0:0:
64,192,53283,128,2,53562:0:0:0:0:
192,192,53283,1,8,0:0:0:0:
448,192,53283,1,0,0:0:0:0:
320,192,53422,1,2,0:0:0:0:
448,192,53422,1,0,0:0:0:0:
320,192,53562,1,2,0:0:0:0:
448,192,53562,1,0,0:0:0:0:
192,192,53701,1,0,0:0:0:0:
64,192,53841,1,2,0:0:0:0:
320,192,53841,1,8,0:0:0:0:
448,192,53841,1,0,0:0:0:0:
192,192,53980,1,0,0:0:0:0:
448,192,53980,1,0,0:0:0:0:
192,192,54120,1,2,0:0:0:0:
320,192,54120,1,0,0:0:0:0:
64,192,54259,1,0,0:0:0:0:
320,192,54259,1,0,0:0:0:0:
64,192,54399,1,2,0:0:0:0:
192,192,54399,1,8,0:0:0:0:
448,192,54399,1,0,0:0:0:0:
192,192,54538,1,0,0:0:0:0:
320,192,54538,1,0,0:0:0:0:
64,192,54678,128,2,54817:0:0:0:0:
320,192,54678,1,0,0:0:0:0:
448,192,54817,1,0,0:0:0:0:
64,192,54957,1,2,0:0:0:0:
320,192,54957,1,8,0:0:0:0:
448,192,54957,128,0,55097:0:0:0:0:
192,192,55097,1,0,0:0:0:0:
192,192,55236,128,2,55376:0:0:0:0:
448,192,55236,1,0,0:0:0:0:
320,192,55376,1,0,0:0:0:0:
192,192,55515,1,2,0:0:0:0:
320,192,55515,128,8,55655:0:0:0:0:
448,192,55515,1,0,0:0:0:0:
64,192,55655,1,2,0:0:0:0:
192,192,55655,1,0,0:0:0:0:
64,192,55794,128,2,55934:0:0:0:0:
192,192,55794,1,0,0:0:0:0:
448,192,55934,1,0,0:0:0:0:
64,192,56073,1,2,0:0:0:0:
320,192,56073,1,8,0:0:0:0:
448,192,56073,128,0,56213:0:0:0:0:
192,192,56213,1,0,0:0:0:0:
320,192,56283,1,0,0:0:0:0:
192,192,56352,1,2,0:0:0:0:
448,192,56352,1,0,0:0:0:0:
320,192,56492,1,0,0:0:0:0:
64,192,56562,1,2,0:0:0:0:
192,192,56631,1,0,0:0:0:0:
320,192,56631,1,2,0:0:0:0:
448,192,56631,1,8,0:0:0:0:
64,192,56771,1,2,0:0:0:0:
448,192,56771,1,0,0:0:0:0:
64,192,56910,128,2,57190:0:0:0:0:
192,192,56910,128,4,57190:0:0:0:0:
320,192,56910,128,0,57469:0:0:0:0:
448,192,57190,128,0,57259:0:0:0:0:
64,192,57259,128,0,57329:0:0:0:0:
448,192,57329,128,0,57399:0:0:0:0:
64,192,57399,128,0,57469:0:0:0:0:
192,192,57469,128,0,57608:0:0:0:0:
320,192,57608,128,2,57678:0:0:0:0:
448,192,57608,128,0,57678:0:0:0:0:
64,192,57678,1,0,0:0:0:0:
192,192,57748,128,2,57817:0:0:0:0:
320,192,57748,128,0,57817:0:0:0:0:
64,192,57887,128,2,57957:0:0:0:0:
192,192,57887,128,0,57957:0:0:0:0:
320,192,58027,128,0,58166:0:0:0:0:
64,192,58306,128,4,58445:0:0:0:0:
320,192,58306,128,2,58445:0:0:0:0:
448,192,58306,128,8,58445:0:0:0:0:
192,192,58445,1,0,0:0:0:0:
64,192,58585,1,2,0:0:0:0:
320,192,58585,1,0,0:0:0:0:
192,192,58724,1,0,0:0:0:0:
320,192,58724,1,0,0:0:0:0:
64,192,58864,1,2,0:0:0:0:
192,192,58864,1,8,0:0:0:0:
448,192,58864,1,0,0:0:0:0:
320,192,59003,1,0,0:0:0:0:
448,192,59003,1,0,0:0:0:0:
192,192,59143,1,2,0:0:0:0:
320,192,59143,128,0,59283:0:0:0:0:
64,192,59283,1,0,0:0:0:0:
64,192,59422,128,2,59562:0:0:0:0:
192,192,59422,1,8,0:0:0:0:
320,192,59422,1,0,0:0:0:0:
448,192,59562,1,0,0:0:0:0:
64,192,59701,1,2,0:0:0:0:
448,192,59701,128,0,59841:0:0:0:0:
192,192,59841,1,0,0:0:0:0:
64,192,59980,1,2,0:0:0:0:
192,192,59980,128,8,60259:0:0:0:0:
448,192,59980,1,0,0:0:0:0:
320,192,60120,1,2,0:0:0:0:
448,192,60120,1,0,0:0:0:0:
320,192,60259,1,2,0:0:0:0:
448,192,60259,1,0,0:0:0:0:
64,192,60399,1,0,0:0:0:0:
192,192,60538,1,2,0:0:0:0:
64,192,60538,1,8,0:0:0:0:
448,192,60538,128,0,60817:0:0:0:0:
320,192,60678,1,0,0:0:0:0:
192,192,60817,1,2,0:0:0:0:
320,192,60817,1,0,0:0:0:0:
64,192,60957,1,0,0:0:0:0:
448,192,60957,1,0,0:0:0:0:
64,192,61097,1,2,0:0:0:0:
192,192,61097,1,8,0:0:0:0:
320,192,61097,1,0,0:0:0:0:
320,192,61236,1,0,0:0:0:0:
448,192,61236,1,0,0:0:0:0:
64,192,61376,128,2,61515:0:0:0:0:
192,192,61376,1,0,0:0:0:0:
448,192,61515,1,0,0:0:0:0:
64,192,61655,1,2,0:0:0:0:
320,192,61655,1,8,0:0:0:0:
448,192,61655,128,0,61794:0:0:0:0:
192,192,61794,1,0,0:0:0:0:
192,192,61934,128,2,62073:0:0:0:0:
448,192,61934,1,0,0:0:0:0:
320,192,62073,1,0,0:0:0:0:
64,192,62143,1,2,0:0:0:0:
192,192,62213,1,2,0:0:0:0:
320,192,62213,128,8,62492:0:0:0:0:
448,192,62213,1,0,0:0:0:0:
64,192,62352,1,2,0:0:0:0:
192,192,62352,1,0,0:0:0:0:
64,192,62492,1,2,0:0:0:0:
192,192,62492,1,0,0:0:0:0:
448,192,62631,1,0,0:0:0:0:
64,192,62771,1,2,0:0:0:0:
192,192,62771,1,8,0:0:0:0:
320,192,62771,1,0,0:0:0:0:
448,192,62910,1,0,0:0:0:0:
64,192,62910,1,0,0:0:0:0:
192,192,63050,1,2,0:0:0:0:
448,192,63050,1,0,0:0:0:0:
192,192,63190,1,0,0:0:0:0:
320,192,63190,1,0,0:0:0:0:
64,192,63329,1,2,0:0:0:0:
320,192,63329,1,8,0:0:0:0:
448,192,63329,1,0,0:0:0:0:
192,192,63469,1,0,0:0:0:0:
64,192,63469,1,0,0:0:0:0:
320,192,63608,1,2,0:0:0:0:
192,192,63608,128,0,63748:0:0:0:0:
448,192,63748,1,0,0:0:0:0:
448,192,63887,128,2,64027:0:0:0:0:
320,192,63887,1,8,0:0:0:0:
192,192,63887,1,0,0:0:0:0:
64,192,64027,1,0,0:0:0:0:
448,192,64166,1,2,0:0:0:0:
64,192,64166,128,0,64306:0:0:0:0:
320,192,64306,1,0,0:0:0:0:
448,192,64445,1,2,0:0:0:0:
320,192,64445,128,8,64585:0:0:0:0:
192,192,64445,1,0,0:0:0:0:
192,192,64585,1,2,0:0:0:0:
64,192,64585,1,0,0:0:0:0:
448,192,64655,1,2,0:0:0:0:
320,192,64655,1,0,0:0:0:0:
192,192,64724,128,2,64794:0:0:0:0:
64,192,64724,128,0,64794:0:0:0:0:
64,192,64864,128,2,65003:0:0:0:0:
192,192,64864,128,0,65003:0:0:0:0:
448,192,65003,1,0,0:0:0:0:
448,192,65143,128,2,65213:0:0:0:0:
320,192,65143,128,0,65213:0:0:0:0:
320,192,65283,128,2,65422:0:0:0:0:
448,192,65283,128,0,65422:0:0:0:0:
64,192,65422,1,0,0:0:0:0:
192,192,65562,128,2,65631:0:0:0:0:
64,192,65562,128,0,65631:0:0:0:0:
64,192,65701,128,2,65841:0:0:0:0:
192,192,65701,128,0,65841:0:0:0:0:
448,192,65841,1,0,0:0:0:0:
320,192,65980,1,0,0:0:0:0:
64,192,66120,128,2,66678:0:0:0:0:
192,192,66120,128,4,66538:0:0:0:0:
448,192,66120,128,0,66678:0:0:0:0:
320,192,66538,1,0,0:0:0:0:
192,192,66608,1,0,0:0:0:0:
320,192,66678,1,0,0:0:0:0:
192,192,66748,1,0,0:0:0:0:
64,192,66817,1,0,0:0:0:0:
448,192,66817,1,0,0:0:0:0:
448,192,66957,1,2,0:0:0:0:
320,192,66957,1,4,0:0:0:0:
192,192,66957,128,0,67236:0:0:0:0:
64,192,67097,1,0,0:0:0:0:
448,192,67166,1,0,0:0:0:0:
320,192,67236,1,2,0:0:0:0:
64,192,67236,1,8,0:0:0:0:
448,192,67376,1,0,0:0:0:0:
448,192,67515,128,2,67655:0:0:0:0:
64,192,67515,1,0,0:0:0:0:
192,192,67585,1,0,0:0:0:0:
320,192,67655,1,0,0:0:0:0:
192,192,67724,1,0,0:0:0:0:
448,192,67794,1,8,0:0:0:0:
320,192,67794,128,2,67934:0:0:0:0:
64,192,67794,1,0,0:0:0:0:
192,192,67934,1,0,0:0:0:0:
448,192,68003,1,0,0:0:0:0:
320,192,68073,1,2,0:0:0:0:
192,192,68073,128,0,68352:0:0:0:0:
64,192,68213,1,0,0:0:0:0:
448,192,68283,1,0,0:0:0:0:
320,192,68352,1,2,0:0:0:0:
64,192,68352,1,8,0:0:0:0:
448,192,68492,1,0,0:0:0:0:
448,192,68631,128,2,68771:0:0:0:0:
64,192,68631,1,0,0:0:0:0:
320,192,68701,1,0,0:0:0:0:
192,192,68771,1,0,0:0:0:0:
64,192,68841,1,0,0:0:0:0:
448,192,68910,1,2,0:0:0:0:
320,192,68910,128,8,69050:0:0:0:0:
192,192,68980,1,0,0:0:0:0:
64,192,69050,1,0,0:0:0:0:
448,192,69120,1,0,0:0:0:0:
320,192,69190,1,2,0:0:0:0:
192,192,69190,1,4,0:0:0:0:
64,192,69190,1,0,0:0:0:0:
192,192,69329,1,0,0:0:0:0:
192,192,69469,1,0,0:0:0:0:
448,192,69608,1,2,0:0:0:0:
320,192,69608,1,0,0:0:0:0:
192,192,69748,1,2,0:0:0:0:
64,192,69748,1,0,0:0:0:0:
320,192,69887,1,0,0:0:0:0:
320,192,70027,1,8,0:0:0:0:
64,192,70027,1,0,0:0:0:0:
448,192,70166,1,0,0:0:0:0:
192,192,70306,1,2,0:0:0:0:
64,192,70306,1,0,0:0:0:0:
192,192,70445,1,0,0:0:0:0:
192,192,70585,1,0,0:0:0:0:
448,192,70724,1,2,0:0:0:0:
320,192,70724,1,0,0:0:0:0:
192,192,70864,1,2,0:0:0:0:
64,192,70864,1,0,0:0:0:0:
320,192,71003,1,0,0:0:0:0:
320,192,71143,1,8,0:0:0:0:
64,192,71143,1,0,0:0:0:0:
448,192,71422,1,2,0:0:0:0:
320,192,71422,1,0,0:0:0:0:
448,192,71562,1,0,0:0:0:0:
448,192,71701,1,0,0:0:0:0:
192,192,71841,1,2,0:0:0:0:
64,192,71841,1,0,0:0:0:0:
448,192,71980,1,2,0:0:0:0:
320,192,71980,1,0,0:0:0:0:
64,192,72120,1,0,0:0:0:0:
320,192,72259,1,8,0:0:0:0:
64,192,72259,1,0,0:0:0:0:
192,192,72399,1,0,0:0:0:0:
448,192,72538,1,2,0:0:0:0:
320,192,72538,1,0,0:0:0:0:
448,192,72678,1,0,0:0:0:0:
448,192,72817,1,0,0:0:0:0:
192,192,72957,1,2,0:0:0:0:
64,192,72957,1,0,0:0:0:0:
448,192,73097,1,2,0:0:0:0:
320,192,73097,1,0,0:0:0:0:
64,192,73236,128,0,73306:0:0:0:0:
320,192,73376,1,8,0:0:0:0:
448,192,73376,128,0,73445:0:0:0:0:
192,192,73655,1,2,0:0:0:0:
64,192,73655,1,0,0:0:0:0:
64,192,73794,1,0,0:0:0:0:
64,192,73934,1,0,0:0:0:0:
448,192,74073,1,2,0:0:0:0:
320,192,74073,1,0,0:0:0:0:
192,192,74213,1,2,0:0:0:0:
64,192,74213,1,0,0:0:0:0:
320,192,74352,1,0,0:0:0:0:
320,192,74492,1,8,0:0:0:0:
64,192,74492,1,0,0:0:0:0:
448,192,74631,1,0,0:0:0:0:
192,192,74771,1,2,0:0:0:0:
64,192,74771,1,0,0:0:0:0:
64,192,74910,1,0,0:0:0:0:
64,192,75050,1,0,0:0:0:0:
448,192,75190,1,2,0:0:0:0:
320,192,75190,1,0,0:0:0:0:
192,192,75329,1,2,0:0:0:0:
64,192,75329,1,0,0:0:0:0:
320,192,75469,1,0,0:0:0:0:
320,192,75608,1,8,0:0:0:0:
64,192,75608,1,0,0:0:0:0:
64,192,75887,128,2,75957:0:0:0:0:
192,192,75887,1,0,0:0:0:0:
64,192,76027,128,0,76097:0:0:0:0:
320,192,76166,128,0,76236:0:0:0:0:
320,192,76306,128,2,76376:0:0:0:0:
448,192,76306,1,0,0:0:0:0:
64,192,76445,128,2,76515:0:0:0:0:
192,192,76445,1,0,0:0:0:0:
448,192,76585,128,0,76655:0:0:0:0:
192,192,76724,128,8,76794:0:0:0:0:
448,192,76724,1,0,0:0:0:0:
64,192,76864,128,0,76934:0:0:0:0:
320,192,77003,128,2,77073:0:0:0:0:
448,192,77003,1,0,0:0:0:0:
320,192,77143,128,0,77213:0:0:0:0:
64,192,77283,128,0,77352:0:0:0:0:
64,192,77422,128,2,77492:0:0:0:0:
192,192,77422,1,0,0:0:0:0:
320,192,77562,128,2,77631:0:0:0:0:
448,192,77562,1,0,0:0:0:0:
192,192,77701,128,0,77771:0:0:0:0:
64,192,77841,128,8,77980:0:0:0:0:
320,192,77841,128,0,77980:0:0:0:0:
448,192,77980,128,0,78050:0:0:0:0:
64,192,78120,128,2,78190:0:0:0:0:
192,192,78120,128,0,78190:0:0:0:0:
320,192,78120,128,0,78190:0:0:0:0:
192,192,78259,128,2,78399:0:0:0:0:
320,192,78259,128,0,78399:0:0:0:0:
448,192,78259,128,0,78399:0:0:0:0:
64,192,78399,1,0,0:0:0:0:
64,192,78538,128,2,79236:0:0:0:0:
192,192,78538,128,4,79097:0:0:0:0:
448,192,78538,128,0,79794:0:0:0:0:
320,192,79097,1,0,0:0:0:0:
192,192,79236,1,0,0:0:0:0:
320,192,79236,1,0,0:0:0:0:
64,192,79376,1,0,0:0:0:0:
320,192,79515,1,0,0:0:0:0:
192,192,79655,1,0,0:0:0:0:
320,192,79794,1,0,0:0:0:0:
64,192,79934,128,2,80003:0:0:0:0:
192,192,79934,128,0,80003:0:0:0:0:
448,192,79934,1,0,0:0:0:0:
320,192,80073,128,2,80143:0:0:0:0:
448,192,80073,128,0,80143:0:0:0:0:
192,192,80073,1,0,0:0:0:0:
192,192,80213,128,2,80283:0:0:0:0:
320,192,80213,128,0,80283:0:0:0:0:
64,192,80213,1,0,0:0:0:0:
64,192,80352,128,2,80422:0:0:0:0:
192,192,80352,128,0,80422:0:0:0:0:
448,192,80352,128,0,80422:0:0:0:0:
64,192,80492,128,2,80631:0:0:0:0:
320,192,80492,128,0,80631:0:0:0:0:
448,192,80492,128,0,80631:0:0:0:0:
192,192,80631,1,0,0:0:0:0:
64,192,80771,128,2,81050:0:0:0:0:
192,192,80771,128,4,82027:0:0:0:0:
448,192,80771,128,0,81190:0:0:0:0:
320,192,81050,1,0,0:0:0:0:
64,192,81190,1,0,0:0:0:0:
320,192,81190,1,0,0:0:0:0:
448,192,81329,1,0,0:0:0:0:
64,192,81469,1,0,0:0:0:0:
320,192,81608,1,0,0:0:0:0:
448,192,81748,1,0,0:0:0:0:
64,192,81887,1,0,0:0:0:0:
320,192,82027,1,2,0:0:0:0:
448,192,82027,1,0,0:0:0:0:
64,192,82097,1,0,0:0:0:0:
192,192,82166,1,0,0:0:0:0:
320,192,82236,1,2,0:0:0:0:
448,192,82236,1,0,0:0:0:0:
64,192,82306,1,2,0:0:0:0:
192,192,82306,1,0,0:0:0:0:
320,192,82376,1,0,0:0:0:0:
64,192,82445,1,2,0:0:0:0:
448,192,82445,1,0,0:0:0:0:
192,192,82515,1,2,0:0:0:0:
64,192,82585,1,2,0:0:0:0:
320,192,82585,128,4,82724:0:0:0:0:
448,192,82585,128,0,82724:0:0:0:0:
192,192,82724,1,0,0:0:0:0:
64,192,82864,1,2,0:0:0:0:
192,192,82864,1,8,0:0:0:0:
448,192,82864,1,0,0:0:0:0:
64,192,83003,1,0,0:0:0:0:
320,192,83003,1,0,0:0:0:0:
192,192,83143,1,2,0:0:0:0:
448,192,83143,1,0,0:0:0:0:
192,192,83283,1,0,0:0:0:0:
320,192,83283,1,0,0:0:0:0:
64,192,83422,1,2,0:0:0:0:
320,192,83422,1,8,0:0:0:0:
448,192,83422,1,0,0:0:0:0:
448,192,83562,128,0,83701:0:0:0:0:
64,192,83701,128,2,83841:0:0:0:0:
192,192,83701,128,0,83841:0:0:0:0:
320,192,83841,1,0,0:0:0:0:
64,192,83980,1,2,0:0:0:0:
320,192,83980,1,8,0:0:0:0:
448,192,83980,1,0,0:0:0:0:
64,192,84120,1,0,0:0:0:0:
192,192,84120,1,0,0:0:0:0:
320,192,84259,1,2,0:0:0:0:
448,192,84259,1,0,0:0:0:0:
320,192,84399,1,0,0:0:0:0:
448,192,84399,1,0,0:0:0:0:
64,192,84538,1,2,0:0:0:0:
192,192,84538,1,8,0:0:0:0:
448,192,84538,1,0,0:0:0:0:
192,192,84678,1,0,0:0:0:0:
64,192,84678,1,0,0:0:0:0:
320,192,84817,128,2,84957:0:0:0:0:
448,192,84817,128,0,84957:0:0:0:0:
64,192,84957,1,2,0:0:0:0:
192,192,84957,1,0,0:0:0:0:
64,192,85097,1,2,0:0:0:0:
320,192,85097,1,8,0:0:0:0:
448,192,85097,1,0,0:0:0:0:
192,192,85236,1,2,0:0:0:0:
320,192,85236,1,0,0:0:0:0:
192,192,85376,1,2,0:0:0:0:
448,192,85376,1,0,0:0:0:0:
64,192,85445,1,2,0:0:0:0:
320,192,85515,1,2,0:0:0:0:
448,192,85515,1,0,0:0:0:0:
192,192,85585,1,2,0:0:0:0:
64,192,85655,1,2,0:0:0:0:
320,192,85655,1,8,0:0:0:0:
448,192,85724,1,2,0:0:0:0:
64,192,85794,1,2,0:0:0:0:
192,192,85794,1,0,0:0:0:0:
320,192,85864,1,2,0:0:0:0:
64,192,85934,128,2,86073:0:0:0:0:
192,192,85934,128,4,86073:0:0:0:0:
448,192,85934,128,0,86771:0:0:0:0:
320,192,86213,128,0,86492:0:0:0:0:
192,192,86492,128,0,86771:0:0:0:0:
64,192,86771,128,2,87050:0:0:0:0:
320,192,86771,128,0,86910:0:0:0:0:
192,192,87050,128,2,87329:0:0:0:0:
320,192,87050,128,4,87399:0:0:0:0:
448,192,87050,128,0,87469:0:0:0:0:
64,192,87329,1,0,0:0:0:0:
64,192,87469,1,0,0:0:0:0:
320,192,87608,1,0,0:0:0:0:
320,192,87748,128,2,87887:0:0:0:0:
448,192,87748,128,0,87887:0:0:0:0:
64,192,88027,128,2,88306:0:0:0:0:
192,192,88027,128,4,88166:0:0:0:0:
448,192,88027,128,0,88166:0:0:0:0:
320,192,88306,1,2,0:0:0:0:
448,192,88306,1,0,0:0:0:0:
64,192,88445,1,2,0:0:0:0:
192,192,88445,1,8,0:0:0:0:
448,192,88445,1,0,0:0:0:0:
192,192,88585,128,0,88724:0:0:0:0:
320,192,88585,1,0,0:0:0:0:
64,192,88724,1,2,0:0:0:0:
448,192,88724,1,0,0:0:0:0:
320,192,88864,1,0,0:0:0:0:
64,192,89003,1,2,0:0:0:0:
192,192,89003,1,8,0:0:0:0:
320,192,89003,1,0,0:0:0:0:
192,192,89143,1,2,0:0:0:0:
448,192,89143,1,0,0:0:0:0:
64,192,89283,1,2,0:0:0:0:
448,192,89283,128,0,89562:0:0:0:0:
192,192,89422,1,0,0:0:0:0:
64,192,89562,128,2,89841:0:0:0:0:
192,192,89562,1,8,0:0:0:0:
320,192,89562,1,0,0:0:0:0:
448,192,89701,1,0,0:0:0:0:
320,192,89841,128,2,90120:0:0:0:0:
448,192,89841,1,0,0:0:0:0:
64,192,89980,1,0,0:0:0:0:
64,192,90120,1,2,0:0:0:0:
192,192,90120,128,8,90399:0:0:0:0:
448,192,90120,1,0,0:0:0:0:
320,192,90259,1,0,0:0:0:0:
64,192,90399,128,2,90678:0:0:0:0:
448,192,90399,128,0,90538:0:0:0:0:
320,192,90538,1,0,0:0:0:0:
192,192,90678,1,2,0:0:0:0:
320,192,90678,128,8,90817:0:0:0:0:
448,192,90817,128,0,91097:0:0:0:0:
320,192,90957,1,2,0:0:0:0:
192,192,90957,128,0,91097:0:0:0:0:
64,192,91097,1,0,0:0:0:0:
448,192,91166,1,2,0:0:0:0:
320,192,91166,1,0,0:0:0:0:
64,192,91236,128,2,91376:0:0:0:0:
192,192,91236,1,8,0:0:0:0:
320,192,91376,1,2,0:0:0:0:
448,192,91376,1,0,0:0:0:0:
64,192,91515,1,2,0:0:0:0:
320,192,91515,128,0,91794:0:0:0:0:
192,192,91655,1,0,0:0:0:0:
64,192,91794,1,2,0:0:0:0:
192,192,91794,128,8,91934:0:0:0:0:
448,192,91794,1,0,0:0:0:0:
320,192,91934,1,0,0:0:0:0:
192,192,92073,1,2,0:0:0:0:
448,192,92073,128,0,92213:0:0:0:0:
64,192,92213,1,0,0:0:0:0:
64,192,92352,1,8,0:0:0:0:
320,192,92352,1,2,0:0:0:0:
448,192,92352,1,0,0:0:0:0:
192,192,92492,1,0,0:0:0:0:
320,192,92492,1,0,0:0:0:0:
64,192,92631,128,2,92701:0:0:0:0:
192,192,92631,128,0,92701:0:0:0:0:
448,192,92631,128,0,92701:0:0:0:0:
64,192,92771,128,2,92910:0:0:0:0:
320,192,92771,128,0,92910:0:0:0:0:
448,192,92771,128,0,92910:0:0:0:0:
192,192,92910,1,0,0:0:0:0:
192,192,93050,128,2,93469:0:0:0:0:
320,192,93050,128,4,93399:0:0:0:0:
448,192,93050,128,0,93399:0:0:0:0:
64,192,93399,1,2,0:0:0:0:
320,192,93469,1,2,0:0:0:0:
448,192,93469,1,0,0:0:0:0:
64,192,93608,1,2,0:0:0:0:
192,192,93608,1,0,0:0:0:0:
448,192,93678,1,2,0:0:0:0:
64,192,93748,1,2,0:0:0:0:
192,192,93748,128,4,93887:0:0:0:0:
320,192,93748,1,0,0:0:0:0:
448,192,93887,1,0,0:0:0:0:
64,192,94027,1,2,0:0:0:0:
320,192,94027,1,8,0:0:0:0:
448,192,94027,128,0,94166:0:0:0:0:
192,192,94166,1,0,0:0:0:0:
64,192,94306,128,2,94445:0:0:0:0:
320,192,94306,1,0,0:0:0:0:
320,192,94445,128,0,94724:0:0:0:0:
64,192,94585,1,2,0:0:0:0:
192,192,94585,1,8,0:0:0:0:
448,192,94585,1,0,0:0:0:0:
192,192,94724,128,0,94864:0:0:0:0:
320,192,94864,1,2,0:0:0:0:
448,192,94864,1,0,0:0:0:0:
64,192,95003,1,2,0:0:0:0:
192,192,95003,1,0,0:0:0:0:
192,192,95143,1,2,0:0:0:0:
320,192,95143,1,0,0:0:0:0:
320,192,95283,128,2,95352:0:0:0:0:
448,192,95283,1,0,0:0:0:0:
64,192,95352,128,0,95422:0:0:0:0:
320,192,95422,128,0,95492:0:0:0:0:
64,192,95492,128,0,95562:0:0:0:0:
448,192,95562,128,0,95631:0:0:0:0:
192,192,95701,128,0,95771:0:0:0:0:
64,192,95701,1,0,0:0:0:0:
192,192,95841,128,0,95910:0:0:0:0:
64,192,95841,1,0,0:0:0:0:
64,192,95980,128,2,96399:0:0:0:0:
192,192,95980,128,4,96329:0:0:0:0:
320,192,95980,128,0,96259:0:0:0:0:
448,192,96259,1,0,0:0:0:0:
448,192,96399,1,0,0:0:0:0:
192,192,96538,1,0,0:0:0:0:
64,192,96678,128,2,96817:0:0:0:0:
192,192,96678,128,0,96817:0:0:0:0:
64,192,96957,128,2,97097:0:0:0:0:
320,192,96957,128,4,97097:0:0:0:0:
448,192,96957,128,0,97236:0:0:0:0:
64,192,97236,1,2,0:0:0:0:
192,192,97236,1,0,0:0:0:0:
64,192,97376,1,2,0:0:0:0:
320,192,97376,1,8,0:0:0:0:
448,192,97376,1,0,0:0:0:0:
192,192,97515,1,0,0:0:0:0:
320,192,97515,128,0,97655:0:0:0:0:
64,192,97655,1,2,0:0:0:0:
448,192,97655,1,0,0:0:0:0:
192,192,97794,1,0,0:0:0:0:
192,192,97934,1,2,0:0:0:0:
320,192,97934,1,8,0:0:0:0:
448,192,97934,1,0,0:0:0:0:
64,192,98073,1,2,0:0:0:0:
320,192,98073,1,0,0:0:0:0:
64,192,98213,128,2,98352:0:0:0:0:
448,192,98213,1,0,0:0:0:0:
320,192,98352,1,0,0:0:0:0:
192,192,98492,1,2,0:0:0:0:
320,192,98492,1,8,0:0:0:0:
448,192,98492,128,0,98771:0:0:0:0:
64,192,98631,1,0,0:0:0:0:
64,192,98771,1,2,0:0:0:0:
192,192,98771,128,0,98910:0:0:0:0:
448,192,98910,1,0,0:0:0:0:
64,192,99050,1,2,0:0:0:0:
320,192,99050,1,8,0:0:0:0:
448,192,99050,1,0,0:0:0:0:
192,192,99190,1,0,0:0:0:0:
320,192,99190,1,0,0:0:0:0:
64,192,99329,128,2,99608:0:0:0:0:
448,192,99329,128,0,99469:0:0:0:0:
320,192,99469,1,0,0:0:0:0:
192,192,99608,1,2,0:0:0:0:
320,192,99608,128,8,99748:0:0:0:0:
448,192,99748,128,0,100027:0:0:0:0:
320,192,99887,1,2,0:0:0:0:
192,192,99887,128,0,100027:0:0:0:0:
64,192,100027,1,0,0:0:0:0:
448,192,100097,1,2,0:0:0:0:
320,192,100097,1,0,0:0:0:0:
64,192,100166,128,2,100306:0:0:0:0:
192,192,100166,1,8,0:0:0:0:
320,192,100306,1,2,0:0:0:0:
448,192,100306,1,0,0:0:0:0:
64,192,100445,1,2,0:0:0:0:
320,192,100445,128,0,100585:0:0:0:0:
192,192,100585,1,0,0:0:0:0:
64,192,100724,1,2,0:0:0:0:
192,192,100724,128,8,100864:0:0:0:0:
320,192,100724,1,0,0:0:0:0:
448,192,100864,1,0,0:0:0:0:
192,192,101003,1,2,0:0:0:0:
448,192,101003,128,0,101143:0:0:0:0:
64,192,101143,1,0,0:0:0:0:
64,192,101283,128,2,101422:0:0:0:0:
192,192,101283,1,8,0:0:0:0:
448,192,101283,1,0,0:0:0:0:
320,192,101422,1,0,0:0:0:0:
64,192,101562,128,2,101631:0:0:0:0:
320,192,101562,128,0,101631:0:0:0:0:
448,192,101562,128,0,101631:0:0:0:0:
64,192,101701,128,2,101841:0:0:0:0:
192,192,101701,128,0,101841:0:0:0:0:
448,192,101701,128,0,101841:0:0:0:0:
320,192,101841,1,0,0:0:0:0:
64,192,101980,128,2,102329:0:0:0:0:
192,192,101980,128,4,102329:0:0:0:0:
320,192,101980,128,0,102399:0:0:0:0:
448,192,102329,1,2,0:0:0:0:
64,192,102399,1,2,0:0:0:0:
192,192,102399,1,0,0:0:0:0:
320,192,102538,1,2,0:0:0:0:
448,192,102538,1,0,0:0:0:0:
192,192,102608,1,2,0:0:0:0:
64,192,102678,1,2,0:0:0:0:
320,192,102678,1,4,0:0:0:0:
448,192,102678,128,0,102957:0:0:0:0:
192,192,102817,1,0,0:0:0:0:
64,192,102957,1,2,0:0:0:0:
192,192,102957,128,8,103097:0:0:0:0:
320,192,102957,1,0,0:0:0:0:
448,192,103097,1,0,0:0:0:0:
192,192,103236,1,2,0:0:0:0:
320,192,103236,1,0,0:0:0:0:
320,192,103376,128,0,103515:0:0:0:0:
64,192,103515,1,2,0:0:0:0:
192,192,103515,1,8,0:0:0:0:
448,192,103515,1,0,0:0:0:0:
64,192,103655,128,0,103934:0:0:0:0:
320,192,103794,1,2,0:0:0:0:
448,192,103794,128,0,103864:0:0:0:0:
448,192,103934,128,0,104003:0:0:0:0:
64,192,104073,1,2,0:0:0:0:
192,192,104073,128,8,104143:0:0:0:0:
320,192,104073,128,0,104213:0:0:0:0:
192,192,104213,128,0,104283:0:0:0:0:
64,192,104352,128,2,104492:0:0:0:0:
320,192,104352,128,0,104422:0:0:0:0:
320,192,104492,128,0,104562:0:0:0:0:
64,192,104631,128,2,104701:0:0:0:0:
192,192,104631,1,8,0:0:0:0:
448,192,104631,128,0,104771:0:0:0:0:
64,192,104771,128,0,104841:0:0:0:0:
192,192,104910,128,2,105190:0:0:0:0:
320,192,104910,128,4,105050:0:0:0:0:
448,192,104910,128,0,105050:0:0:0:0:
64,192,105050,1,0,0:0:0:0:
64,192,105190,1,2,0:0:0:0:
320,192,105190,1,8,0:0:0:0:
448,192,105190,1,0,0:0:0:0:
320,192,105329,128,0,105469:0:0:0:0:
64,192,105469,1,2,0:0:0:0:
448,192,105469,1,0,0:0:0:0:
64,192,105608,128,0,105748:0:0:0:0:
192,192,105748,1,2,0:0:0:0:
320,192,105748,1,8,0:0:0:0:
448,192,105748,1,0,0:0:0:0:
448,192,105887,128,0,106166:0:0:0:0:
64,192,106027,1,2,0:0:0:0:
320,192,106027,1,0,0:0:0:0:
192,192,106166,1,0,0:0:0:0:
64,192,106306,1,2,0:0:0:0:
320,192,106306,128,8,106445:0:0:0:0:
448,192,106306,1,0,0:0:0:0:
64,192,106445,1,0,0:0:0:0:
192,192,106585,128,2,106724:0:0:0:0:
448,192,106585,1,0,0:0:0:0:
448,192,106724,1,0,0:0:0:0:
64,192,106864,1,2,0:0:0:0:
192,192,106864,1,8,0:0:0:0:
320,192,106864,1,0,0:0:0:0:
64,192,107003,1,2,0:0:0:0:
448,192,107003,1,0,0:0:0:0:
192,192,107143,128,2,107213:0:0:0:0:
320,192,107143,128,0,107213:0:0:0:0:
448,192,107143,128,0,107213:0:0:0:0:
192,192,107283,128,2,107352:0:0:0:0:
320,192,107283,128,0,107352:0:0:0:0:
448,192,107283,128,0,107352:0:0:0:0:
64,192,107422,128,8,107562:0:0:0:0:
320,192,107422,128,0,107562:0:0:0:0:
192,192,107562,1,0,0:0:0:0:
448,192,107631,1,0,0:0:0:0:
64,192,107701,128,2,107771:0:0:0:0:
192,192,107701,128,0,107771:0:0:0:0:
320,192,107701,128,0,107771:0:0:0:0:
64,192,107841,128,2,107910:0:0:0:0:
192,192,107841,128,0,107910:0:0:0:0:
320,192,107841,128,0,107910:0:0:0:0:
192,192,107980,128,8,108120:0:0:0:0:
448,192,107980,128,0,108120:0:0:0:0:
320,192,108120,1,0,0:0:0:0:
64,192,108190,1,0,0:0:0:0:
192,192,108259,128,2,108329:0:0:0:0:
320,192,108259,128,0,108329:0:0:0:0:
448,192,108259,128,0,108329:0:0:0:0:
192,192,108399,128,2,108469:0:0:0:0:
320,192,108399,128,0,108469:0:0:0:0:
448,192,108399,128,0,108469:0:0:0:0:
64,192,108538,128,8,108678:0:0:0:0:
320,192,108538,128,0,108678:0:0:0:0:
192,192,108678,1,0,0:0:0:0:
448,192,108748,1,0,0:0:0:0:
64,192,108817,128,2,108887:0:0:0:0:
192,192,108817,128,0,108887:0:0:0:0:
320,192,108817,128,0,108887:0:0:0:0:
64,192,108957,128,2,109027:0:0:0:0:
192,192,108957,128,0,109027:0:0:0:0:
320,192,108957,128,0,109027:0:0:0:0:
448,192,109027,1,2,0:0:0:0:
64,192,109097,1,2,0:0:0:0:
192,192,109097,1,8,0:0:0:0:
320,192,109166,1,2,0:0:0:0:
448,192,109236,1,2,0:0:0:0:
192,192,109306,1,2,0:0:0:0:
64,192,109376,128,2,109515:0:0:0:0:
320,192,109376,128,4,109655:0:0:0:0:
448,192,109376,128,0,109515:0:0:0:0:
192,192,109515,1,0,0:0:0:0:
64,192,109655,1,2,0:0:0:0:
192,192,109655,1,8,0:0:0:0:
448,192,109655,1,0,0:0:0:0:
448,192,109794,128,0,109934:0:0:0:0:
64,192,109934,1,2,0:0:0:0:
320,192,109934,1,0,0:0:0:0:
64,192,110073,128,0,110213:0:0:0:0:
192,192,110213,1,2,0:0:0:0:
320,192,110213,1,8,0:0:0:0:
448,192,110213,1,0,0:0:0:0:
320,192,110352,128,0,110631:0:0:0:0:
64,192,110492,1,2,0:0:0:0:
448,192,110492,1,0,0:0:0:0:
192,192,110631,1,0,0:0:0:0:
64,192,110771,128,2,110910:0:0:0:0:
320,192,110771,1,8,0:0:0:0:
448,192,110771,1,0,0:0:0:0:
448,192,110910,1,0,0:0:0:0:
192,192,111050,1,2,0:0:0:0:
320,192,111050,128,0,111190:0:0:0:0:
192,192,111190,1,0,0:0:0:0:
64,192,111329,1,2,0:0:0:0:
320,192,111329,1,8,0:0:0:0:
448,192,111329,1,0,0:0:0:0:
192,192,111469,1,2,0:0:0:0:
448,192,111469,1,0,0:0:0:0:
64,192,111608,128,2,112027:0:0:0:0:
192,192,111608,128,4,111957:0:0:0:0:
320,192,111608,128,0,111887:0:0:0:0:
448,192,111887,128,0,112027:0:0:0:0:
320,192,112027,128,0,112166:0:0:0:0:
64,192,112166,1,0,0:0:0:0:
192,192,112166,128,8,112376:0:0:0:0:
448,192,112306,128,0,112376:0:0:0:0:
320,192,112445,1,0,0:0:0:0:
64,192,112585,1,0,0:0:0:0:
320,192,112585,1,8,0:0:0:0:
64,192,112724,1,0,0:0:0:0:
320,192,112864,128,8,113003:0:0:0:0:
192,192,112864,1,0,0:0:0:0:
192,192,113003,128,0,113143:0:0:0:0:
64,192,113283,1,0,0:0:0:0:
448,192,113283,128,0,113701:0:0:0:0:
320,192,113352,1,0,0:0:0:0:
64,192,113422,1,0,0:0:0:0:
320,192,113492,1,0,0:0:0:0:
64,192,113562,1,0,0:0:0:0:
320,192,113631,1,0,0:0:0:0:
64,192,113701,1,0,0:0:0:0:
320,192,113771,1,0,0:0:0:0:
64,192,113841,128,2,113910:0:0:0:0:
192,192,113841,1,4,0:0:0:0:
448,192,113841,1,0,0:0:0:0:
320,192,113980,1,0,0:0:0:0:
448,192,114120,1,0,0:0:0:0:
64,192,114399,128,0,114469:0:0:0:0:
448,192,114399,1,0,0:0:0:0:
320,192,114678,1,0,0:0:0:0:
64,192,114957,128,0,115027:0:0:0:0:
320,192,115097,1,0,0:0:0:0:
448,192,115236,1,0,0:0:0:0:
64,192,115515,128,0,115585:0:0:0:0:
448,192,115515,1,0,0:0:0:0:
320,192,115794,1,0,0:0:0:0:
64,192,116073,128,0,116143:0:0:0:0:
320,192,116213,1,0,0:0:0:0:
448,192,116352,1,0,0:0:0:0:
64,192,116631,128,0,116701:0:0:0:0:
448,192,116631,1,0,0:0:0:0:
320,192,116910,1,0,0:0:0:0:
64,192,117190,128,0,117259:0:0:0:0:
320,192,117329,1,0,0:0:0:0:
448,192,117469,1,0,0:0:0:0:
64,192,117748,128,0,117817:0:0:0:0:
448,192,117748,1,0,0:0:0:0:
320,192,118027,1,0,0:0:0:0:
64,192,118306,128,0,118445:0:0:0:0:
320,192,118445,1,0,0:0:0:0:
448,192,118585,1,0,0:0:0:0:
64,192,118864,128,0,119003:0:0:0:0:
448,192,118864,1,0,0:0:0:0:
320,192,119143,1,0,0:0:0:0:
64,192,119422,128,0,119562:0:0:0:0:
320,192,119562,1,0,0:0:0:0:
448,192,119701,1,0,0:0:0:0:
64,192,119980,128,0,120120:0:0:0:0:
448,192,119980,1,0,0:0:0:0:
320,192,120259,1,0,0:0:0:0:
64,192,120538,128,0,120817:0:0:0:0:
192,192,120538,128,0,122771:0:0:0:0:
320,192,120678,1,0,0:0:0:0:
448,192,120817,1,0,0:0:0:0:
64,192,121097,128,0,121376:0:0:0:0:
448,192,121097,1,0,0:0:0:0:
320,192,121376,1,0,0:0:0:0:
64,192,121655,128,0,121934:0:0:0:0:
320,192,121794,1,0,0:0:0:0:
448,192,121934,1,0,0:0:0:0:
64,192,122213,128,0,122771:0:0:0:0:
448,192,122213,128,0,122771:0:0:0:0:
320,192,122492,128,0,122771:0:0:0:0:
320,192,123748,1,0,0:0:0:0:
192,192,123817,1,0,0:0:0:0:
64,192,123887,1,0,0:0:0:0:
448,192,123887,1,0,0:0:0:0:
320,192,124073,1,0,0:0:0:0:
64,192,124190,1,0,0:0:0:0:
448,192,124259,1,0,0:0:0:0:
192,192,124352,1,0,0:0:0:0:
64,192,124445,1,0,0:0:0:50:S2.wav
320,192,124445,1,0,0:0:0:0:
448,192,124445,1,0,0:0:0:0:
320,192,124631,1,2,0:0:0:0:
192,192,124631,1,0,0:0:0:0:
64,192,124724,1,0,0:0:0:50:S2.wav
448,192,124724,1,0,0:0:0:0:
320,192,124724,1,0,0:0:0:0:
64,192,124817,1,2,0:0:0:0:
192,192,124817,1,0,0:0:0:0:
320,192,124910,1,2,0:0:0:0:
448,192,124910,1,0,0:0:0:0:
64,192,125003,1,6,0:0:0:0:
192,192,125050,1,0,0:0:0:0:
448,192,125097,1,0,0:0:0:0:
320,192,125143,1,0,0:0:0:0:
64,192,125190,1,0,0:0:0:0:
192,192,125236,1,0,0:0:0:0:
448,192,125283,1,0,0:0:0:0:
320,192,125329,1,0,0:0:0:0:
64,192,125376,1,0,0:0:0:0:
192,192,125422,1,0,0:0:0:0:
448,192,125469,1,0,0:0:0:0:
320,192,125515,1,0,0:0:0:0:
64,192,125562,1,0,0:0:0:50:S2.wav
192,192,125562,1,0,0:0:0:0:
320,192,125701,1,0,0:0:0:0:
448,192,125794,128,0,125887:0:0:0:0:
64,192,125887,128,0,125980:0:0:0:0:
320,192,126027,1,2,0:0:0:0:
448,192,126027,1,0,0:0:0:0:
64,192,126120,1,0,0:0:0:0:
320,192,126306,128,2,126399:0:0:0:0:
448,192,126306,1,0,0:0:0:0:
64,192,126399,1,2,0:0:0:0:
192,192,126399,128,0,126492:0:0:0:0:
320,192,126492,1,0,0:0:0:0:
192,192,126585,1,0,0:0:0:0:
64,192,126678,1,0,0:0:0:50:S2.wav
448,192,126678,1,0,0:0:0:0:
320,192,126724,1,0,0:0:0:0:
192,192,126771,1,0,0:0:0:0:
64,192,126817,1,0,0:0:0:0:
320,192,126864,1,0,0:0:0:0:
448,192,126910,1,0,0:0:0:0:
192,192,126957,1,0,0:0:0:0:
64,192,127003,1,0,0:0:0:0:
320,192,127050,1,0,0:0:0:0:
448,192,127097,1,0,0:0:0:0:
192,192,127143,1,0,0:0:0:0:
64,192,127190,1,0,0:0:0:0:
448,192,127236,1,2,0:0:0:0:
320,192,127283,1,0,0:0:0:0:
192,192,127329,1,0,0:0:0:0:
64,192,127376,1,0,0:0:0:0:
448,192,127422,1,0,0:0:0:0:
320,192,127469,1,0,0:0:0:0:
192,192,127515,1,0,0:0:0:0:
64,192,127562,1,0,0:0:0:0:
448,192,127608,1,0,0:0:0:0:
320,192,127655,1,0,0:0:0:0:
192,192,127794,1,0,0:0:0:50:S2.wav
448,192,127794,1,0,0:0:0:0:
64,192,127980,128,0,128027:0:0:0:0:
320,192,128073,128,0,128120:0:0:0:0:
320,192,128166,128,0,128213:0:0:0:0:
64,192,128259,1,2,0:0:0:0:
192,192,128259,1,0,0:0:0:0:
448,192,128352,128,0,128445:0:0:0:0:
64,192,128445,128,0,128538:0:0:0:0:
320,192,128538,1,2,0:0:0:0:
448,192,128538,128,0,128631:0:0:0:0:
64,192,128631,128,2,128724:0:0:0:0:
192,192,128631,1,0,0:0:0:0:
448,192,128724,1,0,0:0:0:0:
192,192,128817,128,0,128910:0:0:0:0:
320,192,128910,128,0,129003:0:0:0:0:
192,192,129003,128,0,129097:0:0:0:0:
64,192,129097,1,2,0:0:0:0:
320,192,129097,128,0,129190:0:0:0:0:
192,192,129190,1,0,0:0:0:50:S2.wav
448,192,129190,128,0,129399:0:0:0:0:
64,192,129329,128,0,129469:0:0:0:0:
320,192,129469,1,2,0:0:0:0:
448,192,129515,1,0,0:0:0:0:
64,192,129562,1,0,0:0:0:0:
192,192,129608,1,0,0:0:0:0:
320,192,129655,1,0,0:0:0:0:
448,192,129701,1,0,0:0:0:0:
64,192,129748,1,0,0:0:0:0:
192,192,129794,1,0,0:0:0:0:
320,192,129841,1,0,0:0:0:0:
448,192,129887,1,0,0:0:0:0:
64,192,129934,1,0,0:0:0:0:
192,192,129980,1,0,0:0:0:0:
320,192,130027,1,0,0:0:0:50:S2.wav
448,192,130027,1,0,0:0:0:0:
192,192,130166,1,0,0:0:0:0:
320,192,130259,128,0,130352:0:0:0:0:
64,192,130352,128,0,130445:0:0:0:0:
320,192,130492,1,2,0:0:0:0:
448,192,130492,1,0,0:0:0:0:
64,192,130585,1,0,0:0:0:0:
320,192,130771,1,2,0:0:0:0:
448,192,130771,128,0,130864:0:0:0:0:
64,192,130864,1,2,0:0:0:0:
192,192,130864,128,0,130957:0:0:0:0:
448,192,130957,1,0,0:0:0:0:
192,192,131050,1,0,0:0:0:0:
64,192,131143,1,0,0:0:0:50:S2.wav
448,192,131143,1,0,0:0:0:0:
320,192,131190,1,0,0:0:0:0:
192,192,131236,1,0,0:0:0:0:
64,192,131283,1,0,0:0:0:0:
448,192,131329,1,0,0:0:0:0:
320,192,131376,1,0,0:0:0:0:
64,192,131422,1,0,0:0:0:0:
192,192,131469,1,0,0:0:0:0:
448,192,131515,1,0,0:0:0:0:
320,192,131562,1,0,0:0:0:0:
64,192,131608,1,0,0:0:0:0:
192,192,131655,1,0,0:0:0:0:
448,192,131701,1,2,0:0:0:0:
320,192,131748,1,0,0:0:0:0:
192,192,131794,1,0,0:0:0:0:
448,192,131841,1,0,0:0:0:0:
320,192,131887,1,0,0:0:0:0:
192,192,131934,1,0,0:0:0:0:
64,192,131980,128,0,132027:0:0:0:0:
320,192,132073,128,0,132120:0:0:0:0:
64,192,132166,128,0,132213:0:0:0:0:
448,192,132259,1,0,0:0:0:50:S2.wav
192,192,132259,128,0,132724:0:0:0:0:
320,192,132259,128,0,132306:0:0:0:0:
64,192,132538,1,0,0:0:0:0:
320,192,132724,1,2,0:0:0:0:
448,192,132724,1,0,0:0:0:0:
64,192,132817,1,2,0:0:0:0:
192,192,132817,1,0,0:0:0:0:
448,192,132910,1,0,0:0:0:0:
64,192,133003,1,0,0:0:0:0:
448,192,133097,128,0,133190:0:0:0:0:
64,192,133190,128,0,133283:0:0:0:0:
320,192,133283,1,2,0:0:0:0:
448,192,133283,1,0,0:0:0:0:
192,192,133329,1,2,0:0:0:0:
64,192,133376,1,0,0:0:0:50:S2.wav
320,192,133376,1,0,0:0:0:0:
448,192,133376,1,0,0:0:0:0:
192,192,133562,1,2,0:0:0:0:
64,192,133562,1,0,0:0:0:0:
448,192,133655,1,0,0:0:0:50:S2.wav
192,192,133655,1,0,0:0:0:0:
64,192,133655,1,0,0:0:0:0:
320,192,133748,1,2,0:0:0:0:
448,192,133748,1,0,0:0:0:0:
64,192,133841,1,2,0:0:0:0:
192,192,133841,1,0,0:0:0:0:
320,192,133934,1,6,0:0:0:0:
448,192,133980,1,0,0:0:0:0:
192,192,134027,1,0,0:0:0:0:
64,192,134073,1,0,0:0:0:0:
320,192,134120,1,0,0:0:0:0:
448,192,134166,1,0,0:0:0:0:
192,192,134213,1,0,0:0:0:0:
64,192,134259,1,0,0:0:0:0:
320,192,134306,1,0,0:0:0:0:
448,192,134352,1,0,0:0:0:0:
192,192,134399,1,0,0:0:0:0:
64,192,134445,1,0,0:0:0:0:
320,192,134492,1,0,0:0:0:50:S2.wav
448,192,134492,1,0,0:0:0:0:
64,192,134631,1,0,0:0:0:0:
192,192,134724,128,0,134817:0:0:0:0:
448,192,134817,128,0,134910:0:0:0:0:
64,192,134957,1,2,0:0:0:0:
192,192,134957,1,0,0:0:0:0:
448,192,135050,1,0,0:0:0:0:
64,192,135236,128,2,135329:0:0:0:0:
192,192,135236,1,0,0:0:0:0:
320,192,135329,128,2,135422:0:0:0:0:
448,192,135329,1,0,0:0:0:0:
64,192,135422,1,0,0:0:0:0:
320,192,135515,1,0,0:0:0:0:
192,192,135608,1,0,0:0:0:50:S2.wav
448,192,135608,1,0,0:0:0:0:
64,192,135655,1,0,0:0:0:0:
320,192,135701,1,0,0:0:0:0:
448,192,135748,1,0,0:0:0:0:
64,192,135794,1,0,0:0:0:0:
192,192,135841,1,0,0:0:0:0:
320,192,135887,1,0,0:0:0:0:
448,192,135934,1,0,0:0:0:0:
64,192,135980,1,0,0:0:0:0:
192,192,136027,1,0,0:0:0:0:
320,192,136073,1,0,0:0:0:0:
448,192,136120,1,0,0:0:0:0:
192,192,136166,1,2,0:0:0:0:
64,192,136213,1,0,0:0:0:0:
320,192,136259,1,0,0:0:0:0:
448,192,136306,1,0,0:0:0:0:
192,192,136352,1,0,0:0:0:0:
64,192,136399,1,0,0:0:0:0:
320,192,136445,1,0,0:0:0:0:
448,192,136492,1,0,0:0:0:0:
192,192,136538,1,0,0:0:0:0:
64,192,136585,1,0,0:0:0:0:
192,192,136724,1,0,0:0:0:50:S2.wav
320,192,136724,1,0,0:0:0:0:
448,192,136910,128,0,136957:0:0:0:0:
64,192,137003,128,0,137050:0:0:0:0:
64,192,137097,128,0,137143:0:0:0:0:
320,192,137190,1,2,0:0:0:0:
448,192,137190,1,0,0:0:0:0:
192,192,137283,128,0,137376:0:0:0:0:
448,192,137376,128,0,137469:0:0:0:0:
64,192,137469,1,2,0:0:0:0:
192,192,137469,128,0,137562:0:0:0:0:
320,192,137562,1,2,0:0:0:0:
448,192,137562,128,0,137655:0:0:0:0:
192,192,137655,1,0,0:0:0:0:
320,192,137748,128,0,137841:0:0:0:0:
64,192,137841,128,0,137934:0:0:0:0:
320,192,137934,128,0,138027:0:0:0:0:
64,192,138027,128,2,138120:0:0:0:0:
448,192,138027,1,0,0:0:0:0:
192,192,138120,128,0,138329:0:0:0:50:S2.wav
320,192,138120,1,0,0:0:0:0:
448,192,138259,128,0,138399:0:0:0:0:
64,192,138399,1,2,0:0:0:0:
192,192,138445,1,0,0:0:0:0:
448,192,138492,1,0,0:0:0:0:
320,192,138538,1,0,0:0:0:0:
64,192,138585,1,0,0:0:0:0:
192,192,138631,1,0,0:0:0:0:
448,192,138678,1,0,0:0:0:0:
320,192,138724,1,0,0:0:0:0:
64,192,138771,1,0,0:0:0:0:
192,192,138817,1,0,0:0:0:0:
448,192,138864,1,0,0:0:0:0:
320,192,138910,1,0,0:0:0:0:
64,192,138957,1,0,0:0:0:50:S2.wav
192,192,138957,1,0,0:0:0:0:
320,192,139097,1,0,0:0:0:0:
64,192,139190,128,0,139283:0:0:0:0:
448,192,139283,128,0,139376:0:0:0:0:
64,192,139422,1,2,0:0:0:0:
192,192,139422,1,0,0:0:0:0:
448,192,139515,1,0,0:0:0:0:
64,192,139701,1,2,0:0:0:0:
192,192,139701,128,0,139794:0:0:0:0:
320,192,139794,128,2,139887:0:0:0:0:
448,192,139794,1,0,0:0:0:0:
192,192,139887,1,0,0:0:0:0:
320,192,139980,1,0,0:0:0:0:
64,192,140073,1,0,0:0:0:50:S2.wav
448,192,140073,1,0,0:0:0:0:
192,192,140120,1,0,0:0:0:0:
320,192,140166,1,0,0:0:0:0:
448,192,140213,1,0,0:0:0:0:
64,192,140259,1,0,0:0:0:0:
192,192,140306,1,0,0:0:0:0:
448,192,140352,1,0,0:0:0:0:
320,192,140399,1,0,0:0:0:0:
64,192,140445,1,0,0:0:0:0:
192,192,140492,1,0,0:0:0:0:
448,192,140538,1,0,0:0:0:0:
320,192,140585,1,0,0:0:0:0:
64,192,140631,1,2,0:0:0:0:
192,192,140678,1,0,0:0:0:0:
320,192,140724,1,0,0:0:0:0:
64,192,140771,1,0,0:0:0:0:
192,192,140817,1,0,0:0:0:0:
320,192,140864,1,0,0:0:0:0:
448,192,140910,128,0,140957:0:0:0:0:
64,192,141003,128,0,141050:0:0:0:0:
448,192,141097,128,0,141143:0:0:0:0:
64,192,141190,128,0,141236:0:0:0:50:S2.wav
320,192,141190,128,0,141655:0:0:0:0:
192,192,141190,1,0,0:0:0:0:
448,192,141469,1,0,0:0:0:0:
64,192,141655,1,2,0:0:0:0:
192,192,141655,1,0,0:0:0:0:
320,192,141748,1,2,0:0:0:0:
448,192,141748,1,0,0:0:0:0:
192,192,141841,1,0,0:0:0:0:
448,192,141934,1,0,0:0:0:0:
192,192,142027,128,0,142120:0:0:0:0:
448,192,142120,128,0,142213:0:0:0:0:
64,192,142213,1,2,0:0:0:0:
192,192,142213,1,0,0:0:0:0:
320,192,142259,1,2,0:0:0:0:
64,192,142306,1,0,0:0:0:50:S2.wav
192,192,142306,1,0,0:0:0:0:
448,192,142306,1,0,0:0:0:0:
320,192,142492,1,2,0:0:0:0:
448,192,142492,1,0,0:0:0:0:
64,192,142585,1,0,0:0:0:50:S2.wav
320,192,142585,1,0,0:0:0:0:
448,192,142585,1,0,0:0:0:0:
192,192,142678,1,2,0:0:0:0:
64,192,142678,1,0,0:0:0:0:
320,192,142771,1,2,0:0:0:0:
448,192,142771,1,0,0:0:0:0:
64,192,142864,1,4,0:0:0:0:
192,192,142864,128,2,142957:0:0:0:0:
448,192,142957,128,0,143050:0:0:0:0:
64,192,143050,128,0,143143:0:0:0:0:
320,192,143143,128,0,143236:0:0:0:0:
64,192,143236,128,0,143329:0:0:0:0:
448,192,143329,128,0,143422:0:0:0:0:
192,192,143422,128,0,143515:0:0:0:0:
320,192,143515,128,0,143608:0:0:0:0:
448,192,143608,128,0,143701:0:0:0:0:
192,192,143701,128,0,143794:0:0:0:0:
320,192,143794,128,0,143887:0:0:0:0:
64,192,143887,128,0,143980:0:0:0:0:
448,192,143980,128,0,144538:0:0:0:0:
192,192,144259,128,0,144817:0:0:0:0:
320,192,144538,128,0,144817:0:0:0:0:
64,192,144817,1,0,0:0:0:0:
448,192,144817,1,0,0:0:0:0:
192,192,144957,1,0,0:0:0:0:
64,192,145097,1,2,0:0:0:0:
192,192,145097,128,4,145236:0:0:0:0:
320,192,145097,1,0,0:0:0:0:
448,192,145236,1,0,0:0:0:0:
64,192,145306,1,0,0:0:0:0:
192,192,145376,1,8,0:0:0:0:
320,192,145376,128,2,145515:0:0:0:0:
448,192,145376,1,0,0:0:0:0:
64,192,145515,1,0,0:0:0:0:
64,192,145655,128,2,145794:0:0:0:0:
320,192,145655,1,0,0:0:0:0:
448,192,145794,1,0,0:0:0:0:
64,192,145934,1,8,0:0:0:0:
192,192,145934,128,2,146073:0:0:0:0:
320,192,145934,1,0,0:0:0:0:
448,192,146073,1,0,0:0:0:0:
320,192,146213,1,0,0:0:0:0:
64,192,146213,1,2,0:0:0:0:
320,192,146352,1,0,0:0:0:0:
64,192,146492,1,8,0:0:0:0:
192,192,146492,1,2,0:0:0:0:
448,192,146492,1,0,0:0:0:0:
192,192,146631,128,0,146910:0:0:0:0:
320,192,146771,1,2,0:0:0:0:
448,192,146771,1,0,0:0:0:0:
64,192,146910,1,0,0:0:0:0:
192,192,147050,1,8,0:0:0:0:
320,192,147050,1,2,0:0:0:0:
448,192,147050,1,0,0:0:0:0:
64,192,147190,1,2,0:0:0:0:
448,192,147190,1,0,0:0:0:0:
64,192,147329,1,2,0:0:0:0:
192,192,147329,1,0,0:0:0:0:
448,192,147469,1,0,0:0:0:0:
192,192,147538,1,0,0:0:0:0:
64,192,147608,1,8,0:0:0:0:
320,192,147608,1,2,0:0:0:0:
448,192,147608,1,0,0:0:0:0:
192,192,147748,1,0,0:0:0:0:
192,192,147887,128,2,148027:0:0:0:0:
320,192,147887,1,0,0:0:0:0:
320,192,148027,1,0,0:0:0:0:
64,192,148166,1,8,0:0:0:0:
192,192,148166,1,2,0:0:0:0:
448,192,148166,128,0,148306:0:0:0:0:
64,192,148306,1,0,0:0:0:0:
192,192,148445,1,2,0:0:0:0:
320,192,148445,1,0,0:0:0:0:
320,192,148585,128,0,148724:0:0:0:0:
64,192,148724,1,8,0:0:0:0:
192,192,148724,1,2,0:0:0:0:
448,192,148724,1,0,0:0:0:0:
320,192,148864,1,0,0:0:0:0:
64,192,149003,128,2,149213:0:0:0:0:
192,192,149003,128,0,149213:0:0:0:0:
448,192,149213,1,2,0:0:0:0:
64,192,149283,1,8,0:0:0:0:
192,192,149283,128,2,149492:0:0:0:0:
320,192,149283,128,0,149492:0:0:0:0:
448,192,149422,1,2,0:0:0:0:
192,192,149562,1,2,0:0:0:0:
320,192,149562,1,0,0:0:0:0:
448,192,149562,128,0,149701:0:0:0:0:
64,192,149701,1,0,0:0:0:0:
320,192,149771,1,0,0:0:0:0:
64,192,149841,1,8,0:0:0:0:
192,192,149841,128,2,149980:0:0:0:0:
448,192,149841,1,0,0:0:0:0:
320,192,149980,1,0,0:0:0:0:
192,192,150120,1,2,0:0:0:0:
320,192,150120,128,0,150259:0:0:0:0:
64,192,150259,1,0,0:0:0:0:
192,192,150399,1,8,0:0:0:0:
320,192,150399,1,2,0:0:0:0:
448,192,150399,128,0,150538:0:0:0:0:
64,192,150538,1,0,0:0:0:0:
192,192,150678,1,2,0:0:0:0:
320,192,150678,1,0,0:0:0:0:
192,192,150817,1,0,0:0:0:0:
64,192,150957,1,8,0:0:0:0:
320,192,150957,1,2,0:0:0:0:
448,192,150957,1,0,0:0:0:0:
448,192,151097,128,0,151376:0:0:0:0:
64,192,151236,1,2,0:0:0:0:
192,192,151236,1,0,0:0:0:0:
320,192,151376,1,0,0:0:0:0:
192,192,151445,1,0,0:0:0:0:
64,192,151515,1,8,0:0:0:0:
320,192,151515,1,2,0:0:0:0:
448,192,151515,1,0,0:0:0:0:
192,192,151585,1,0,0:0:0:0:
64,192,151655,1,2,0:0:0:0:
448,192,151655,1,0,0:0:0:0:
320,192,151724,1,0,0:0:0:0:
64,192,151794,128,4,151934:0:0:0:0:
192,192,151794,128,2,151934:0:0:0:0:
448,192,151794,128,0,152073:0:0:0:0:
320,192,151934,1,0,0:0:0:0:
192,192,152073,128,0,152213:0:0:0:0:
320,192,152213,1,0,0:0:0:0:
64,192,152352,128,4,152631:0:0:0:0:
320,192,152352,128,2,152492:0:0:0:0:
448,192,152352,128,0,152492:0:0:0:0:
192,192,152492,1,0,0:0:0:0:
320,192,152631,128,0,152701:0:0:0:0:
320,192,152771,128,0,152841:0:0:0:0:
64,192,152910,128,2,153050:0:0:0:0:
448,192,152910,128,4,153050:0:0:0:0:
192,192,152910,128,0,153050:0:0:0:0:
320,192,153050,1,0,0:0:0:0:
64,192,153190,1,2,0:0:0:0:
448,192,153190,128,4,153469:0:0:0:0:
320,192,153190,128,0,153748:0:0:0:0:
64,192,153469,128,4,153887:0:0:0:0:
192,192,153469,128,2,153817:0:0:0:0:
320,192,154027,1,0,0:0:0:50:W2.wav
448,192,154027,1,0,0:0:0:0:
192,192,154166,1,0,0:0:0:0:
64,192,154306,1,0,0:0:0:50:W2.wav
448,192,154306,1,0,0:0:0:50:C2.wav
192,192,154445,1,0,0:0:0:0:
320,192,154585,1,0,0:0:0:50:W2.wav
448,192,154585,1,0,0:0:0:0:
192,192,154724,1,0,0:0:0:0:
64,192,154864,1,0,0:0:0:50:W2.wav
448,192,154864,1,0,0:0:0:50:C2.wav
320,192,155003,1,0,0:0:0:0:
320,192,155143,1,0,0:0:0:50:W2.wav
448,192,155143,1,0,0:0:0:0:
192,192,155283,1,0,0:0:0:0:
320,192,155422,1,0,0:0:0:50:W2.wav
448,192,155422,1,0,0:0:0:50:C2.wav
192,192,155562,1,0,0:0:0:0:
64,192,155701,1,0,0:0:0:50:W2.wav
192,192,155701,1,0,0:0:0:0:
320,192,155841,1,0,0:0:0:0:
64,192,155980,1,0,0:0:0:50:W2.wav
192,192,155980,1,0,0:0:0:50:C2.wav
320,192,156120,1,0,0:0:0:0:
320,192,156259,1,0,0:0:0:50:W2.wav
448,192,156259,1,0,0:0:0:0:
192,192,156399,1,0,0:0:0:0:
64,192,156538,1,0,0:0:0:50:W2.wav
448,192,156538,1,0,0:0:0:50:C2.wav
192,192,156678,1,0,0:0:0:0:
320,192,156817,1,0,0:0:0:50:W2.wav
448,192,156817,1,0,0:0:0:0:
192,192,156957,1,0,0:0:0:0:
64,192,157097,1,0,0:0:0:50:W2.wav
448,192,157097,1,0,0:0:0:50:C2.wav
320,192,157236,1,0,0:0:0:0:
192,192,157376,1,0,0:0:0:50:W2.wav
448,192,157376,1,0,0:0:0:0:
448,192,157515,1,0,0:0:0:0:
320,192,157655,1,0,0:0:0:50:C2.wav
64,192,157655,1,0,0:0:0:50:W2.wav
320,192,157794,1,0,0:0:0:0:
192,192,157934,1,0,0:0:0:50:W2.wav
448,192,157934,1,0,0:0:0:0:
192,192,158073,1,0,0:0:0:0:
64,192,158213,1,0,0:0:0:50:W2.wav
320,192,158213,1,0,0:0:0:50:C2.wav
64,192,158352,1,0,0:0:0:0:
320,192,158492,1,0,0:0:0:50:W2.wav
448,192,158492,1,0,0:0:0:0:
192,192,158631,1,0,0:0:0:0:
64,192,158771,1,0,0:0:0:50:W2.wav
448,192,158771,1,0,0:0:0:50:C2.wav
192,192,158910,1,0,0:0:0:0:
320,192,159050,1,0,0:0:0:50:W2.wav
448,192,159050,1,0,0:0:0:0:
192,192,159190,1,0,0:0:0:0:
64,192,159329,1,0,0:0:0:50:W2.wav
448,192,159329,1,0,0:0:0:50:C2.wav
192,192,159469,1,0,0:0:0:0:
320,192,159608,1,0,0:0:0:50:W2.wav
448,192,159608,1,0,0:0:0:0:
320,192,159748,1,0,0:0:0:0:
64,192,159887,1,0,0:0:0:50:W2.wav
192,192,159887,1,0,0:0:0:50:C2.wav
192,192,160027,1,0,0:0:0:0:
320,192,160166,1,0,0:0:0:50:W2.wav
448,192,160166,1,0,0:0:0:0:
448,192,160306,1,0,0:0:0:0:
64,192,160445,1,0,0:0:0:50:W2.wav
192,192,160445,1,0,0:0:0:50:C2.wav
64,192,160585,1,0,0:0:0:0:
320,192,160724,1,0,0:0:0:50:W2.wav
448,192,160724,1,0,0:0:0:0:
192,192,160864,1,0,0:0:0:0:
64,192,161003,1,0,0:0:0:50:W2.wav
448,192,161003,1,0,0:0:0:50:C2.wav
320,192,161143,1,0,0:0:0:0:
192,192,161213,1,0,0:0:0:0:
320,192,161283,1,0,0:0:0:50:W2.wav
448,192,161283,1,0,0:0:0:0:
64,192,161422,1,0,0:0:0:0:
192,192,161422,1,0,0:0:0:0:
192,192,161562,1,0,0:0:0:50:W2.wav
320,192,161562,1,0,0:0:0:50:C2.wav
320,192,161701,1,0,0:0:0:0:
448,192,161701,1,0,0:0:0:0:
64,192,161841,128,4,162120:0:0:0:0:
192,192,161841,128,2,162120:0:0:0:0:
448,192,161841,128,0,162399:0:0:0:0:
320,192,162120,128,0,162190:0:0:0:0:
64,192,162190,128,0,162259:0:0:0:0:
320,192,162259,128,0,162329:0:0:0:0:
64,192,162329,128,0,162399:0:0:0:0:
192,192,162399,128,0,162538:0:0:0:0:
320,192,162538,128,2,162608:0:0:0:0:
448,192,162538,128,0,162608:0:0:0:0:
64,192,162608,1,0,0:0:0:0:
192,192,162678,128,2,162748:0:0:0:0:
320,192,162678,128,0,162748:0:0:0:0:
64,192,162817,128,2,162887:0:0:0:0:
192,192,162817,128,0,162887:0:0:0:0:
448,192,162957,128,0,163097:0:0:0:0:
192,192,163236,128,8,163376:0:0:0:0:
320,192,163236,128,4,163376:0:0:0:0:
448,192,163236,128,2,163376:0:0:0:0:
64,192,163376,1,0,0:0:0:0:
192,192,163515,1,2,0:0:0:0:
448,192,163515,1,0,0:0:0:0:
64,192,163655,1,0,0:0:0:0:
448,192,163655,1,0,0:0:0:0:
64,192,163794,1,8,0:0:0:0:
192,192,163794,1,2,0:0:0:0:
320,192,163794,1,0,0:0:0:0:
320,192,163934,1,0,0:0:0:0:
448,192,163934,1,0,0:0:0:0:
64,192,164073,1,2,0:0:0:0:
448,192,164073,128,0,164213:0:0:0:0:
192,192,164213,1,0,0:0:0:0:
64,192,164352,1,8,0:0:0:0:
192,192,164352,128,2,164492:0:0:0:0:
448,192,164352,1,0,0:0:0:0:
320,192,164492,1,0,0:0:0:0:
192,192,164631,1,2,0:0:0:0:
320,192,164631,128,0,164771:0:0:0:0:
64,192,164771,1,0,0:0:0:0:
64,192,164910,128,8,165190:0:0:0:0:
192,192,164910,1,2,0:0:0:0:
320,192,164910,1,0,0:0:0:0:
320,192,165050,1,2,0:0:0:0:
448,192,165050,1,0,0:0:0:0:
320,192,165190,1,2,0:0:0:0:
448,192,165190,1,0,0:0:0:0:
192,192,165329,1,0,0:0:0:0:
64,192,165469,1,8,0:0:0:0:
192,192,165469,1,2,0:0:0:0:
448,192,165469,128,0,165608:0:0:0:0:
320,192,165608,1,0,0:0:0:0:
64,192,165748,1,2,0:0:0:0:
448,192,165748,1,0,0:0:0:0:
192,192,165887,1,0,0:0:0:0:
320,192,165887,1,0,0:0:0:0:
192,192,166027,1,8,0:0:0:0:
64,192,166027,1,2,0:0:0:0:
448,192,166027,1,0,0:0:0:0:
448,192,166166,1,0,0:0:0:0:
320,192,166166,1,0,0:0:0:0:
64,192,166306,128,2,166445:0:0:0:0:
192,192,166306,1,0,0:0:0:0:
320,192,166445,1,0,0:0:0:0:
64,192,166585,1,8,0:0:0:0:
320,192,166585,128,2,166724:0:0:0:0:
448,192,166585,1,0,0:0:0:0:
192,192,166724,1,0,0:0:0:0:
192,192,166864,128,2,167003:0:0:0:0:
320,192,166864,1,0,0:0:0:0:
448,192,167003,1,0,0:0:0:0:
64,192,167073,1,2,0:0:0:0:
192,192,167143,1,8,0:0:0:0:
320,192,167143,1,2,0:0:0:0:
448,192,167143,128,0,167422:0:0:0:0:
64,192,167283,1,2,0:0:0:0:
192,192,167283,1,0,0:0:0:0:
64,192,167422,1,2,0:0:0:0:
192,192,167422,1,0,0:0:0:0:
320,192,167562,1,0,0:0:0:0:
64,192,167701,1,8,0:0:0:0:
448,192,167701,1,2,0:0:0:0:
192,192,167701,128,0,167841:0:0:0:0:
320,192,167841,1,0,0:0:0:0:
64,192,167980,1,2,0:0:0:0:
320,192,167980,1,0,0:0:0:0:
64,192,168120,1,0,0:0:0:0:
448,192,168120,1,0,0:0:0:0:
192,192,168259,1,8,0:0:0:0:
320,192,168259,1,2,0:0:0:0:
448,192,168259,1,0,0:0:0:0:
64,192,168399,1,0,0:0:0:0:
192,192,168399,1,0,0:0:0:0:
448,192,168538,1,2,0:0:0:0:
64,192,168538,128,0,168678:0:0:0:0:
320,192,168678,1,0,0:0:0:0:
448,192,168817,1,8,0:0:0:0:
320,192,168817,128,2,168957:0:0:0:0:
64,192,168817,1,0,0:0:0:0:
192,192,168957,1,0,0:0:0:0:
320,192,169097,1,2,0:0:0:0:
192,192,169097,128,0,169236:0:0:0:0:
448,192,169236,1,0,0:0:0:0:
448,192,169376,128,8,169515:0:0:0:0:
320,192,169376,1,2,0:0:0:0:
64,192,169376,1,0,0:0:0:0:
192,192,169515,1,2,0:0:0:0:
64,192,169515,1,0,0:0:0:0:
320,192,169585,1,2,0:0:0:0:
448,192,169585,1,0,0:0:0:0:
192,192,169655,128,2,169724:0:0:0:0:
64,192,169655,128,0,169724:0:0:0:0:
64,192,169794,128,2,169934:0:0:0:0:
192,192,169794,128,0,169934:0:0:0:0:
320,192,169934,1,0,0:0:0:0:
320,192,170073,128,2,170143:0:0:0:0:
448,192,170073,128,0,170143:0:0:0:0:
320,192,170213,128,2,170352:0:0:0:0:
448,192,170213,128,0,170352:0:0:0:0:
192,192,170352,1,0,0:0:0:0:
64,192,170492,128,2,170562:0:0:0:0:
192,192,170492,128,0,170562:0:0:0:0:
64,192,170631,128,2,170771:0:0:0:0:
192,192,170631,128,0,170771:0:0:0:0:
320,192,170771,1,0,0:0:0:0:
448,192,170910,1,0,0:0:0:0:
192,192,171050,128,4,171608:0:0:0:0:
64,192,171050,128,2,171469:0:0:0:0:
320,192,171050,128,0,171608:0:0:0:0:
448,192,171469,1,0,0:0:0:0:
64,192,171538,1,0,0:0:0:0:
448,192,171608,1,0,0:0:0:0:
64,192,171678,1,0,0:0:0:0:
320,192,171748,1,0,0:0:0:0:
192,192,171748,1,0,0:0:0:0:
64,192,171887,1,4,0:0:0:0:
192,192,171887,1,2,0:0:0:0:
448,192,171887,128,0,172166:0:0:0:0:
320,192,172027,1,0,0:0:0:0:
192,192,172097,1,0,0:0:0:0:
64,192,172166,1,8,0:0:0:0:
320,192,172166,1,2,0:0:0:0:
192,192,172306,1,0,0:0:0:0:
192,192,172445,128,2,172585:0:0:0:0:
320,192,172445,1,0,0:0:0:0:
448,192,172515,1,0,0:0:0:0:
64,192,172585,1,0,0:0:0:0:
448,192,172655,1,0,0:0:0:0:
192,192,172724,1,8,0:0:0:0:
64,192,172724,128,2,172864:0:0:0:0:
320,192,172724,1,0,0:0:0:0:
448,192,172864,1,0,0:0:0:0:
192,192,172934,1,0,0:0:0:0:
64,192,173003,1,2,0:0:0:0:
448,192,173003,128,0,173283:0:0:0:0:
320,192,173143,1,0,0:0:0:0:
192,192,173213,1,0,0:0:0:0:
64,192,173283,1,8,0:0:0:0:
320,192,173283,1,2,0:0:0:0:
192,192,173422,1,0,0:0:0:0:
192,192,173562,128,2,173701:0:0:0:0:
320,192,173562,1,0,0:0:0:0:
64,192,173631,1,0,0:0:0:0:
448,192,173701,1,0,0:0:0:0:
320,192,173771,1,0,0:0:0:0:
192,192,173841,1,8,0:0:0:0:
64,192,173841,128,2,173980:0:0:0:0:
448,192,173910,1,0,0:0:0:0:
320,192,173980,1,0,0:0:0:0:
192,192,174050,1,0,0:0:0:0:
64,192,174120,1,4,0:0:0:0:
320,192,174120,1,2,0:0:0:0:
448,192,174120,1,0,0:0:0:0:
448,192,174259,1,0,0:0:0:0:
448,192,174399,1,0,0:0:0:0:
64,192,174538,1,2,0:0:0:0:
192,192,174538,1,0,0:0:0:0:
320,192,174678,1,2,0:0:0:0:
448,192,174678,1,0,0:0:0:0:
64,192,174817,1,0,0:0:0:0:
64,192,174957,1,8,0:0:0:0:
320,192,174957,1,0,0:0:0:0:
192,192,175097,1,0,0:0:0:0:
320,192,175236,1,2,0:0:0:0:
448,192,175236,1,0,0:0:0:0:
448,192,175376,1,0,0:0:0:0:
448,192,175515,1,0,0:0:0:0:
64,192,175655,1,2,0:0:0:0:
192,192,175655,1,0,0:0:0:0:
320,192,175794,1,2,0:0:0:0:
448,192,175794,1,0,0:0:0:0:
64,192,175934,1,0,0:0:0:0:
64,192,176073,1,8,0:0:0:0:
320,192,176073,1,0,0:0:0:0:
64,192,176352,1,2,0:0:0:0:
192,192,176352,1,0,0:0:0:0:
192,192,176492,1,0,0:0:0:0:
192,192,176631,1,0,0:0:0:0:
320,192,176771,1,2,0:0:0:0:
448,192,176771,1,0,0:0:0:0:
64,192,176910,1,2,0:0:0:0:
192,192,176910,1,0,0:0:0:0:
448,192,177050,1,0,0:0:0:0:
64,192,177190,1,8,0:0:0:0:
448,192,177190,1,0,0:0:0:0:
320,192,177329,1,0,0:0:0:0:
64,192,177469,1,2,0:0:0:0:
192,192,177469,1,0,0:0:0:0:
192,192,177608,1,0,0:0:0:0:
192,192,177748,1,0,0:0:0:0:
320,192,177887,1,2,0:0:0:0:
448,192,177887,1,0,0:0:0:0:
64,192,178027,1,2,0:0:0:0:
192,192,178027,1,0,0:0:0:0:
320,192,178166,128,0,178236:0:0:0:0:
64,192,178306,1,8,0:0:0:0:
448,192,178306,128,0,178376:0:0:0:0:
320,192,178585,1,2,0:0:0:0:
448,192,178585,1,0,0:0:0:0:
320,192,178724,1,0,0:0:0:0:
320,192,178864,1,0,0:0:0:0:
64,192,179003,1,2,0:0:0:0:
192,192,179003,1,0,0:0:0:0:
320,192,179143,1,2,0:0:0:0:
448,192,179143,1,0,0:0:0:0:
64,192,179283,1,0,0:0:0:0:
64,192,179422,1,8,0:0:0:0:
320,192,179422,1,0,0:0:0:0:
192,192,179562,1,0,0:0:0:0:
320,192,179701,1,2,0:0:0:0:
448,192,179701,1,0,0:0:0:0:
320,192,179841,1,0,0:0:0:0:
320,192,179980,1,0,0:0:0:0:
64,192,180120,1,2,0:0:0:0:
192,192,180120,1,0,0:0:0:0:
320,192,180259,1,2,0:0:0:0:
448,192,180259,1,0,0:0:0:0:
64,192,180399,1,0,0:0:0:0:
64,192,180538,1,8,0:0:0:0:
320,192,180538,1,0,0:0:0:0:
448,192,180817,1,2,0:0:0:0:
320,192,180817,128,0,180887:0:0:0:0:
320,192,180957,128,0,181027:0:0:0:0:
64,192,181097,128,0,181166:0:0:0:0:
192,192,181236,1,2,0:0:0:0:
64,192,181236,128,0,181306:0:0:0:0:
448,192,181376,1,2,0:0:0:0:
320,192,181376,128,0,181445:0:0:0:0:
192,192,181515,128,0,181585:0:0:0:0:
448,192,181655,128,8,181724:0:0:0:0:
192,192,181655,1,0,0:0:0:0:
320,192,181794,128,0,181864:0:0:0:0:
192,192,181934,1,2,0:0:0:0:
64,192,181934,128,0,182003:0:0:0:0:
64,192,182073,128,0,182143:0:0:0:0:
320,192,182213,128,0,182283:0:0:0:0:
448,192,182352,1,2,0:0:0:0:
320,192,182352,128,0,182422:0:0:0:0:
192,192,182492,1,2,0:0:0:0:
64,192,182492,128,0,182562:0:0:0:0:
448,192,182631,128,0,182701:0:0:0:0:
320,192,182771,128,8,182910:0:0:0:0:
64,192,182771,128,0,182910:0:0:0:0:
192,192,182910,128,0,182980:0:0:0:0:
320,192,183050,128,0,183120:0:0:0:0:
448,192,183050,128,0,183120:0:0:0:0:
64,192,183050,128,2,183120:0:0:0:0:
448,192,183190,128,0,183329:0:0:0:0:
64,192,183190,128,0,183329:0:0:0:0:
192,192,183190,128,2,183329:0:0:0:0:
320,192,183329,1,0,0:0:0:0:
320,192,183469,128,0,184724:0:0:0:0:
64,192,183469,128,4,184027:0:0:0:0:
192,192,183469,128,2,184166:0:0:0:0:
448,192,184027,1,0,0:0:0:0:
448,192,184166,1,0,0:0:0:0:
64,192,184166,1,0,0:0:0:0:
192,192,184306,1,0,0:0:0:0:
448,192,184445,1,0,0:0:0:0:
64,192,184585,1,0,0:0:0:0:
448,192,184724,1,0,0:0:0:0:
320,192,184864,1,0,0:0:0:0:
192,192,184864,128,0,184934:0:0:0:0:
64,192,184864,128,2,184934:0:0:0:0:
64,192,185003,1,0,0:0:0:0:
448,192,185003,128,0,185073:0:0:0:0:
320,192,185003,128,2,185073:0:0:0:0:
192,192,185143,1,0,0:0:0:0:
448,192,185143,128,0,185213:0:0:0:0:
64,192,185143,128,2,185213:0:0:0:0:
320,192,185283,128,0,185352:0:0:0:0:
192,192,185283,128,0,185352:0:0:0:0:
64,192,185283,128,2,185352:0:0:0:0:
448,192,185422,128,0,185562:0:0:0:0:
320,192,185422,128,0,185562:0:0:0:0:
192,192,185422,128,2,185562:0:0:0:0:
64,192,185562,1,0,0:0:0:0:
320,192,185701,128,0,186120:0:0:0:0:
64,192,185701,128,4,186957:0:0:0:0:
192,192,185701,128,2,185980:0:0:0:0:
448,192,185980,1,0,0:0:0:0:
448,192,186120,1,0,0:0:0:0:
192,192,186120,1,0,0:0:0:0:
320,192,186259,1,0,0:0:0:0:
192,192,186399,1,0,0:0:0:0:
448,192,186538,1,0,0:0:0:0:
320,192,186678,1,0,0:0:0:0:
192,192,186817,1,0,0:0:0:0:
448,192,186957,1,0,0:0:0:0:
320,192,186957,1,2,0:0:0:0:
192,192,187027,1,0,0:0:0:0:
64,192,187097,1,0,0:0:0:0:
448,192,187166,1,0,0:0:0:0:
320,192,187166,1,2,0:0:0:0:
192,192,187236,1,0,0:0:0:0:
64,192,187236,1,2,0:0:0:0:
448,192,187306,1,0,0:0:0:0:
320,192,187376,1,0,0:0:0:0:
192,192,187376,1,2,0:0:0:0:
64,192,187445,1,2,0:0:0:0:
320,192,187515,128,4,187655:0:0:0:0:
448,192,187515,128,2,187655:0:0:0:0:
192,192,187515,1,0,0:0:0:0:
64,192,187655,1,0,0:0:0:0:
64,192,187794,1,8,0:0:0:0:
192,192,187794,1,2,0:0:0:0:
320,192,187794,1,0,0:0:0:0:
192,192,187934,1,0,0:0:0:0:
448,192,187934,1,0,0:0:0:0:
64,192,188073,1,2,0:0:0:0:
320,192,188073,1,0,0:0:0:0:
64,192,188213,1,0,0:0:0:0:
448,192,188213,1,0,0:0:0:0:
192,192,188352,1,8,0:0:0:0:
320,192,188352,1,2,0:0:0:0:
448,192,188352,1,0,0:0:0:0:
320,192,188492,128,0,188631:0:0:0:0:
64,192,188631,128,2,188771:0:0:0:0:
192,192,188631,128,0,188771:0:0:0:0:
448,192,188771,1,0,0:0:0:0:
192,192,188910,1,8,0:0:0:0:
320,192,188910,1,2,0:0:0:0:
448,192,188910,1,0,0:0:0:0:
64,192,189050,1,0,0:0:0:0:
192,192,189050,1,0,0:0:0:0:
320,192,189190,1,2,0:0:0:0:
448,192,189190,1,0,0:0:0:0:
448,192,189329,1,0,0:0:0:0:
320,192,189329,1,0,0:0:0:0:
64,192,189469,1,8,0:0:0:0:
192,192,189469,1,2,0:0:0:0:
320,192,189469,1,0,0:0:0:0:
64,192,189608,1,0,0:0:0:0:
192,192,189608,1,0,0:0:0:0:
320,192,189748,128,2,189887:0:0:0:0:
448,192,189748,128,0,189887:0:0:0:0:
64,192,189887,1,2,0:0:0:0:
192,192,189887,1,0,0:0:0:0:
192,192,190027,1,8,0:0:0:0:
320,192,190027,1,2,0:0:0:0:
448,192,190027,1,0,0:0:0:0:
64,192,190166,1,2,0:0:0:0:
320,192,190166,1,0,0:0:0:0:
64,192,190306,1,2,0:0:0:0:
448,192,190306,1,0,0:0:0:0:
192,192,190376,1,2,0:0:0:0:
320,192,190445,1,2,0:0:0:0:
448,192,190445,1,0,0:0:0:0:
64,192,190515,1,2,0:0:0:0:
192,192,190585,1,8,0:0:0:0:
320,192,190585,1,2,0:0:0:0:
448,192,190655,1,2,0:0:0:0:
64,192,190724,1,2,0:0:0:0:
192,192,190724,1,0,0:0:0:0:
320,192,190794,1,2,0:0:0:0:
64,192,190864,128,4,191003:0:0:0:0:
192,192,190864,128,2,191003:0:0:0:0:
448,192,190864,128,0,191701:0:0:0:0:
320,192,191143,128,0,191422:0:0:0:0:
192,192,191422,128,0,191701:0:0:0:0:
64,192,191701,128,2,191980:0:0:0:0:
320,192,191701,128,0,191841:0:0:0:0:
192,192,191980,128,4,192259:0:0:0:0:
320,192,191980,128,2,192329:0:0:0:0:
448,192,191980,128,0,192399:0:0:0:0:
64,192,192259,1,0,0:0:0:0:
64,192,192399,1,0,0:0:0:0:
320,192,192538,1,0,0:0:0:0:
320,192,192678,128,2,192817:0:0:0:0:
448,192,192678,128,0,192817:0:0:0:0:
64,192,192957,128,4,193097:0:0:0:0:
192,192,192957,128,2,193236:0:0:0:0:
448,192,192957,128,0,193097:0:0:0:0:
320,192,193236,1,2,0:0:0:0:
448,192,193236,1,0,0:0:0:0:
64,192,193376,1,8,0:0:0:0:
192,192,193376,1,2,0:0:0:0:
448,192,193376,1,0,0:0:0:0:
64,192,193515,128,0,193655:0:0:0:0:
320,192,193515,1,0,0:0:0:0:
192,192,193655,1,2,0:0:0:0:
448,192,193655,1,0,0:0:0:0:
320,192,193794,1,0,0:0:0:0:
64,192,193934,1,8,0:0:0:0:
192,192,193934,1,2,0:0:0:0:
320,192,193934,1,0,0:0:0:0:
64,192,194073,1,2,0:0:0:0:
448,192,194073,1,0,0:0:0:0:
192,192,194213,1,2,0:0:0:0:
448,192,194213,128,0,194492:0:0:0:0:
64,192,194352,1,0,0:0:0:0:
64,192,194492,1,8,0:0:0:0:
192,192,194492,128,2,194771:0:0:0:0:
320,192,194492,1,0,0:0:0:0:
448,192,194631,1,0,0:0:0:0:
320,192,194771,128,2,195050:0:0:0:0:
448,192,194771,1,0,0:0:0:0:
192,192,194910,1,0,0:0:0:0:
64,192,195050,128,8,195329:0:0:0:0:
192,192,195050,1,2,0:0:0:0:
448,192,195050,1,0,0:0:0:0:
320,192,195190,1,0,0:0:0:0:
192,192,195329,128,2,195608:0:0:0:0:
448,192,195329,128,0,195469:0:0:0:0:
320,192,195469,1,0,0:0:0:0:
64,192,195608,1,8,0:0:0:0:
320,192,195608,128,2,195748:0:0:0:0:
448,192,195748,128,0,196027:0:0:0:0:
320,192,195887,1,2,0:0:0:0:
192,192,195887,128,0,196027:0:0:0:0:
64,192,196027,1,0,0:0:0:0:
448,192,196097,1,2,0:0:0:0:
320,192,196097,1,0,0:0:0:0:
64,192,196166,128,8,196306:0:0:0:0:
192,192,196166,1,2,0:0:0:0:
320,192,196306,1,2,0:0:0:0:
448,192,196306,1,0,0:0:0:0:
64,192,196445,1,2,0:0:0:0:
320,192,196445,128,0,196585:0:0:0:0:
192,192,196585,1,0,0:0:0:0:
64,192,196724,1,8,0:0:0:0:
192,192,196724,128,2,196864:0:0:0:0:
320,192,196724,1,0,0:0:0:0:
448,192,196864,1,0,0:0:0:0:
64,192,197003,1,2,0:0:0:0:
448,192,197003,128,0,197143:0:0:0:0:
192,192,197143,1,0,0:0:0:0:
192,192,197283,1,8,0:0:0:0:
320,192,197283,1,2,0:0:0:0:
448,192,197283,1,0,0:0:0:0:
64,192,197422,1,0,0:0:0:0:
448,192,197422,1,0,0:0:0:0:
64,192,197562,128,2,197631:0:0:0:0:
192,192,197562,128,0,197631:0:0:0:0:
320,192,197562,128,0,197631:0:0:0:0:
192,192,197701,128,2,197841:0:0:0:0:
320,192,197701,128,0,197841:0:0:0:0:
448,192,197701,128,0,197841:0:0:0:0:
64,192,197841,1,0,0:0:0:0:
64,192,197980,128,4,198399:0:0:0:0:
320,192,197980,128,2,198329:0:0:0:0:
448,192,197980,128,0,198329:0:0:0:0:
192,192,198329,1,2,0:0:0:0:
320,192,198399,1,2,0:0:0:0:
448,192,198399,1,0,0:0:0:0:
64,192,198538,1,2,0:0:0:0:
192,192,198538,1,0,0:0:0:0:
448,192,198608,1,2,0:0:0:0:
64,192,198678,1,4,0:0:0:0:
192,192,198678,128,2,198817:0:0:0:0:
320,192,198678,1,0,0:0:0:0:
448,192,198817,1,0,0:0:0:0:
64,192,198957,1,8,0:0:0:0:
192,192,198957,128,2,199097:0:0:0:0:
320,192,198957,1,0,0:0:0:0:
448,192,199097,1,0,0:0:0:0:
64,192,199236,1,2,0:0:0:0:
320,192,199236,1,0,0:0:0:0:
320,192,199376,128,0,199515:0:0:0:0:
64,192,199515,1,8,0:0:0:0:
192,192,199515,1,2,0:0:0:0:
448,192,199515,1,0,0:0:0:0:
448,192,199655,128,0,199934:0:0:0:0:
192,192,199794,1,2,0:0:0:0:
320,192,199794,1,0,0:0:0:0:
64,192,199934,1,2,0:0:0:0:
192,192,199934,1,0,0:0:0:0:
64,192,200073,1,2,0:0:0:0:
320,192,200073,1,0,0:0:0:0:
320,192,200213,128,2,200283:0:0:0:0:
448,192,200213,1,0,0:0:0:0:
192,192,200283,128,0,200352:0:0:0:0:
320,192,200352,128,0,200422:0:0:0:0:
192,192,200422,128,0,200492:0:0:0:0:
448,192,200492,128,0,200562:0:0:0:0:
64,192,200631,128,0,200701:0:0:0:0:
192,192,200631,1,0,0:0:0:0:
64,192,200771,128,0,200841:0:0:0:0:
192,192,200771,1,0,0:0:0:0:
64,192,200910,128,4,201329:0:0:0:0:
192,192,200910,128,2,201259:0:0:0:0:
320,192,200910,128,0,201190:0:0:0:0:
448,192,201190,1,0,0:0:0:0:
448,192,201329,1,0,0:0:0:0:
192,192,201469,1,0,0:0:0:0:
64,192,201608,128,2,201748:0:0:0:0:
192,192,201608,128,0,201748:0:0:0:0:
64,192,201887,128,4,202027:0:0:0:0:
320,192,201887,128,2,202027:0:0:0:0:
448,192,201887,128,0,202166:0:0:0:0:
64,192,202166,1,2,0:0:0:0:
192,192,202166,1,0,0:0:0:0:
64,192,202306,1,8,0:0:0:0:
320,192,202306,1,2,0:0:0:0:
448,192,202306,1,0,0:0:0:0:
192,192,202445,1,0,0:0:0:0:
320,192,202445,128,0,202585:0:0:0:0:
64,192,202585,1,2,0:0:0:0:
448,192,202585,1,0,0:0:0:0:
192,192,202724,1,0,0:0:0:0:
192,192,202864,1,8,0:0:0:0:
320,192,202864,1,2,0:0:0:0:
448,192,202864,1,0,0:0:0:0:
64,192,203003,1,2,0:0:0:0:
320,192,203003,1,0,0:0:0:0:
64,192,203143,128,2,203283:0:0:0:0:
448,192,203143,1,0,0:0:0:0:
320,192,203283,1,0,0:0:0:0:
64,192,203422,1,8,0:0:0:0:
320,192,203422,1,2,0:0:0:0:
448,192,203422,128,0,203562:0:0:0:0:
192,192,203562,1,0,0:0:0:0:
64,192,203701,1,2,0:0:0:0:
448,192,203701,128,0,203841:0:0:0:0:
192,192,203841,1,0,0:0:0:0:
64,192,203980,1,8,0:0:0:0:
320,192,203980,1,2,0:0:0:0:
448,192,203980,1,0,0:0:0:0:
192,192,204120,1,0,0:0:0:0:
320,192,204120,1,0,0:0:0:0:
192,192,204259,128,2,204399:0:0:0:0:
448,192,204259,128,0,204399:0:0:0:0:
64,192,204399,128,0,204538:0:0:0:0:
192,192,204538,1,8,0:0:0:0:
320,192,204538,128,2,204678:0:0:0:0:
448,192,204678,128,0,204957:0:0:0:0:
320,192,204817,1,2,0:0:0:0:
192,192,204817,128,0,204957:0:0:0:0:
64,192,204957,1,0,0:0:0:0:
448,192,205027,1,2,0:0:0:0:
320,192,205027,1,0,0:0:0:0:
64,192,205097,128,8,205236:0:0:0:0:
192,192,205097,1,2,0:0:0:0:
320,192,205236,1,2,0:0:0:0:
448,192,205236,1,0,0:0:0:0:
64,192,205376,1,2,0:0:0:0:
320,192,205376,128,0,205515:0:0:0:0:
192,192,205515,1,0,0:0:0:0:
64,192,205655,1,8,0:0:0:0:
192,192,205655,128,2,205794:0:0:0:0:
320,192,205655,1,0,0:0:0:0:
448,192,205794,1,0,0:0:0:0:
192,192,205934,1,2,0:0:0:0:
448,192,205934,128,0,206213:0:0:0:0:
64,192,206073,1,0,0:0:0:0:
64,192,206213,128,8,206352:0:0:0:0:
192,192,206213,1,2,0:0:0:0:
320,192,206213,1,0,0:0:0:0:
448,192,206352,1,0,0:0:0:0:
192,192,206492,128,2,206562:0:0:0:0:
320,192,206492,128,0,206562:0:0:0:0:
448,192,206492,128,0,206562:0:0:0:0:
64,192,206631,128,2,206771:0:0:0:0:
192,192,206631,128,0,206771:0:0:0:0:
320,192,206631,128,0,206771:0:0:0:0:
448,192,206771,1,0,0:0:0:0:
64,192,206910,128,4,207259:0:0:0:0:
192,192,206910,128,2,207259:0:0:0:0:
448,192,206910,128,0,207329:0:0:0:0:
320,192,207259,1,2,0:0:0:0:
64,192,207329,1,2,0:0:0:0:
192,192,207329,1,0,0:0:0:0:
320,192,207469,1,2,0:0:0:0:
448,192,207469,1,0,0:0:0:0:
64,192,207538,1,2,0:0:0:0:
192,192,207608,1,4,0:0:0:0:
320,192,207608,128,2,207887:0:0:0:0:
448,192,207608,1,0,0:0:0:0:
64,192,207748,1,0,0:0:0:0:
64,192,207887,128,8,208027:0:0:0:0:
192,192,207887,1,2,0:0:0:0:
448,192,207887,1,0,0:0:0:0:
320,192,208027,1,0,0:0:0:0:
64,192,208166,1,2,0:0:0:0:
448,192,208166,1,0,0:0:0:0:
448,192,208306,128,0,208445:0:0:0:0:
64,192,208445,1,8,0:0:0:0:
192,192,208445,1,2,0:0:0:0:
320,192,208445,1,0,0:0:0:0:
192,192,208585,128,0,208864:0:0:0:0:
448,192,208724,1,2,0:0:0:0:
320,192,208724,128,0,208794:0:0:0:0:
320,192,208864,128,0,208934:0:0:0:0:
64,192,209003,128,8,209073:0:0:0:0:
192,192,209003,1,2,0:0:0:0:
448,192,209003,128,0,209143:0:0:0:0:
64,192,209143,128,0,209213:0:0:0:0:
192,192,209283,128,2,209422:0:0:0:0:
448,192,209283,128,0,209352:0:0:0:0:
448,192,209422,128,0,209492:0:0:0:0:
64,192,209562,1,8,0:0:0:0:
192,192,209562,128,2,209631:0:0:0:0:
320,192,209562,128,0,209701:0:0:0:0:
192,192,209701,128,0,209771:0:0:0:0:
64,192,209841,128,4,210120:0:0:0:0:
320,192,209841,128,2,209980:0:0:0:0:
448,192,209841,128,0,209980:0:0:0:0:
192,192,209980,1,0,0:0:0:0:
192,192,210120,1,8,0:0:0:0:
320,192,210120,1,2,0:0:0:0:
448,192,210120,1,0,0:0:0:0:
448,192,210259,128,0,210399:0:0:0:0:
192,192,210399,1,2,0:0:0:0:
320,192,210399,1,0,0:0:0:0:
192,192,210538,128,0,210678:0:0:0:0:
64,192,210678,1,8,0:0:0:0:
320,192,210678,1,2,0:0:0:0:
448,192,210678,1,0,0:0:0:0:
320,192,210817,128,0,211097:0:0:0:0:
192,192,210957,1,2,0:0:0:0:
448,192,210957,1,0,0:0:0:0:
64,192,211097,1,0,0:0:0:0:
192,192,211236,1,8,0:0:0:0:
320,192,211236,1,2,0:0:0:0:
448,192,211236,128,0,211376:0:0:0:0:
192,192,211376,1,0,0:0:0:0:
64,192,211515,128,2,211655:0:0:0:0:
320,192,211515,1,0,0:0:0:0:
320,192,211655,1,0,0:0:0:0:
64,192,211794,1,8,0:0:0:0:
192,192,211794,1,2,0:0:0:0:
448,192,211794,1,0,0:0:0:0:
320,192,211934,1,2,0:0:0:0:
192,192,211934,1,0,0:0:0:0:
64,192,212073,128,2,212143:0:0:0:0:
320,192,212073,128,0,212143:0:0:0:0:
448,192,212073,128,0,212143:0:0:0:0:
64,192,212213,128,2,212283:0:0:0:0:
320,192,212213,128,0,212283:0:0:0:0:
448,192,212213,128,0,212283:0:0:0:0:
192,192,212352,128,8,212492:0:0:0:0:
448,192,212352,128,0,212492:0:0:0:0:
64,192,212492,1,0,0:0:0:0:
320,192,212562,1,0,0:0:0:0:
64,192,212631,128,2,212701:0:0:0:0:
192,192,212631,128,0,212701:0:0:0:0:
448,192,212631,128,0,212701:0:0:0:0:
64,192,212771,128,2,212841:0:0:0:0:
192,192,212771,128,0,212841:0:0:0:0:
448,192,212771,128,0,212841:0:0:0:0:
64,192,212910,128,8,213050:0:0:0:0:
320,192,212910,128,0,213050:0:0:0:0:
448,192,213050,1,0,0:0:0:0:
192,192,213120,1,0,0:0:0:0:
64,192,213190,128,2,213259:0:0:0:0:
320,192,213190,128,0,213259:0:0:0:0:
448,192,213190,128,0,213259:0:0:0:0:
64,192,213329,128,2,213399:0:0:0:0:
320,192,213329,128,0,213399:0:0:0:0:
448,192,213329,128,0,213399:0:0:0:0:
192,192,213469,128,8,213608:0:0:0:0:
448,192,213469,128,0,213608:0:0:0:0:
64,192,213608,1,0,0:0:0:0:
320,192,213678,1,0,0:0:0:0:
64,192,213748,128,2,213817:0:0:0:0:
192,192,213748,128,0,213817:0:0:0:0:
448,192,213748,128,0,213817:0:0:0:0:
64,192,213887,128,2,213957:0:0:0:0:
192,192,213887,128,0,213957:0:0:0:0:
448,192,213887,128,0,213957:0:0:0:0:
320,192,213957,1,2,0:0:0:0:
64,192,214027,1,2,0:0:0:0:
192,192,214027,1,8,0:0:0:0:
448,192,214097,1,2,0:0:0:0:
320,192,214166,1,2,0:0:0:0:
192,192,214236,1,2,0:0:0:0:
64,192,214306,128,4,214445:0:0:0:0:
448,192,214306,128,2,214585:0:0:0:0:
320,192,214306,128,0,214445:0:0:0:0:
192,192,214445,1,0,0:0:0:0:
64,192,214585,1,8,0:0:0:0:
192,192,214585,1,2,0:0:0:0:
320,192,214585,1,0,0:0:0:0:
320,192,214724,128,0,214864:0:0:0:0:
64,192,214864,1,2,0:0:0:0:
448,192,214864,1,0,0:0:0:0:
64,192,215003,128,0,215143:0:0:0:0:
192,192,215143,1,8,0:0:0:0:
320,192,215143,1,2,0:0:0:0:
448,192,215143,1,0,0:0:0:0:
448,192,215283,128,0,215562:0:0:0:0:
64,192,215422,1,2,0:0:0:0:
320,192,215422,1,0,0:0:0:0:
192,192,215562,1,0,0:0:0:0:
64,192,215701,128,8,215841:0:0:0:0:
320,192,215701,1,2,0:0:0:0:
448,192,215701,1,0,0:0:0:0:
320,192,215841,1,0,0:0:0:0:
192,192,215980,1,2,0:0:0:0:
448,192,215980,128,0,216120:0:0:0:0:
192,192,216120,1,0,0:0:0:0:
64,192,216259,1,8,0:0:0:0:
320,192,216259,1,2,0:0:0:0:
448,192,216259,1,0,0:0:0:0:
192,192,216399,1,2,0:0:0:0:
448,192,216399,1,0,0:0:0:0:
64,192,216538,128,4,216957:0:0:0:0:
192,192,216538,128,2,216887:0:0:0:0:
320,192,216538,128,0,216817:0:0:0:0:
448,192,216817,128,0,216957:0:0:0:0:
320,192,216957,128,0,217097:0:0:0:0:
64,192,217097,1,0,0:0:0:0:
192,192,217097,128,8,217306:0:0:0:0:
448,192,217236,128,0,217306:0:0:0:0:
320,192,217376,1,0,0:0:0:0:
64,192,217515,1,0,0:0:0:0:
320,192,217515,1,8,0:0:0:0:
64,192,217655,1,0,0:0:0:0:
320,192,217794,128,8,217934:0:0:0:0:
192,192,217794,1,0,0:0:0:0:
192,192,217934,128,0,218073:0:0:0:0:
320,192,218213,128,0,218283:0:0:0:0:
448,192,218213,128,0,218283:0:0:0:0:
64,192,218283,128,0,218352:0:0:0:0:
192,192,218352,128,0,218422:0:0:0:0:
320,192,218422,128,0,218492:0:0:0:0:
448,192,218492,128,0,218562:0:0:0:0:
64,192,218562,128,0,218631:0:0:0:0:
192,192,218631,128,0,218701:0:0:0:0:
320,192,218701,128,0,218771:0:0:0:0:
64,192,218771,1,4,0:0:0:0:
192,192,218771,1,2,0:0:0:0:
448,192,218771,128,0,218910:0:0:0:0:
64,192,218910,128,0,219050:0:0:0:0:
192,192,219050,128,8,219190:0:0:0:0:
320,192,219050,1,2,0:0:0:0:
448,192,219050,1,0,0:0:0:0:
448,192,219190,128,0,219748:0:0:0:0:
192,192,219329,1,2,0:0:0:0:
320,192,219329,1,0,0:0:0:0:
64,192,219469,1,0,0:0:0:0:
64,192,219608,1,8,0:0:0:0:
192,192,219608,1,2,0:0:0:0:
320,192,219608,1,0,0:0:0:0:
192,192,219748,128,0,219817:0:0:0:0:
320,192,219817,128,0,219887:0:0:0:0:
64,192,219887,128,2,220027:0:0:0:0:
448,192,219887,1,0,0:0:0:0:
448,192,220027,128,0,220166:0:0:0:0:
64,192,220166,1,8,0:0:0:0:
192,192,220166,1,2,0:0:0:0:
320,192,220166,128,0,220306:0:0:0:0:
64,192,220306,128,0,220724:0:0:0:0:
192,192,220445,1,2,0:0:0:0:
320,192,220445,1,0,0:0:0:0:
448,192,220585,1,0,0:0:0:0:
320,192,220724,1,2,0:0:0:0:
448,192,220724,1,0,0:0:0:0:
192,192,220724,128,8,220864:0:0:0:0:
64,192,220864,1,2,0:0:0:0:
320,192,220864,128,0,221003:0:0:0:0:
64,192,221003,128,2,221097:0:0:0:0:
192,192,221003,1,0,0:0:0:0:
448,192,221097,128,0,221190:0:0:0:0:
192,192,221190,128,0,221283:0:0:0:0:
320,192,221283,128,8,221469:0:0:0:0:
448,192,221283,128,2,221376:0:0:0:0:
64,192,221376,128,0,221562:0:0:0:0:
192,192,221469,128,0,221562:0:0:0:0:
320,192,221562,1,2,0:0:0:0:
448,192,221562,128,0,221655:0:0:0:0:
64,192,221655,128,0,221748:0:0:0:0:
320,192,221748,128,0,221841:0:0:0:0:
64,192,221841,128,8,221934:0:0:0:0:
192,192,221841,128,2,222027:0:0:0:0:
448,192,221934,128,0,222120:0:0:0:0:
320,192,222027,128,0,222120:0:0:0:0:
64,192,222120,128,2,222213:0:0:0:0:
192,192,222120,1,0,0:0:0:0:
448,192,222213,128,0,222306:0:0:0:0:
192,192,222306,128,0,222399:0:0:0:0:
320,192,222399,128,8,222585:0:0:0:0:
448,192,222399,128,2,222492:0:0:0:0:
64,192,222492,128,0,222678:0:0:0:0:
192,192,222585,128,0,222678:0:0:0:0:
320,192,222678,128,2,222771:0:0:0:0:
448,192,222678,1,0,0:0:0:0:
64,192,222771,128,0,222864:0:0:0:0:
448,192,222864,128,0,222957:0:0:0:0:
64,192,222957,1,8,0:0:0:0:
192,192,222957,1,2,0:0:0:0:
320,192,222957,1,0,0:0:0:0:
448,192,223097,1,2,0:0:0:0:
192,192,223097,1,0,0:0:0:0:
64,192,223236,1,4,0:0:0:0:
320,192,223236,128,2,223306:0:0:0:0:
448,192,223236,1,0,0:0:0:0:
192,192,223306,128,0,223376:0:0:0:0:
64,192,223376,128,0,223445:0:0:0:0:
320,192,223445,128,0,223515:0:0:0:0:
448,192,223515,128,10,223585:0:0:0:0:
64,192,223585,128,0,223655:0:0:0:0:
192,192,223655,128,0,223724:0:0:0:0:
448,192,223724,128,0,223794:0:0:0:0:
320,192,223794,128,2,223864:0:0:0:0:
64,192,223864,128,0,223934:0:0:0:0:
192,192,223934,128,0,224003:0:0:0:0:
320,192,224003,128,0,224073:0:0:0:0:
64,192,224073,1,8,0:0:0:0:
192,192,224073,1,2,0:0:0:0:
448,192,224073,128,0,224352:0:0:0:0:
64,192,224213,1,0,0:0:0:0:
192,192,224352,1,2,0:0:0:0:
320,192,224352,128,0,224492:0:0:0:0:
448,192,224492,128,0,224562:0:0:0:0:
64,192,224631,1,8,0:0:0:0:
192,192,224631,128,2,224771:0:0:0:0:
448,192,224631,1,0,0:0:0:0:
320,192,224771,128,0,224841:0:0:0:0:
64,192,224910,128,2,225050:0:0:0:0:
320,192,224910,1,0,0:0:0:0:
192,192,225050,128,0,225120:0:0:0:0:
64,192,225190,1,8,0:0:0:0:
192,192,225190,1,2,0:0:0:0:
448,192,225190,128,0,225329:0:0:0:0:
64,192,225329,128,2,225469:0:0:0:0:
320,192,225329,1,0,0:0:0:0:
192,192,225469,128,2,225608:0:0:0:0:
320,192,225469,1,0,0:0:0:0:
64,192,225608,1,2,0:0:0:0:
448,192,225608,1,0,0:0:0:0:
64,192,225748,1,8,0:0:0:0:
192,192,225748,1,2,0:0:0:0:
320,192,225748,1,0,0:0:0:0:
192,192,225887,1,2,0:0:0:0:
448,192,225887,1,0,0:0:0:0:
64,192,226027,1,2,0:0:0:0:
320,192,226027,128,0,226166:0:0:0:0:
64,192,226166,1,2,0:0:0:0:
448,192,226166,1,0,0:0:0:0:
192,192,226306,1,8,0:0:0:0:
320,192,226306,1,2,0:0:0:0:
448,192,226306,1,0,0:0:0:0:
64,192,226445,1,2,0:0:0:0:
320,192,226445,1,0,0:0:0:0:
192,192,226585,1,2,0:0:0:0:
448,192,226585,128,0,226724:0:0:0:0:
64,192,226724,1,2,0:0:0:0:
320,192,226724,1,0,0:0:0:0:
192,192,226794,1,2,0:0:0:0:
64,192,226864,1,8,0:0:0:0:
320,192,226864,1,2,0:0:0:0:
448,192,226864,1,0,0:0:0:0:
192,192,227003,1,2,0:0:0:0:
448,192,227003,1,0,0:0:0:0:
320,192,227073,1,2,0:0:0:0:
64,192,227143,1,2,0:0:0:0:
192,192,227143,1,0,0:0:0:0:
320,192,227213,1,2,0:0:0:0:
448,192,227213,1,0,0:0:0:0:
64,192,227283,1,2,0:0:0:0:
192,192,227283,1,0,0:0:0:0:
320,192,227352,1,2,0:0:0:0:
448,192,227352,1,0,0:0:0:0:
64,192,227422,1,8,0:0:0:0:
192,192,227422,1,2,0:0:0:0:
320,192,227492,1,2,0:0:0:0:
448,192,227492,1,0,0:0:0:0:
64,192,227562,1,2,0:0:0:0:
192,192,227562,1,0,0:0:0:0:
448,192,227631,1,2,0:0:0:0:
64,192,227701,128,2,228120:0:0:0:0:
192,192,227701,128,0,228050:0:0:0:0:
320,192,227701,128,4,227980:0:0:0:0:
64,192,228399,128,2,228538:0:0:0:0:
320,192,228399,128,0,228538:0:0:0:0:
448,192,228399,128,0,228538:0:0:0:0:
192,192,228817,128,2,229097:0:0:0:0:
320,192,228817,128,0,229097:0:0:0:0:
448,192,228817,128,0,229097:0:0:0:0:
64,192,229236,128,2,229515:0:0:0:0:
192,192,229236,128,0,229585:0:0:0:0:
320,192,229236,128,0,229655:0:0:0:0:
192,192,230073,128,0,230213:0:0:0:0:
64,192,230213,128,2,230492:0:0:0:0:
320,192,230213,128,0,230492:0:0:0:0:
448,192,230213,128,0,230492:0:0:0:0:
64,192,230631,128,2,230910:0:0:0:0:
192,192,230631,128,0,230910:0:0:0:0:
448,192,230631,128,0,230910:0:0:0:0:
64,192,231050,128,2,231190:0:0:0:0:
320,192,231050,128,0,231259:0:0:0:0:
448,192,231050,128,0,231259:0:0:0:0:
192,192,231329,128,2,231538:0:0:0:0:
320,192,231329,128,0,231538:0:0:0:0:
448,192,231329,128,0,231469:0:0:0:0:
64,192,231608,128,2,231817:0:0:0:0:
192,192,231608,128,0,231817:0:0:0:0:
320,192,231608,128,0,231748:0:0:0:0:
320,192,231817,1,2,0:0:0:0:
448,192,231817,1,0,0:0:0:0:
64,192,231887,1,2,0:0:0:0:
192,192,231887,1,0,0:0:0:0:
192,192,232027,1,2,0:0:0:0:
448,192,232027,1,0,0:0:0:0:
64,192,232166,128,4,232306:0:0:0:0:
320,192,232166,128,2,232445:0:0:0:0:
448,192,232166,128,0,232306:0:0:0:0:
192,192,232306,1,0,0:0:0:0:
64,192,232445,1,8,0:0:0:0:
192,192,232445,128,2,232585:0:0:0:0:
448,192,232445,1,0,0:0:0:0:
320,192,232585,1,0,0:0:0:0:
192,192,232724,1,2,0:0:0:0:
448,192,232724,128,0,232864:0:0:0:0:
64,192,232864,1,0,0:0:0:0:
64,192,233003,1,8,0:0:0:0:
320,192,233003,1,2,0:0:0:0:
448,192,233003,1,0,0:0:0:0:
192,192,233143,1,0,0:0:0:0:
320,192,233143,1,0,0:0:0:0:
64,192,233283,128,2,233352:0:0:0:0:
192,192,233283,128,0,233352:0:0:0:0:
448,192,233283,128,0,233352:0:0:0:0:
64,192,233422,128,2,233562:0:0:0:0:
320,192,233422,128,0,233562:0:0:0:0:
448,192,233422,128,0,233562:0:0:0:0:
192,192,233562,1,0,0:0:0:0:
192,192,233701,128,4,234120:0:0:0:0:
320,192,233701,128,2,234050:0:0:0:0:
448,192,233701,128,0,234050:0:0:0:0:
64,192,234050,1,2,0:0:0:0:
320,192,234120,1,2,0:0:0:0:
448,192,234120,1,0,0:0:0:0:
64,192,234259,1,2,0:0:0:0:
192,192,234259,1,0,0:0:0:0:
448,192,234329,1,2,0:0:0:0:
64,192,234399,1,4,0:0:0:0:
192,192,234399,128,2,234538:0:0:0:0:
320,192,234399,1,0,0:0:0:0:
448,192,234538,1,0,0:0:0:0:
64,192,234678,1,8,0:0:0:0:
320,192,234678,1,2,0:0:0:0:
448,192,234678,128,0,234817:0:0:0:0:
192,192,234817,1,0,0:0:0:0:
64,192,234957,128,2,235097:0:0:0:0:
320,192,234957,1,0,0:0:0:0:
320,192,235097,128,0,235376:0:0:0:0:
64,192,235236,1,8,0:0:0:0:
192,192,235236,1,2,0:0:0:0:
448,192,235236,1,0,0:0:0:0:
192,192,235376,128,0,235515:0:0:0:0:
320,192,235515,1,2,0:0:0:0:
448,192,235515,1,0,0:0:0:0:
64,192,235655,1,2,0:0:0:0:
192,192,235655,1,0,0:0:0:0:
192,192,235794,1,2,0:0:0:0:
320,192,235794,1,0,0:0:0:0:
320,192,235934,128,2,236003:0:0:0:0:
448,192,235934,1,0,0:0:0:0:
64,192,236003,128,0,236073:0:0:0:0:
320,192,236073,128,0,236143:0:0:0:0:
64,192,236143,128,0,236213:0:0:0:0:
448,192,236213,128,0,236283:0:0:0:0:
192,192,236352,128,0,236422:0:0:0:0:
64,192,236352,1,0,0:0:0:0:
64,192,236492,1,0,0:0:0:0:
192,192,236492,128,0,236562:0:0:0:0:
64,192,236631,128,4,237050:0:0:0:0:
192,192,236631,128,2,236980:0:0:0:0:
320,192,236631,128,0,236910:0:0:0:0:
448,192,236910,1,0,0:0:0:0:
448,192,237050,1,0,0:0:0:0:
192,192,237190,1,0,0:0:0:0:
64,192,237329,128,2,237469:0:0:0:0:
192,192,237329,128,0,237469:0:0:0:0:
64,192,237608,128,4,237748:0:0:0:0:
320,192,237608,128,2,237748:0:0:0:0:
448,192,237608,128,0,237887:0:0:0:0:
64,192,237887,1,2,0:0:0:0:
192,192,237887,1,0,0:0:0:0:
64,192,238027,1,8,0:0:0:0:
320,192,238027,1,2,0:0:0:0:
448,192,238027,1,0,0:0:0:0:
192,192,238166,1,0,0:0:0:0:
320,192,238166,128,0,238306:0:0:0:0:
64,192,238306,1,2,0:0:0:0:
448,192,238306,1,0,0:0:0:0:
192,192,238445,1,0,0:0:0:0:
192,192,238585,1,8,0:0:0:0:
320,192,238585,1,2,0:0:0:0:
448,192,238585,1,0,0:0:0:0:
64,192,238724,1,2,0:0:0:0:
320,192,238724,1,0,0:0:0:0:
64,192,238864,128,2,239003:0:0:0:0:
448,192,238864,1,0,0:0:0:0:
320,192,239003,1,0,0:0:0:0:
192,192,239143,1,8,0:0:0:0:
320,192,239143,1,2,0:0:0:0:
448,192,239143,128,0,239422:0:0:0:0:
64,192,239283,1,0,0:0:0:0:
64,192,239422,1,2,0:0:0:0:
192,192,239422,128,0,239562:0:0:0:0:
448,192,239562,1,0,0:0:0:0:
64,192,239701,1,8,0:0:0:0:
320,192,239701,1,2,0:0:0:0:
448,192,239701,1,0,0:0:0:0:
192,192,239841,1,0,0:0:0:0:
320,192,239841,1,0,0:0:0:0:
64,192,239980,128,2,240259:0:0:0:0:
448,192,239980,128,0,240120:0:0:0:0:
320,192,240120,1,0,0:0:0:0:
192,192,240259,1,8,0:0:0:0:
320,192,240259,128,2,240399:0:0:0:0:
448,192,240399,128,0,240678:0:0:0:0:
320,192,240538,1,2,0:0:0:0:
192,192,240538,128,0,240678:0:0:0:0:
64,192,240678,1,0,0:0:0:0:
448,192,240748,1,2,0:0:0:0:
320,192,240748,1,0,0:0:0:0:
64,192,240817,128,8,240957:0:0:0:0:
192,192,240817,1,2,0:0:0:0:
320,192,240957,1,2,0:0:0:0:
448,192,240957,1,0,0:0:0:0:
64,192,241097,1,2,0:0:0:0:
320,192,241097,128,0,241236:0:0:0:0:
192,192,241236,1,0,0:0:0:0:
64,192,241376,1,8,0:0:0:0:
192,192,241376,128,2,241515:0:0:0:0:
320,192,241376,1,0,0:0:0:0:
448,192,241515,1,0,0:0:0:0:
192,192,241655,1,2,0:0:0:0:
448,192,241655,128,0,241794:0:0:0:0:
64,192,241794,1,0,0:0:0:0:
64,192,241934,128,8,242073:0:0:0:0:
192,192,241934,1,2,0:0:0:0:
448,192,241934,1,0,0:0:0:0:
320,192,242073,1,0,0:0:0:0:
64,192,242213,128,2,242283:0:0:0:0:
320,192,242213,128,0,242283:0:0:0:0:
448,192,242213,128,0,242283:0:0:0:0:
64,192,242352,128,2,242492:0:0:0:0:
192,192,242352,128,0,242492:0:0:0:0:
448,192,242352,128,0,242492:0:0:0:0:
320,192,242492,1,0,0:0:0:0:
64,192,242631,128,4,242980:0:0:0:0:
192,192,242631,128,2,242980:0:0:0:0:
320,192,242631,128,0,243050:0:0:0:0:
448,192,242980,1,2,0:0:0:0:
64,192,243050,1,2,0:0:0:0:
192,192,243050,1,0,0:0:0:0:
320,192,243190,1,2,0:0:0:0:
448,192,243190,1,0,0:0:0:0:
192,192,243259,1,2,0:0:0:0:
64,192,243329,1,4,0:0:0:0:
320,192,243329,1,2,0:0:0:0:
448,192,243329,128,0,243608:0:0:0:0:
192,192,243469,1,0,0:0:0:0:
64,192,243608,1,8,0:0:0:0:
192,192,243608,128,2,243748:0:0:0:0:
320,192,243608,1,0,0:0:0:0:
448,192,243748,1,0,0:0:0:0:
192,192,243887,1,2,0:0:0:0:
320,192,243887,1,0,0:0:0:0:
320,192,244027,128,0,244166:0:0:0:0:
64,192,244166,1,8,0:0:0:0:
192,192,244166,1,2,0:0:0:0:
448,192,244166,1,0,0:0:0:0:
64,192,244306,128,0,244585:0:0:0:0:
320,192,244445,1,2,0:0:0:0:
448,192,244445,128,0,244515:0:0:0:0:
448,192,244585,128,0,244655:0:0:0:0:
64,192,244724,1,8,0:0:0:0:
192,192,244724,128,2,244794:0:0:0:0:
320,192,244724,128,0,244864:0:0:0:0:
192,192,244864,128,0,244934:0:0:0:0:
64,192,245003,128,2,245143:0:0:0:0:
320,192,245003,128,0,245073:0:0:0:0:
320,192,245143,128,0,245213:0:0:0:0:
64,192,245283,128,8,245352:0:0:0:0:
192,192,245283,1,2,0:0:0:0:
448,192,245283,128,0,245422:0:0:0:0:
64,192,245422,128,0,245492:0:0:0:0:
192,192,245562,128,4,245841:0:0:0:0:
320,192,245562,128,2,245701:0:0:0:0:
448,192,245562,128,0,245701:0:0:0:0:
64,192,245701,1,0,0:0:0:0:
64,192,245841,1,8,0:0:0:0:
320,192,245841,1,2,0:0:0:0:
448,192,245841,1,0,0:0:0:0:
320,192,245980,128,0,246120:0:0:0:0:
64,192,246120,1,2,0:0:0:0:
448,192,246120,1,0,0:0:0:0:
64,192,246259,128,0,246399:0:0:0:0:
192,192,246399,1,8,0:0:0:0:
320,192,246399,1,2,0:0:0:0:
448,192,246399,1,0,0:0:0:0:
448,192,246538,128,0,246817:0:0:0:0:
64,192,246678,1,2,0:0:0:0:
320,192,246678,1,0,0:0:0:0:
192,192,246817,1,0,0:0:0:0:
448,192,246957,1,8,0:0:0:0:
320,192,246957,128,2,247097:0:0:0:0:
64,192,246957,1,0,0:0:0:0:
64,192,247097,1,0,0:0:0:0:
192,192,247236,128,2,247376:0:0:0:0:
448,192,247236,1,0,0:0:0:0:
448,192,247376,1,0,0:0:0:0:
64,192,247515,1,8,0:0:0:0:
192,192,247515,1,2,0:0:0:0:
320,192,247515,1,0,0:0:0:0:
64,192,247655,1,2,0:0:0:0:
448,192,247655,1,0,0:0:0:0:
192,192,247794,128,2,247864:0:0:0:0:
320,192,247794,128,0,247864:0:0:0:0:
448,192,247794,128,0,247864:0:0:0:0:
192,192,247934,128,2,248003:0:0:0:0:
320,192,247934,128,0,248003:0:0:0:0:
448,192,247934,128,0,248003:0:0:0:0:
64,192,248073,128,8,248213:0:0:0:0:
320,192,248073,128,0,248213:0:0:0:0:
192,192,248213,1,0,0:0:0:0:
448,192,248283,1,0,0:0:0:0:
64,192,248352,128,2,248422:0:0:0:0:
192,192,248352,128,0,248422:0:0:0:0:
320,192,248352,128,0,248422:0:0:0:0:
64,192,248492,128,2,248562:0:0:0:0:
192,192,248492,128,0,248562:0:0:0:0:
320,192,248492,128,0,248562:0:0:0:0:
192,192,248631,128,8,248771:0:0:0:0:
448,192,248631,128,0,248771:0:0:0:0:
320,192,248771,1,0,0:0:0:0:
64,192,248841,1,0,0:0:0:0:
192,192,248910,128,2,248980:0:0:0:0:
320,192,248910,128,0,248980:0:0:0:0:
448,192,248910,128,0,248980:0:0:0:0:
192,192,249050,128,2,249120:0:0:0:0:
320,192,249050,128,0,249120:0:0:0:0:
448,192,249050,128,0,249120:0:0:0:0:
64,192,249190,128,8,249329:0:0:0:0:
320,192,249190,128,0,249329:0:0:0:0:
192,192,249329,1,0,0:0:0:0:
448,192,249399,1,0,0:0:0:0:
64,192,249469,128,2,249538:0:0:0:0:
192,192,249469,128,0,249538:0:0:0:0:
320,192,249469,128,0,249538:0:0:0:0:
64,192,249608,128,2,249678:0:0:0:0:
192,192,249608,128,0,249678:0:0:0:0:
320,192,249608,128,0,249678:0:0:0:0:
448,192,249678,1,2,0:0:0:0:
64,192,249748,1,2,0:0:0:0:
192,192,249748,1,8,0:0:0:0:
320,192,249817,1,2,0:0:0:0:
448,192,249887,1,2,0:0:0:0:
192,192,249957,1,2,0:0:0:0:
64,192,250027,128,4,250166:0:0:0:0:
320,192,250027,128,2,250306:0:0:0:0:
448,192,250027,128,0,250166:0:0:0:0:
192,192,250166,1,0,0:0:0:0:
64,192,250306,1,8,0:0:0:0:
192,192,250306,1,2,0:0:0:0:
448,192,250306,1,0,0:0:0:0:
448,192,250445,128,0,250585:0:0:0:0:
64,192,250585,1,2,0:0:0:0:
320,192,250585,1,0,0:0:0:0:
64,192,250724,128,0,250864:0:0:0:0:
192,192,250864,1,8,0:0:0:0:
320,192,250864,1,2,0:0:0:0:
448,192,250864,1,0,0:0:0:0:
320,192,251003,128,0,251283:0:0:0:0:
64,192,251143,1,2,0:0:0:0:
448,192,251143,1,0,0:0:0:0:
192,192,251283,1,0,0:0:0:0:
64,192,251422,128,8,251562:0:0:0:0:
320,192,251422,1,2,0:0:0:0:
448,192,251422,1,0,0:0:0:0:
448,192,251562,1,0,0:0:0:0:
192,192,251701,1,2,0:0:0:0:
320,192,251701,128,0,251841:0:0:0:0:
192,192,251841,1,0,0:0:0:0:
64,192,251980,1,8,0:0:0:0:
320,192,251980,1,2,0:0:0:0:
448,192,251980,1,0,0:0:0:0:
192,192,252120,1,2,0:0:0:0:
448,192,252120,1,0,0:0:0:0:
64,192,252259,128,4,252678:0:0:0:0:
192,192,252259,128,2,252608:0:0:0:0:
320,192,252259,128,0,252538:0:0:0:0:
448,192,252538,128,0,252678:0:0:0:0:
320,192,252678,128,0,252817:0:0:0:0:
64,192,252817,1,0,0:0:0:0:
192,192,252817,128,8,253027:0:0:0:0:
448,192,252957,128,0,253027:0:0:0:0:
320,192,253097,1,0,0:0:0:0:
64,192,253236,1,0,0:0:0:0:
320,192,253236,1,8,0:0:0:0:
64,192,253376,1,0,0:0:0:0:
320,192,253515,128,8,253655:0:0:0:0:
192,192,253515,1,0,0:0:0:0:
192,192,253655,128,0,253794:0:0:0:0:
64,192,253934,128,4,254352:0:0:0:0:
320,192,253934,128,2,254352:0:0:0:0:
448,192,253934,128,0,254352:0:0:0:0:
