osu file format v14

[General]
AudioFilename: audio.mp3
AudioLeadIn: 0
PreviewTime: 86206
Countdown: 0
SampleSet: Soft
StackLeniency: 0.7
Mode: 3
LetterboxInBreaks: 0
SpecialStyle: 0
WidescreenStoryboard: 0

[Editor]
DistanceSpacing: 0.8
BeatDivisor: 4
GridSize: 16
TimelineZoom: 2.2

[Metadata]
Title:Bikkurisasetara Okoru yo!
TitleUnicode:びっくりさせたらおこるよ!
Artist:Camellia feat. Nanahira
ArtistUnicode:かめりあ feat. ななひら
Creator:Fawcro32
Version:Nanahira Scares Me!
Source:
Tags:Al-Reina cryochan Kanon Matsubara kamelcamellia cametek KCCD-001 Doujin Indie コミックマーケット86 comiket 86 C86 Comic Market Halloween alternative rock pop jpop j-pop Denpa Japanese Versus! Basasu! ばーさす!Confetto stop jumpscare or i'll get mad at you It will happen if you are surprised! featured artist fa
BeatmapID:3277109
BeatmapSetID:1604806

[Difficulty]
HPDrainRate:8.4
CircleSize:4
OverallDifficulty:8
ApproachRate:5
SliderMultiplier:1.4
SliderTickRate:2

[Events]
//Background and Video events
0,0,"Bikkurisa BG.jpg",0,0
//Break Periods
//Storyboard Layer 0 (Background)
//Storyboard Layer 1 (Fail)
//Storyboard Layer 2 (Pass)
//Storyboard Layer 3 (Foreground)
//Storyboard Layer 4 (Overlay)
//Storyboard Sound Samples

[TimingPoints]
31230,279.06976744186,4,2,1,80,1,0
35136,-71.4285714285714,4,2,1,80,0,0
35206,-166.666666666667,4,2,1,80,0,0
35276,-100,4,2,1,80,0,0
35416,-71.4285714285714,4,2,1,80,0,0
35485,-166.666666666667,4,2,1,80,0,0
35555,-100,4,2,1,80,0,0
44067,-71.4285714285714,4,2,1,80,0,0
44136,-166.666666666667,4,2,1,80,0,0
44206,-100,4,2,1,80,0,0
44346,-71.4285714285714,4,2,1,80,0,0
44416,-166.666666666667,4,2,1,80,0,0
44485,-100,4,2,1,80,0,0
49090,-100,4,2,1,70,0,0
57602,-58.8235294117647,4,2,1,70,0,0
57636,-333.333333333333,4,2,1,70,0,0
57671,-100,4,2,1,70,0,0
57741,-58.8235294117647,4,2,1,70,0,0
57776,-333.333333333333,4,2,1,70,0,0
57811,-100,4,2,1,70,0,0
57881,-58.8235294117647,4,2,1,70,0,0
57916,-333.333333333333,4,2,1,70,0,0
57950,-100,4,2,1,70,0,0
58020,-250,4,2,1,70,0,0
58090,-125,4,2,1,70,0,0
58160,-83.3333333333333,4,2,1,70,0,0
58230,-62.5,4,2,1,70,0,0
58299,-100,4,2,1,70,0,0
64718,-62.5,4,2,1,70,0,0
64753,-250,4,2,1,70,0,0
64788,-100,4,2,1,70,0,0
64857,-62.5,4,2,1,70,0,0
64927,-250,4,2,1,70,0,0
64997,-100,4,2,1,70,0,0
65136,-62.5,4,2,1,70,0,0
65171,-250,4,2,1,70,0,0
65206,-100,4,2,1,70,0,0
65276,-62.5,4,2,1,70,0,0
65346,-250,4,2,1,70,0,0
65416,-100,4,2,1,70,0,0
65555,-62.5,4,2,1,70,0,0
65590,-250,4,2,1,70,0,0
65625,-100,4,2,1,70,0,0
65695,-62.5,4,2,1,70,0,0
65764,-250,4,2,1,70,0,0
65834,-100,4,2,1,70,0,0
69183,-111.111111111111,4,2,1,70,0,0
77834,-108.695652173913,4,2,1,70,0,0
77904,-106.382978723404,4,2,1,70,0,0
77974,-104.166666666667,4,2,1,70,0,0
78043,-102.040816326531,4,2,1,70,0,0
78113,-62.5,4,2,1,70,0,0
78148,-250,4,2,1,70,0,0
78183,-100,4,2,1,70,0,0
78253,-71.4285714285714,4,2,1,70,0,0
78323,-166.666666666667,4,2,1,70,0,0
78392,-200,4,2,1,70,0,0
78427,-125,4,2,1,70,0,0
78462,-83.3333333333333,4,2,1,70,0,0
78497,-66.6666666666667,4,2,1,70,0,0
78532,-100,4,2,1,70,0,0
79927,-62.5,4,2,1,70,0,0
79962,-250,4,2,1,70,0,0
79997,-100,4,2,1,70,0,0
80067,-62.5,4,2,1,70,0,0
80102,-250,4,2,1,70,0,0
80136,-100,4,2,1,70,0,0
80206,-62.5,4,2,1,70,0,0
80241,-250,4,2,1,70,0,0
80276,-100,4,2,1,70,0,0
80346,-62.5,4,2,1,70,0,0
80381,-250,4,2,1,70,0,0
80416,-100,4,2,1,70,0,0
80485,-71.4285714285714,4,2,1,70,0,0
80555,-166.666666666667,4,2,1,70,0,0
80625,-200,4,2,1,70,0,0
80660,-125,4,2,1,70,0,0
80695,-83.3333333333333,4,2,1,70,0,0
80729,-66.6666666666667,4,2,1,70,0,0
80764,-100,4,2,1,70,0,0
87253,-111.111111111111,4,2,1,70,0,0
87741,-62.5,4,2,1,70,0,0
87776,-83.3333333333333,4,2,1,70,0,0
87811,-125,4,2,1,70,0,0
87846,-250,4,2,1,70,0,0
87881,-200,4,2,1,70,0,0
87916,-125,4,2,1,70,0,0
87950,-83.3333333333333,4,2,1,70,0,0
87985,-66.6666666666667,4,2,1,70,0,0
88020,-100,4,2,1,85,0,1
92625,-62.5,4,2,1,85,0,1
92660,-250.000000000001,4,2,1,85,0,1
92695,-100,4,2,1,85,0,1
92764,-71.4285714285714,4,2,1,85,0,1
92834,-166.666666666667,4,2,1,85,0,1
92904,-200,4,2,1,85,0,1
92939,-125,4,2,1,85,0,1
92974,-83.3333333333333,4,2,1,85,0,1
93009,-66.6666666666667,4,2,1,85,0,1
93043,-100,4,2,1,85,0,1
95276,-102.040816326531,4,2,1,85,0,0
95346,-104.166666666667,4,2,1,85,0,0
95416,-106.382978723404,4,2,1,80,0,0
95485,-108.695652173913,4,2,1,80,0,0
95555,-111.111111111111,4,2,1,80,0,0
95625,-113.636363636364,4,2,1,80,0,0
95695,-119.047619047619,4,2,1,80,0,0
95834,-125,4,2,1,80,0,0
95974,-100,4,2,1,80,0,0
96183,-111.111111111111,4,2,1,80,0,0
96671,-62.5,4,2,1,80,0,0
96706,-83.3333333333333,4,2,1,80,0,0
96741,-125,4,2,1,80,0,0
96776,-250,4,2,1,80,0,0
96811,-200,4,2,1,80,0,0
96846,-125,4,2,1,80,0,0
96881,-83.3333333333333,4,2,1,80,0,0
96916,-66.6666666666667,4,2,1,80,0,0
96950,-100,4,2,1,85,0,1
101555,-62.5,4,2,1,85,0,1
101590,-250,4,2,1,85,0,1
101625,-100,4,2,1,85,0,1
101695,-71.4285714285714,4,2,1,85,0,1
101764,-166.666666666667,4,2,1,85,0,1
101834,-200,4,2,1,85,0,1
101869,-125,4,2,1,85,0,1
101904,-83.3333333333333,4,2,1,85,0,1
101939,-66.6666666666667,4,2,1,85,0,1
101974,-100,4,2,1,85,0,1
107136,-62.5,4,2,1,85,0,1
107171,-250,4,2,1,85,0,1
107206,-100,4,2,1,85,0,1
107276,-62.5,4,2,1,85,0,1
107311,-250,4,2,1,85,0,1
107346,-100,4,2,1,85,0,1
107695,-62.5,4,2,1,85,0,1
107729,-250,4,2,1,85,0,1
107764,-100,4,2,1,85,0,1
107834,-62.5,4,2,1,85,0,1
107869,-250,4,2,1,85,0,1
107904,-100,4,2,1,85,0,1
108253,-62.5,4,2,1,85,0,1
108288,-250,4,2,1,85,0,1
108323,-100,4,2,1,85,0,1
108392,-62.5,4,2,1,85,0,1
108427,-250,4,2,1,85,0,1
108462,-100,4,2,1,85,0,1
111602,-100,4,2,1,60,0,0
113834,-142.857142857143,4,2,1,40,0,0
120532,-140.845070422535,4,2,1,40,0,0
120602,-138.888888888889,4,2,1,40,0,0
120671,-136.986301369863,4,2,1,40,0,0
120741,-135.135135135135,4,2,1,40,0,0
120811,-133.333333333333,4,2,1,40,0,0
120881,-131.578947368421,4,2,1,40,0,0
120950,-129.87012987013,4,2,1,40,0,0
121020,-128.205128205128,4,2,1,40,0,0
121090,-126.582278481013,4,2,1,40,0,0
121160,-125,4,2,1,40,0,0
121229,-123.456790123457,4,2,1,40,0,0
121299,-121.951219512195,4,2,1,40,0,0
121369,-120.481927710843,4,2,1,40,0,0
121439,-119.047619047619,4,2,1,40,0,0
121509,-117.647058823529,4,2,1,40,0,0
121578,-116.279069767442,4,2,1,40,0,0
121648,-113.636363636364,4,2,1,40,0,0
121718,-111.111111111111,4,2,1,40,0,0
121788,-108.695652173913,4,2,1,40,0,0
121857,-106.382978723404,4,2,1,40,0,0
121927,-104.166666666667,4,2,1,40,0,0
121997,-102.040816326531,4,2,1,40,0,0
122067,-100,4,2,1,40,0,0
122136,-98.0392156862745,4,2,1,40,0,0
122206,-95.2380952380952,4,2,1,40,0,0
122276,-92.5925925925926,4,2,1,40,0,0
122346,-90.0900900900901,4,2,1,40,0,0
122416,-87.719298245614,4,2,1,40,0,0
122485,-85.4700854700855,4,2,1,40,0,0
122555,-83.3333333333333,4,2,1,40,0,0
122625,-81.3008130081301,4,2,1,40,0,0
122695,-79.3650793650794,4,2,1,40,0,0
122764,-10,4,2,1,40,0,0
122782,-10000,4,2,1,40,0,0
123602,-500,4,2,1,40,0,0
123636,-250.000000000001,4,2,1,40,0,0
123671,-166.666666666667,4,2,1,40,0,0
123706,-125,4,2,1,40,0,0
123741,-100,4,2,1,40,0,0
124997,-52.6315789473684,4,2,1,75,0,0
125020,-1000,4,2,1,75,0,0
125043,-52.6315789473684,4,2,1,75,0,0
125067,-1000,4,2,1,75,0,0
125090,-52.6315789473684,4,2,1,75,0,0
125113,-1000,4,2,1,75,0,0
125136,-52.6315789473684,4,2,1,75,0,0
125160,-1000,4,2,1,75,0,0
125183,-52.6315789473684,4,2,1,75,0,0
125206,-1000,4,2,1,75,0,0
125229,-52.6315789473684,4,2,1,75,0,0
125253,-1000,4,2,1,75,0,0
125276,-52.6315789473684,4,2,1,75,0,0
125299,-1000,4,2,1,75,0,0
125323,-52.6315789473684,4,2,1,75,0,0
125346,-1000,4,2,1,75,0,0
125369,-52.6315789473684,4,2,1,75,0,0
125392,-1000,4,2,1,75,0,0
125416,-52.6315789473684,4,2,1,75,0,0
125439,-1000,4,2,1,75,0,0
125462,-52.6315789473684,4,2,1,75,0,0
125485,-1000,4,2,1,75,0,0
125509,-52.6315789473684,4,2,1,75,0,0
125532,-1000,4,2,1,75,0,0
125555,-100,4,2,1,75,0,0
129462,-52.6315789473684,4,2,1,75,0,0
129485,-1000,4,2,1,75,0,0
129508,-52.6315789473684,4,2,1,75,0,0
129532,-1000,4,2,1,75,0,0
129555,-52.6315789473684,4,2,1,75,0,0
129578,-1000,4,2,1,75,0,0
129601,-52.6315789473684,4,2,1,75,0,0
129625,-1000,4,2,1,75,0,0
129648,-52.6315789473684,4,2,1,75,0,0
129671,-1000,4,2,1,75,0,0
129694,-52.6315789473684,4,2,1,75,0,0
129718,-1000,4,2,1,75,0,0
129741,-52.6315789473684,4,2,1,75,0,0
129764,-1000,4,2,1,75,0,0
129788,-52.6315789473684,4,2,1,75,0,0
129811,-1000,4,2,1,75,0,0
129834,-52.6315789473684,4,2,1,75,0,0
129857,-1000,4,2,1,75,0,0
129881,-52.6315789473684,4,2,1,75,0,0
129904,-1000,4,2,1,75,0,0
129927,-52.6315789473684,4,2,1,75,0,0
129950,-1000,4,2,1,75,0,0
129974,-52.6315789473684,4,2,1,75,0,0
129997,-1000,4,2,1,75,0,0
130020,-100,4,2,1,75,0,0
133927,-52.6315789473684,4,2,1,75,0,0
133950,-1000,4,2,1,75,0,0
133973,-52.6315789473684,4,2,1,75,0,0
133997,-1000,4,2,1,75,0,0
134020,-52.6315789473684,4,2,1,75,0,0
134043,-1000,4,2,1,75,0,0
134066,-52.6315789473684,4,2,1,75,0,0
134090,-1000,4,2,1,75,0,0
134113,-52.6315789473684,4,2,1,75,0,0
134136,-1000,4,2,1,75,0,0
134159,-52.6315789473684,4,2,1,75,0,0
134183,-1000,4,2,1,75,0,0
134206,-52.6315789473684,4,2,1,75,0,0
134229,-1000,4,2,1,75,0,0
134253,-52.6315789473684,4,2,1,75,0,0
134276,-1000,4,2,1,75,0,0
134299,-52.6315789473684,4,2,1,75,0,0
134322,-1000,4,2,1,75,0,0
134346,-52.6315789473684,4,2,1,75,0,0
134369,-1000,4,2,1,75,0,0
134392,-52.6315789473684,4,2,1,75,0,0
134415,-1000,4,2,1,75,0,0
134439,-52.6315789473684,4,2,1,75,0,0
134462,-1000,4,2,1,75,0,0
134485,-100,4,2,1,75,0,0
138392,-52.6315789473684,4,2,1,75,0,0
138415,-1000,4,2,1,75,0,0
138438,-52.6315789473684,4,2,1,75,0,0
138462,-1000,4,2,1,75,0,0
138485,-52.6315789473684,4,2,1,75,0,0
138508,-1000,4,2,1,75,0,0
138531,-52.6315789473684,4,2,1,75,0,0
138555,-1000,4,2,1,75,0,0
138578,-52.6315789473684,4,2,1,75,0,0
138601,-1000,4,2,1,75,0,0
138624,-52.6315789473684,4,2,1,75,0,0
138648,-1000,4,2,1,75,0,0
138671,-52.6315789473684,4,2,1,75,0,0
138694,-1000,4,2,1,75,0,0
138718,-52.6315789473684,4,2,1,75,0,0
138741,-1000,4,2,1,75,0,0
138764,-52.6315789473684,4,2,1,75,0,0
138787,-1000,4,2,1,75,0,0
138811,-52.6315789473684,4,2,1,75,0,0
138834,-1000,4,2,1,75,0,0
138857,-52.6315789473684,4,2,1,75,0,0
138880,-1000,4,2,1,75,0,0
138904,-52.6315789473684,4,2,1,75,0,0
138927,-1000,4,2,1,75,0,0
138950,-100,4,2,1,75,0,0
142857,-100,4,2,1,60,0,0
145090,-100,4,2,1,70,0,0
148997,-71.4285714285714,4,2,1,70,0,0
149067,-166.666666666667,4,2,1,70,0,0
149136,-100,4,2,1,70,0,0
149276,-71.4285714285714,4,2,1,70,0,0
149346,-166.666666666667,4,2,1,70,0,0
149416,-100,4,2,1,70,0,0
154020,-111.111111111111,4,2,1,60,0,0
161834,-100,4,2,1,60,0,0
162532,-62.5,4,2,1,60,0,0
162567,-249.999999999999,4,2,1,60,0,0
162602,-100,4,2,1,60,0,0
162671,-62.5,4,2,1,60,0,0
162706,-249.999999999999,4,2,1,60,0,0
162741,-100,4,2,1,60,0,0
162811,-62.5,4,2,1,60,0,0
162846,-249.999999999999,4,2,1,60,0,0
162881,-100,4,2,1,60,0,0
162950,-250,4,2,1,60,0,0
163020,-125,4,2,1,60,0,0
163090,-83.3333333333333,4,2,1,60,0,0
163160,-62.5,4,2,1,60,0,0
163229,-100,4,2,1,70,0,0
169648,-62.5,4,2,1,70,0,0
169683,-250,4,2,1,70,0,0
169718,-100,4,2,1,70,0,0
169788,-62.5,4,2,1,70,0,0
169857,-250,4,2,1,70,0,0
169927,-100,4,2,1,70,0,0
170067,-62.5,4,2,1,70,0,0
170102,-250,4,2,1,70,0,0
170136,-100,4,2,1,70,0,0
170206,-62.5,4,2,1,70,0,0
170276,-250,4,2,1,70,0,0
170346,-100,4,2,1,70,0,0
170485,-62.5,4,2,1,70,0,0
170520,-250,4,2,1,70,0,0
170555,-100,4,2,1,70,0,0
170625,-62.5,4,2,1,70,0,0
170695,-250,4,2,1,70,0,0
170764,-100,4,2,1,70,0,0
174113,-111.111111111111,4,2,1,70,0,0
182764,-108.695652173913,4,2,1,70,0,0
182834,-106.382978723404,4,2,1,70,0,0
182904,-104.166666666667,4,2,1,70,0,0
182974,-102.040816326531,4,2,1,70,0,0
183043,-62.5,4,2,1,70,0,0
183078,-250,4,2,1,70,0,0
183113,-100,4,2,1,70,0,0
183183,-71.4285714285714,4,2,1,70,0,0
183253,-166.666666666667,4,2,1,70,0,0
183323,-200,4,2,1,70,0,0
183357,-125,4,2,1,70,0,0
183392,-83.3333333333333,4,2,1,70,0,0
183427,-66.6666666666667,4,2,1,70,0,0
183462,-100,4,2,1,70,0,0
184857,-62.5,4,2,1,70,0,0
184892,-250,4,2,1,70,0,0
184927,-100,4,2,1,70,0,0
184997,-62.5,4,2,1,70,0,0
185032,-250,4,2,1,70,0,0
185067,-100,4,2,1,70,0,0
185136,-62.5,4,2,1,70,0,0
185171,-250,4,2,1,70,0,0
185206,-100,4,2,1,70,0,0
185276,-62.5,4,2,1,70,0,0
185311,-250,4,2,1,70,0,0
185346,-100,4,2,1,70,0,0
185416,-71.4285714285714,4,2,1,70,0,0
185485,-166.666666666667,4,2,1,70,0,0
185555,-200,4,2,1,70,0,0
185590,-125,4,2,1,70,0,0
185625,-83.3333333333333,4,2,1,70,0,0
185660,-66.6666666666667,4,2,1,70,0,0
185695,-100,4,2,1,70,0,0
192183,-111.111111111111,4,2,1,70,0,0
192671,-62.5,4,2,1,70,0,0
192706,-83.3333333333333,4,2,1,70,0,0
192741,-125,4,2,1,70,0,0
192776,-250,4,2,1,70,0,0
192811,-200,4,2,1,70,0,0
192846,-125,4,2,1,70,0,0
192881,-83.3333333333333,4,2,1,70,0,0
192916,-66.6666666666667,4,2,1,70,0,0
192950,-100,4,2,1,85,0,1
197555,-62.5,4,2,1,85,0,1
197590,-250,4,2,1,85,0,1
197625,-100,4,2,1,85,0,1
197695,-71.4285714285714,4,2,1,85,0,1
197764,-166.666666666667,4,2,1,85,0,1
197834,-200,4,2,1,85,0,1
197869,-125,4,2,1,85,0,1
197904,-83.3333333333333,4,2,1,85,0,1
197939,-66.6666666666667,4,2,1,85,0,1
197974,-100,4,2,1,85,0,1
200206,-102.040816326531,4,2,1,80,0,0
200276,-104.166666666667,4,2,1,80,0,0
200346,-106.382978723404,4,2,1,80,0,0
200416,-108.695652173913,4,2,1,80,0,0
200485,-111.111111111111,4,2,1,80,0,0
200555,-113.636363636364,4,2,1,80,0,0
200625,-119.047619047619,4,2,1,80,0,0
200764,-125,4,2,1,80,0,0
200904,-100,4,2,1,80,0,0
201113,-111.111111111111,4,2,1,80,0,0
201602,-62.5,4,2,1,80,0,0
201636,-83.3333333333333,4,2,1,80,0,0
201671,-125,4,2,1,80,0,0
201706,-250,4,2,1,80,0,0
201741,-200,4,2,1,80,0,0
201776,-125,4,2,1,80,0,0
201811,-83.3333333333333,4,2,1,80,0,0
201846,-66.6666666666667,4,2,1,80,0,0
201881,-100,4,2,1,85,0,1
206485,-62.5,4,2,1,85,0,1
206520,-250,4,2,1,85,0,1
206555,-100,4,2,1,85,0,1
206625,-71.4285714285714,4,2,1,85,0,1
206695,-166.666666666667,4,2,1,85,0,1
206764,-200,4,2,1,85,0,1
206799,-125,4,2,1,85,0,1
206834,-83.3333333333333,4,2,1,85,0,1
206869,-66.6666666666667,4,2,1,85,0,1
206904,-100,4,2,1,85,0,1
212067,-62.5,4,2,1,85,0,1
212102,-250,4,2,1,85,0,1
212136,-100,4,2,1,85,0,1
212206,-62.5,4,2,1,85,0,1
212241,-250,4,2,1,85,0,1
212276,-100,4,2,1,85,0,1
212625,-62.5,4,2,1,85,0,1
212660,-250,4,2,1,85,0,1
212695,-100,4,2,1,85,0,1
212764,-62.5,4,2,1,85,0,1
212799,-250,4,2,1,85,0,1
212834,-100,4,2,1,85,0,1
213183,-62.5,4,2,1,85,0,1
213218,-250,4,2,1,85,0,1
213253,-100,4,2,1,85,0,1
213323,-62.5,4,2,1,85,0,1
213357,-250,4,2,1,85,0,1
213392,-100,4,2,1,85,0,1
216532,-100,4,2,1,60,0,0
218764,-100,4,2,1,80,0,0
227695,-55.5555555555556,4,2,1,75,0,0
227764,-78.7401574803149,4,2,1,75,0,0
227834,-136.986301369863,4,2,1,75,0,0
227904,-500,4,2,1,75,0,0
227974,-1000,4,2,1,75,0,0
228253,-71.4285714285714,4,2,1,75,0,0
228323,-62.5,4,2,1,75,0,0
228392,-55.5555555555556,4,2,1,75,0,0
228427,-78.7401574803149,4,2,1,75,0,0
228462,-136.986301369863,4,2,1,75,0,0
228497,-500,4,2,1,75,0,0
228532,-1000,4,2,1,75,0,0
228671,-71.4285714285714,4,2,1,75,0,0
228741,-62.5,4,2,1,75,0,0
228811,-55.5555555555556,4,2,1,75,0,0
228881,-78.7401574803149,4,2,1,75,0,0
228950,-136.986301369863,4,2,1,75,0,0
229020,-500,4,2,1,75,0,0
229090,-1000,4,2,1,75,0,0
229160,-71.4285714285714,4,2,1,75,0,0
229195,-62.5,4,2,1,75,0,0
229229,-55.5555555555556,4,2,1,75,0,0
229299,-78.7401574803149,4,2,1,75,0,0
229369,-136.986301369863,4,2,1,75,0,0
229439,-500,4,2,1,75,0,0
229509,-111.111111111111,4,2,1,75,0,0
229543,-100,4,2,1,75,0,0
229578,-95.2380952380952,4,2,1,75,0,0
229613,-90.9090909090909,4,2,1,75,0,0
229648,-86.9565217391304,4,2,1,75,0,0
229683,-83.3333333333333,4,2,1,75,0,0
229718,-80,4,2,1,75,0,0
229753,-76.9230769230769,4,2,1,75,0,0
229788,-74.0740740740741,4,2,1,75,0,0
229823,-71.4285714285714,4,2,1,75,0,0
229857,-68.9655172413793,4,2,1,75,0,0
229892,-66.6666666666667,4,2,1,75,0,0
229927,-1000,4,2,1,75,0,0
230067,-71.4285714285714,4,2,1,75,0,0
230136,-62.5,4,2,1,75,0,0
230206,-55.5555555555556,4,2,1,75,0,0
230276,-78.7401574803149,4,2,1,75,0,0
230346,-136.986301369863,4,2,1,75,0,0
230416,-500,4,2,1,75,0,0
230485,-1000,4,2,1,75,0,0
230555,-71.4285714285714,4,2,1,75,0,0
230590,-62.5,4,2,1,75,0,0
230625,-55.5555555555556,4,2,1,75,0,0
230695,-78.7401574803149,4,2,1,75,0,0
230764,-136.986301369863,4,2,1,75,0,0
230834,-500,4,2,1,75,0,0
230904,-1000,4,2,1,75,0,0
230974,-71.4285714285714,4,2,1,75,0,0
231009,-62.5,4,2,1,75,0,0
231043,-55.5555555555556,4,2,1,75,0,0
231096,-78.7401574803149,4,2,1,75,0,0
231148,-136.986301369863,4,2,1,75,0,0
231200,-500,4,2,1,75,0,0
231253,-100,4,2,1,75,0,0
231323,-55.5555555555556,4,2,1,75,0,0
231375,-78.7401574803149,4,2,1,75,0,0
231427,-136.986301369863,4,2,1,75,0,0
231479,-500,4,2,1,75,0,0
231532,-100,4,2,1,75,0,0
231602,-55.5555555555556,4,2,1,75,0,0
231654,-78.7401574803149,4,2,1,75,0,0
231706,-136.986301369863,4,2,1,75,0,0
231759,-500,4,2,1,75,0,0
231811,-100,4,2,1,75,0,0
231881,-55.5555555555556,4,2,1,75,0,0
231916,-78.7401574803149,4,2,1,75,0,0
231950,-136.986301369863,4,2,1,75,0,0
231985,-500,4,2,1,75,0,0
232020,-100,4,2,1,75,0,0
232160,-100,4,2,1,85,0,1
233276,-62.5,4,2,1,85,0,1
233311,-250,4,2,1,85,0,1
233346,-100,4,2,1,85,0,1
233416,-71.4285714285714,4,2,1,85,0,1
233485,-166.666666666667,4,2,1,85,0,1
233555,-200,4,2,1,85,0,1
233590,-125,4,2,1,85,0,1
233625,-83.3333333333333,4,2,1,85,0,1
233660,-66.6666666666667,4,2,1,85,0,1
233695,-100,4,2,1,85,0,1
235927,-102.040816326531,4,2,1,80,0,0
235997,-104.166666666667,4,2,1,80,0,0
236067,-106.382978723404,4,2,1,80,0,0
236136,-108.695652173913,4,2,1,80,0,0
236206,-111.111111111111,4,2,1,80,0,0
236276,-113.636363636364,4,2,1,80,0,0
236346,-119.047619047619,4,2,1,80,0,0
236485,-125,4,2,1,80,0,0
236625,-100,4,2,1,80,0,0
236834,-111.111111111111,4,2,1,80,0,0
237323,-62.5,4,2,1,80,0,0
237357,-83.3333333333333,4,2,1,80,0,0
237392,-125,4,2,1,80,0,0
237427,-250,4,2,1,80,0,0
237462,-200,4,2,1,80,0,0
237497,-125,4,2,1,80,0,0
237532,-83.3333333333333,4,2,1,80,0,0
237567,-66.6666666666667,4,2,1,80,0,0
237602,-100,4,2,1,85,0,1
242206,-62.5,4,2,1,85,0,1
242241,-250,4,2,1,85,0,1
242276,-100,4,2,1,85,0,1
242346,-71.4285714285714,4,2,1,85,0,1
242416,-166.666666666667,4,2,1,85,0,1
242485,-200,4,2,1,85,0,1
242520,-125,4,2,1,85,0,1
242555,-83.3333333333333,4,2,1,85,0,1
242590,-66.6666666666667,4,2,1,85,0,1
242625,-100,4,2,1,85,0,1
247788,-62.5,4,2,1,85,0,1
247823,-250,4,2,1,85,0,1
247857,-100,4,2,1,85,0,1
247927,-62.5,4,2,1,85,0,1
247962,-250,4,2,1,85,0,1
247997,-100,4,2,1,85,0,1
248346,-62.5,4,2,1,85,0,1
248381,-250,4,2,1,85,0,1
248416,-100,4,2,1,85,0,1
248485,-62.5,4,2,1,85,0,1
248520,-250,4,2,1,85,0,1
248555,-100,4,2,1,85,0,1
248904,-62.5,4,2,1,85,0,1
248939,-250,4,2,1,85,0,1
248974,-100,4,2,1,85,0,1
249043,-62.5,4,2,1,85,0,1
249078,-250,4,2,1,85,0,1
249113,-100,4,2,1,85,0,1
252253,-100,4,2,1,60,0,0
253927,-100,4,2,1,70,0,0

[HitObjects]
64,192,4439,5,0,0:0:0:50:F#6.wav
320,192,4578,1,0,0:0:0:20:B5.wav
192,192,4718,1,0,0:0:0:30:D6.wav
448,192,4857,1,0,0:0:0:20:F#5.wav
320,192,4997,1,0,0:0:0:50:F#6.wav
64,192,5136,1,0,0:0:0:20:B5.wav
320,192,5276,1,0,0:0:0:30:D6.wav
448,192,5416,1,0,0:0:0:20:F#5.wav
192,192,5555,1,0,0:0:0:50:G6.wav
320,192,5695,1,0,0:0:0:20:B5.wav
64,192,5834,1,0,0:0:0:30:D6.wav
320,192,5974,1,0,0:0:0:20:F#5.wav
448,192,6113,1,0,0:0:0:50:F#6.wav
192,192,6253,1,0,0:0:0:20:B5.wav
448,192,6392,1,0,0:0:0:30:D6.wav
64,192,6532,1,0,0:0:0:20:F#5.wav
320,192,6671,1,0,0:0:0:50:F#6.wav
192,192,6811,1,0,0:0:0:20:B5.wav
320,192,6950,1,0,0:0:0:30:D6.wav
64,192,7090,1,0,0:0:0:20:F#5.wav
192,192,7230,1,0,0:0:0:50:F#6.wav
448,192,7369,1,0,0:0:0:20:B5.wav
192,192,7509,1,0,0:0:0:30:D6.wav
64,192,7648,1,0,0:0:0:20:F#5.wav
320,192,7788,1,0,0:0:0:50:G6.wav
192,192,7927,1,0,0:0:0:20:B5.wav
448,192,8067,1,0,0:0:0:30:D6.wav
192,192,8206,1,0,0:0:0:20:F#5.wav
64,192,8346,1,0,0:0:0:50:F#6.wav
320,192,8485,1,0,0:0:0:20:B5.wav
64,192,8625,1,0,0:0:0:30:D6.wav
448,192,8764,1,0,0:0:0:20:F#5.wav
192,192,8904,1,0,0:0:0:50:F#6.wav
320,192,9043,1,0,0:0:0:20:B5.wav
64,192,9183,1,0,0:0:0:30:D6.wav
448,192,9323,1,0,0:0:0:20:F#5.wav
320,192,9462,1,0,0:0:0:50:F#6.wav
192,192,9602,1,0,0:0:0:20:B5.wav
448,192,9741,1,0,0:0:0:30:D6.wav
64,192,9881,1,0,0:0:0:20:F#5.wav
320,192,10020,1,0,0:0:0:50:G6.wav
192,192,10160,1,0,0:0:0:20:B5.wav
320,192,10299,1,0,0:0:0:30:D6.wav
448,192,10439,1,0,0:0:0:30:G5.wav
64,192,10578,1,0,0:0:0:30:F#5.wav
320,192,10718,1,0,0:0:0:30:B5.wav
192,192,10857,1,0,0:0:0:40:D6.wav
64,192,10997,1,0,0:0:0:30:F#5.wav
448,192,11136,1,0,0:0:0:60:G#6.wav
192,192,11276,1,0,0:0:0:30:B5.wav
320,192,11416,1,0,0:0:0:40:D6.wav
64,192,11555,1,0,0:0:0:40:G#5.wav
448,192,11695,1,0,0:0:0:60:G#6.wav
192,192,11834,1,0,0:0:0:30:B5.wav
320,192,11974,1,0,0:0:0:40:D6.wav
64,192,12113,1,0,0:0:0:40:G#5.wav
448,192,12253,1,0,0:0:0:55:B6.wav
320,192,12392,1,0,0:0:0:40:C#6.wav
192,192,12532,1,0,0:0:0:50:F#6.wav
320,192,12671,1,0,0:0:0:40:B5.wav
64,192,12811,1,0,0:0:0:50:A#6.wav
192,192,12950,1,0,0:0:0:40:C#6.wav
320,192,13090,1,0,0:0:0:50:F#6.wav
448,192,13230,1,0,0:0:0:40:A#5.wav
192,192,13369,1,0,0:0:0:40:F#6.wav
448,192,13509,1,0,0:0:0:40:B5.wav
64,192,13648,1,0,0:0:0:40:D6.wav
192,192,13788,1,0,0:0:0:40:F#5.wav
320,192,13927,1,0,0:0:0:40:F#6.wav
64,192,14067,1,0,0:0:0:40:B5.wav
448,192,14206,1,0,0:0:0:40:D6.wav
192,192,14346,1,0,0:0:0:40:F#5.wav
320,192,14485,1,0,0:0:0:55:G6.wav
64,192,14625,1,0,0:0:0:40:B5.wav
320,192,14764,1,0,0:0:0:40:D6.wav
448,192,14904,1,0,0:0:0:40:G5.wav
64,192,15043,1,0,0:0:0:45:F#6.wav
320,192,15183,1,0,0:0:0:40:B5.wav
192,192,15323,1,0,0:0:0:40:D6.wav
64,192,15462,1,0,0:0:0:45:G#5.wav
320,192,15602,1,0,0:0:0:60:G#6.wav
192,192,15741,1,0,0:0:0:50:B5.wav
448,192,15881,1,0,0:0:0:50:D6.wav
64,192,16020,1,0,0:0:0:40:G#5.wav
320,192,16160,1,0,0:0:0:60:G#6.wav
192,192,16299,1,0,0:0:0:50:B5.wav
448,192,16439,1,0,0:0:0:50:D6.wav
64,192,16578,1,0,0:0:0:40:G#5.wav
320,192,16718,1,0,0:0:0:60:B6.wav
192,192,16857,1,0,0:0:0:50:C#6.wav
64,192,16997,1,0,0:0:0:50:F#6.wav
448,192,17136,1,0,0:0:0:50:B5.wav
192,192,17276,1,0,0:0:0:25:A#5.wav
320,192,17416,1,0,0:0:0:25:C#6.wav
448,192,17555,1,0,0:0:0:50:E6.wav
64,192,17695,1,0,0:0:0:35:A#5.wav
320,192,17834,128,0,18532:0:0:0:50:F#6.wav
192,192,17974,1,0,0:0:0:40:B5.wav
448,192,18113,1,0,0:0:0:50:D#6.wav
64,192,18253,1,0,0:0:0:40:F#5.wav
192,192,18392,1,0,0:0:0:50:F#6.wav
448,192,18532,1,0,0:0:0:40:B5.wav
64,192,18671,128,0,18950:0:0:0:40:D6.wav
320,192,18811,1,0,0:0:0:40:F#5.wav
192,192,18950,1,0,0:0:0:55:G6.wav
448,192,19090,128,0,19509:0:0:0:45:B5.wav
64,192,19230,1,0,0:0:0:45:F#5.wav
192,192,19369,1,0,0:0:0:45:E5.wav
320,192,19509,1,0,0:0:0:30:F#4.wav
64,192,19648,128,0,20067:0:0:0:40:B5.wav
448,192,19788,1,0,0:0:0:40:D6.wav
320,192,19927,1,0,0:0:0:40:F#5.wav
192,192,20067,1,0,0:0:0:60:G#6.wav
320,192,20206,128,0,20625:0:0:0:45:B5.wav
64,192,20346,1,0,0:0:0:45:D6.wav
448,192,20485,1,0,0:0:0:40:G#5.wav
192,192,20625,1,0,0:0:0:60:G#6.wav
448,192,20764,128,0,21183:0:0:0:45:B5.wav
64,192,20904,1,0,0:0:0:45:D6.wav
320,192,21043,1,0,0:0:0:40:G#5.wav
64,192,21183,1,0,0:0:0:60:B6.wav
192,192,21323,128,0,21741:0:0:0:40:G#5.wav
320,192,21462,1,0,0:0:0:25:G#6.wav
64,192,21602,1,0,0:0:0:45:B5.wav
448,192,21741,1,0,0:0:0:60:A#6.wav
320,192,21881,128,0,22299:0:0:0:0:
192,192,22020,1,0,0:0:0:0:
64,192,22160,1,0,0:0:0:40:A#5.wav
448,192,22299,1,0,0:0:0:45:F#6.wav
64,192,22439,128,0,22997:0:0:0:40:B5.wav
192,192,22578,1,0,0:0:0:40:F#5.wav
448,192,22718,1,0,0:0:0:40:B4.wav
320,192,22857,1,0,0:0:0:45:F#6.wav
192,192,22997,1,0,0:0:0:45:B5.wav
448,192,23136,128,0,23416:0:0:0:45:D6.wav
64,192,23276,1,0,0:0:0:45:F#5.wav
320,192,23416,1,0,0:0:0:60:G6.wav
192,192,23555,128,0,23974:0:0:0:40:B5.wav
448,192,23695,1,0,0:0:0:40:D6.wav
64,192,23834,1,0,0:0:0:35:G5.wav
320,192,23974,1,0,0:0:0:45:F#6.wav
64,192,24113,128,0,24532:0:0:0:40:B5.wav
448,192,24253,1,0,0:0:0:40:D6.wav
320,192,24392,1,0,0:0:0:40:F#5.wav
192,192,24532,1,0,0:0:0:25:G#6.wav
448,192,24671,128,0,25090:0:0:0:35:B5.wav
64,192,24811,1,0,0:0:0:0:
320,192,24950,1,0,0:0:0:0:
192,192,25090,1,0,0:0:0:45:G#6.wav
320,192,25230,128,0,25648:0:0:0:40:B5.wav
64,192,25369,1,0,0:0:0:35:G#5.wav
448,192,25509,1,0,0:0:0:0:
192,192,25648,1,0,0:0:0:60:B6.wav
64,192,25788,128,0,26206:0:0:0:45:C#6.wav
320,192,25927,1,0,0:0:0:45:F#6.wav
192,192,26067,1,0,0:0:0:40:B5.wav
448,192,26206,1,0,0:0:0:50:A#6.wav
192,192,26346,128,0,26764:0:0:0:0:
320,192,26485,1,0,0:0:0:30:E6.wav
64,192,26625,1,0,0:0:0:25:A#5.wav
448,192,26764,1,0,0:0:0:0:
320,192,26904,128,0,30043:0:0:0:0:
192,192,28439,128,0,30043:0:0:0:0:
64,192,29555,128,0,30043:0:0:0:0:
448,192,29834,128,0,30043:0:0:0:0:
64,192,30113,1,0,0:0:0:0:
192,192,30113,1,0,0:0:0:0:
192,192,30253,1,0,0:0:0:0:
320,192,30253,1,0,0:0:0:0:
64,192,30392,128,0,30602:0:0:0:0:
448,192,30392,128,0,30602:0:0:0:0:
320,192,30671,128,0,30706:0:0:0:0:
448,192,30671,128,0,30706:0:0:0:0:
192,192,30811,1,0,0:0:0:0:
320,192,30811,1,0,0:0:0:0:
64,192,30950,1,0,0:0:0:0:
192,192,30950,1,0,0:0:0:0:
448,192,30950,1,0,0:0:0:0:
64,192,31230,1,2,0:0:0:0:
320,192,31230,128,4,31439:0:0:0:0:
448,192,31230,128,0,31369:0:0:0:0:
192,192,31369,128,0,31439:0:0:0:0:
64,192,31509,128,2,31718:0:0:0:0:
320,192,31509,1,8,0:0:0:0:
448,192,31509,128,0,31578:0:0:0:0:
192,192,31648,128,0,31718:0:0:0:0:
64,192,31788,128,2,31857:0:0:0:0:
448,192,31788,128,0,31997:0:0:0:0:
320,192,31927,128,0,31997:0:0:0:0:
64,192,32067,128,2,32276:0:0:0:0:
192,192,32067,128,8,32136:0:0:0:0:
448,192,32067,1,0,0:0:0:0:
320,192,32206,128,0,32276:0:0:0:0:
64,192,32346,1,2,0:0:0:0:
448,192,32346,128,0,32416:0:0:0:0:
192,192,32485,128,0,32555:0:0:0:0:
64,192,32625,1,2,0:0:0:0:
192,192,32625,1,8,0:0:0:0:
448,192,32625,128,0,32834:0:0:0:0:
320,192,32764,128,0,32834:0:0:0:0:
64,192,32904,128,2,32974:0:0:0:0:
448,192,32904,1,0,0:0:0:0:
320,192,33043,128,0,33113:0:0:0:0:
64,192,33183,128,2,33253:0:0:0:0:
192,192,33183,128,8,33253:0:0:0:0:
448,192,33183,1,0,0:0:0:0:
320,192,33323,128,2,33392:0:0:0:0:
448,192,33323,128,0,33392:0:0:0:0:
64,192,33462,128,2,33671:0:0:0:0:
192,192,33462,128,0,33602:0:0:0:0:
448,192,33602,128,0,33671:0:0:0:0:
320,192,33671,128,0,33741:0:0:0:0:
64,192,33741,1,2,0:0:0:0:
192,192,33741,128,8,33811:0:0:0:0:
448,192,33741,1,0,0:0:0:0:
320,192,33881,128,0,33950:0:0:0:0:
64,192,34020,128,2,34090:0:0:0:0:
192,192,34020,1,0,0:0:0:0:
320,192,34160,128,0,34230:0:0:0:0:
64,192,34299,1,2,0:0:0:0:
192,192,34299,128,8,34369:0:0:0:0:
448,192,34299,1,0,0:0:0:0:
320,192,34439,128,0,34509:0:0:0:0:
64,192,34578,128,2,34648:0:0:0:0:
448,192,34578,1,0,0:0:0:0:
320,192,34718,128,0,34788:0:0:0:0:
192,192,34788,128,0,34857:0:0:0:0:
64,192,34857,128,2,34927:0:0:0:0:
320,192,34857,1,8,0:0:0:0:
448,192,34857,1,0,0:0:0:0:
192,192,34997,128,0,35067:0:0:0:0:
64,192,35136,128,2,35276:0:0:0:0:
448,192,35136,128,0,35276:0:0:0:0:
192,192,35276,1,0,0:0:0:0:
320,192,35346,1,2,0:0:0:0:
64,192,35416,128,2,35555:0:0:0:0:
192,192,35416,128,8,35555:0:0:0:0:
448,192,35416,1,0,0:0:0:0:
320,192,35555,1,2,0:0:0:0:
448,192,35555,1,0,0:0:0:0:
320,192,35695,128,2,35834:0:0:0:0:
448,192,35695,128,4,35904:0:0:0:0:
64,192,35834,128,0,35904:0:0:0:0:
192,192,35974,128,2,36183:0:0:0:0:
320,192,35974,1,8,0:0:0:0:
448,192,35974,128,0,36043:0:0:0:0:
64,192,36113,128,0,36183:0:0:0:0:
192,192,36253,128,2,36323:0:0:0:0:
320,192,36253,128,0,36462:0:0:0:0:
448,192,36392,128,0,36462:0:0:0:0:
64,192,36532,128,2,36602:0:0:0:0:
192,192,36532,128,8,36741:0:0:0:0:
320,192,36532,1,0,0:0:0:0:
448,192,36671,128,0,36741:0:0:0:0:
192,192,36811,1,2,0:0:0:0:
320,192,36811,128,0,36881:0:0:0:0:
64,192,36950,128,0,37020:0:0:0:0:
64,192,37090,1,2,0:0:0:0:
192,192,37090,1,8,0:0:0:0:
320,192,37090,128,0,37299:0:0:0:0:
448,192,37230,128,0,37299:0:0:0:0:
192,192,37369,128,2,37439:0:0:0:0:
320,192,37369,1,0,0:0:0:0:
448,192,37509,128,0,37578:0:0:0:0:
64,192,37648,128,2,37718:0:0:0:0:
192,192,37648,128,8,37718:0:0:0:0:
320,192,37648,1,0,0:0:0:0:
320,192,37788,128,2,37857:0:0:0:0:
448,192,37788,128,0,37857:0:0:0:0:
64,192,37927,128,2,38136:0:0:0:0:
192,192,37927,128,0,38067:0:0:0:0:
448,192,38067,128,0,38136:0:0:0:0:
320,192,38136,128,0,38206:0:0:0:0:
64,192,38206,1,2,0:0:0:0:
192,192,38206,128,8,38276:0:0:0:0:
448,192,38206,1,0,0:0:0:0:
320,192,38346,128,0,38416:0:0:0:0:
64,192,38485,128,2,38555:0:0:0:0:
192,192,38485,1,0,0:0:0:0:
320,192,38625,128,0,38695:0:0:0:0:
64,192,38764,1,2,0:0:0:0:
192,192,38764,128,8,38834:0:0:0:0:
448,192,38764,1,0,0:0:0:0:
320,192,38904,1,2,0:0:0:0:
448,192,38904,1,0,0:0:0:0:
192,192,38974,1,2,0:0:0:0:
64,192,39043,128,2,39532:0:0:0:0:
320,192,39043,1,4,0:0:0:0:
448,192,39043,128,0,39532:0:0:0:0:
192,192,39183,1,0,0:0:0:0:
320,192,39253,1,0,0:0:0:0:
192,192,39323,1,0,0:0:0:0:
320,192,39462,1,0,0:0:0:0:
64,192,39602,128,2,39741:0:0:0:0:
192,192,39602,128,0,39741:0:0:0:65:Crash 2.wav
448,192,39602,1,0,0:0:0:0:
320,192,39741,1,0,0:0:0:0:
192,192,39811,1,0,0:0:0:0:
64,192,39881,1,2,0:0:0:0:
320,192,39881,128,0,40020:0:0:0:65:Crash 2.wav
448,192,39881,128,0,40020:0:0:0:0:
192,192,39950,1,0,0:0:0:0:
64,192,40020,1,0,0:0:0:0:
320,192,40090,1,0,0:0:0:0:
64,192,40160,128,2,40299:0:0:0:0:
192,192,40160,128,4,40369:0:0:0:0:
448,192,40160,1,0,0:0:0:0:
320,192,40299,128,0,40369:0:0:0:0:
64,192,40439,1,2,0:0:0:0:
192,192,40439,128,8,40509:0:0:0:0:
448,192,40439,128,0,40648:0:0:0:0:
320,192,40578,128,0,40648:0:0:0:0:
64,192,40718,128,2,40927:0:0:0:0:
448,192,40718,128,0,40788:0:0:0:0:
192,192,40857,128,0,40927:0:0:0:0:
64,192,40997,1,2,0:0:0:0:
320,192,40997,128,8,41067:0:0:0:0:
448,192,40997,128,0,41206:0:0:0:0:
192,192,41136,128,0,41206:0:0:0:0:
64,192,41276,128,2,41346:0:0:0:0:
448,192,41276,1,0,0:0:0:0:
320,192,41416,128,0,41485:0:0:0:0:
64,192,41555,128,2,41764:0:0:0:0:
320,192,41555,1,8,0:0:0:0:
448,192,41555,1,0,0:0:0:0:
192,192,41695,128,0,41764:0:0:0:0:
64,192,41834,1,2,0:0:0:0:
448,192,41834,128,0,41904:0:0:0:0:
192,192,41974,128,0,42043:0:0:0:0:
64,192,42113,1,2,0:0:0:0:
320,192,42113,128,8,42183:0:0:0:0:
448,192,42113,128,0,42183:0:0:0:0:
64,192,42253,128,2,42323:0:0:0:0:
192,192,42253,128,0,42323:0:0:0:0:
320,192,42392,128,2,42532:0:0:0:0:
448,192,42392,128,0,42602:0:0:0:0:
64,192,42532,128,0,42602:0:0:0:0:
192,192,42602,128,0,42671:0:0:0:0:
64,192,42671,1,2,0:0:0:0:
320,192,42671,128,8,42741:0:0:0:0:
448,192,42671,1,0,0:0:0:0:
192,192,42811,128,0,42881:0:0:0:0:
320,192,42950,1,2,0:0:0:0:
448,192,42950,128,0,43020:0:0:0:0:
192,192,43090,128,0,43160:0:0:0:0:
64,192,43230,1,2,0:0:0:0:
320,192,43230,128,8,43299:0:0:0:0:
448,192,43230,1,0,0:0:0:0:
192,192,43369,128,0,43439:0:0:0:0:
64,192,43509,1,2,0:0:0:0:
448,192,43509,128,0,43578:0:0:0:0:
192,192,43648,128,0,43718:0:0:0:0:
320,192,43718,128,0,43788:0:0:0:0:
64,192,43788,1,2,0:0:0:0:
192,192,43788,1,8,0:0:0:0:
448,192,43788,128,0,43857:0:0:0:0:
320,192,43927,128,0,43997:0:0:0:0:
64,192,44067,128,2,44206:0:0:0:0:
448,192,44067,128,0,44206:0:0:0:0:
320,192,44206,1,0,0:0:0:0:
192,192,44276,1,2,0:0:0:0:
64,192,44346,1,2,0:0:0:0:
320,192,44346,128,8,44485:0:0:0:0:
448,192,44346,128,0,44485:0:0:0:0:
64,192,44485,1,2,0:0:0:0:
192,192,44485,1,0,0:0:0:0:
64,192,44625,128,2,44834:0:0:0:0:
192,192,44625,128,4,44764:0:0:0:0:
448,192,44764,128,0,44834:0:0:0:0:
64,192,44904,128,2,44974:0:0:0:0:
192,192,44904,1,8,0:0:0:0:
320,192,44904,128,0,45113:0:0:0:0:
448,192,45043,128,0,45113:0:0:0:0:
192,192,45183,128,2,45392:0:0:0:0:
320,192,45183,128,0,45253:0:0:0:0:
64,192,45323,128,0,45392:0:0:0:0:
192,192,45462,1,2,0:0:0:0:
320,192,45462,128,8,45671:0:0:0:0:
448,192,45462,128,0,45532:0:0:0:0:
64,192,45602,128,0,45671:0:0:0:0:
192,192,45741,128,2,45811:0:0:0:0:
320,192,45741,1,0,0:0:0:0:
448,192,45881,128,0,45950:0:0:0:0:
192,192,46020,128,2,46230:0:0:0:0:
320,192,46020,1,8,0:0:0:0:
448,192,46020,1,0,0:0:0:0:
64,192,46160,128,0,46230:0:0:0:0:
448,192,46299,1,2,0:0:0:0:
320,192,46299,128,0,46369:0:0:0:0:
192,192,46439,1,0,0:0:0:0:
64,192,46509,1,0,0:0:0:0:
448,192,46578,1,2,0:0:0:0:
192,192,46578,1,8,0:0:0:0:
320,192,46578,1,0,0:0:0:0:
64,192,46648,1,0,0:0:0:0:
448,192,46718,1,2,0:0:0:0:
320,192,46718,1,0,0:0:0:0:
192,192,46788,1,0,0:0:0:0:
448,192,46857,128,2,47136:0:0:0:0:
320,192,46857,128,4,46997:0:0:0:0:
64,192,46857,128,0,47136:0:0:0:0:
192,192,46997,1,0,0:0:0:0:
320,192,47136,128,0,47206:0:0:0:0:
64,192,47276,128,0,47346:0:0:0:0:
192,192,47416,128,2,47555:0:0:0:0:
320,192,47416,128,4,47695:0:0:0:0:
448,192,47416,128,0,47695:0:0:0:0:
64,192,47555,1,0,0:0:0:0:
192,192,47695,128,0,47764:0:0:0:0:
320,192,47834,128,0,47904:0:0:0:0:
64,192,47974,128,2,48113:0:0:0:0:
192,192,47974,128,0,48113:0:0:0:65:Crash 2.wav
448,192,47974,128,0,48113:0:0:0:0:
64,192,48253,128,2,48741:0:0:0:0:
320,192,48253,128,0,48462:0:0:0:65:Crash 2.wav
448,192,48253,128,0,48462:0:0:0:0:
192,192,48532,128,2,48741:0:0:0:0:
320,192,48532,128,4,48741:0:0:0:0:
448,192,48532,128,0,48741:0:0:0:0:
64,192,48811,1,0,0:0:0:75:Snare 2.wav
448,192,48811,1,0,0:0:0:0:
192,192,48881,1,0,0:0:0:75:Snare 2.wav
64,192,48950,1,0,0:0:0:75:Snare 2.wav
320,192,48950,1,0,0:0:0:0:
448,192,49020,1,0,0:0:0:75:Snare 2.wav
64,192,49090,128,2,49230:0:0:0:0:
192,192,49090,1,4,0:0:0:0:
320,192,49090,1,0,0:0:0:0:
448,192,49230,128,0,49299:0:0:0:0:
64,192,49369,1,2,0:0:0:0:
192,192,49369,128,8,49509:0:0:0:0:
320,192,49369,1,0,0:0:0:0:
448,192,49509,128,0,49578:0:0:0:0:
64,192,49648,128,2,49788:0:0:0:0:
320,192,49648,1,0,0:0:0:0:
448,192,49788,128,0,49857:0:0:0:0:
64,192,49927,1,2,0:0:0:0:
192,192,49927,128,8,50067:0:0:0:0:
320,192,49927,1,0,0:0:0:0:
448,192,50067,128,0,50136:0:0:0:0:
64,192,50206,1,2,0:0:0:0:
320,192,50206,128,0,50346:0:0:0:0:
192,192,50346,128,0,50416:0:0:0:0:
64,192,50485,1,2,0:0:0:0:
320,192,50485,1,8,0:0:0:0:
448,192,50485,128,0,50625:0:0:0:0:
192,192,50625,128,0,50695:0:0:0:0:
64,192,50764,128,2,50904:0:0:0:0:
448,192,50764,1,0,0:0:0:0:
320,192,50904,128,0,50974:0:0:0:0:
64,192,51043,1,2,0:0:0:0:
192,192,51043,128,8,51183:0:0:0:0:
448,192,51043,1,0,0:0:0:0:
320,192,51183,128,2,51253:0:0:0:0:
448,192,51183,128,0,51253:0:0:0:0:
192,192,51323,1,2,0:0:0:0:
320,192,51323,128,0,51462:0:0:0:0:
64,192,51462,128,0,51532:0:0:0:0:
192,192,51602,1,2,0:0:0:0:
320,192,51602,1,8,0:0:0:0:
448,192,51602,128,0,51741:0:0:0:0:
64,192,51741,128,0,51811:0:0:0:0:
192,192,51881,1,2,0:0:0:0:
320,192,51881,128,0,52020:0:0:0:0:
64,192,52020,128,0,52090:0:0:0:0:
192,192,52160,1,2,0:0:0:0:
320,192,52160,1,8,0:0:0:0:
448,192,52160,128,0,52299:0:0:0:0:
64,192,52299,128,0,52369:0:0:0:0:
192,192,52439,128,2,52578:0:0:0:0:
320,192,52439,1,0,0:0:0:0:
448,192,52578,128,0,52648:0:0:0:0:
320,192,52648,128,0,52718:0:0:0:0:
64,192,52718,1,2,0:0:0:0:
192,192,52718,128,8,52788:0:0:0:0:
448,192,52718,1,0,0:0:0:0:
320,192,52857,128,0,52997:0:0:0:0:
64,192,52997,1,2,0:0:0:0:
192,192,52997,128,0,53067:0:0:0:0:
320,192,53067,128,0,53136:0:0:0:0:
448,192,53136,128,0,53206:0:0:0:0:
192,192,53206,1,2,0:0:0:0:
64,192,53276,1,2,0:0:0:0:
320,192,53276,128,8,53346:0:0:0:0:
448,192,53276,128,0,53346:0:0:0:0:
64,192,53416,128,2,53485:0:0:0:0:
192,192,53416,128,0,53485:0:0:0:0:
192,192,53555,128,2,53695:0:0:0:0:
448,192,53555,1,0,0:0:0:0:
320,192,53695,128,0,53764:0:0:0:0:
64,192,53834,128,2,53974:0:0:0:0:
192,192,53834,1,8,0:0:0:0:
448,192,53834,1,0,0:0:0:0:
320,192,53974,128,0,54043:0:0:0:0:
192,192,54113,128,2,54253:0:0:0:0:
448,192,54113,1,0,0:0:0:0:
320,192,54253,128,0,54323:0:0:0:0:
64,192,54392,128,2,54532:0:0:0:0:
192,192,54392,1,8,0:0:0:0:
448,192,54392,1,0,0:0:0:0:
320,192,54532,128,0,54602:0:0:0:0:
64,192,54671,1,2,0:0:0:0:
448,192,54671,128,0,54811:0:0:0:0:
192,192,54811,128,0,54881:0:0:0:0:
64,192,54950,1,2,0:0:0:0:
320,192,54950,128,8,55090:0:0:0:0:
448,192,54950,1,0,0:0:0:0:
192,192,55090,128,0,55160:0:0:0:0:
64,192,55230,128,2,55369:0:0:0:0:
448,192,55230,1,0,0:0:0:0:
320,192,55369,128,0,55439:0:0:0:0:
64,192,55509,1,2,0:0:0:0:
192,192,55509,128,8,55648:0:0:0:0:
448,192,55509,1,0,0:0:0:0:
320,192,55648,128,2,55718:0:0:0:0:
448,192,55648,128,0,55718:0:0:0:0:
192,192,55788,1,2,0:0:0:0:
320,192,55788,128,0,55927:0:0:0:0:
64,192,55927,128,0,55997:0:0:0:0:
192,192,56067,1,2,0:0:0:0:
320,192,56067,1,8,0:0:0:0:
448,192,56067,128,0,56206:0:0:0:0:
64,192,56206,1,0,0:0:0:0:
192,192,56276,1,0,0:0:0:0:
320,192,56346,1,2,0:0:0:0:
448,192,56346,1,0,0:0:0:0:
192,192,56485,1,0,0:0:0:0:
320,192,56555,1,2,0:0:0:0:
64,192,56625,1,2,0:0:0:0:
192,192,56625,1,8,0:0:0:0:
448,192,56625,1,0,0:0:0:0:
320,192,56764,1,2,0:0:0:0:
448,192,56764,1,0,0:0:0:0:
64,192,56904,128,2,57113:0:0:0:0:
192,192,56904,128,4,57113:0:0:0:0:
320,192,56904,128,0,57183:0:0:0:0:
448,192,56904,128,0,57183:0:0:0:0:
64,192,57183,128,0,57230:0:0:0:0:
192,192,57183,128,0,57230:0:0:0:0:
320,192,57253,128,0,57299:0:0:0:0:
448,192,57253,128,0,57299:0:0:0:0:
64,192,57323,128,0,57369:0:0:0:0:
192,192,57323,128,0,57369:0:0:0:0:
320,192,57392,128,0,57439:0:0:0:0:
448,192,57392,128,0,57439:0:0:0:0:
64,192,57462,128,0,57671:0:0:0:0:
192,192,57462,128,0,57532:0:0:0:0:
192,192,57602,128,2,57671:0:0:0:0:
320,192,57602,128,0,57671:0:0:0:0:
448,192,57602,128,0,57671:0:0:0:0:
64,192,57741,128,2,57811:0:0:0:0:
320,192,57741,128,0,57811:0:0:0:0:
448,192,57741,128,0,57811:0:0:0:0:
64,192,57881,128,2,57950:0:0:0:0:
192,192,57881,128,0,57950:0:0:0:0:
448,192,57881,128,0,57950:0:0:0:0:
320,192,58020,128,0,58299:0:0:0:0:
64,192,58299,128,8,58509:0:0:0:0:
192,192,58299,1,4,0:0:0:0:
448,192,58299,128,0,58509:0:0:0:0:
192,192,58578,1,2,0:0:0:0:
448,192,58578,128,0,58718:0:0:0:0:
64,192,58718,128,0,58788:0:0:0:0:
192,192,58857,1,2,0:0:0:0:
320,192,58857,128,8,58997:0:0:0:0:
448,192,58857,1,0,0:0:0:0:
64,192,58997,128,0,59067:0:0:0:0:
192,192,59136,128,2,59276:0:0:0:0:
448,192,59136,1,0,0:0:0:0:
320,192,59276,128,0,59346:0:0:0:0:
64,192,59416,128,2,59555:0:0:0:0:
192,192,59416,1,8,0:0:0:0:
448,192,59416,1,0,0:0:0:0:
320,192,59555,128,0,59625:0:0:0:0:
64,192,59695,1,2,0:0:0:0:
448,192,59695,128,0,59834:0:0:0:0:
192,192,59834,128,0,59904:0:0:0:0:
64,192,59974,1,2,0:0:0:0:
320,192,59974,128,8,60113:0:0:0:0:
448,192,59974,1,0,0:0:0:0:
64,192,60113,128,2,60183:0:0:0:0:
192,192,60113,128,0,60183:0:0:0:0:
192,192,60253,128,2,60392:0:0:0:0:
320,192,60253,1,0,0:0:0:0:
448,192,60392,128,0,60462:0:0:0:0:
64,192,60532,128,2,60671:0:0:0:0:
192,192,60532,1,8,0:0:0:0:
320,192,60532,1,0,0:0:0:0:
448,192,60671,128,0,60741:0:0:0:0:
192,192,60811,128,2,60950:0:0:0:0:
320,192,60811,1,0,0:0:0:0:
448,192,60950,128,0,61020:0:0:0:0:
64,192,61090,128,2,61229:0:0:0:0:
192,192,61090,1,8,0:0:0:0:
320,192,61090,1,0,0:0:0:0:
448,192,61229,128,0,61299:0:0:0:0:
192,192,61369,1,2,0:0:0:0:
320,192,61369,128,0,61509:0:0:0:0:
64,192,61509,128,0,61578:0:0:0:0:
192,192,61578,128,0,61648:0:0:0:0:
64,192,61648,1,2,0:0:0:0:
320,192,61648,128,8,61718:0:0:0:0:
448,192,61648,1,0,0:0:0:0:
192,192,61788,128,0,61927:0:0:0:0:
320,192,61927,128,2,61997:0:0:0:0:
448,192,61927,1,0,0:0:0:0:
192,192,61997,128,0,62067:0:0:0:0:
64,192,62067,128,0,62136:0:0:0:0:
320,192,62136,1,2,0:0:0:0:
64,192,62206,128,2,62276:0:0:0:0:
192,192,62206,128,8,62276:0:0:0:0:
448,192,62206,1,0,0:0:0:0:
320,192,62346,128,2,62416:0:0:0:0:
448,192,62346,128,0,62416:0:0:0:0:
64,192,62485,1,2,0:0:0:0:
320,192,62485,128,0,62625:0:0:0:0:
192,192,62625,128,0,62695:0:0:0:0:
64,192,62764,1,2,0:0:0:0:
320,192,62764,1,8,0:0:0:0:
448,192,62764,128,0,62904:0:0:0:0:
192,192,62904,128,0,62974:0:0:0:0:
64,192,63043,1,2,0:0:0:0:
320,192,63043,128,0,63183:0:0:0:0:
192,192,63183,128,0,63253:0:0:0:0:
64,192,63323,1,2,0:0:0:0:
320,192,63323,1,8,0:0:0:0:
448,192,63323,128,0,63462:0:0:0:0:
192,192,63462,128,0,63532:0:0:0:0:
64,192,63602,128,2,63741:0:0:0:0:
448,192,63602,1,0,0:0:0:0:
320,192,63741,128,0,63811:0:0:0:0:
64,192,63881,1,2,0:0:0:0:
192,192,63881,128,8,64020:0:0:0:0:
448,192,63881,1,0,0:0:0:0:
320,192,64020,128,0,64090:0:0:0:0:
64,192,64160,1,2,0:0:0:0:
448,192,64160,128,0,64299:0:0:0:0:
192,192,64299,128,0,64369:0:0:0:0:
64,192,64439,1,2,0:0:0:0:
320,192,64439,128,8,64578:0:0:0:0:
448,192,64439,1,0,0:0:0:0:
192,192,64578,1,2,0:0:0:0:
320,192,64648,1,2,0:0:0:0:
64,192,64718,128,2,64788:0:0:0:0:
192,192,64718,128,0,64997:0:0:0:65:Crash 2.wav
448,192,64718,128,0,64788:0:0:0:0:
64,192,64857,128,2,64997:0:0:0:0:
320,192,64857,128,0,64997:0:0:0:65:Crash 2.wav
448,192,64857,128,0,64997:0:0:0:0:
64,192,65136,128,2,65206:0:0:0:0:
320,192,65136,128,0,65416:0:0:0:65:Crash 2.wav
448,192,65136,128,0,65206:0:0:0:0:
64,192,65276,128,2,65416:0:0:0:0:
192,192,65276,128,0,65416:0:0:0:65:Crash 2.wav
448,192,65276,128,0,65416:0:0:0:0:
64,192,65555,128,2,65834:0:0:0:0:
192,192,65555,128,0,65625:0:0:0:65:Crash 2.wav
448,192,65555,128,0,65625:0:0:0:0:
192,192,65695,128,2,65834:0:0:0:0:
320,192,65695,128,0,65834:0:0:0:65:Crash 2.wav
448,192,65695,128,0,65834:0:0:0:0:
320,192,65974,128,0,66113:0:0:0:0:
64,192,66113,128,2,66671:0:0:0:0:
192,192,66113,128,4,66392:0:0:0:0:
448,192,66113,128,0,66671:0:0:0:0:
320,192,66392,1,0,0:0:0:0:
192,192,66532,1,0,0:0:0:0:
320,192,66602,1,0,0:0:0:0:
192,192,66671,1,0,0:0:0:0:
64,192,66741,1,0,0:0:0:0:
448,192,66811,1,0,0:0:0:0:
320,192,66881,1,0,0:0:0:0:
64,192,66950,1,2,0:0:0:0:
192,192,66950,1,4,0:0:0:0:
448,192,66950,128,0,67160:0:0:0:0:
320,192,67090,1,0,0:0:0:0:
192,192,67160,1,0,0:0:0:0:
64,192,67229,1,2,0:0:0:0:
320,192,67229,1,8,0:0:0:0:
448,192,67229,1,0,0:0:0:0:
192,192,67369,1,0,0:0:0:0:
64,192,67509,1,2,0:0:0:0:
448,192,67509,128,0,67648:0:0:0:0:
192,192,67578,1,0,0:0:0:0:
320,192,67648,1,0,0:0:0:0:
448,192,67718,1,0,0:0:0:0:
64,192,67788,128,8,67997:0:0:0:0:
192,192,67788,1,2,0:0:0:0:
320,192,67788,1,0,0:0:0:0:
192,192,67927,1,0,0:0:0:0:
320,192,67997,1,0,0:0:0:0:
64,192,68067,1,2,0:0:0:0:
448,192,68067,128,0,68276:0:0:0:0:
320,192,68206,1,0,0:0:0:0:
192,192,68276,1,0,0:0:0:0:
64,192,68346,1,2,0:0:0:0:
320,192,68346,1,8,0:0:0:0:
448,192,68346,1,0,0:0:0:0:
192,192,68485,1,0,0:0:0:0:
64,192,68625,1,2,0:0:0:0:
448,192,68625,128,0,68764:0:0:0:0:
192,192,68695,1,0,0:0:0:0:
320,192,68764,1,0,0:0:0:0:
448,192,68834,1,0,0:0:0:0:
64,192,68904,128,2,69113:0:0:0:0:
192,192,68904,1,8,0:0:0:0:
320,192,68904,1,0,0:0:0:0:
448,192,68974,1,0,0:0:0:0:
192,192,69043,1,0,0:0:0:0:
320,192,69113,1,0,0:0:0:0:
64,192,69183,128,2,69462:0:0:0:0:
192,192,69183,128,4,69462:0:0:0:0:
448,192,69183,1,0,0:0:0:0:
320,192,69323,1,0,0:0:0:0:
448,192,69462,1,0,0:0:0:0:
64,192,69602,128,2,69671:0:0:0:0:
192,192,69602,128,0,69671:0:0:0:0:
320,192,69741,128,2,69950:0:0:0:0:
448,192,69741,128,0,69950:0:0:0:0:
64,192,70020,1,8,0:0:0:0:
320,192,70020,1,0,0:0:0:0:
448,192,70160,1,0,0:0:0:0:
64,192,70299,128,2,70578:0:0:0:0:
192,192,70299,128,0,70578:0:0:0:0:
448,192,70439,1,0,0:0:0:0:
320,192,70578,1,0,0:0:0:0:
64,192,70718,128,2,70788:0:0:0:0:
192,192,70718,128,0,70788:0:0:0:0:
320,192,70857,128,2,70997:0:0:0:0:
448,192,70857,128,0,70997:0:0:0:0:
192,192,70997,1,0,0:0:0:0:
320,192,71136,128,8,71346:0:0:0:0:
448,192,71136,128,0,71346:0:0:0:0:
64,192,71416,128,2,71695:0:0:0:0:
448,192,71416,128,0,71695:0:0:0:0:
192,192,71555,1,0,0:0:0:0:
320,192,71695,1,0,0:0:0:0:
64,192,71834,128,2,71904:0:0:0:0:
448,192,71834,128,0,71904:0:0:0:0:
192,192,71974,128,2,72183:0:0:0:0:
320,192,71974,128,0,72183:0:0:0:0:
64,192,72253,1,8,0:0:0:0:
320,192,72253,1,0,0:0:0:0:
192,192,72392,1,0,0:0:0:0:
64,192,72532,128,2,72811:0:0:0:0:
448,192,72532,128,0,72811:0:0:0:0:
320,192,72671,1,0,0:0:0:0:
192,192,72811,1,0,0:0:0:0:
64,192,72950,128,2,73020:0:0:0:0:
448,192,72950,128,0,73020:0:0:0:0:
192,192,73090,128,2,73299:0:0:0:0:
320,192,73090,128,0,73299:0:0:0:0:
64,192,73229,1,0,0:0:0:0:
320,192,73369,1,8,0:0:0:0:
448,192,73369,1,0,0:0:0:0:
192,192,73648,128,2,73927:0:0:0:0:
448,192,73648,128,0,73927:0:0:0:0:
64,192,73788,1,0,0:0:0:0:
320,192,73927,1,0,0:0:0:0:
192,192,74067,128,2,74136:0:0:0:0:
448,192,74067,128,0,74136:0:0:0:0:
64,192,74206,128,2,74416:0:0:0:0:
320,192,74206,128,0,74416:0:0:0:0:
64,192,74485,1,8,0:0:0:0:
192,192,74485,1,0,0:0:0:0:
320,192,74625,1,0,0:0:0:0:
192,192,74764,128,2,75043:0:0:0:0:
448,192,74764,128,0,75043:0:0:0:0:
320,192,74904,1,0,0:0:0:0:
64,192,75043,1,0,0:0:0:0:
192,192,75183,128,2,75253:0:0:0:0:
448,192,75183,128,0,75253:0:0:0:0:
64,192,75323,128,2,75462:0:0:0:0:
320,192,75323,128,0,75462:0:0:0:0:
192,192,75462,1,0,0:0:0:0:
64,192,75602,128,8,75811:0:0:0:0:
320,192,75602,128,0,75811:0:0:0:0:
320,192,75881,128,2,76090:0:0:0:0:
448,192,75881,128,0,76090:0:0:0:0:
64,192,76020,128,0,76090:0:0:0:0:
192,192,76160,128,0,76229:0:0:0:0:
320,192,76299,128,2,76369:0:0:0:0:
448,192,76299,128,0,76369:0:0:0:0:
64,192,76439,128,2,76648:0:0:0:0:
192,192,76439,128,0,76648:0:0:0:0:
448,192,76578,128,0,76648:0:0:0:0:
64,192,76718,1,8,0:0:0:0:
320,192,76718,128,0,76788:0:0:0:0:
192,192,76857,128,0,76927:0:0:0:0:
320,192,76997,128,2,77276:0:0:0:0:
448,192,76997,128,0,77276:0:0:0:0:
192,192,77136,128,0,77206:0:0:0:0:
64,192,77276,128,0,77346:0:0:0:0:
320,192,77416,128,2,77485:0:0:0:0:
448,192,77416,128,0,77485:0:0:0:0:
64,192,77555,128,2,77764:0:0:0:0:
192,192,77555,128,0,77764:0:0:0:0:
320,192,77695,128,0,77764:0:0:0:0:
64,192,77834,1,8,0:0:0:0:
448,192,77834,1,0,0:0:0:0:
192,192,77974,1,0,0:0:0:0:
320,192,78043,1,0,0:0:0:0:
64,192,78113,128,2,78183:0:0:0:0:
192,192,78113,128,0,78183:0:0:0:65:Crash 2.wav
448,192,78113,128,0,78183:0:0:0:0:
64,192,78253,128,2,78392:0:0:0:0:
320,192,78253,128,0,78392:0:0:0:65:Crash 2.wav
448,192,78253,128,0,78392:0:0:0:0:
192,192,78392,1,0,0:0:0:0:
64,192,78532,128,2,78671:0:0:0:0:
192,192,78532,128,4,79788:0:0:0:0:
320,192,78532,128,0,78811:0:0:0:0:
448,192,78532,128,0,78881:0:0:0:0:
64,192,78811,128,0,79090:0:0:0:0:
320,192,78950,128,0,79229:0:0:0:0:
448,192,79090,128,0,79369:0:0:0:0:
64,192,79229,128,0,79509:0:0:0:0:
320,192,79369,128,0,79648:0:0:0:0:
448,192,79509,128,0,79648:0:0:0:0:
64,192,79648,128,0,79788:0:0:0:0:
448,192,79718,1,0,0:0:0:0:
320,192,79788,1,0,0:0:0:0:
192,192,79857,1,0,0:0:0:0:
64,192,79927,128,2,79997:0:0:0:0:
448,192,79927,128,0,79997:0:0:0:65:Crash 2.wav
192,192,80067,128,2,80136:0:0:0:0:
448,192,80067,128,0,80136:0:0:0:65:Crash 2.wav
320,192,80206,128,2,80276:0:0:0:0:
448,192,80206,128,0,80276:0:0:0:65:Crash 2.wav
64,192,80346,128,2,80416:0:0:0:0:
192,192,80346,128,0,80416:0:0:0:65:Crash 2.wav
320,192,80346,128,0,80416:0:0:0:0:
192,192,80485,128,2,80625:0:0:0:0:
320,192,80485,128,0,80625:0:0:0:65:Crash 2.wav
448,192,80485,128,0,80625:0:0:0:0:
64,192,80625,1,0,0:0:0:0:
64,192,80764,128,2,81183:0:0:0:0:
192,192,80764,128,4,81043:0:0:0:0:
320,192,80764,128,0,82020:0:0:0:0:
448,192,80764,128,0,80904:0:0:0:0:
448,192,81043,128,0,81323:0:0:0:0:
192,192,81183,128,0,81462:0:0:0:0:
64,192,81323,128,0,81602:0:0:0:0:
448,192,81462,128,0,81741:0:0:0:0:
192,192,81602,128,0,81881:0:0:0:0:
64,192,81741,128,0,81881:0:0:0:0:
448,192,81881,128,0,82020:0:0:0:0:
64,192,82020,1,2,0:0:0:0:
192,192,82020,1,0,0:0:0:0:
320,192,82090,1,0,0:0:0:0:
192,192,82160,1,0,0:0:0:0:
320,192,82229,1,2,0:0:0:0:
448,192,82229,1,0,0:0:0:0:
64,192,82299,1,2,0:0:0:0:
192,192,82299,1,0,0:0:0:0:
448,192,82369,1,0,0:0:0:0:
64,192,82439,1,2,0:0:0:0:
192,192,82439,1,0,0:0:0:0:
320,192,82509,1,2,0:0:0:0:
64,192,82578,1,2,0:0:0:0:
192,192,82578,1,4,0:0:0:0:
448,192,82578,1,0,0:0:0:0:
320,192,82718,128,0,82857:0:0:0:0:
64,192,82857,1,2,0:0:0:0:
192,192,82857,128,8,82997:0:0:0:0:
448,192,82857,1,0,0:0:0:0:
320,192,82997,128,0,83136:0:0:0:0:
64,192,83136,128,2,83346:0:0:0:0:
448,192,83136,128,0,83206:0:0:0:0:
320,192,83206,128,0,83276:0:0:0:0:
192,192,83276,128,0,83346:0:0:0:0:
64,192,83416,128,2,83625:0:0:0:0:
192,192,83416,1,8,0:0:0:0:
448,192,83416,128,0,83485:0:0:0:0:
320,192,83485,128,0,83555:0:0:0:0:
192,192,83555,128,0,83625:0:0:0:0:
64,192,83695,1,2,0:0:0:0:
448,192,83695,1,0,0:0:0:0:
192,192,83834,128,0,83974:0:0:0:0:
64,192,83974,1,2,0:0:0:0:
320,192,83974,128,8,84113:0:0:0:0:
448,192,83974,1,0,0:0:0:0:
192,192,84113,128,0,84253:0:0:0:0:
320,192,84253,128,2,84323:0:0:0:0:
448,192,84253,128,0,84462:0:0:0:0:
192,192,84323,128,0,84392:0:0:0:0:
64,192,84392,128,0,84462:0:0:0:0:
64,192,84532,1,2,0:0:0:0:
320,192,84532,128,8,84602:0:0:0:0:
448,192,84532,128,0,84741:0:0:0:0:
192,192,84602,128,0,84671:0:0:0:0:
64,192,84671,128,0,84741:0:0:0:0:
320,192,84811,1,2,0:0:0:0:
448,192,84811,1,0,0:0:0:0:
64,192,84950,1,2,0:0:0:0:
448,192,84950,1,0,0:0:0:0:
192,192,85020,1,0,0:0:0:0:
64,192,85090,1,2,0:0:0:0:
320,192,85090,1,8,0:0:0:0:
448,192,85090,1,0,0:0:0:0:
64,192,85229,1,2,0:0:0:0:
192,192,85229,1,0,0:0:0:0:
320,192,85369,1,2,0:0:0:0:
448,192,85369,1,0,0:0:0:0:
64,192,85439,1,2,0:0:0:0:
192,192,85439,1,0,0:0:0:0:
320,192,85509,1,2,0:0:0:0:
448,192,85509,1,0,0:0:0:0:
64,192,85578,1,2,0:0:0:0:
192,192,85578,1,0,0:0:0:0:
320,192,85648,1,2,0:0:0:0:
448,192,85648,1,8,0:0:0:0:
64,192,85718,1,2,0:0:0:0:
192,192,85718,1,0,0:0:0:0:
64,192,85788,1,2,0:0:0:0:
192,192,85788,1,0,0:0:0:0:
320,192,85857,1,2,0:0:0:0:
448,192,85857,1,0,0:0:0:0:
64,192,85927,128,2,86695:0:0:0:0:
320,192,85927,1,4,0:0:0:0:
448,192,85927,128,0,86695:0:0:0:0:
192,192,86206,128,0,86695:0:0:0:0:
320,192,86485,128,0,86695:0:0:0:0:
64,192,86764,128,2,86974:0:0:0:0:
448,192,86764,128,0,86974:0:0:0:0:
64,192,87043,128,2,87253:0:0:0:0:
192,192,87043,128,4,87253:0:0:0:0:
320,192,87043,128,0,87253:0:0:0:0:
448,192,87043,128,0,87253:0:0:0:0:
320,192,87323,128,0,87392:0:0:0:0:
192,192,87462,128,0,87532:0:0:0:0:
448,192,87602,128,0,87671:0:0:0:0:
64,192,87741,128,2,87881:0:0:0:0:
192,192,87741,128,0,87881:0:0:0:65:Crash 2.wav
320,192,87741,128,0,87881:0:0:0:0:
192,192,88020,128,2,88160:0:0:0:0:
320,192,88020,128,4,88160:0:0:0:0:
448,192,88020,128,0,88299:0:0:0:0:
64,192,88299,1,2,0:0:0:0:
192,192,88299,1,0,0:0:0:0:
320,192,88369,1,0,0:0:0:0:
64,192,88439,128,2,88578:0:0:0:0:
192,192,88439,1,8,0:0:0:0:
448,192,88439,1,0,0:0:0:0:
320,192,88578,128,0,88718:0:0:0:0:
192,192,88718,1,2,0:0:0:0:
448,192,88718,1,0,0:0:0:0:
64,192,88857,128,0,88997:0:0:0:0:
192,192,88997,128,2,89136:0:0:0:0:
320,192,88997,1,8,0:0:0:0:
448,192,88997,1,0,0:0:0:0:
64,192,89136,1,2,0:0:0:0:
320,192,89136,128,0,89276:0:0:0:0:
192,192,89276,1,2,0:0:0:0:
448,192,89276,128,0,89555:0:0:0:0:
192,192,89416,1,0,0:0:0:0:
64,192,89555,128,2,89834:0:0:0:0:
192,192,89555,1,8,0:0:0:0:
320,192,89555,1,0,0:0:0:0:
320,192,89695,1,0,0:0:0:0:
320,192,89834,1,2,0:0:0:0:
448,192,89834,128,0,90113:0:0:0:0:
64,192,89974,1,0,0:0:0:0:
64,192,90113,128,2,90392:0:0:0:0:
192,192,90113,1,8,0:0:0:0:
320,192,90113,1,0,0:0:0:0:
448,192,90253,1,0,0:0:0:0:
320,192,90392,1,2,0:0:0:0:
448,192,90392,128,0,90462:0:0:0:0:
64,192,90462,128,0,90532:0:0:0:0:
192,192,90532,128,0,90602:0:0:0:0:
320,192,90602,128,0,90671:0:0:0:0:
64,192,90671,1,2,0:0:0:0:
192,192,90671,1,8,0:0:0:0:
448,192,90671,128,0,90741:0:0:0:0:
320,192,90741,128,0,90811:0:0:0:0:
192,192,90811,128,0,90881:0:0:0:0:
64,192,90881,128,0,90950:0:0:0:0:
320,192,90950,128,2,91020:0:0:0:0:
448,192,90950,1,0,0:0:0:0:
192,192,91020,128,0,91090:0:0:0:0:
64,192,91090,128,0,91160:0:0:0:0:
320,192,91160,128,2,91229:0:0:0:0:
448,192,91160,1,0,0:0:0:0:
64,192,91229,1,2,0:0:0:0:
192,192,91229,128,8,91299:0:0:0:0:
448,192,91299,128,0,91369:0:0:0:0:
192,192,91369,1,2,0:0:0:0:
320,192,91369,128,0,91439:0:0:0:0:
64,192,91439,128,0,91509:0:0:0:0:
320,192,91509,128,2,91788:0:0:0:0:
448,192,91509,1,0,0:0:0:0:
192,192,91648,1,0,0:0:0:0:
64,192,91788,1,2,0:0:0:0:
192,192,91788,128,8,92067:0:0:0:0:
448,192,91788,1,0,0:0:0:0:
320,192,91927,1,0,0:0:0:0:
64,192,92067,1,2,0:0:0:0:
320,192,92067,128,0,92346:0:0:0:0:
192,192,92206,1,0,0:0:0:0:
64,192,92346,1,2,0:0:0:0:
192,192,92346,128,8,92485:0:0:0:0:
448,192,92346,1,0,0:0:0:0:
320,192,92485,128,0,92625:0:0:0:0:
64,192,92625,128,2,92695:0:0:0:0:
192,192,92625,128,0,92695:0:0:0:65:Crash 2.wav
448,192,92625,128,0,92695:0:0:0:0:
64,192,92764,128,2,92904:0:0:0:0:
320,192,92764,128,0,92904:0:0:0:65:Crash 2.wav
448,192,92764,128,0,92904:0:0:0:0:
64,192,93043,128,2,93462:0:0:0:0:
192,192,93043,128,4,93392:0:0:0:0:
320,192,93043,128,0,93323:0:0:0:0:
448,192,93323,1,0,0:0:0:0:
320,192,93392,1,0,0:0:0:0:
192,192,93462,1,2,0:0:0:0:
448,192,93462,1,0,0:0:0:0:
64,192,93532,1,0,0:0:0:0:
320,192,93602,1,2,0:0:0:0:
448,192,93602,1,0,0:0:0:0:
192,192,93671,1,2,0:0:0:0:
64,192,93741,1,2,0:0:0:0:
320,192,93741,1,4,0:0:0:0:
448,192,93741,128,0,94020:0:0:0:0:
192,192,93881,1,0,0:0:0:0:
64,192,94020,1,2,0:0:0:0:
192,192,94020,128,8,94299:0:0:0:0:
320,192,94020,1,0,0:0:0:0:
448,192,94160,1,0,0:0:0:0:
320,192,94299,1,2,0:0:0:0:
448,192,94299,128,0,94439:0:0:0:0:
64,192,94439,128,0,94718:0:0:0:0:
192,192,94578,128,2,94718:0:0:0:0:
320,192,94578,1,8,0:0:0:0:
448,192,94578,1,0,0:0:0:0:
320,192,94718,128,0,94997:0:0:0:0:
64,192,94857,1,2,0:0:0:0:
192,192,94857,1,0,0:0:0:65:Crash 2.wav
64,192,94997,1,2,0:0:0:0:
448,192,94997,1,0,0:0:0:65:Crash 2.wav
192,192,95136,1,2,0:0:0:0:
448,192,95136,1,0,0:0:0:65:Crash 2.wav
320,192,95276,128,2,95311:0:0:0:0:
448,192,95276,1,0,0:0:0:65:Crash 2.wav
64,192,95346,128,0,95381:0:0:0:0:
320,192,95416,128,0,95450:0:0:0:0:
64,192,95485,128,0,95520:0:0:0:0:
320,192,95555,128,2,95625:0:0:0:50:
448,192,95555,128,0,95625:0:0:0:0:
64,192,95695,128,2,95764:0:0:0:60:
192,192,95695,128,0,95764:0:0:0:0:
320,192,95834,128,2,95904:0:0:0:70:
448,192,95834,128,0,95904:0:0:0:0:
64,192,95974,128,2,96183:0:0:0:0:
192,192,95974,128,4,96183:0:0:0:0:
320,192,95974,128,0,96183:0:0:0:0:
448,192,95974,128,0,96183:0:0:0:0:
192,192,96253,128,0,96323:0:0:0:0:
320,192,96392,128,0,96462:0:0:0:0:
64,192,96532,128,0,96602:0:0:0:0:
192,192,96671,128,2,96811:0:0:0:0:
320,192,96671,128,0,96811:0:0:0:65:Crash 2.wav
448,192,96671,128,0,96811:0:0:0:0:
64,192,96950,128,2,97229:0:0:0:0:
192,192,96950,128,4,97090:0:0:0:0:
320,192,96950,128,0,97090:0:0:0:0:
320,192,97229,1,2,0:0:0:0:
448,192,97229,1,0,0:0:0:0:
192,192,97299,1,0,0:0:0:0:
64,192,97369,1,2,0:0:0:0:
320,192,97369,1,8,0:0:0:0:
448,192,97369,128,0,97509:0:0:0:0:
192,192,97509,128,0,97648:0:0:0:0:
64,192,97648,1,2,0:0:0:0:
320,192,97648,1,0,0:0:0:0:
448,192,97788,128,0,97927:0:0:0:0:
64,192,97927,1,2,0:0:0:0:
192,192,97927,1,8,0:0:0:0:
320,192,97927,128,0,98067:0:0:0:0:
192,192,98067,128,2,98206:0:0:0:0:
448,192,98067,1,0,0:0:0:0:
64,192,98206,128,2,98485:0:0:0:0:
320,192,98206,1,0,0:0:0:0:
320,192,98346,1,0,0:0:0:0:
192,192,98485,1,2,0:0:0:0:
320,192,98485,1,8,0:0:0:0:
448,192,98485,128,0,98764:0:0:0:0:
192,192,98625,1,0,0:0:0:0:
64,192,98764,128,2,99043:0:0:0:0:
192,192,98764,1,0,0:0:0:0:
448,192,98904,1,0,0:0:0:0:
192,192,99043,1,2,0:0:0:0:
320,192,99043,1,8,0:0:0:0:
448,192,99043,128,0,99323:0:0:0:0:
64,192,99183,1,0,0:0:0:0:
64,192,99323,128,2,99392:0:0:0:0:
192,192,99323,1,0,0:0:0:0:
448,192,99392,128,0,99462:0:0:0:0:
320,192,99462,128,0,99532:0:0:0:0:
192,192,99532,128,0,99602:0:0:0:0:
64,192,99602,128,2,99671:0:0:0:0:
320,192,99602,1,8,0:0:0:0:
448,192,99602,1,0,0:0:0:0:
192,192,99671,128,0,99741:0:0:0:0:
320,192,99741,128,0,99811:0:0:0:0:
448,192,99811,128,0,99881:0:0:0:0:
64,192,99881,1,2,0:0:0:0:
192,192,99881,128,0,99950:0:0:0:0:
320,192,99950,128,0,100020:0:0:0:0:
448,192,100020,128,0,100090:0:0:0:0:
64,192,100090,1,2,0:0:0:0:
192,192,100090,128,0,100160:0:0:0:0:
320,192,100160,128,2,100229:0:0:0:0:
448,192,100160,1,8,0:0:0:0:
64,192,100229,128,0,100299:0:0:0:0:
192,192,100299,128,2,100369:0:0:0:0:
320,192,100299,1,0,0:0:0:0:
448,192,100369,128,0,100439:0:0:0:0:
64,192,100439,1,2,0:0:0:0:
192,192,100439,128,0,100718:0:0:0:0:
320,192,100578,1,0,0:0:0:0:
64,192,100718,1,2,0:0:0:0:
320,192,100718,128,8,100997:0:0:0:0:
448,192,100718,1,0,0:0:0:0:
192,192,100857,1,0,0:0:0:0:
192,192,100997,128,2,101276:0:0:0:0:
448,192,100997,1,0,0:0:0:0:
320,192,101136,1,0,0:0:0:0:
64,192,101276,1,2,0:0:0:0:
320,192,101276,128,8,101555:0:0:0:0:
448,192,101276,1,0,0:0:0:0:
192,192,101416,1,0,0:0:0:0:
64,192,101555,128,2,101625:0:0:0:0:
192,192,101555,128,0,101625:0:0:0:65:Crash 2.wav
448,192,101555,128,0,101625:0:0:0:0:
64,192,101695,128,2,101834:0:0:0:0:
320,192,101695,128,0,101834:0:0:0:65:Crash 2.wav
448,192,101695,128,0,101834:0:0:0:0:
192,192,101834,1,0,0:0:0:0:
192,192,101974,128,2,102253:0:0:0:0:
320,192,101974,128,4,102323:0:0:0:0:
448,192,101974,128,0,102392:0:0:0:0:
64,192,102253,1,0,0:0:0:0:
192,192,102323,1,2,0:0:0:0:
64,192,102392,1,2,0:0:0:0:
320,192,102392,1,0,0:0:0:0:
448,192,102462,1,0,0:0:0:0:
64,192,102532,1,2,0:0:0:0:
192,192,102532,1,0,0:0:0:0:
320,192,102602,1,2,0:0:0:0:
64,192,102671,128,2,102950:0:0:0:0:
192,192,102671,1,4,0:0:0:0:
448,192,102671,1,0,0:0:0:0:
320,192,102811,1,0,0:0:0:0:
192,192,102950,1,2,0:0:0:0:
320,192,102950,128,8,103229:0:0:0:0:
448,192,102950,1,0,0:0:0:0:
64,192,103090,1,0,0:0:0:0:
64,192,103229,128,2,103369:0:0:0:0:
192,192,103229,1,0,0:0:0:0:
448,192,103369,128,0,103648:0:0:0:0:
64,192,103509,1,2,0:0:0:0:
192,192,103509,1,8,0:0:0:0:
320,192,103509,128,0,103648:0:0:0:0:
192,192,103648,128,0,103927:0:0:0:0:
320,192,103788,128,2,103857:0:0:0:0:
448,192,103788,1,0,0:0:0:0:
320,192,103927,128,0,103997:0:0:0:0:
64,192,104067,1,2,0:0:0:0:
192,192,104067,128,8,104136:0:0:0:0:
448,192,104067,128,0,104346:0:0:0:0:
320,192,104206,128,0,104276:0:0:0:0:
64,192,104346,128,2,104416:0:0:0:0:
320,192,104346,128,0,104625:0:0:0:0:
64,192,104485,128,0,104555:0:0:0:0:
64,192,104625,1,2,0:0:0:0:
192,192,104625,128,8,104904:0:0:0:0:
448,192,104625,128,0,104695:0:0:0:0:
320,192,104764,128,0,104834:0:0:0:0:
64,192,104904,128,2,105113:0:0:0:0:
320,192,104904,1,4,0:0:0:0:
448,192,104904,128,0,105113:0:0:0:0:
192,192,105043,1,0,0:0:0:0:
64,192,105183,1,2,0:0:0:0:
320,192,105183,1,8,0:0:0:0:
448,192,105183,1,0,0:0:0:0:
192,192,105323,128,0,105532:0:0:0:0:
64,192,105462,1,2,0:0:0:0:
448,192,105462,1,0,0:0:0:0:
320,192,105602,128,0,105741:0:0:0:0:
64,192,105741,1,2,0:0:0:0:
192,192,105741,1,8,0:0:0:0:
448,192,105741,1,0,0:0:0:0:
320,192,105881,128,0,106160:0:0:0:0:
64,192,106020,1,2,0:0:0:0:
192,192,106020,128,0,106160:0:0:0:0:
448,192,106160,1,0,0:0:0:0:
64,192,106299,128,2,106578:0:0:0:0:
192,192,106299,1,8,0:0:0:0:
320,192,106299,1,0,0:0:0:0:
448,192,106439,1,0,0:0:0:0:
320,192,106578,1,2,0:0:0:0:
448,192,106578,128,0,106857:0:0:0:0:
64,192,106718,1,0,0:0:0:0:
64,192,106857,128,2,107067:0:0:0:0:
192,192,106857,1,8,0:0:0:0:
320,192,106857,1,0,0:0:0:0:
192,192,106997,1,2,0:0:0:0:
448,192,106997,1,0,0:0:0:0:
320,192,107067,1,0,0:0:0:0:
64,192,107136,128,2,107206:0:0:0:0:
192,192,107136,128,0,107206:0:0:0:65:Crash 2.wav
448,192,107136,128,0,107206:0:0:0:0:
64,192,107276,128,2,107346:0:0:0:0:
320,192,107276,128,0,107346:0:0:0:65:Crash 2.wav
448,192,107276,128,0,107346:0:0:0:0:
64,192,107416,1,8,0:0:0:0:
192,192,107416,128,0,107555:0:0:0:0:
320,192,107555,1,0,0:0:0:0:
64,192,107695,128,2,107764:0:0:0:0:
320,192,107695,128,0,107764:0:0:0:65:Crash 2.wav
448,192,107695,128,0,107764:0:0:0:0:
64,192,107834,128,2,107904:0:0:0:0:
192,192,107834,128,0,107904:0:0:0:65:Crash 2.wav
448,192,107834,128,0,107904:0:0:0:0:
320,192,107974,128,8,108113:0:0:0:0:
448,192,107974,1,0,0:0:0:0:
192,192,108113,1,0,0:0:0:0:
64,192,108253,128,2,108323:0:0:0:0:
192,192,108253,128,0,108323:0:0:0:65:Crash 2.wav
448,192,108253,128,0,108323:0:0:0:0:
64,192,108392,128,2,108462:0:0:0:0:
320,192,108392,128,0,108462:0:0:0:65:Crash 2.wav
448,192,108392,128,0,108462:0:0:0:0:
64,192,108532,1,8,0:0:0:0:
192,192,108532,128,0,108671:0:0:0:0:
320,192,108671,1,0,0:0:0:0:
64,192,108811,1,2,0:0:0:0:
192,192,108811,1,0,0:0:0:65:Crash 2.wav
448,192,108811,1,0,0:0:0:0:
320,192,108881,1,0,0:0:0:0:
64,192,108950,1,0,0:0:0:65:Crash 2.wav
448,192,108950,1,0,0:0:0:0:
192,192,109020,1,2,0:0:0:0:
320,192,109090,1,2,0:0:0:0:
448,192,109090,1,0,0:0:0:0:
64,192,109160,1,2,0:0:0:0:
192,192,109229,1,2,0:0:0:0:
448,192,109229,1,0,0:0:0:0:
320,192,109299,1,2,0:0:0:0:
64,192,109369,128,2,109578:0:0:0:0:
192,192,109369,1,4,0:0:0:0:
448,192,109369,128,0,109578:0:0:0:0:
320,192,109509,1,0,0:0:0:0:
64,192,109648,1,2,0:0:0:0:
320,192,109648,1,8,0:0:0:0:
448,192,109648,1,0,0:0:0:0:
192,192,109788,128,0,109927:0:0:0:0:
64,192,109927,1,2,0:0:0:0:
320,192,109927,1,0,0:0:0:0:
448,192,110067,128,0,110206:0:0:0:0:
64,192,110206,1,2,0:0:0:0:
192,192,110206,1,8,0:0:0:0:
320,192,110206,1,0,0:0:0:0:
320,192,110346,128,0,110625:0:0:0:0:
64,192,110485,128,2,110625:0:0:0:0:
448,192,110485,1,0,0:0:0:0:
192,192,110625,1,0,0:0:0:0:
64,192,110764,1,2,0:0:0:0:
192,192,110764,128,8,111043:0:0:0:0:
448,192,110764,1,0,0:0:0:0:
320,192,110904,1,0,0:0:0:0:
64,192,111043,1,2,0:0:0:0:
320,192,111043,128,0,111323:0:0:0:0:
192,192,111183,1,0,0:0:0:0:
64,192,111323,1,2,0:0:0:0:
192,192,111323,128,8,111602:0:0:0:0:
448,192,111323,1,0,0:0:0:0:
320,192,111462,1,2,0:0:0:0:
448,192,111462,1,0,0:0:0:0:
64,192,111602,128,2,111811:0:0:0:0:
320,192,111602,128,4,111811:0:0:0:0:
448,192,111602,128,0,111811:0:0:0:0:
64,192,111881,128,0,112090:0:0:0:65:Tom BDW.wav
448,192,111881,1,0,0:0:0:0:
192,192,112020,128,0,112229:0:0:0:0:
64,192,112160,1,0,0:0:0:70:Tom BDP.wav
320,192,112160,128,0,112369:0:0:0:0:
448,192,112299,128,0,112509:0:0:0:0:
64,192,112439,128,0,112648:0:0:0:0:
192,192,112578,128,0,112648:0:0:0:70:Tom BDP.wav
320,192,112578,1,0,0:0:0:0:
192,192,112718,128,0,112927:0:0:0:0:
64,192,112857,1,0,0:0:0:70:Tom BDP.wav
320,192,112857,128,0,113136:0:0:0:0:
448,192,112997,128,0,113136:0:0:0:0:
64,192,113276,128,0,113764:0:0:0:0:
448,192,113276,128,0,113764:0:0:0:0:
320,192,113346,1,0,0:0:0:0:
192,192,113416,1,0,0:0:0:0:
320,192,113485,1,0,0:0:0:0:
192,192,113555,1,0,0:0:0:0:
320,192,113625,1,0,0:0:0:0:
192,192,113695,1,0,0:0:0:0:
320,192,113764,1,0,0:0:0:0:
64,192,113834,1,2,0:0:0:0:
192,192,113834,1,4,0:0:0:0:
448,192,113834,1,0,0:0:0:40:A7.wav
320,192,113974,1,0,0:0:0:0:
192,192,114113,1,0,0:0:0:30:C#7.wav
192,192,114392,1,0,0:0:0:30:D7.wav
448,192,114950,1,0,0:0:0:30:A7.wav
320,192,115090,1,0,0:0:0:0:
192,192,115229,1,0,0:0:0:30:C#7.wav
192,192,115509,1,0,0:0:0:30:D7.wav
448,192,116067,1,0,0:0:0:30:A7.wav
320,192,116206,1,0,0:0:0:0:
192,192,116346,1,0,0:0:0:30:C#7.wav
192,192,116625,1,0,0:0:0:30:D7.wav
448,192,117183,1,0,0:0:0:30:A7.wav
320,192,117323,1,0,0:0:0:0:
192,192,117462,1,0,0:0:0:30:C#7.wav
192,192,117741,1,0,0:0:0:30:D7.wav
448,192,118299,1,0,0:0:0:30:A7.wav
320,192,118439,1,0,0:0:0:0:
192,192,118578,1,0,0:0:0:30:C#7.wav
192,192,118857,1,0,0:0:0:30:D7.wav
320,192,119136,1,0,0:0:0:25:G#6.wav
448,192,119416,1,0,0:0:0:30:A7.wav
320,192,119555,1,0,0:0:0:0:
192,192,119695,1,0,0:0:0:30:C#7.wav
192,192,119974,1,0,0:0:0:30:D7.wav
320,192,120253,1,0,0:0:0:35:G#6.wav
448,192,120532,128,0,122764:0:0:0:30:A7.wav
320,192,120671,1,0,0:0:0:0:
192,192,120811,1,0,0:0:0:30:C#7.wav
192,192,121090,1,0,0:0:0:30:D7.wav
64,192,121229,1,0,0:0:0:0:
320,192,121369,1,0,0:0:0:45:G#6.wav
64,192,121648,128,0,122346:0:0:0:45:A7.wav
192,192,121788,1,0,0:0:0:50:A#6.wav
320,192,121927,1,0,0:0:0:50:C#7.wav
320,192,122206,128,0,122764:0:0:0:55:D7.wav
192,192,122346,128,0,122764:0:0:0:0:
64,192,122485,128,2,122764:0:0:0:55:G#6.wav
448,192,123741,1,0,0:0:0:0:
320,192,123776,1,0,0:0:0:0:
192,192,123811,1,0,0:0:0:0:
64,192,123846,1,0,0:0:0:0:
448,192,123881,1,0,0:0:0:0:
64,192,123950,1,0,0:0:0:0:
320,192,124067,1,0,0:0:0:0:
192,192,124160,1,2,0:0:0:0:
448,192,124253,1,0,0:0:0:0:
320,192,124346,1,2,0:0:0:0:
64,192,124439,1,0,0:0:0:65:Snare.wav
192,192,124439,1,0,0:0:0:0:
448,192,124439,1,0,0:0:0:0:
192,192,124625,1,2,0:0:0:0:
320,192,124625,1,0,0:0:0:0:
64,192,124718,1,0,0:0:0:65:Snare.wav
192,192,124718,1,0,0:0:0:0:
448,192,124718,1,0,0:0:0:0:
320,192,124811,1,2,0:0:0:0:
448,192,124811,1,0,0:0:0:0:
64,192,124904,1,2,0:0:0:0:
192,192,124904,1,0,0:0:0:0:
64,192,124997,1,2,0:0:0:0:
320,192,124997,1,4,0:0:0:0:
448,192,124997,1,0,0:0:0:0:
192,192,125043,1,0,0:0:0:0:
448,192,125090,1,0,0:0:0:0:
320,192,125136,1,0,0:0:0:0:
64,192,125183,1,0,0:0:0:0:
192,192,125229,1,0,0:0:0:0:
320,192,125276,1,0,0:0:0:0:
448,192,125323,1,0,0:0:0:0:
64,192,125369,1,0,0:0:0:0:
192,192,125416,1,0,0:0:0:0:
320,192,125462,1,0,0:0:0:0:
448,192,125509,1,0,0:0:0:0:
64,192,125555,128,0,125695:0:0:0:65:Snare.wav
192,192,125555,1,0,0:0:0:0:
320,192,125695,1,0,0:0:0:0:
448,192,125788,128,0,125881:0:0:0:0:
64,192,125881,128,0,125974:0:0:0:0:
192,192,126020,128,2,126113:0:0:0:0:
320,192,126020,128,0,126113:0:0:0:0:
64,192,126113,128,0,126206:0:0:0:0:
448,192,126113,128,0,126206:0:0:0:0:
64,192,126299,128,2,126392:0:0:0:0:
192,192,126299,128,0,126392:0:0:0:0:
320,192,126392,128,2,126578:0:0:0:0:
448,192,126392,128,0,126578:0:0:0:0:
64,192,126485,1,0,0:0:0:0:
192,192,126578,1,0,0:0:0:0:
64,192,126671,1,0,0:0:0:65:Snare.wav
320,192,126671,1,0,0:0:0:0:
448,192,126718,1,0,0:0:0:0:
192,192,126764,1,0,0:0:0:0:
64,192,126811,1,0,0:0:0:0:
448,192,126857,1,0,0:0:0:0:
320,192,126904,1,0,0:0:0:0:
64,192,126950,1,0,0:0:0:0:
192,192,126997,1,0,0:0:0:0:
320,192,127043,1,0,0:0:0:0:
448,192,127090,1,0,0:0:0:0:
64,192,127136,1,0,0:0:0:0:
192,192,127183,1,0,0:0:0:0:
320,192,127229,1,2,0:0:0:0:
448,192,127229,1,0,0:0:0:0:
192,192,127276,1,0,0:0:0:0:
64,192,127323,1,0,0:0:0:0:
448,192,127369,1,0,0:0:0:0:
320,192,127416,1,0,0:0:0:0:
192,192,127462,1,0,0:0:0:0:
448,192,127509,128,0,127602:0:0:0:0:
320,192,127555,128,0,127648:0:0:0:0:
192,192,127602,128,0,127695:0:0:0:0:
64,192,127648,128,0,127695:0:0:0:0:
64,192,127788,128,0,127927:0:0:0:65:Snare.wav
448,192,127788,1,0,0:0:0:0:
320,192,127974,128,0,128020:0:0:0:0:
192,192,128067,128,0,128113:0:0:0:0:
320,192,128160,128,0,128206:0:0:0:0:
64,192,128253,128,2,128299:0:0:0:0:
192,192,128253,128,0,128299:0:0:0:0:
448,192,128346,128,0,128439:0:0:0:0:
64,192,128439,128,0,128532:0:0:0:0:
320,192,128532,128,2,128625:0:0:0:0:
448,192,128532,128,0,128625:0:0:0:0:
64,192,128625,128,2,128718:0:0:0:0:
192,192,128625,128,0,128718:0:0:0:0:
320,192,128811,128,0,128904:0:0:0:0:
192,192,128904,128,0,128997:0:0:0:0:
320,192,128997,128,0,129090:0:0:0:0:
64,192,129090,128,2,129183:0:0:0:0:
192,192,129090,128,0,129183:0:0:0:0:
320,192,129183,128,0,129369:0:0:0:65:Snare.wav
448,192,129183,128,0,129369:0:0:0:0:
64,192,129276,1,0,0:0:0:0:
192,192,129369,1,0,0:0:0:0:
64,192,129462,1,2,0:0:0:0:
448,192,129462,1,0,0:0:0:0:
320,192,129509,1,0,0:0:0:0:
64,192,129555,1,0,0:0:0:0:
192,192,129602,1,0,0:0:0:0:
448,192,129648,1,0,0:0:0:0:
320,192,129695,1,0,0:0:0:0:
192,192,129741,1,0,0:0:0:0:
64,192,129788,1,0,0:0:0:0:
448,192,129834,1,0,0:0:0:0:
320,192,129881,1,0,0:0:0:0:
192,192,129927,1,0,0:0:0:0:
64,192,129974,1,0,0:0:0:0:
320,192,130020,1,0,0:0:0:65:Snare.wav
448,192,130020,128,0,130113:0:0:0:0:
192,192,130113,128,0,130206:0:0:0:0:
64,192,130253,128,0,130346:0:0:0:0:
320,192,130346,128,0,130439:0:0:0:0:
64,192,130485,128,2,130578:0:0:0:0:
192,192,130485,128,0,130578:0:0:0:0:
448,192,130578,128,0,130671:0:0:0:0:
192,192,130671,128,0,130764:0:0:0:0:
320,192,130764,128,2,130857:0:0:0:0:
448,192,130764,128,0,130857:0:0:0:0:
64,192,130857,128,2,131043:0:0:0:0:
192,192,130857,128,0,131043:0:0:0:0:
448,192,130950,1,0,0:0:0:0:
320,192,131043,1,0,0:0:0:0:
192,192,131136,1,0,0:0:0:65:Snare.wav
448,192,131136,1,0,0:0:0:0:
64,192,131183,1,0,0:0:0:0:
320,192,131229,1,0,0:0:0:0:
448,192,131276,1,0,0:0:0:0:
64,192,131323,1,0,0:0:0:0:
192,192,131369,1,0,0:0:0:0:
320,192,131416,1,0,0:0:0:0:
192,192,131462,1,0,0:0:0:0:
64,192,131509,1,0,0:0:0:0:
448,192,131555,1,0,0:0:0:0:
320,192,131602,1,0,0:0:0:0:
192,192,131648,1,0,0:0:0:0:
64,192,131695,1,2,0:0:0:0:
448,192,131695,1,0,0:0:0:0:
192,192,131741,1,0,0:0:0:0:
320,192,131788,1,0,0:0:0:0:
448,192,131834,1,0,0:0:0:0:
64,192,131881,1,0,0:0:0:0:
192,192,131927,1,0,0:0:0:0:
320,192,131974,1,0,0:0:0:0:
320,192,132067,1,0,0:0:0:0:
192,192,132160,1,0,0:0:0:0:
64,192,132253,128,0,132485:0:0:0:65:Snare.wav
192,192,132253,128,0,132392:0:0:0:0:
448,192,132346,128,0,132485:0:0:0:0:
320,192,132439,128,0,132578:0:0:0:0:
192,192,132532,128,0,132671:0:0:0:0:
64,192,132625,128,0,132718:0:0:0:0:
320,192,132718,128,2,132811:0:0:0:0:
448,192,132718,128,0,132811:0:0:0:0:
64,192,132811,1,2,0:0:0:0:
192,192,132811,128,0,133090:0:0:0:0:
448,192,132904,1,0,0:0:0:0:
320,192,132997,1,0,0:0:0:0:
64,192,133090,1,0,0:0:0:0:
64,192,133183,1,0,0:0:0:0:
320,192,133276,1,2,0:0:0:0:
448,192,133276,1,0,0:0:0:0:
192,192,133323,1,2,0:0:0:0:
64,192,133369,1,0,0:0:0:65:Snare.wav
448,192,133369,128,0,133555:0:0:0:0:
64,192,133555,1,2,0:0:0:0:
320,192,133555,1,0,0:0:0:0:
64,192,133648,128,0,133834:0:0:0:65:Snare.wav
192,192,133648,1,0,0:0:0:0:
320,192,133741,1,2,0:0:0:0:
448,192,133741,1,0,0:0:0:0:
320,192,133834,1,2,0:0:0:0:
448,192,133834,1,0,0:0:0:0:
64,192,133927,1,2,0:0:0:0:
192,192,133927,1,4,0:0:0:0:
448,192,133927,1,0,0:0:0:0:
320,192,133974,1,0,0:0:0:0:
192,192,134020,1,0,0:0:0:0:
64,192,134067,1,0,0:0:0:0:
320,192,134113,1,0,0:0:0:0:
448,192,134160,1,0,0:0:0:0:
192,192,134206,1,0,0:0:0:0:
64,192,134253,1,0,0:0:0:0:
320,192,134299,1,0,0:0:0:0:
448,192,134346,1,0,0:0:0:0:
192,192,134392,1,0,0:0:0:0:
64,192,134439,1,0,0:0:0:0:
320,192,134485,1,0,0:0:0:65:Snare.wav
448,192,134485,128,0,134625:0:0:0:0:
64,192,134625,1,0,0:0:0:0:
320,192,134718,128,0,134811:0:0:0:0:
192,192,134811,128,0,134904:0:0:0:0:
64,192,134950,128,2,135043:0:0:0:0:
448,192,134950,128,0,135043:0:0:0:0:
192,192,135043,128,0,135136:0:0:0:0:
320,192,135043,128,0,135136:0:0:0:0:
320,192,135229,128,2,135323:0:0:0:0:
448,192,135229,128,0,135323:0:0:0:0:
64,192,135323,128,2,135509:0:0:0:0:
192,192,135323,128,0,135509:0:0:0:0:
448,192,135416,1,0,0:0:0:0:
320,192,135509,1,0,0:0:0:0:
192,192,135602,1,0,0:0:0:65:Snare.wav
448,192,135602,1,0,0:0:0:0:
64,192,135648,1,0,0:0:0:0:
320,192,135695,1,0,0:0:0:0:
448,192,135741,1,0,0:0:0:0:
64,192,135788,1,0,0:0:0:0:
192,192,135834,1,0,0:0:0:0:
448,192,135881,1,0,0:0:0:0:
320,192,135927,1,0,0:0:0:0:
192,192,135974,1,0,0:0:0:0:
64,192,136020,1,0,0:0:0:0:
448,192,136067,1,0,0:0:0:0:
320,192,136113,1,0,0:0:0:0:
64,192,136160,1,2,0:0:0:0:
192,192,136160,1,0,0:0:0:0:
320,192,136206,1,0,0:0:0:0:
448,192,136253,1,0,0:0:0:0:
64,192,136299,1,0,0:0:0:0:
192,192,136346,1,0,0:0:0:0:
320,192,136392,1,0,0:0:0:0:
64,192,136439,128,0,136532:0:0:0:0:
192,192,136485,128,0,136578:0:0:0:0:
320,192,136532,128,0,136625:0:0:0:0:
448,192,136578,128,0,136625:0:0:0:0:
64,192,136718,1,0,0:0:0:65:Snare.wav
448,192,136718,128,0,136857:0:0:0:0:
192,192,136904,128,0,136950:0:0:0:0:
320,192,136997,128,0,137043:0:0:0:0:
192,192,137090,128,0,137136:0:0:0:0:
320,192,137183,128,2,137229:0:0:0:0:
448,192,137183,128,0,137229:0:0:0:0:
64,192,137276,128,0,137369:0:0:0:0:
448,192,137369,128,0,137462:0:0:0:0:
64,192,137462,128,2,137555:0:0:0:0:
192,192,137462,128,0,137555:0:0:0:0:
320,192,137555,128,2,137648:0:0:0:0:
448,192,137555,128,0,137648:0:0:0:0:
192,192,137741,128,0,137834:0:0:0:0:
320,192,137834,128,0,137927:0:0:0:0:
192,192,137927,128,0,138020:0:0:0:0:
320,192,138020,128,2,138113:0:0:0:0:
448,192,138020,128,0,138113:0:0:0:0:
64,192,138113,128,0,138299:0:0:0:65:Snare.wav
192,192,138113,128,0,138299:0:0:0:0:
448,192,138206,1,0,0:0:0:0:
320,192,138299,1,0,0:0:0:0:
64,192,138392,1,2,0:0:0:0:
448,192,138392,1,0,0:0:0:0:
192,192,138439,1,0,0:0:0:0:
320,192,138485,1,0,0:0:0:0:
448,192,138532,1,0,0:0:0:0:
192,192,138578,1,0,0:0:0:0:
64,192,138625,1,0,0:0:0:0:
320,192,138671,1,0,0:0:0:0:
448,192,138718,1,0,0:0:0:0:
192,192,138764,1,0,0:0:0:0:
64,192,138811,1,0,0:0:0:0:
320,192,138857,1,0,0:0:0:0:
448,192,138904,1,0,0:0:0:0:
64,192,138950,128,0,139090:0:0:0:65:Snare.wav
192,192,138950,1,0,0:0:0:0:
320,192,139090,1,0,0:0:0:0:
448,192,139183,128,0,139276:0:0:0:0:
192,192,139276,128,0,139369:0:0:0:0:
320,192,139416,128,2,139509:0:0:0:0:
448,192,139416,128,0,139509:0:0:0:0:
64,192,139509,128,0,139602:0:0:0:0:
320,192,139602,128,0,139695:0:0:0:0:
64,192,139695,128,2,139788:0:0:0:0:
192,192,139695,128,0,139788:0:0:0:0:
320,192,139788,128,2,139974:0:0:0:0:
448,192,139788,128,0,139974:0:0:0:0:
64,192,139881,1,0,0:0:0:0:
192,192,139974,1,0,0:0:0:0:
64,192,140067,1,0,0:0:0:65:Snare.wav
320,192,140067,1,0,0:0:0:0:
448,192,140113,1,0,0:0:0:0:
192,192,140160,1,0,0:0:0:0:
64,192,140206,1,0,0:0:0:0:
448,192,140253,1,0,0:0:0:0:
320,192,140299,1,0,0:0:0:0:
192,192,140346,1,0,0:0:0:0:
320,192,140392,1,0,0:0:0:0:
448,192,140439,1,0,0:0:0:0:
64,192,140485,1,0,0:0:0:0:
192,192,140532,1,0,0:0:0:0:
320,192,140578,1,0,0:0:0:0:
64,192,140625,1,2,0:0:0:0:
448,192,140625,1,0,0:0:0:0:
320,192,140671,1,0,0:0:0:0:
192,192,140718,1,0,0:0:0:0:
64,192,140764,1,0,0:0:0:0:
448,192,140811,1,0,0:0:0:0:
320,192,140857,1,0,0:0:0:0:
192,192,140904,1,0,0:0:0:0:
192,192,140997,1,0,0:0:0:0:
320,192,141090,1,0,0:0:0:0:
320,192,141183,128,0,141323:0:0:0:65:Snare.wav
448,192,141183,128,0,141416:0:0:0:0:
64,192,141276,128,0,141416:0:0:0:0:
192,192,141369,128,0,141509:0:0:0:0:
320,192,141462,128,0,141602:0:0:0:0:
448,192,141555,128,0,141648:0:0:0:0:
64,192,141648,128,2,141741:0:0:0:0:
192,192,141648,128,0,141741:0:0:0:0:
320,192,141741,128,2,142020:0:0:0:0:
448,192,141741,1,0,0:0:0:0:
64,192,141834,1,0,0:0:0:0:
192,192,141927,1,0,0:0:0:0:
448,192,142020,1,0,0:0:0:0:
448,192,142113,1,0,0:0:0:0:
64,192,142206,1,2,0:0:0:0:
192,192,142206,1,0,0:0:0:0:
320,192,142253,1,2,0:0:0:0:
64,192,142299,128,0,142485:0:0:0:65:Snare.wav
448,192,142299,1,0,0:0:0:0:
192,192,142485,1,2,0:0:0:0:
448,192,142485,1,0,0:0:0:0:
320,192,142578,1,0,0:0:0:65:Snare.wav
448,192,142578,128,0,142764:0:0:0:0:
64,192,142671,1,2,0:0:0:0:
192,192,142671,1,0,0:0:0:0:
64,192,142764,1,2,0:0:0:0:
192,192,142764,1,0,0:0:0:0:
64,192,142857,128,2,143136:0:0:0:0:
320,192,142857,1,4,0:0:0:0:
448,192,142857,1,0,0:0:0:0:
192,192,142950,128,0,142997:0:0:0:0:
192,192,143043,128,0,143090:0:0:0:0:
320,192,143136,128,0,143183:0:0:0:0:
320,192,143229,128,0,143276:0:0:0:0:
448,192,143323,128,0,143369:0:0:0:0:
448,192,143416,128,0,143462:0:0:0:0:
64,192,143509,128,0,143555:0:0:0:0:
64,192,143602,128,0,143648:0:0:0:0:
192,192,143695,128,0,143741:0:0:0:0:
448,192,143695,128,0,143974:0:0:0:0:
192,192,143788,128,0,143834:0:0:0:0:
320,192,143881,128,0,143974:0:0:0:0:
64,192,143974,1,0,0:0:0:0:
192,192,143974,1,0,0:0:0:0:
192,192,144113,1,0,0:0:0:0:
320,192,144113,1,0,0:0:0:0:
64,192,144253,128,0,144462:0:0:0:0:
448,192,144253,128,0,144462:0:0:0:0:
320,192,144532,128,0,144578:0:0:0:0:
448,192,144532,128,0,144578:0:0:0:0:
192,192,144671,1,0,0:0:0:0:
320,192,144671,1,0,0:0:0:0:
64,192,144811,1,0,0:0:0:0:
192,192,144811,1,0,0:0:0:0:
448,192,144811,1,0,0:0:0:0:
64,192,145090,1,2,0:0:0:0:
320,192,145090,128,4,145299:0:0:0:0:
448,192,145090,128,0,145229:0:0:0:0:
192,192,145229,128,0,145299:0:0:0:0:
64,192,145369,128,2,145578:0:0:0:0:
320,192,145369,1,8,0:0:0:0:
448,192,145369,128,0,145439:0:0:0:0:
192,192,145509,128,0,145578:0:0:0:0:
64,192,145648,128,2,145718:0:0:0:0:
448,192,145648,128,0,145857:0:0:0:0:
320,192,145788,128,0,145857:0:0:0:0:
64,192,145927,128,2,146136:0:0:0:0:
192,192,145927,128,8,145997:0:0:0:0:
448,192,145927,1,0,0:0:0:0:
320,192,146067,128,0,146136:0:0:0:0:
64,192,146206,1,2,0:0:0:0:
448,192,146206,128,0,146276:0:0:0:0:
192,192,146346,128,0,146416:0:0:0:0:
64,192,146485,1,2,0:0:0:0:
192,192,146485,1,8,0:0:0:0:
448,192,146485,128,0,146695:0:0:0:0:
320,192,146625,128,0,146695:0:0:0:0:
64,192,146764,128,2,146834:0:0:0:0:
448,192,146764,1,0,0:0:0:0:
320,192,146904,128,0,146974:0:0:0:0:
64,192,147043,128,2,147113:0:0:0:0:
192,192,147043,128,8,147113:0:0:0:0:
448,192,147043,1,0,0:0:0:0:
320,192,147183,128,2,147253:0:0:0:0:
448,192,147183,128,0,147253:0:0:0:0:
64,192,147323,128,2,147532:0:0:0:0:
192,192,147323,128,0,147462:0:0:0:0:
448,192,147462,128,0,147532:0:0:0:0:
320,192,147532,128,0,147602:0:0:0:0:
64,192,147602,1,2,0:0:0:0:
192,192,147602,128,8,147671:0:0:0:0:
448,192,147602,1,0,0:0:0:0:
320,192,147741,128,0,147811:0:0:0:0:
64,192,147881,128,2,147950:0:0:0:0:
192,192,147881,1,0,0:0:0:0:
320,192,148020,128,0,148090:0:0:0:0:
64,192,148160,1,2,0:0:0:0:
192,192,148160,128,8,148229:0:0:0:0:
448,192,148160,1,0,0:0:0:0:
320,192,148299,128,0,148369:0:0:0:0:
64,192,148439,128,2,148509:0:0:0:0:
448,192,148439,1,0,0:0:0:0:
320,192,148578,128,0,148648:0:0:0:0:
192,192,148648,128,0,148718:0:0:0:0:
64,192,148718,128,2,148788:0:0:0:0:
320,192,148718,1,8,0:0:0:0:
448,192,148718,1,0,0:0:0:0:
192,192,148857,128,0,148927:0:0:0:0:
64,192,148997,128,2,149136:0:0:0:0:
448,192,148997,128,0,149136:0:0:0:0:
192,192,149136,1,0,0:0:0:0:
320,192,149206,1,2,0:0:0:0:
64,192,149276,128,2,149416:0:0:0:0:
192,192,149276,128,8,149416:0:0:0:0:
448,192,149276,1,0,0:0:0:0:
320,192,149416,1,2,0:0:0:0:
448,192,149416,1,0,0:0:0:0:
320,192,149555,128,2,149695:0:0:0:0:
448,192,149555,128,0,149764:0:0:0:0:
64,192,149695,128,0,149764:0:0:0:0:
192,192,149834,128,2,150043:0:0:0:0:
320,192,149834,1,8,0:0:0:0:
448,192,149834,128,0,149904:0:0:0:0:
64,192,149974,128,0,150043:0:0:0:0:
192,192,150113,128,2,150183:0:0:0:0:
320,192,150113,128,0,150323:0:0:0:0:
448,192,150253,128,0,150323:0:0:0:0:
64,192,150392,128,2,150462:0:0:0:0:
192,192,150392,128,8,150602:0:0:0:0:
320,192,150392,1,0,0:0:0:0:
448,192,150532,128,0,150602:0:0:0:0:
192,192,150671,1,2,0:0:0:0:
320,192,150671,128,0,150741:0:0:0:0:
64,192,150811,128,0,150881:0:0:0:0:
64,192,150950,1,2,0:0:0:0:
192,192,150950,1,8,0:0:0:0:
320,192,150950,128,0,151160:0:0:0:0:
448,192,151090,128,0,151160:0:0:0:0:
192,192,151229,128,2,151299:0:0:0:0:
64,192,151229,1,0,0:0:0:0:
320,192,151369,1,0,0:0:0:0:
448,192,151439,1,0,0:0:0:0:
64,192,151509,1,2,0:0:0:0:
192,192,151509,1,8,0:0:0:0:
320,192,151509,1,0,0:0:0:0:
448,192,151578,1,0,0:0:0:0:
64,192,151648,1,2,0:0:0:0:
192,192,151648,1,0,0:0:0:0:
320,192,151718,1,0,0:0:0:0:
64,192,151788,128,2,152067:0:0:0:0:
192,192,151788,128,4,151927:0:0:0:0:
448,192,151788,128,0,152067:0:0:0:0:
320,192,151927,1,0,0:0:0:0:
192,192,152067,128,0,152136:0:0:0:0:
448,192,152206,1,0,0:0:0:0:
64,192,152346,128,2,152625:0:0:0:0:
192,192,152346,128,4,152625:0:0:0:0:
320,192,152346,128,0,152485:0:0:0:0:
448,192,152485,1,0,0:0:0:0:
320,192,152625,128,0,152695:0:0:0:0:
64,192,152764,128,0,152834:0:0:0:0:
192,192,152904,128,2,153043:0:0:0:0:
320,192,152904,128,0,153043:0:0:0:65:Crash 2.wav
448,192,152904,128,0,153043:0:0:0:0:
64,192,153183,128,2,153323:0:0:0:0:
192,192,153183,128,0,153323:0:0:0:65:Crash 2.wav
320,192,153183,128,0,153776:0:0:0:0:
64,192,153462,128,2,153846:0:0:0:0:
192,192,153462,128,4,153811:0:0:0:0:
448,192,153462,128,0,153741:0:0:0:0:
192,192,154020,1,0,0:0:0:45:Kick.wav
448,192,154020,128,0,154055:0:0:0:0:
320,192,154160,128,0,154195:0:0:0:0:
64,192,154299,128,0,154334:0:0:0:60:Clap.wav
448,192,154299,128,0,154334:0:0:0:45:Kick.wav
320,192,154439,128,0,154474:0:0:0:0:
192,192,154578,1,0,0:0:0:45:Kick.wav
448,192,154578,128,0,154613:0:0:0:0:
320,192,154718,128,0,154753:0:0:0:0:
64,192,154857,128,0,154892:0:0:0:60:Clap.wav
448,192,154857,128,0,154892:0:0:0:45:Kick.wav
320,192,154997,128,0,155032:0:0:0:0:
192,192,155136,128,0,155171:0:0:0:45:Kick.wav
448,192,155136,1,0,0:0:0:0:
64,192,155276,128,0,155311:0:0:0:0:
192,192,155416,128,0,155450:0:0:0:60:Clap.wav
320,192,155416,128,0,155450:0:0:0:45:Kick.wav
64,192,155555,128,0,155590:0:0:0:0:
192,192,155695,128,0,155729:0:0:0:45:Kick.wav
448,192,155695,1,0,0:0:0:0:
320,192,155834,128,0,155869:0:0:0:0:
64,192,155974,128,0,156009:0:0:0:60:Clap.wav
192,192,155974,128,0,156009:0:0:0:45:Kick.wav
320,192,156113,128,0,156148:0:0:0:0:
192,192,156253,1,0,0:0:0:45:Kick.wav
448,192,156253,128,0,156288:0:0:0:0:
64,192,156392,128,0,156427:0:0:0:0:
320,192,156532,128,0,156567:0:0:0:60:Clap.wav
448,192,156532,128,0,156567:0:0:0:45:Kick.wav
64,192,156671,128,0,156706:0:0:0:0:
192,192,156811,1,0,0:0:0:45:Kick.wav
448,192,156811,128,0,156846:0:0:0:0:
320,192,156950,128,0,156985:0:0:0:0:
64,192,157090,128,0,157125:0:0:0:60:Clap.wav
448,192,157090,128,0,157125:0:0:0:45:Kick.wav
320,192,157229,128,0,157264:0:0:0:0:
192,192,157369,128,0,157404:0:0:0:45:Kick.wav
448,192,157369,1,0,0:0:0:0:
64,192,157509,128,0,157543:0:0:0:0:
192,192,157648,128,0,157683:0:0:0:60:Clap.wav
320,192,157648,128,0,157683:0:0:0:45:Kick.wav
448,192,157788,128,0,157823:0:0:0:0:
64,192,157927,1,0,0:0:0:45:Kick.wav
320,192,157927,128,0,157962:0:0:0:0:
192,192,158067,128,0,158102:0:0:0:0:
64,192,158206,128,0,158241:0:0:0:60:Clap.wav
320,192,158206,128,0,158241:0:0:0:45:Kick.wav
448,192,158346,128,0,158381:0:0:0:0:
64,192,158485,128,0,158520:0:0:0:45:Kick.wav
320,192,158485,1,0,0:0:0:0:
192,192,158625,128,0,158660:0:0:0:0:
64,192,158764,128,0,158799:0:0:0:60:Clap.wav
448,192,158764,128,0,158799:0:0:0:45:Kick.wav
192,192,158904,128,0,158939:0:0:0:0:
64,192,159043,128,0,159078:0:0:0:45:Kick.wav
320,192,159043,1,0,0:0:0:0:
192,192,159183,128,0,159218:0:0:0:0:
64,192,159323,128,0,159357:0:0:0:60:Clap.wav
448,192,159323,128,0,159357:0:0:0:45:Kick.wav
192,192,159462,128,0,159497:0:0:0:0:
64,192,159602,1,0,0:0:0:45:Kick.wav
320,192,159602,128,0,159636:0:0:0:0:
448,192,159741,128,0,159776:0:0:0:0:
192,192,159881,128,0,159916:0:0:0:60:Clap.wav
320,192,159881,128,0,159916:0:0:0:45:Kick.wav
448,192,160020,128,0,160055:0:0:0:0:
64,192,160160,1,0,0:0:0:45:Kick.wav
320,192,160160,128,0,160195:0:0:0:0:
192,192,160299,128,0,160334:0:0:0:0:
320,192,160439,128,0,160474:0:0:0:60:Clap.wav
448,192,160439,128,0,160474:0:0:0:45:Kick.wav
192,192,160578,128,0,160613:0:0:0:0:
64,192,160718,128,0,160753:0:0:0:45:Kick.wav
320,192,160718,1,0,0:0:0:0:
448,192,160857,128,0,160892:0:0:0:0:
64,192,160997,128,0,161032:0:0:0:60:Clap.wav
192,192,160997,128,0,161032:0:0:0:45:Kick.wav
448,192,161136,128,0,161171:0:0:0:0:
192,192,161206,1,0,0:0:0:0:
64,192,161276,128,0,161311:0:0:0:45:Kick.wav
320,192,161276,1,0,0:0:0:0:
192,192,161416,128,0,161450:0:0:0:0:
64,192,161555,128,0,161590:0:0:0:60:Clap.wav
448,192,161555,128,0,161590:0:0:0:45:Kick.wav
320,192,161695,128,0,161729:0:0:0:0:
64,192,161834,128,2,162113:0:0:0:0:
192,192,161834,128,4,162113:0:0:0:0:
320,192,161834,128,0,162043:0:0:0:0:
448,192,161834,128,0,162043:0:0:0:0:
320,192,162113,128,0,162160:0:0:0:0:
448,192,162113,128,0,162160:0:0:0:0:
64,192,162183,128,0,162229:0:0:0:0:
192,192,162183,128,0,162229:0:0:0:0:
320,192,162253,128,0,162299:0:0:0:0:
448,192,162253,128,0,162299:0:0:0:0:
64,192,162323,128,0,162369:0:0:0:0:
192,192,162323,128,0,162369:0:0:0:0:
320,192,162392,128,0,162462:0:0:0:0:
448,192,162392,128,0,162602:0:0:0:0:
64,192,162532,128,2,162602:0:0:0:0:
192,192,162532,128,0,162602:0:0:0:0:
320,192,162532,128,0,162602:0:0:0:0:
64,192,162671,128,2,162741:0:0:0:0:
192,192,162671,128,0,162741:0:0:0:0:
448,192,162671,128,0,162741:0:0:0:0:
64,192,162811,128,2,162881:0:0:0:0:
320,192,162811,128,0,162881:0:0:0:0:
448,192,162811,128,0,162881:0:0:0:0:
192,192,162950,128,0,163229:0:0:0:0:
64,192,163229,128,2,163439:0:0:0:0:
320,192,163229,1,8,0:0:0:0:
448,192,163229,128,4,163439:0:0:0:0:
64,192,163509,128,2,163648:0:0:0:0:
320,192,163509,1,0,0:0:0:0:
448,192,163648,128,0,163718:0:0:0:0:
64,192,163788,1,2,0:0:0:0:
192,192,163788,128,8,163927:0:0:0:0:
320,192,163788,1,0,0:0:0:0:
448,192,163927,128,0,163997:0:0:0:0:
64,192,164067,1,2,0:0:0:0:
320,192,164067,128,0,164206:0:0:0:0:
192,192,164206,128,0,164276:0:0:0:0:
64,192,164346,1,2,0:0:0:0:
320,192,164346,1,8,0:0:0:0:
448,192,164346,128,0,164485:0:0:0:0:
192,192,164485,128,0,164555:0:0:0:0:
64,192,164625,128,2,164764:0:0:0:0:
448,192,164625,1,0,0:0:0:0:
320,192,164764,128,0,164834:0:0:0:0:
64,192,164904,1,2,0:0:0:0:
192,192,164904,128,8,165043:0:0:0:0:
448,192,164904,1,0,0:0:0:0:
320,192,165043,128,2,165113:0:0:0:0:
448,192,165043,128,0,165113:0:0:0:0:
192,192,165183,1,2,0:0:0:0:
320,192,165183,128,0,165323:0:0:0:0:
64,192,165323,128,0,165392:0:0:0:0:
192,192,165462,1,2,0:0:0:0:
320,192,165462,1,8,0:0:0:0:
448,192,165462,128,0,165602:0:0:0:0:
64,192,165602,128,0,165671:0:0:0:0:
192,192,165741,1,2,0:0:0:0:
320,192,165741,128,0,165881:0:0:0:0:
64,192,165881,128,0,165950:0:0:0:0:
192,192,166020,1,2,0:0:0:0:
320,192,166020,1,8,0:0:0:0:
448,192,166020,128,0,166160:0:0:0:0:
64,192,166160,128,0,166229:0:0:0:0:
192,192,166299,128,2,166439:0:0:0:0:
320,192,166299,1,0,0:0:0:0:
448,192,166439,128,0,166509:0:0:0:0:
320,192,166509,128,0,166578:0:0:0:0:
64,192,166578,1,2,0:0:0:0:
192,192,166578,128,8,166648:0:0:0:0:
448,192,166578,1,0,0:0:0:0:
320,192,166718,128,0,166857:0:0:0:0:
64,192,166857,1,2,0:0:0:0:
192,192,166857,128,0,166927:0:0:0:0:
320,192,166927,128,0,166997:0:0:0:0:
448,192,166997,128,0,167067:0:0:0:0:
192,192,167067,1,2,0:0:0:0:
64,192,167136,1,2,0:0:0:0:
320,192,167136,128,8,167206:0:0:0:0:
448,192,167136,128,0,167206:0:0:0:0:
64,192,167276,128,2,167346:0:0:0:0:
192,192,167276,128,0,167346:0:0:0:0:
192,192,167416,128,2,167555:0:0:0:0:
448,192,167416,1,0,0:0:0:0:
320,192,167555,128,0,167625:0:0:0:0:
64,192,167695,128,2,167834:0:0:0:0:
192,192,167695,1,8,0:0:0:0:
448,192,167695,1,0,0:0:0:0:
320,192,167834,128,0,167904:0:0:0:0:
192,192,167974,128,2,168113:0:0:0:0:
448,192,167974,1,0,0:0:0:0:
320,192,168113,128,0,168183:0:0:0:0:
64,192,168253,128,2,168392:0:0:0:0:
192,192,168253,1,8,0:0:0:0:
448,192,168253,1,0,0:0:0:0:
320,192,168392,128,0,168462:0:0:0:0:
64,192,168532,1,2,0:0:0:0:
448,192,168532,128,0,168671:0:0:0:0:
192,192,168671,128,0,168741:0:0:0:0:
64,192,168811,1,2,0:0:0:0:
320,192,168811,128,8,168950:0:0:0:0:
448,192,168811,1,0,0:0:0:0:
192,192,168950,128,0,169020:0:0:0:0:
64,192,169090,128,2,169229:0:0:0:0:
448,192,169090,1,0,0:0:0:0:
320,192,169229,128,0,169299:0:0:0:0:
64,192,169369,1,2,0:0:0:0:
192,192,169369,128,8,169509:0:0:0:0:
448,192,169369,1,0,0:0:0:0:
320,192,169509,1,2,0:0:0:0:
64,192,169578,1,2,0:0:0:0:
192,192,169648,128,2,169718:0:0:0:0:
320,192,169648,128,0,169927:0:0:0:65:Crash 2.wav
448,192,169648,128,0,169718:0:0:0:0:
64,192,169788,128,2,169927:0:0:0:0:
192,192,169788,128,0,169927:0:0:0:65:Crash 2.wav
448,192,169788,128,0,169927:0:0:0:0:
64,192,170067,128,2,170136:0:0:0:0:
192,192,170067,128,0,170346:0:0:0:65:Crash 2.wav
448,192,170067,128,0,170136:0:0:0:0:
64,192,170206,128,2,170346:0:0:0:0:
320,192,170206,128,0,170346:0:0:0:65:Crash 2.wav
448,192,170206,128,0,170346:0:0:0:0:
64,192,170485,128,2,170555:0:0:0:0:
320,192,170485,128,0,170555:0:0:0:65:Crash 2.wav
448,192,170485,128,0,170764:0:0:0:0:
64,192,170625,128,2,170764:0:0:0:0:
192,192,170625,128,0,170764:0:0:0:65:Crash 2.wav
320,192,170625,128,0,170764:0:0:0:0:
192,192,170904,128,0,171043:0:0:0:0:
64,192,171043,128,2,171602:0:0:0:0:
320,192,171043,128,4,171323:0:0:0:0:
448,192,171043,128,0,171602:0:0:0:0:
192,192,171323,1,0,0:0:0:0:
320,192,171462,1,0,0:0:0:0:
192,192,171532,1,0,0:0:0:0:
320,192,171602,1,0,0:0:0:0:
448,192,171671,1,0,0:0:0:0:
64,192,171741,1,0,0:0:0:0:
192,192,171811,1,0,0:0:0:0:
64,192,171881,128,2,172090:0:0:0:0:
320,192,171881,1,4,0:0:0:0:
448,192,171881,1,0,0:0:0:0:
192,192,172020,1,0,0:0:0:0:
320,192,172090,1,0,0:0:0:0:
64,192,172160,1,2,0:0:0:0:
192,192,172160,1,8,0:0:0:0:
448,192,172160,1,0,0:0:0:0:
320,192,172299,1,0,0:0:0:0:
64,192,172439,128,2,172578:0:0:0:0:
448,192,172439,1,0,0:0:0:0:
320,192,172509,1,0,0:0:0:0:
192,192,172578,1,0,0:0:0:0:
64,192,172648,1,0,0:0:0:0:
192,192,172718,1,2,0:0:0:0:
320,192,172718,1,8,0:0:0:0:
448,192,172718,128,0,172927:0:0:0:0:
320,192,172857,1,0,0:0:0:0:
192,192,172927,1,0,0:0:0:0:
64,192,172997,128,2,173206:0:0:0:0:
448,192,172997,1,0,0:0:0:0:
192,192,173136,1,0,0:0:0:0:
320,192,173206,1,0,0:0:0:0:
64,192,173276,1,2,0:0:0:0:
192,192,173276,1,8,0:0:0:0:
448,192,173276,1,0,0:0:0:0:
320,192,173416,1,0,0:0:0:0:
64,192,173555,128,2,173695:0:0:0:0:
448,192,173555,1,0,0:0:0:0:
320,192,173625,1,0,0:0:0:0:
192,192,173695,1,0,0:0:0:0:
64,192,173764,1,0,0:0:0:0:
192,192,173834,1,2,0:0:0:0:
320,192,173834,1,8,0:0:0:0:
448,192,173834,128,0,174043:0:0:0:0:
64,192,173904,1,0,0:0:0:0:
320,192,173974,1,0,0:0:0:0:
192,192,174043,1,0,0:0:0:0:
64,192,174113,1,2,0:0:0:0:
320,192,174113,128,4,174392:0:0:0:0:
448,192,174113,128,0,174392:0:0:0:0:
192,192,174253,1,0,0:0:0:0:
64,192,174392,1,0,0:0:0:0:
320,192,174532,128,2,174602:0:0:0:0:
448,192,174532,128,0,174602:0:0:0:0:
64,192,174671,128,2,174881:0:0:0:0:
192,192,174671,128,0,174881:0:0:0:0:
192,192,174950,1,8,0:0:0:0:
448,192,174950,1,0,0:0:0:0:
64,192,175090,1,0,0:0:0:0:
320,192,175229,128,2,175509:0:0:0:0:
448,192,175229,128,0,175509:0:0:0:0:
64,192,175369,1,0,0:0:0:0:
192,192,175509,1,0,0:0:0:0:
320,192,175648,128,2,175718:0:0:0:0:
448,192,175648,128,0,175718:0:0:0:0:
64,192,175788,128,2,175927:0:0:0:0:
192,192,175788,128,0,175927:0:0:0:0:
320,192,175927,1,0,0:0:0:0:
64,192,176067,128,8,176276:0:0:0:0:
192,192,176067,128,0,176276:0:0:0:0:
64,192,176346,128,2,176625:0:0:0:0:
448,192,176346,128,0,176625:0:0:0:0:
320,192,176485,1,0,0:0:0:0:
192,192,176625,1,0,0:0:0:0:
64,192,176764,128,2,176834:0:0:0:0:
448,192,176764,128,0,176834:0:0:0:0:
192,192,176904,128,2,177113:0:0:0:0:
320,192,176904,128,0,177113:0:0:0:0:
192,192,177183,1,8,0:0:0:0:
448,192,177183,1,0,0:0:0:0:
320,192,177323,1,0,0:0:0:0:
64,192,177462,128,2,177741:0:0:0:0:
448,192,177462,128,0,177741:0:0:0:0:
192,192,177602,1,0,0:0:0:0:
320,192,177741,1,0,0:0:0:0:
64,192,177881,128,2,177950:0:0:0:0:
448,192,177881,128,0,177950:0:0:0:0:
192,192,178020,128,2,178229:0:0:0:0:
320,192,178020,128,0,178229:0:0:0:0:
448,192,178160,1,0,0:0:0:0:
64,192,178299,1,8,0:0:0:0:
192,192,178299,1,0,0:0:0:0:
64,192,178578,128,2,178857:0:0:0:0:
320,192,178578,128,0,178857:0:0:0:0:
448,192,178718,1,0,0:0:0:0:
192,192,178857,1,0,0:0:0:0:
64,192,178997,128,2,179067:0:0:0:0:
320,192,178997,128,0,179067:0:0:0:0:
192,192,179136,128,2,179346:0:0:0:0:
448,192,179136,128,0,179346:0:0:0:0:
320,192,179416,1,8,0:0:0:0:
448,192,179416,1,0,0:0:0:0:
192,192,179555,1,0,0:0:0:0:
64,192,179695,128,2,179974:0:0:0:0:
320,192,179695,128,0,179974:0:0:0:0:
192,192,179834,1,0,0:0:0:0:
448,192,179974,1,0,0:0:0:0:
64,192,180113,128,2,180183:0:0:0:0:
320,192,180113,128,0,180183:0:0:0:0:
192,192,180253,128,2,180392:0:0:0:0:
448,192,180253,128,0,180392:0:0:0:0:
320,192,180392,1,0,0:0:0:0:
192,192,180532,128,8,180741:0:0:0:0:
448,192,180532,128,0,180741:0:0:0:0:
64,192,180811,128,2,181020:0:0:0:0:
192,192,180811,128,0,181020:0:0:0:0:
448,192,180950,128,0,181020:0:0:0:0:
320,192,181090,128,0,181160:0:0:0:0:
64,192,181229,128,2,181299:0:0:0:0:
192,192,181229,128,0,181299:0:0:0:0:
320,192,181369,128,2,181578:0:0:0:0:
448,192,181369,128,0,181578:0:0:0:0:
64,192,181509,128,0,181578:0:0:0:0:
192,192,181648,128,8,181718:0:0:0:0:
448,192,181648,1,0,0:0:0:0:
320,192,181788,128,0,181857:0:0:0:0:
64,192,181927,128,2,182206:0:0:0:0:
192,192,181927,128,0,182206:0:0:0:0:
320,192,182067,128,0,182136:0:0:0:0:
448,192,182206,128,0,182276:0:0:0:0:
64,192,182346,128,2,182416:0:0:0:0:
192,192,182346,128,0,182416:0:0:0:0:
320,192,182485,128,2,182695:0:0:0:0:
448,192,182485,128,0,182695:0:0:0:0:
192,192,182625,128,0,182695:0:0:0:0:
64,192,182764,1,8,0:0:0:0:
448,192,182764,1,0,0:0:0:0:
320,192,182904,1,0,0:0:0:0:
192,192,182974,1,0,0:0:0:0:
64,192,183043,128,2,183113:0:0:0:0:
320,192,183043,128,0,183113:0:0:0:65:Crash 2.wav
448,192,183043,128,0,183113:0:0:0:0:
64,192,183183,128,2,183323:0:0:0:0:
192,192,183183,128,0,183323:0:0:0:65:Crash 2.wav
448,192,183183,128,0,183323:0:0:0:0:
320,192,183323,1,0,0:0:0:0:
64,192,183462,128,2,183881:0:0:0:0:
192,192,183462,128,4,183741:0:0:0:0:
320,192,183462,128,0,184718:0:0:0:0:
448,192,183462,128,0,183602:0:0:0:0:
448,192,183741,128,0,184020:0:0:0:0:
192,192,183881,128,0,184160:0:0:0:0:
64,192,184020,128,0,184299:0:0:0:0:
448,192,184160,128,0,184439:0:0:0:0:
192,192,184299,128,0,184578:0:0:0:0:
64,192,184439,128,0,184578:0:0:0:0:
448,192,184578,128,0,184718:0:0:0:0:
64,192,184648,1,0,0:0:0:0:
192,192,184718,1,0,0:0:0:0:
320,192,184788,1,0,0:0:0:0:
64,192,184857,128,2,184927:0:0:0:0:
448,192,184857,128,0,184927:0:0:0:65:Crash 2.wav
64,192,184997,128,2,185067:0:0:0:0:
320,192,184997,128,0,185067:0:0:0:65:Crash 2.wav
64,192,185136,128,2,185206:0:0:0:0:
192,192,185136,128,0,185206:0:0:0:65:Crash 2.wav
192,192,185276,128,2,185346:0:0:0:0:
320,192,185276,128,0,185346:0:0:0:65:Crash 2.wav
448,192,185276,128,0,185346:0:0:0:0:
64,192,185416,128,2,185555:0:0:0:0:
192,192,185416,128,0,185555:0:0:0:65:Crash 2.wav
320,192,185416,128,0,185555:0:0:0:0:
448,192,185555,1,0,0:0:0:0:
64,192,185695,128,2,185834:0:0:0:0:
192,192,185695,128,4,186950:0:0:0:0:
320,192,185695,128,0,185974:0:0:0:0:
448,192,185695,128,0,186113:0:0:0:0:
64,192,185974,128,0,186253:0:0:0:0:
320,192,186113,128,0,186392:0:0:0:0:
448,192,186253,128,0,186532:0:0:0:0:
64,192,186392,128,0,186671:0:0:0:0:
320,192,186532,128,0,186811:0:0:0:0:
448,192,186671,128,0,186811:0:0:0:0:
64,192,186811,128,0,186950:0:0:0:0:
320,192,186950,1,2,0:0:0:0:
448,192,186950,1,0,0:0:0:0:
192,192,187020,1,0,0:0:0:0:
320,192,187090,1,0,0:0:0:0:
64,192,187160,1,2,0:0:0:0:
192,192,187160,1,0,0:0:0:0:
320,192,187229,1,2,0:0:0:0:
448,192,187229,1,0,0:0:0:0:
64,192,187299,1,0,0:0:0:0:
320,192,187369,1,2,0:0:0:0:
448,192,187369,1,0,0:0:0:0:
192,192,187439,1,2,0:0:0:0:
64,192,187509,1,2,0:0:0:0:
320,192,187509,1,4,0:0:0:0:
448,192,187509,1,0,0:0:0:0:
192,192,187648,128,0,187788:0:0:0:0:
64,192,187788,1,2,0:0:0:0:
320,192,187788,128,8,187927:0:0:0:0:
448,192,187788,1,0,0:0:0:0:
192,192,187927,128,0,188067:0:0:0:0:
64,192,188067,128,2,188136:0:0:0:0:
448,192,188067,128,0,188276:0:0:0:0:
192,192,188136,128,0,188206:0:0:0:0:
320,192,188206,128,0,188276:0:0:0:0:
64,192,188346,128,2,188416:0:0:0:0:
320,192,188346,1,8,0:0:0:0:
448,192,188346,128,0,188555:0:0:0:0:
192,192,188416,128,0,188485:0:0:0:0:
320,192,188485,128,0,188555:0:0:0:0:
64,192,188625,1,2,0:0:0:0:
448,192,188625,1,0,0:0:0:0:
320,192,188764,128,0,188904:0:0:0:0:
64,192,188904,1,2,0:0:0:0:
192,192,188904,128,8,189043:0:0:0:0:
448,192,188904,1,0,0:0:0:0:
320,192,189043,128,0,189183:0:0:0:0:
64,192,189183,128,2,189392:0:0:0:0:
192,192,189183,128,0,189253:0:0:0:0:
320,192,189253,128,0,189323:0:0:0:0:
448,192,189323,128,0,189392:0:0:0:0:
64,192,189462,128,2,189671:0:0:0:0:
192,192,189462,128,8,189532:0:0:0:0:
448,192,189462,1,0,0:0:0:0:
320,192,189532,128,0,189602:0:0:0:0:
448,192,189602,128,0,189671:0:0:0:0:
64,192,189741,1,2,0:0:0:0:
192,192,189741,1,0,0:0:0:0:
64,192,189881,1,2,0:0:0:0:
448,192,189881,1,0,0:0:0:0:
320,192,189950,1,0,0:0:0:0:
64,192,190020,1,2,0:0:0:0:
192,192,190020,1,8,0:0:0:0:
448,192,190020,1,0,0:0:0:0:
320,192,190160,1,2,0:0:0:0:
448,192,190160,1,0,0:0:0:0:
64,192,190299,1,2,0:0:0:0:
192,192,190299,1,0,0:0:0:0:
320,192,190369,1,2,0:0:0:0:
448,192,190369,1,0,0:0:0:0:
64,192,190439,1,2,0:0:0:0:
192,192,190439,1,0,0:0:0:0:
320,192,190509,1,2,0:0:0:0:
448,192,190509,1,0,0:0:0:0:
64,192,190578,1,2,0:0:0:0:
192,192,190578,1,8,0:0:0:0:
320,192,190648,1,2,0:0:0:0:
448,192,190648,1,0,0:0:0:0:
320,192,190718,1,2,0:0:0:0:
448,192,190718,1,0,0:0:0:0:
64,192,190788,1,2,0:0:0:0:
192,192,190788,1,0,0:0:0:0:
64,192,190857,128,2,191625:0:0:0:0:
192,192,190857,1,4,0:0:0:0:
448,192,190857,128,0,191555:0:0:0:0:
320,192,191136,128,0,191625:0:0:0:0:
192,192,191416,128,0,191625:0:0:0:0:
448,192,191625,1,0,0:0:0:0:
192,192,191695,128,2,191904:0:0:0:0:
320,192,191695,128,0,191904:0:0:0:0:
64,192,191974,128,2,192183:0:0:0:0:
192,192,191974,128,4,192183:0:0:0:0:
320,192,191974,128,0,192183:0:0:0:0:
448,192,191974,128,0,192183:0:0:0:0:
64,192,192253,128,0,192323:0:0:0:0:
448,192,192392,128,0,192462:0:0:0:0:
192,192,192532,128,0,192602:0:0:0:0:
64,192,192671,128,2,192811:0:0:0:0:
320,192,192671,128,0,192811:0:0:0:65:Crash 2.wav
448,192,192671,128,0,192811:0:0:0:0:
64,192,192950,128,2,193229:0:0:0:0:
192,192,192950,128,4,193090:0:0:0:0:
448,192,192950,128,0,193090:0:0:0:0:
320,192,193229,1,2,0:0:0:0:
448,192,193229,1,0,0:0:0:0:
192,192,193299,1,0,0:0:0:0:
64,192,193369,128,2,193509:0:0:0:0:
320,192,193369,1,8,0:0:0:0:
448,192,193369,1,0,0:0:0:0:
192,192,193509,128,0,193648:0:0:0:0:
320,192,193648,1,2,0:0:0:0:
448,192,193648,1,0,0:0:0:0:
64,192,193788,128,0,193927:0:0:0:0:
192,192,193927,1,2,0:0:0:0:
320,192,193927,1,8,0:0:0:0:
448,192,193927,128,0,194067:0:0:0:0:
64,192,194067,1,2,0:0:0:0:
320,192,194067,128,0,194206:0:0:0:0:
192,192,194206,128,2,194485:0:0:0:0:
448,192,194206,1,0,0:0:0:0:
448,192,194346,1,0,0:0:0:0:
64,192,194485,1,2,0:0:0:0:
320,192,194485,128,8,194764:0:0:0:0:
448,192,194485,1,0,0:0:0:0:
64,192,194625,1,0,0:0:0:0:
64,192,194764,1,2,0:0:0:0:
192,192,194764,128,0,195043:0:0:0:0:
320,192,194904,1,0,0:0:0:0:
64,192,195043,1,2,0:0:0:0:
320,192,195043,128,8,195323:0:0:0:0:
448,192,195043,1,0,0:0:0:0:
192,192,195183,1,0,0:0:0:0:
64,192,195323,1,2,0:0:0:0:
192,192,195323,128,0,195392:0:0:0:0:
320,192,195392,128,0,195462:0:0:0:0:
448,192,195462,128,0,195532:0:0:0:0:
64,192,195532,128,0,195602:0:0:0:0:
192,192,195602,1,2,0:0:0:0:
320,192,195602,128,8,195671:0:0:0:0:
448,192,195602,1,0,0:0:0:0:
64,192,195671,128,0,195741:0:0:0:0:
448,192,195741,128,0,195811:0:0:0:0:
320,192,195811,128,0,195881:0:0:0:0:
64,192,195881,1,2,0:0:0:0:
192,192,195881,128,0,195950:0:0:0:0:
320,192,195950,128,0,196020:0:0:0:0:
448,192,196020,128,0,196090:0:0:0:0:
64,192,196090,128,2,196160:0:0:0:0:
192,192,196090,1,0,0:0:0:0:
320,192,196160,1,2,0:0:0:0:
448,192,196160,128,8,196229:0:0:0:0:
192,192,196229,128,0,196299:0:0:0:0:
64,192,196299,1,2,0:0:0:0:
320,192,196299,128,0,196369:0:0:0:0:
448,192,196369,128,0,196439:0:0:0:0:
64,192,196439,128,2,196718:0:0:0:0:
192,192,196439,1,0,0:0:0:0:
448,192,196578,1,0,0:0:0:0:
192,192,196718,1,2,0:0:0:0:
320,192,196718,1,8,0:0:0:0:
448,192,196718,128,0,196997:0:0:0:0:
64,192,196857,1,0,0:0:0:0:
64,192,196997,128,2,197276:0:0:0:0:
320,192,196997,1,0,0:0:0:0:
448,192,197136,1,0,0:0:0:0:
192,192,197276,1,2,0:0:0:0:
320,192,197276,1,8,0:0:0:0:
448,192,197276,128,0,197416:0:0:0:0:
64,192,197416,128,0,197555:0:0:0:0:
192,192,197555,128,2,197625:0:0:0:0:
320,192,197555,128,0,197625:0:0:0:65:Crash 2.wav
448,192,197555,128,0,197625:0:0:0:0:
64,192,197695,128,2,197834:0:0:0:0:
192,192,197695,128,0,197834:0:0:0:65:Crash 2.wav
320,192,197695,128,0,197834:0:0:0:0:
448,192,197834,1,0,0:0:0:0:
64,192,197974,128,2,198253:0:0:0:0:
320,192,197974,128,4,198392:0:0:0:0:
448,192,197974,128,0,198323:0:0:0:0:
192,192,198253,1,0,0:0:0:0:
64,192,198323,1,0,0:0:0:0:
192,192,198392,1,2,0:0:0:0:
448,192,198392,1,0,0:0:0:0:
320,192,198462,1,0,0:0:0:0:
64,192,198532,1,2,0:0:0:0:
192,192,198532,1,0,0:0:0:0:
448,192,198602,1,2,0:0:0:0:
64,192,198671,1,2,0:0:0:0:
192,192,198671,128,4,198950:0:0:0:0:
320,192,198671,1,0,0:0:0:0:
448,192,198811,1,0,0:0:0:0:
64,192,198950,1,2,0:0:0:0:
320,192,198950,1,8,0:0:0:0:
448,192,198950,128,0,199229:0:0:0:0:
192,192,199090,1,0,0:0:0:0:
64,192,199229,1,2,0:0:0:0:
192,192,199229,128,0,199369:0:0:0:0:
320,192,199369,128,0,199648:0:0:0:0:
64,192,199509,1,2,0:0:0:0:
192,192,199509,1,8,0:0:0:0:
448,192,199509,128,0,199648:0:0:0:0:
64,192,199648,128,0,199927:0:0:0:0:
320,192,199788,1,2,0:0:0:0:
448,192,199788,1,0,0:0:0:65:Crash 2.wav
192,192,199927,1,2,0:0:0:0:
320,192,199927,1,0,0:0:0:65:Crash 2.wav
64,192,200067,1,2,0:0:0:0:
192,192,200067,1,0,0:0:0:65:Crash 2.wav
64,192,200206,1,2,0:0:0:0:
320,192,200206,128,0,200241:0:0:0:65:Crash 2.wav
192,192,200276,128,0,200311:0:0:0:0:
320,192,200346,128,0,200381:0:0:0:0:
192,192,200416,128,0,200450:0:0:0:0:
320,192,200485,128,2,200555:0:0:0:50:
448,192,200485,128,0,200555:0:0:0:0:
64,192,200625,128,2,200695:0:0:0:60:
192,192,200625,128,0,200695:0:0:0:0:
320,192,200764,128,2,200834:0:0:0:70:
448,192,200764,128,0,200834:0:0:0:0:
64,192,200904,128,2,201113:0:0:0:0:
192,192,200904,128,4,201113:0:0:0:0:
320,192,200904,128,0,201113:0:0:0:0:
448,192,200904,128,0,201113:0:0:0:0:
192,192,201183,128,0,201253:0:0:0:0:
64,192,201323,128,0,201392:0:0:0:0:
320,192,201462,128,0,201532:0:0:0:0:
64,192,201602,128,2,201741:0:0:0:0:
192,192,201602,128,0,201741:0:0:0:65:Crash 2.wav
448,192,201602,128,0,201741:0:0:0:0:
64,192,201881,128,2,202020:0:0:0:0:
320,192,201881,128,4,202020:0:0:0:0:
448,192,201881,128,0,202160:0:0:0:0:
64,192,202160,1,2,0:0:0:0:
192,192,202160,1,0,0:0:0:0:
320,192,202229,1,0,0:0:0:0:
64,192,202299,1,2,0:0:0:0:
192,192,202299,1,8,0:0:0:0:
448,192,202299,128,0,202439:0:0:0:0:
320,192,202439,128,0,202578:0:0:0:0:
64,192,202578,1,2,0:0:0:0:
192,192,202578,1,0,0:0:0:0:
448,192,202718,128,0,202857:0:0:0:0:
64,192,202857,128,2,202997:0:0:0:0:
192,192,202857,1,8,0:0:0:0:
320,192,202857,1,0,0:0:0:0:
192,192,202997,128,2,203136:0:0:0:0:
448,192,202997,1,0,0:0:0:0:
64,192,203136,1,2,0:0:0:0:
320,192,203136,128,0,203416:0:0:0:0:
64,192,203276,1,0,0:0:0:0:
64,192,203416,1,2,0:0:0:0:
192,192,203416,128,8,203695:0:0:0:0:
448,192,203416,1,0,0:0:0:0:
448,192,203555,1,0,0:0:0:0:
320,192,203695,128,2,203974:0:0:0:0:
448,192,203695,1,0,0:0:0:0:
192,192,203834,1,0,0:0:0:0:
64,192,203974,1,2,0:0:0:0:
192,192,203974,128,8,204253:0:0:0:0:
448,192,203974,1,0,0:0:0:0:
320,192,204113,1,0,0:0:0:0:
320,192,204253,128,2,204323:0:0:0:0:
448,192,204253,1,0,0:0:0:0:
192,192,204323,128,0,204392:0:0:0:0:
64,192,204392,128,0,204462:0:0:0:0:
448,192,204462,128,0,204532:0:0:0:0:
64,192,204532,1,2,0:0:0:0:
192,192,204532,128,8,204602:0:0:0:0:
320,192,204532,1,0,0:0:0:0:
448,192,204602,128,0,204671:0:0:0:0:
64,192,204671,128,0,204741:0:0:0:0:
192,192,204741,128,0,204811:0:0:0:0:
320,192,204811,128,2,204881:0:0:0:0:
448,192,204811,1,0,0:0:0:0:
192,192,204881,128,0,204950:0:0:0:0:
64,192,204950,128,0,205020:0:0:0:0:
320,192,205020,1,2,0:0:0:0:
448,192,205020,128,0,205090:0:0:0:0:
64,192,205090,128,2,205160:0:0:0:0:
192,192,205090,1,8,0:0:0:0:
320,192,205160,128,0,205229:0:0:0:0:
192,192,205229,128,2,205299:0:0:0:0:
448,192,205229,1,0,0:0:0:0:
64,192,205299,128,0,205369:0:0:0:0:
320,192,205369,1,2,0:0:0:0:
448,192,205369,128,0,205648:0:0:0:0:
64,192,205509,1,0,0:0:0:0:
64,192,205648,128,2,205927:0:0:0:0:
192,192,205648,1,8,0:0:0:0:
320,192,205648,1,0,0:0:0:0:
448,192,205788,1,0,0:0:0:0:
192,192,205927,1,2,0:0:0:0:
448,192,205927,128,0,206206:0:0:0:0:
64,192,206067,1,0,0:0:0:0:
64,192,206206,128,2,206346:0:0:0:0:
192,192,206206,1,8,0:0:0:0:
320,192,206206,1,0,0:0:0:0:
448,192,206346,128,0,206485:0:0:0:0:
64,192,206485,128,2,206555:0:0:0:0:
192,192,206485,128,0,206555:0:0:0:65:Crash 2.wav
320,192,206485,128,0,206555:0:0:0:0:
192,192,206625,128,2,206764:0:0:0:0:
320,192,206625,128,0,206764:0:0:0:65:Crash 2.wav
448,192,206625,128,0,206764:0:0:0:0:
64,192,206904,128,2,207253:0:0:0:0:
192,192,206904,128,4,207323:0:0:0:0:
448,192,206904,128,0,207183:0:0:0:0:
320,192,207183,1,0,0:0:0:0:
448,192,207253,1,2,0:0:0:0:
64,192,207323,1,2,0:0:0:0:
320,192,207323,1,0,0:0:0:0:
192,192,207392,1,0,0:0:0:0:
320,192,207462,1,2,0:0:0:0:
448,192,207462,1,0,0:0:0:0:
192,192,207532,1,2,0:0:0:0:
64,192,207602,1,2,0:0:0:0:
320,192,207602,128,4,207811:0:0:0:0:
448,192,207602,1,0,0:0:0:0:
192,192,207741,1,0,0:0:0:0:
64,192,207881,1,2,0:0:0:0:
320,192,207881,128,8,208020:0:0:0:0:
448,192,207881,1,0,0:0:0:0:
192,192,208020,1,0,0:0:0:0:
64,192,208160,128,2,208299:0:0:0:0:
448,192,208160,1,0,0:0:0:0:
320,192,208299,128,0,208578:0:0:0:0:
64,192,208439,1,2,0:0:0:0:
192,192,208439,128,8,208578:0:0:0:0:
448,192,208439,1,0,0:0:0:0:
448,192,208578,128,0,208857:0:0:0:0:
192,192,208718,1,2,0:0:0:0:
320,192,208718,128,0,208788:0:0:0:0:
320,192,208857,128,0,208927:0:0:0:0:
64,192,208997,1,2,0:0:0:0:
192,192,208997,128,8,209276:0:0:0:0:
448,192,208997,128,0,209067:0:0:0:0:
320,192,209136,128,0,209206:0:0:0:0:
64,192,209276,128,2,209346:0:0:0:0:
320,192,209276,128,0,209555:0:0:0:0:
64,192,209416,128,0,209485:0:0:0:0:
64,192,209555,1,2,0:0:0:0:
192,192,209555,128,8,209625:0:0:0:0:
448,192,209555,128,0,209834:0:0:0:0:
320,192,209695,128,0,209764:0:0:0:0:
64,192,209834,128,2,210043:0:0:0:0:
192,192,209834,128,4,210043:0:0:0:0:
320,192,209834,1,0,0:0:0:0:
448,192,209974,1,0,0:0:0:0:
64,192,210113,1,2,0:0:0:0:
192,192,210113,1,8,0:0:0:0:
320,192,210113,1,0,0:0:0:0:
448,192,210253,128,0,210462:0:0:0:0:
192,192,210392,1,2,0:0:0:0:
320,192,210392,1,0,0:0:0:0:
64,192,210532,128,0,210671:0:0:0:0:
192,192,210671,1,2,0:0:0:0:
320,192,210671,1,8,0:0:0:0:
448,192,210671,1,0,0:0:0:0:
64,192,210811,128,0,211090:0:0:0:0:
320,192,210950,1,2,0:0:0:0:
448,192,210950,128,0,211090:0:0:0:0:
192,192,211090,1,0,0:0:0:0:
64,192,211229,1,2,0:0:0:0:
320,192,211229,128,8,211509:0:0:0:0:
448,192,211229,1,0,0:0:0:0:
192,192,211369,1,0,0:0:0:0:
64,192,211509,1,2,0:0:0:0:
192,192,211509,128,0,211788:0:0:0:0:
320,192,211648,1,0,0:0:0:0:
64,192,211788,1,2,0:0:0:0:
320,192,211788,128,8,211997:0:0:0:0:
448,192,211788,1,0,0:0:0:0:
64,192,211927,1,2,0:0:0:0:
192,192,211927,1,0,0:0:0:0:
448,192,211997,1,0,0:0:0:0:
64,192,212067,128,2,212136:0:0:0:0:
192,192,212067,128,0,212136:0:0:0:65:Crash 2.wav
320,192,212067,128,0,212136:0:0:0:0:
192,192,212206,128,2,212276:0:0:0:0:
320,192,212206,128,0,212276:0:0:0:65:Crash 2.wav
448,192,212206,128,0,212276:0:0:0:0:
64,192,212346,128,8,212485:0:0:0:0:
320,192,212346,1,0,0:0:0:0:
448,192,212485,1,0,0:0:0:0:
192,192,212625,128,2,212695:0:0:0:0:
320,192,212625,128,0,212695:0:0:0:65:Crash 2.wav
448,192,212625,128,0,212695:0:0:0:0:
64,192,212764,128,2,212834:0:0:0:0:
192,192,212764,128,0,212834:0:0:0:65:Crash 2.wav
320,192,212764,128,0,212834:0:0:0:0:
192,192,212904,1,8,0:0:0:0:
448,192,212904,128,0,213043:0:0:0:0:
64,192,213043,1,0,0:0:0:0:
64,192,213183,128,2,213253:0:0:0:0:
192,192,213183,128,0,213253:0:0:0:65:Crash 2.wav
320,192,213183,128,0,213253:0:0:0:0:
192,192,213323,128,2,213392:0:0:0:0:
320,192,213323,128,0,213392:0:0:0:65:Crash 2.wav
448,192,213323,128,0,213392:0:0:0:0:
64,192,213462,128,8,213602:0:0:0:0:
320,192,213462,1,0,0:0:0:0:
192,192,213602,1,0,0:0:0:0:
64,192,213741,1,2,0:0:0:0:
320,192,213741,1,0,0:0:0:65:Crash 2.wav
448,192,213741,1,0,0:0:0:0:
192,192,213811,1,0,0:0:0:0:
64,192,213881,1,0,0:0:0:65:Crash 2.wav
448,192,213881,1,0,0:0:0:0:
320,192,213950,1,2,0:0:0:0:
64,192,214020,1,2,0:0:0:0:
192,192,214020,1,0,0:0:0:0:
448,192,214090,1,2,0:0:0:0:
64,192,214160,1,2,0:0:0:0:
320,192,214160,1,0,0:0:0:0:
192,192,214229,1,2,0:0:0:0:
64,192,214299,128,2,214509:0:0:0:0:
320,192,214299,1,4,0:0:0:0:
448,192,214299,128,0,214509:0:0:0:0:
192,192,214439,1,0,0:0:0:0:
64,192,214578,1,2,0:0:0:0:
192,192,214578,1,8,0:0:0:0:
448,192,214578,1,0,0:0:0:0:
320,192,214718,128,0,214857:0:0:0:0:
64,192,214857,1,2,0:0:0:0:
448,192,214857,1,0,0:0:0:0:
192,192,214997,128,0,215136:0:0:0:0:
64,192,215136,1,2,0:0:0:0:
320,192,215136,1,8,0:0:0:0:
448,192,215136,1,0,0:0:0:0:
320,192,215276,128,0,215555:0:0:0:0:
64,192,215416,128,2,215555:0:0:0:0:
192,192,215416,1,0,0:0:0:0:
448,192,215555,1,0,0:0:0:0:
192,192,215695,1,2,0:0:0:0:
320,192,215695,1,8,0:0:0:0:
448,192,215695,128,0,215974:0:0:0:0:
64,192,215834,1,0,0:0:0:0:
64,192,215974,128,2,216253:0:0:0:0:
320,192,215974,1,0,0:0:0:0:
448,192,216113,1,0,0:0:0:0:
192,192,216253,1,2,0:0:0:0:
320,192,216253,1,8,0:0:0:0:
448,192,216253,128,0,216532:0:0:0:0:
64,192,216392,1,2,0:0:0:0:
192,192,216392,1,0,0:0:0:0:
64,192,216532,128,2,216741:0:0:0:0:
192,192,216532,128,4,216741:0:0:0:0:
320,192,216532,128,0,216741:0:0:0:0:
320,192,216811,128,0,217020:0:0:0:65:Tom BDW.wav
448,192,216811,1,0,0:0:0:0:
192,192,216950,128,0,217160:0:0:0:0:
64,192,217090,128,0,217299:0:0:0:70:Tom BDP.wav
320,192,217090,1,0,0:0:0:0:
448,192,217229,128,0,217439:0:0:0:0:
320,192,217369,128,0,217578:0:0:0:0:
64,192,217509,1,0,0:0:0:70:Tom BDP.wav
192,192,217509,128,0,217578:0:0:0:0:
192,192,217648,128,0,217857:0:0:0:0:
64,192,217788,128,0,218067:0:0:0:70:Tom BDP.wav
320,192,217788,1,0,0:0:0:0:
448,192,217927,128,0,218067:0:0:0:0:
320,192,218206,128,0,218276:0:0:0:0:
448,192,218206,128,0,218695:0:0:0:0:
64,192,218276,128,0,218346:0:0:0:0:
192,192,218346,128,0,218416:0:0:0:0:
320,192,218416,128,0,218485:0:0:0:0:
192,192,218485,128,0,218555:0:0:0:0:
64,192,218555,128,0,218625:0:0:0:0:
320,192,218625,128,0,218695:0:0:0:0:
192,192,218695,128,0,218764:0:0:0:0:
64,192,218764,128,2,218834:0:0:0:0:
320,192,218764,1,4,0:0:0:0:
448,192,218764,1,0,0:0:0:0:
192,192,218904,128,0,218974:0:0:0:0:
64,192,219043,1,2,0:0:0:0:
320,192,219043,1,8,0:0:0:0:
448,192,219043,128,0,219323:0:0:0:0:
192,192,219183,1,0,0:0:0:0:
64,192,219323,128,2,219392:0:0:0:0:
192,192,219323,1,0,0:0:0:0:
448,192,219392,128,0,219462:0:0:0:0:
64,192,219462,128,0,219532:0:0:0:0:
448,192,219532,128,0,219602:0:0:0:0:
64,192,219602,128,2,219671:0:0:0:0:
192,192,219602,1,8,0:0:0:0:
320,192,219602,1,0,0:0:0:0:
448,192,219671,128,0,219741:0:0:0:0:
192,192,219741,128,0,219811:0:0:0:0:
320,192,219811,128,0,219881:0:0:0:0:
64,192,219881,1,2,0:0:0:0:
448,192,219881,128,0,219950:0:0:0:0:
320,192,220020,128,0,220090:0:0:0:0:
64,192,220160,1,2,0:0:0:0:
192,192,220160,128,8,220229:0:0:0:0:
448,192,220160,1,0,0:0:0:0:
320,192,220299,128,0,220439:0:0:0:0:
64,192,220439,128,2,220509:0:0:0:0:
448,192,220439,1,0,0:0:0:0:
320,192,220509,128,0,220578:0:0:0:0:
64,192,220578,128,0,220718:0:0:0:0:
192,192,220718,128,2,220857:0:0:0:0:
320,192,220718,1,8,0:0:0:0:
448,192,220718,1,0,0:0:0:0:
320,192,220857,128,2,220997:0:0:0:0:
448,192,220857,1,0,0:0:0:0:
64,192,220997,128,2,221090:0:0:0:0:
448,192,220997,1,0,0:0:0:0:
320,192,221090,128,0,221183:0:0:0:0:
192,192,221183,128,0,221276:0:0:0:0:
64,192,221276,1,2,0:0:0:0:
320,192,221276,1,8,0:0:0:0:
448,192,221276,128,0,221369:0:0:0:0:
192,192,221369,128,0,221462:0:0:0:0:
64,192,221462,128,0,221555:0:0:0:0:
320,192,221555,1,2,0:0:0:0:
448,192,221555,128,0,221648:0:0:0:0:
192,192,221648,128,0,221741:0:0:0:0:
320,192,221741,128,0,221834:0:0:0:0:
64,192,221834,128,2,221927:0:0:0:0:
192,192,221834,1,8,0:0:0:0:
448,192,221834,1,0,0:0:0:0:
320,192,221927,128,0,222020:0:0:0:0:
448,192,222020,128,0,222113:0:0:0:0:
64,192,222113,1,2,0:0:0:0:
192,192,222113,128,0,222206:0:0:0:0:
448,192,222206,128,0,222299:0:0:0:0:
64,192,222299,128,0,222392:0:0:0:0:
192,192,222392,1,2,0:0:0:0:
320,192,222392,128,8,222485:0:0:0:0:
448,192,222392,1,0,0:0:0:0:
64,192,222485,128,0,222578:0:0:0:0:
192,192,222578,128,0,222671:0:0:0:0:
320,192,222671,128,2,222764:0:0:0:0:
448,192,222671,1,0,0:0:0:0:
64,192,222764,128,0,222857:0:0:0:0:
448,192,222857,128,0,222950:0:0:0:0:
64,192,222950,1,2,0:0:0:0:
192,192,222950,128,8,223043:0:0:0:0:
320,192,222950,1,0,0:0:0:0:
448,192,223043,128,0,223136:0:0:0:0:
64,192,223136,128,0,223229:0:0:0:0:
192,192,223229,1,2,0:0:0:0:
320,192,223229,128,4,223299:0:0:0:0:
448,192,223229,1,0,0:0:0:0:
64,192,223299,128,0,223369:0:0:0:0:
192,192,223369,128,0,223439:0:0:0:0:
320,192,223439,128,0,223509:0:0:0:0:
64,192,223509,1,2,0:0:0:0:
192,192,223509,1,8,0:0:0:0:
448,192,223509,128,0,223578:0:0:0:0:
320,192,223578,128,0,223648:0:0:0:0:
64,192,223648,128,0,223718:0:0:0:0:
192,192,223718,128,0,223788:0:0:0:0:
320,192,223788,1,2,0:0:0:0:
448,192,223788,128,0,223857:0:0:0:0:
64,192,223857,128,0,223927:0:0:0:0:
320,192,223927,128,0,223997:0:0:0:0:
448,192,223997,128,0,224067:0:0:0:0:
64,192,224067,128,2,224346:0:0:0:0:
192,192,224067,1,8,0:0:0:0:
320,192,224067,1,0,0:0:0:0:
192,192,224206,1,0,0:0:0:0:
320,192,224346,1,2,0:0:0:0:
448,192,224346,128,0,224555:0:0:0:0:
64,192,224485,128,0,224555:0:0:0:0:
64,192,224625,1,2,0:0:0:0:
320,192,224625,1,8,0:0:0:0:
448,192,224625,128,0,224834:0:0:0:0:
192,192,224764,128,0,224834:0:0:0:0:
64,192,224904,128,2,225113:0:0:0:0:
192,192,224904,1,0,0:0:0:0:
448,192,225043,128,0,225113:0:0:0:0:
64,192,225183,128,2,225392:0:0:0:0:
192,192,225183,1,8,0:0:0:0:
448,192,225183,1,0,0:0:0:0:
192,192,225323,128,2,225392:0:0:0:0:
320,192,225323,128,0,225392:0:0:0:0:
320,192,225462,128,2,225881:0:0:0:0:
448,192,225462,1,0,0:0:0:0:
64,192,225602,1,2,0:0:0:0:
448,192,225602,1,0,0:0:0:0:
64,192,225741,1,2,0:0:0:0:
192,192,225741,1,8,0:0:0:0:
448,192,225741,1,0,0:0:0:0:
64,192,225881,128,2,225950:0:0:0:0:
192,192,225881,1,0,0:0:0:0:
320,192,225950,128,0,226020:0:0:0:0:
192,192,226020,128,2,226299:0:0:0:0:
448,192,226020,1,0,0:0:0:0:
64,192,226160,1,2,0:0:0:0:
448,192,226160,1,0,0:0:0:0:
64,192,226299,1,2,0:0:0:0:
320,192,226299,1,8,0:0:0:0:
448,192,226299,128,0,226369:0:0:0:0:
192,192,226369,128,0,226439:0:0:0:0:
64,192,226439,1,2,0:0:0:0:
320,192,226439,128,0,226509:0:0:0:0:
192,192,226509,128,0,226578:0:0:0:0:
320,192,226578,1,2,0:0:0:0:
448,192,226578,128,0,226718:0:0:0:0:
64,192,226718,1,2,0:0:0:0:
192,192,226718,1,0,0:0:0:0:
320,192,226788,1,2,0:0:0:0:
64,192,226857,1,2,0:0:0:0:
192,192,226857,1,8,0:0:0:0:
448,192,226857,1,0,0:0:0:0:
320,192,226997,1,2,0:0:0:0:
448,192,226997,1,0,0:0:0:0:
64,192,227067,1,2,0:0:0:0:
192,192,227067,1,0,0:0:0:0:
320,192,227136,1,2,0:0:0:0:
448,192,227136,1,0,0:0:0:0:
64,192,227206,1,2,0:0:0:0:
192,192,227206,1,0,0:0:0:0:
320,192,227276,1,2,0:0:0:0:
448,192,227276,1,0,0:0:0:0:
64,192,227346,1,2,0:0:0:0:
192,192,227346,1,0,0:0:0:0:
320,192,227416,1,2,0:0:0:0:
448,192,227416,1,8,0:0:0:0:
64,192,227485,1,2,0:0:0:0:
192,192,227485,1,0,0:0:0:0:
64,192,227555,1,2,0:0:0:0:
192,192,227555,1,0,0:0:0:0:
320,192,227625,1,2,0:0:0:0:
448,192,227625,1,0,0:0:0:0:
64,192,227695,128,2,227974:0:0:0:0:
192,192,227695,128,0,227974:0:0:0:65:Crash 2.wav
320,192,227695,128,0,227974:0:0:0:0:
448,192,227695,128,0,227974:0:0:0:0:
192,192,228392,128,2,228532:0:0:0:0:
320,192,228392,128,0,228532:0:0:0:65:Crash 2.wav
448,192,228392,128,0,228532:0:0:0:0:
64,192,228811,128,2,229090:0:0:0:0:
192,192,228811,128,0,229090:0:0:0:65:Crash 2.wav
320,192,228811,128,0,229090:0:0:0:0:
64,192,229229,128,2,229927:0:0:0:0:
192,192,229229,128,0,229509:0:0:0:65:Crash 2.wav
448,192,229229,128,0,229927:0:0:0:0:
64,192,230206,128,2,230485:0:0:0:0:
320,192,230206,128,0,230485:0:0:0:65:Crash 2.wav
448,192,230206,128,0,230485:0:0:0:0:
192,192,230625,128,2,230904:0:0:0:0:
320,192,230625,128,0,230904:0:0:0:65:Crash 2.wav
448,192,230625,128,0,230904:0:0:0:0:
64,192,231043,128,2,231253:0:0:0:0:
192,192,231043,128,0,231253:0:0:0:65:Crash 2.wav
448,192,231043,128,0,231253:0:0:0:0:
64,192,231323,128,2,231532:0:0:0:0:
320,192,231323,128,0,231532:0:0:0:65:Crash 2.wav
448,192,231323,128,0,231532:0:0:0:0:
192,192,231602,128,2,231811:0:0:0:0:
320,192,231602,128,0,231811:0:0:0:65:Crash 2.wav
448,192,231602,128,0,231811:0:0:0:0:
64,192,231811,1,2,0:0:0:0:
64,192,231881,128,2,232020:0:0:0:0:
192,192,231881,128,0,232020:0:0:0:65:Crash 2.wav
320,192,231881,128,0,232020:0:0:0:0:
448,192,232020,1,2,0:0:0:0:
64,192,232160,1,2,0:0:0:0:
192,192,232160,128,4,232439:0:0:0:0:
448,192,232160,1,0,0:0:0:0:
320,192,232299,1,0,0:0:0:0:
64,192,232439,1,2,0:0:0:0:
320,192,232439,128,8,232718:0:0:0:0:
448,192,232439,1,0,0:0:0:0:
192,192,232578,1,0,0:0:0:0:
192,192,232718,128,2,232997:0:0:0:0:
448,192,232718,1,0,0:0:0:0:
320,192,232857,1,0,0:0:0:0:
64,192,232997,1,2,0:0:0:0:
320,192,232997,128,8,233136:0:0:0:0:
448,192,232997,1,0,0:0:0:0:
192,192,233136,128,0,233276:0:0:0:0:
64,192,233276,128,2,233346:0:0:0:0:
320,192,233276,128,0,233346:0:0:0:65:Crash 2.wav
448,192,233276,128,0,233346:0:0:0:0:
64,192,233416,128,2,233555:0:0:0:0:
192,192,233416,128,0,233555:0:0:0:65:Crash 2.wav
448,192,233416,128,0,233555:0:0:0:0:
192,192,233695,128,2,233974:0:0:0:0:
320,192,233695,128,4,234043:0:0:0:0:
448,192,233695,128,0,234113:0:0:0:0:
64,192,233974,1,0,0:0:0:0:
192,192,234043,1,2,0:0:0:0:
64,192,234113,1,2,0:0:0:0:
320,192,234113,1,0,0:0:0:0:
448,192,234183,1,0,0:0:0:0:
64,192,234253,1,2,0:0:0:0:
192,192,234253,1,0,0:0:0:0:
320,192,234323,1,2,0:0:0:0:
64,192,234392,128,2,234671:0:0:0:0:
192,192,234392,1,4,0:0:0:0:
448,192,234392,1,0,0:0:0:0:
320,192,234532,1,0,0:0:0:0:
192,192,234671,1,2,0:0:0:0:
320,192,234671,128,8,234950:0:0:0:0:
448,192,234671,1,0,0:0:0:0:
64,192,234811,1,0,0:0:0:0:
64,192,234950,128,2,235090:0:0:0:0:
192,192,234950,1,0,0:0:0:0:
448,192,235090,128,0,235369:0:0:0:0:
64,192,235229,1,2,0:0:0:0:
192,192,235229,1,8,0:0:0:0:
320,192,235229,128,0,235369:0:0:0:0:
192,192,235369,128,0,235648:0:0:0:0:
320,192,235509,1,2,0:0:0:0:
448,192,235509,1,0,0:0:0:65:Crash 2.wav
64,192,235648,1,2,0:0:0:0:
448,192,235648,1,0,0:0:0:65:Crash 2.wav
64,192,235788,1,2,0:0:0:0:
320,192,235788,1,0,0:0:0:65:Crash 2.wav
64,192,235927,1,2,0:0:0:0:
192,192,235927,128,0,235962:0:0:0:65:Crash 2.wav
448,192,235997,128,0,236032:0:0:0:0:
192,192,236067,128,0,236102:0:0:0:0:
448,192,236136,128,0,236171:0:0:0:0:
64,192,236206,128,2,236276:0:0:0:50:
192,192,236206,128,0,236276:0:0:0:0:
320,192,236346,128,2,236416:0:0:0:60:
448,192,236346,128,0,236416:0:0:0:0:
64,192,236485,128,2,236555:0:0:0:70:
192,192,236485,128,0,236555:0:0:0:0:
64,192,236625,128,2,236834:0:0:0:0:
192,192,236625,128,4,236834:0:0:0:0:
320,192,236625,128,0,236834:0:0:0:0:
448,192,236625,128,0,236834:0:0:0:0:
320,192,236904,128,0,236974:0:0:0:0:
192,192,237043,128,0,237113:0:0:0:0:
448,192,237183,128,0,237253:0:0:0:0:
64,192,237323,128,2,237462:0:0:0:0:
192,192,237323,128,0,237462:0:0:0:65:Crash 2.wav
320,192,237323,128,0,237462:0:0:0:0:
192,192,237602,128,2,237741:0:0:0:0:
320,192,237602,128,4,237741:0:0:0:0:
448,192,237602,128,0,237881:0:0:0:0:
64,192,237881,1,2,0:0:0:0:
192,192,237881,1,0,0:0:0:0:
320,192,237950,1,0,0:0:0:0:
64,192,238020,128,2,238160:0:0:0:0:
192,192,238020,1,8,0:0:0:0:
448,192,238020,1,0,0:0:0:0:
320,192,238160,128,0,238299:0:0:0:0:
192,192,238299,1,2,0:0:0:0:
448,192,238299,1,0,0:0:0:0:
64,192,238439,128,0,238578:0:0:0:0:
192,192,238578,128,2,238718:0:0:0:0:
320,192,238578,1,8,0:0:0:0:
448,192,238578,1,0,0:0:0:0:
64,192,238718,1,2,0:0:0:0:
320,192,238718,128,0,238857:0:0:0:0:
192,192,238857,1,2,0:0:0:0:
448,192,238857,128,0,239136:0:0:0:0:
192,192,238997,1,0,0:0:0:0:
64,192,239136,128,2,239416:0:0:0:0:
192,192,239136,1,8,0:0:0:0:
320,192,239136,1,0,0:0:0:0:
320,192,239276,1,0,0:0:0:0:
320,192,239416,1,2,0:0:0:0:
448,192,239416,128,0,239695:0:0:0:0:
64,192,239555,1,0,0:0:0:0:
64,192,239695,128,2,239974:0:0:0:0:
192,192,239695,1,8,0:0:0:0:
320,192,239695,1,0,0:0:0:0:
448,192,239834,1,0,0:0:0:0:
320,192,239974,1,2,0:0:0:0:
448,192,239974,128,0,240043:0:0:0:0:
64,192,240043,128,0,240113:0:0:0:0:
192,192,240113,128,0,240183:0:0:0:0:
320,192,240183,128,0,240253:0:0:0:0:
64,192,240253,1,2,0:0:0:0:
192,192,240253,1,8,0:0:0:0:
448,192,240253,128,0,240323:0:0:0:0:
320,192,240323,128,0,240392:0:0:0:0:
192,192,240392,128,0,240462:0:0:0:0:
64,192,240462,128,0,240532:0:0:0:0:
320,192,240532,128,2,240602:0:0:0:0:
448,192,240532,1,0,0:0:0:0:
192,192,240602,128,0,240671:0:0:0:0:
64,192,240671,128,0,240741:0:0:0:0:
320,192,240741,128,2,240811:0:0:0:0:
448,192,240741,1,0,0:0:0:0:
64,192,240811,1,2,0:0:0:0:
192,192,240811,128,8,240881:0:0:0:0:
448,192,240881,128,0,240950:0:0:0:0:
192,192,240950,1,2,0:0:0:0:
320,192,240950,128,0,241020:0:0:0:0:
64,192,241020,128,0,241090:0:0:0:0:
320,192,241090,128,2,241369:0:0:0:0:
448,192,241090,1,0,0:0:0:0:
192,192,241229,1,0,0:0:0:0:
64,192,241369,1,2,0:0:0:0:
192,192,241369,128,8,241648:0:0:0:0:
448,192,241369,1,0,0:0:0:0:
320,192,241509,1,0,0:0:0:0:
64,192,241648,1,2,0:0:0:0:
320,192,241648,128,0,241927:0:0:0:0:
192,192,241788,1,0,0:0:0:0:
64,192,241927,1,2,0:0:0:0:
192,192,241927,128,8,242206:0:0:0:0:
448,192,241927,1,0,0:0:0:0:
320,192,242067,1,0,0:0:0:0:
64,192,242206,128,2,242276:0:0:0:0:
320,192,242206,128,0,242276:0:0:0:65:Crash 2.wav
448,192,242206,128,0,242276:0:0:0:0:
64,192,242346,128,2,242485:0:0:0:0:
192,192,242346,128,0,242485:0:0:0:65:Crash 2.wav
448,192,242346,128,0,242485:0:0:0:0:
320,192,242485,1,0,0:0:0:0:
64,192,242625,128,2,243043:0:0:0:0:
192,192,242625,128,4,242974:0:0:0:0:
320,192,242625,128,0,242904:0:0:0:0:
448,192,242904,1,0,0:0:0:0:
320,192,242974,1,2,0:0:0:0:
192,192,243043,1,2,0:0:0:0:
448,192,243043,1,0,0:0:0:0:
64,192,243113,1,0,0:0:0:0:
320,192,243183,1,2,0:0:0:0:
448,192,243183,1,0,0:0:0:0:
192,192,243253,1,2,0:0:0:0:
64,192,243323,1,2,0:0:0:0:
320,192,243323,1,4,0:0:0:0:
448,192,243323,128,0,243602:0:0:0:0:
192,192,243462,1,0,0:0:0:0:
64,192,243602,1,2,0:0:0:0:
192,192,243602,128,8,243881:0:0:0:0:
320,192,243602,1,0,0:0:0:0:
448,192,243741,1,0,0:0:0:0:
320,192,243881,1,2,0:0:0:0:
448,192,243881,128,0,244020:0:0:0:0:
64,192,244020,128,0,244299:0:0:0:0:
192,192,244160,128,2,244299:0:0:0:0:
320,192,244160,1,8,0:0:0:0:
448,192,244160,1,0,0:0:0:0:
320,192,244299,128,0,244578:0:0:0:0:
64,192,244439,1,2,0:0:0:0:
192,192,244439,128,0,244509:0:0:0:0:
192,192,244578,128,0,244648:0:0:0:0:
64,192,244718,128,2,244997:0:0:0:0:
320,192,244718,128,8,244788:0:0:0:0:
448,192,244718,1,0,0:0:0:0:
192,192,244857,128,0,244927:0:0:0:0:
192,192,244997,128,2,245276:0:0:0:0:
448,192,244997,128,0,245067:0:0:0:0:
448,192,245136,128,0,245206:0:0:0:0:
64,192,245276,128,2,245346:0:0:0:0:
320,192,245276,128,8,245555:0:0:0:0:
448,192,245276,1,0,0:0:0:0:
192,192,245416,128,0,245485:0:0:0:0:
64,192,245555,128,2,245764:0:0:0:0:
192,192,245555,1,4,0:0:0:0:
448,192,245555,128,0,245764:0:0:0:0:
320,192,245695,1,0,0:0:0:0:
64,192,245834,1,2,0:0:0:0:
192,192,245834,1,8,0:0:0:0:
448,192,245834,1,0,0:0:0:0:
320,192,245974,128,0,246183:0:0:0:0:
64,192,246113,1,2,0:0:0:0:
448,192,246113,1,0,0:0:0:0:
192,192,246253,128,0,246392:0:0:0:0:
64,192,246392,1,2,0:0:0:0:
320,192,246392,1,8,0:0:0:0:
448,192,246392,1,0,0:0:0:0:
192,192,246532,128,0,246811:0:0:0:0:
320,192,246671,128,2,246811:0:0:0:0:
448,192,246671,1,0,0:0:0:0:
64,192,246811,1,0,0:0:0:0:
192,192,246950,1,2,0:0:0:0:
320,192,246950,1,8,0:0:0:0:
448,192,246950,128,0,247229:0:0:0:0:
64,192,247090,1,0,0:0:0:0:
64,192,247229,128,2,247509:0:0:0:0:
192,192,247229,1,0,0:0:0:0:
448,192,247369,1,0,0:0:0:0:
192,192,247509,1,2,0:0:0:0:
320,192,247509,1,8,0:0:0:0:
448,192,247509,128,0,247718:0:0:0:0:
64,192,247648,1,2,0:0:0:0:
320,192,247648,1,0,0:0:0:0:
192,192,247718,1,0,0:0:0:0:
64,192,247788,128,2,247857:0:0:0:0:
320,192,247788,128,0,247857:0:0:0:65:Crash 2.wav
448,192,247788,128,0,247857:0:0:0:0:
64,192,247927,128,2,247997:0:0:0:0:
192,192,247927,128,0,247997:0:0:0:65:Crash 2.wav
448,192,247927,128,0,247997:0:0:0:0:
320,192,248067,128,8,248206:0:0:0:0:
448,192,248067,1,0,0:0:0:0:
192,192,248206,1,0,0:0:0:0:
64,192,248346,128,2,248416:0:0:0:0:
192,192,248346,128,0,248416:0:0:0:65:Crash 2.wav
448,192,248346,128,0,248416:0:0:0:0:
64,192,248485,128,2,248555:0:0:0:0:
320,192,248485,128,0,248555:0:0:0:65:Crash 2.wav
448,192,248485,128,0,248555:0:0:0:0:
64,192,248625,1,8,0:0:0:0:
192,192,248625,128,0,248764:0:0:0:0:
320,192,248764,1,0,0:0:0:0:
64,192,248904,128,2,248974:0:0:0:0:
320,192,248904,128,0,248974:0:0:0:65:Crash 2.wav
448,192,248904,128,0,248974:0:0:0:0:
64,192,249043,128,2,249113:0:0:0:0:
192,192,249043,128,0,249113:0:0:0:65:Crash 2.wav
448,192,249043,128,0,249113:0:0:0:0:
320,192,249183,128,8,249323:0:0:0:0:
448,192,249183,1,0,0:0:0:0:
192,192,249323,1,0,0:0:0:0:
64,192,249462,1,2,0:0:0:0:
192,192,249462,1,0,0:0:0:65:Crash 2.wav
448,192,249462,1,0,0:0:0:0:
320,192,249532,1,0,0:0:0:0:
192,192,249602,1,0,0:0:0:65:Crash 2.wav
448,192,249602,1,0,0:0:0:0:
64,192,249671,1,2,0:0:0:0:
320,192,249741,1,2,0:0:0:0:
448,192,249741,1,0,0:0:0:0:
192,192,249811,1,2,0:0:0:0:
64,192,249881,1,2,0:0:0:0:
448,192,249881,1,0,0:0:0:0:
320,192,249950,1,2,0:0:0:0:
64,192,250020,128,2,250229:0:0:0:0:
192,192,250020,1,4,0:0:0:0:
448,192,250020,128,0,250229:0:0:0:0:
320,192,250160,1,0,0:0:0:0:
64,192,250299,1,2,0:0:0:0:
192,192,250299,1,8,0:0:0:0:
448,192,250299,1,0,0:0:0:0:
320,192,250439,128,0,250578:0:0:0:0:
192,192,250578,1,2,0:0:0:0:
448,192,250578,1,0,0:0:0:0:
64,192,250718,128,0,250857:0:0:0:0:
192,192,250857,1,2,0:0:0:0:
320,192,250857,1,8,0:0:0:0:
448,192,250857,1,0,0:0:0:0:
192,192,250997,128,0,251276:0:0:0:0:
64,192,251136,1,2,0:0:0:0:
448,192,251136,128,0,251276:0:0:0:0:
320,192,251276,1,0,0:0:0:0:
64,192,251416,1,2,0:0:0:0:
320,192,251416,128,8,251695:0:0:0:0:
448,192,251416,1,0,0:0:0:0:
192,192,251555,1,0,0:0:0:0:
192,192,251695,128,2,251974:0:0:0:0:
448,192,251695,1,0,0:0:0:0:
320,192,251834,1,0,0:0:0:0:
64,192,251974,1,2,0:0:0:0:
320,192,251974,128,8,252253:0:0:0:0:
448,192,251974,1,0,0:0:0:0:
64,192,252113,1,2,0:0:0:0:
192,192,252113,1,0,0:0:0:0:
64,192,252253,128,2,252462:0:0:0:0:
192,192,252253,128,4,252462:0:0:0:0:
448,192,252253,128,0,252462:0:0:0:0:
64,192,252532,1,0,0:0:0:65:Tom BDW.wav
448,192,252532,128,0,252741:0:0:0:0:
320,192,252671,128,0,252881:0:0:0:0:
192,192,252811,128,0,253020:0:0:0:70:Tom BDP.wav
448,192,252811,1,0,0:0:0:0:
64,192,252950,128,0,253160:0:0:0:0:
448,192,253090,128,0,253299:0:0:0:0:
192,192,253229,1,0,0:0:0:70:Tom BDP.wav
320,192,253229,128,0,253299:0:0:0:0:
320,192,253369,128,0,253578:0:0:0:0:
192,192,253509,128,0,253788:0:0:0:70:Tom BDP.wav
448,192,253509,1,0,0:0:0:0:
64,192,253648,128,0,253788:0:0:0:0:
64,192,253927,128,2,254346:0:0:0:0:
192,192,253927,128,4,254346:0:0:0:0:
320,192,253927,128,0,254346:0:0:0:0:
448,192,253927,128,0,254346:0:0:0:0:
