osu file format v14

[General]
AudioFilename: audio.mp3
AudioLeadIn: 0
PreviewTime: 86206
Countdown: 0
SampleSet: Soft
StackLeniency: 0.7
Mode: 3
LetterboxInBreaks: 0
SpecialStyle: 0
WidescreenStoryboard: 1

[Editor]
Bookmarks: 145090,192950
DistanceSpacing: 0.8
BeatDivisor: 4
GridSize: 16
TimelineZoom: 2.1

[Metadata]
Title:Bikkurisasetara Okoru yo!
TitleUnicode:びっくりさせたらおこるよ!
Artist:Camellia feat. Nanahira
ArtistUnicode:かめりあ feat. ななひら
Creator:Fawcro32
Version:Insane
Source:
Tags:Al-Reina cryochan Kanon Matsubara kamelcamellia cametek KCCD-001 Doujin Indie コミックマーケット86 comiket 86 C86 Comic Market Halloween alternative rock pop jpop j-pop Denpa Japanese Versus! Basasu! ばーさす!Confetto stop jumpscare or i'll get mad at you It will happen if you are surprised! featured artist fa
BeatmapID:3407888
BeatmapSetID:1604806

[Difficulty]
HPDrainRate:8
CircleSize:4
OverallDifficulty:7.8
ApproachRate:5
SliderMultiplier:1.4
SliderTickRate:2

[Events]
//Background and Video events
0,0,"Bikkurisa BG.jpg",0,0
//Break Periods
//Storyboard Layer 0 (Background)
//Storyboard Layer 1 (Fail)
//Storyboard Layer 2 (Pass)
//Storyboard Layer 3 (Foreground)
//Storyboard Layer 4 (Overlay)
//Storyboard Sound Samples

[TimingPoints]
31230,279.06976744186,4,2,1,80,1,0
49090,-100,4,2,1,70,0,0
88020,-100,4,2,1,85,0,1
95276,-100,4,2,1,85,0,0
95416,-100,4,2,1,80,0,0
96950,-100,4,2,1,85,0,1
111602,-100,4,2,1,60,0,0
113834,-100,4,2,1,40,0,0
124997,-100,4,2,1,75,0,0
142857,-100,4,2,1,60,0,0
145090,-100,4,2,1,70,0,0
154020,-100,4,2,1,60,0,0
163229,-100,4,2,1,70,0,0
192950,-100,4,2,1,85,0,1
200206,-100,4,2,1,80,0,0
201881,-100,4,2,1,85,0,1
216532,-100,4,2,1,60,0,0
218764,-100,4,2,1,80,0,0
227695,-100,4,2,1,75,0,0
232160,-100,4,2,1,85,0,1
235927,-100,4,2,1,80,0,0
237602,-100,4,2,1,85,0,1
252253,-100,4,2,1,60,0,0
253927,-100,4,2,1,70,0,0

[HitObjects]
448,192,4439,5,0,0:0:0:50:F#6.wav
320,192,4578,1,0,0:0:0:20:B5.wav
192,192,4718,1,0,0:0:0:30:D6.wav
448,192,4857,1,0,0:0:0:20:F#5.wav
64,192,4997,1,0,0:0:0:50:F#6.wav
320,192,5136,1,0,0:0:0:20:B5.wav
192,192,5276,1,0,0:0:0:30:D6.wav
448,192,5416,1,0,0:0:0:20:F#5.wav
64,192,5555,1,0,0:0:0:50:G6.wav
192,192,5695,1,0,0:0:0:20:B5.wav
320,192,5834,1,0,0:0:0:30:D6.wav
64,192,5974,1,0,0:0:0:20:F#5.wav
448,192,6113,1,0,0:0:0:50:F#6.wav
192,192,6253,1,0,0:0:0:20:B5.wav
320,192,6392,1,0,0:0:0:30:D6.wav
64,192,6532,1,0,0:0:0:20:F#5.wav
320,192,6671,1,0,0:0:0:50:F#6.wav
448,192,6811,1,0,0:0:0:20:B5.wav
192,192,6950,1,0,0:0:0:30:D6.wav
64,192,7090,1,0,0:0:0:20:F#5.wav
448,192,7230,1,0,0:0:0:50:F#6.wav
320,192,7369,1,0,0:0:0:20:B5.wav
192,192,7509,1,0,0:0:0:30:D6.wav
448,192,7648,1,0,0:0:0:20:F#5.wav
192,192,7788,1,0,0:0:0:50:G6.wav
64,192,7927,1,0,0:0:0:20:B5.wav
320,192,8067,1,0,0:0:0:30:D6.wav
448,192,8206,1,0,0:0:0:20:F#5.wav
64,192,8346,1,0,0:0:0:50:F#6.wav
192,192,8485,1,0,0:0:0:20:B5.wav
320,192,8625,1,0,0:0:0:30:D6.wav
448,192,8764,1,0,0:0:0:20:F#5.wav
64,192,8904,1,0,0:0:0:50:F#6.wav
320,192,9043,1,0,0:0:0:20:B5.wav
192,192,9183,1,0,0:0:0:30:D6.wav
448,192,9323,1,0,0:0:0:20:F#5.wav
320,192,9462,1,0,0:0:0:50:F#6.wav
192,192,9602,1,0,0:0:0:20:B5.wav
320,192,9741,1,0,0:0:0:30:D6.wav
64,192,9881,1,0,0:0:0:20:F#5.wav
448,192,10020,1,0,0:0:0:50:G6.wav
192,192,10160,1,0,0:0:0:20:B5.wav
320,192,10299,1,0,0:0:0:30:D6.wav
448,192,10439,1,0,0:0:0:30:G5.wav
64,192,10578,1,0,0:0:0:30:F#5.wav
320,192,10718,1,0,0:0:0:30:B5.wav
192,192,10857,1,0,0:0:0:40:D6.wav
448,192,10997,1,0,0:0:0:30:F#5.wav
64,192,11136,1,0,0:0:0:60:G#6.wav
192,192,11276,1,0,0:0:0:30:B5.wav
320,192,11416,1,0,0:0:0:40:D6.wav
64,192,11555,1,0,0:0:0:40:G#5.wav
448,192,11695,1,0,0:0:0:60:G#6.wav
320,192,11834,1,0,0:0:0:30:B5.wav
192,192,11974,1,0,0:0:0:40:D6.wav
448,192,12113,1,0,0:0:0:40:G#5.wav
64,192,12253,1,0,0:0:0:55:B6.wav
320,192,12392,1,0,0:0:0:40:C#6.wav
448,192,12532,1,0,0:0:0:50:F#6.wav
192,192,12671,1,0,0:0:0:40:B5.wav
320,192,12811,1,0,0:0:0:50:A#6.wav
192,192,12950,1,0,0:0:0:40:C#6.wav
64,192,13090,1,0,0:0:0:50:F#6.wav
448,192,13230,1,0,0:0:0:40:A#5.wav
192,192,13369,1,0,0:0:0:40:F#6.wav
320,192,13509,1,0,0:0:0:40:B5.wav
448,192,13648,1,0,0:0:0:40:D6.wav
320,192,13788,1,0,0:0:0:40:F#5.wav
64,192,13927,1,0,0:0:0:40:F#6.wav
192,192,14067,1,0,0:0:0:40:B5.wav
320,192,14206,1,0,0:0:0:40:D6.wav
192,192,14346,1,0,0:0:0:40:F#5.wav
448,192,14485,1,0,0:0:0:55:G6.wav
64,192,14625,1,0,0:0:0:40:B5.wav
320,192,14764,1,0,0:0:0:40:D6.wav
192,192,14904,1,0,0:0:0:40:G5.wav
448,192,15043,1,0,0:0:0:45:F#6.wav
192,192,15183,1,0,0:0:0:40:B5.wav
320,192,15323,1,0,0:0:0:40:D6.wav
64,192,15462,1,0,0:0:0:45:G#5.wav
448,192,15602,1,0,0:0:0:60:G#6.wav
320,192,15741,1,0,0:0:0:50:B5.wav
192,192,15881,1,0,0:0:0:50:D6.wav
448,192,16020,1,0,0:0:0:40:G#5.wav
64,192,16160,1,0,0:0:0:60:G#6.wav
192,192,16299,1,0,0:0:0:50:B5.wav
320,192,16439,1,0,0:0:0:50:D6.wav
64,192,16578,1,0,0:0:0:40:G#5.wav
448,192,16718,1,0,0:0:0:60:B6.wav
192,192,16857,1,0,0:0:0:50:C#6.wav
320,192,16997,1,0,0:0:0:50:F#6.wav
64,192,17136,1,0,0:0:0:50:B5.wav
448,192,17276,1,0,0:0:0:25:A#5.wav
320,192,17416,1,0,0:0:0:25:C#6.wav
192,192,17555,1,0,0:0:0:50:E6.wav
64,192,17695,1,0,0:0:0:35:A#5.wav
448,192,17834,128,0,18950:0:0:0:50:F#6.wav
64,192,17974,1,0,0:0:0:40:B5.wav
192,192,18113,1,0,0:0:0:50:D#6.wav
320,192,18253,1,0,0:0:0:40:F#5.wav
192,192,18392,1,0,0:0:0:50:F#6.wav
64,192,18532,1,0,0:0:0:40:B5.wav
320,192,18671,1,0,0:0:0:40:D6.wav
192,192,18811,1,0,0:0:0:40:F#5.wav
320,192,18950,1,0,0:0:0:55:G6.wav
64,192,19090,128,0,20067:0:0:0:45:B5.wav
448,192,19230,1,0,0:0:0:45:F#5.wav
320,192,19369,1,0,0:0:0:45:E5.wav
192,192,19509,1,0,0:0:0:30:F#4.wav
448,192,19648,1,0,0:0:0:40:B5.wav
192,192,19788,1,0,0:0:0:40:D6.wav
320,192,19927,1,0,0:0:0:40:F#5.wav
448,192,20067,1,0,0:0:0:60:G#6.wav
320,192,20206,128,0,21183:0:0:0:45:B5.wav
64,192,20346,1,0,0:0:0:45:D6.wav
192,192,20485,1,0,0:0:0:40:G#5.wav
448,192,20625,1,0,0:0:0:60:G#6.wav
64,192,20764,1,0,0:0:0:45:B5.wav
192,192,20904,1,0,0:0:0:45:D6.wav
448,192,21043,1,0,0:0:0:40:G#5.wav
64,192,21183,1,0,0:0:0:60:B6.wav
192,192,21323,128,0,22299:0:0:0:40:G#5.wav
448,192,21462,1,0,0:0:0:25:G#6.wav
320,192,21602,1,0,0:0:0:45:B5.wav
64,192,21741,1,0,0:0:0:60:A#6.wav
320,192,21881,1,0,0:0:0:0:
448,192,22020,1,0,0:0:0:0:
64,192,22160,1,0,0:0:0:40:A#5.wav
320,192,22299,1,0,0:0:0:45:F#6.wav
448,192,22439,128,0,23416:0:0:0:40:B5.wav
192,192,22578,1,0,0:0:0:40:F#5.wav
64,192,22718,1,0,0:0:0:40:B4.wav
192,192,22857,1,0,0:0:0:45:F#6.wav
320,192,22997,1,0,0:0:0:45:B5.wav
64,192,23136,1,0,0:0:0:45:D6.wav
192,192,23276,1,0,0:0:0:45:F#5.wav
320,192,23416,1,0,0:0:0:60:G6.wav
192,192,23555,128,0,24532:0:0:0:40:B5.wav
448,192,23695,1,0,0:0:0:40:D6.wav
64,192,23834,1,0,0:0:0:35:G5.wav
320,192,23974,1,0,0:0:0:45:F#6.wav
448,192,24113,1,0,0:0:0:40:B5.wav
64,192,24253,1,0,0:0:0:40:D6.wav
320,192,24392,1,0,0:0:0:40:F#5.wav
448,192,24532,1,0,0:0:0:25:G#6.wav
320,192,24671,128,0,25648:0:0:0:35:B5.wav
64,192,24811,1,0,0:0:0:0:
192,192,24950,1,0,0:0:0:0:
448,192,25090,1,0,0:0:0:45:G#6.wav
192,192,25230,1,0,0:0:0:40:B5.wav
64,192,25369,1,0,0:0:0:35:G#5.wav
448,192,25509,1,0,0:0:0:0:
192,192,25648,1,0,0:0:0:60:B6.wav
64,192,25788,128,0,26764:0:0:0:45:C#6.wav
320,192,25927,1,0,0:0:0:45:F#6.wav
448,192,26067,1,0,0:0:0:40:B5.wav
192,192,26206,1,0,0:0:0:50:A#6.wav
448,192,26346,1,0,0:0:0:0:
320,192,26485,1,0,0:0:0:30:E6.wav
192,192,26625,1,0,0:0:0:25:A#5.wav
320,192,26764,1,0,0:0:0:0:
448,192,26904,128,0,30113:0:0:0:0:
64,192,28439,128,0,30113:0:0:0:0:
192,192,30113,1,0,0:0:0:0:
320,192,30113,1,0,0:0:0:0:
320,192,30253,1,0,0:0:0:0:
64,192,30392,128,0,30671:0:0:0:0:
192,192,30392,128,0,30671:0:0:0:0:
320,192,30671,1,0,0:0:0:0:
448,192,30671,1,0,0:0:0:0:
192,192,30811,1,0,0:0:0:0:
64,192,30950,1,0,0:0:0:0:
448,192,30950,1,0,0:0:0:0:
64,192,31230,1,2,0:0:0:0:
320,192,31230,1,4,0:0:0:0:
448,192,31230,128,0,31509:0:0:0:0:
320,192,31369,128,0,31509:0:0:0:0:
64,192,31509,128,2,31648:0:0:0:0:
192,192,31509,1,8,0:0:0:0:
448,192,31648,128,0,31788:0:0:0:0:
192,192,31788,128,2,31927:0:0:0:0:
320,192,31788,1,0,0:0:0:0:
448,192,31927,128,0,32067:0:0:0:0:
64,192,32067,128,2,32206:0:0:0:0:
192,192,32067,1,8,0:0:0:0:
320,192,32206,128,0,32346:0:0:0:0:
64,192,32346,1,2,0:0:0:0:
448,192,32346,128,0,32416:0:0:0:0:
448,192,32485,128,0,32625:0:0:0:0:
64,192,32625,1,2,0:0:0:0:
192,192,32625,128,8,32764:0:0:0:0:
320,192,32764,128,0,32904:0:0:0:0:
64,192,32904,128,2,32974:0:0:0:0:
448,192,32904,1,0,0:0:0:0:
64,192,33043,128,0,33183:0:0:0:0:
320,192,33183,1,2,0:0:0:0:
448,192,33183,1,8,0:0:0:0:
64,192,33323,1,2,0:0:0:0:
192,192,33323,1,0,0:0:0:0:
320,192,33462,1,2,0:0:0:0:
448,192,33462,128,0,33741:0:0:0:0:
192,192,33602,1,0,0:0:0:0:
320,192,33671,1,0,0:0:0:0:
64,192,33741,128,2,33881:0:0:0:0:
192,192,33741,1,8,0:0:0:0:
320,192,33881,128,0,34020:0:0:0:0:
192,192,34020,128,2,34160:0:0:0:0:
448,192,34020,1,0,0:0:0:0:
320,192,34160,128,0,34299:0:0:0:0:
64,192,34299,128,2,34439:0:0:0:0:
192,192,34299,1,8,0:0:0:0:
448,192,34439,128,0,34578:0:0:0:0:
64,192,34578,1,2,0:0:0:0:
320,192,34578,1,0,0:0:0:0:
192,192,34718,1,0,0:0:0:0:
320,192,34788,1,0,0:0:0:0:
64,192,34857,1,2,0:0:0:0:
448,192,34857,1,8,0:0:0:0:
192,192,34997,1,0,0:0:0:0:
320,192,35136,128,2,35276:0:0:0:0:
448,192,35136,128,0,35276:0:0:0:0:
192,192,35276,1,0,0:0:0:0:
320,192,35346,1,2,0:0:0:0:
64,192,35416,128,2,35555:0:0:0:0:
192,192,35416,128,8,35555:0:0:0:0:
320,192,35555,1,2,0:0:0:0:
448,192,35555,1,0,0:0:0:0:
64,192,35695,128,2,35974:0:0:0:0:
448,192,35695,1,4,0:0:0:0:
192,192,35834,128,0,35974:0:0:0:0:
320,192,35974,1,2,0:0:0:0:
448,192,35974,128,8,36113:0:0:0:0:
64,192,36113,128,0,36253:0:0:0:0:
192,192,36253,1,2,0:0:0:0:
320,192,36253,128,0,36392:0:0:0:0:
64,192,36392,128,0,36532:0:0:0:0:
320,192,36532,1,2,0:0:0:0:
448,192,36532,128,8,36671:0:0:0:0:
192,192,36671,128,0,36811:0:0:0:0:
64,192,36811,128,2,36881:0:0:0:0:
448,192,36811,1,0,0:0:0:0:
64,192,36950,128,0,37090:0:0:0:0:
320,192,37090,128,2,37230:0:0:0:0:
448,192,37090,1,8,0:0:0:0:
192,192,37230,128,0,37369:0:0:0:0:
64,192,37369,1,2,0:0:0:0:
448,192,37369,128,0,37439:0:0:0:0:
448,192,37509,128,0,37648:0:0:0:0:
64,192,37648,1,2,0:0:0:0:
192,192,37648,1,8,0:0:0:0:
320,192,37788,1,2,0:0:0:0:
448,192,37788,1,0,0:0:0:0:
64,192,37927,128,2,38206:0:0:0:0:
192,192,37927,1,0,0:0:0:0:
320,192,38067,1,0,0:0:0:0:
192,192,38136,1,0,0:0:0:0:
320,192,38206,1,2,0:0:0:0:
448,192,38206,128,8,38346:0:0:0:0:
192,192,38346,128,0,38485:0:0:0:0:
64,192,38485,1,2,0:0:0:0:
320,192,38485,128,0,38625:0:0:0:0:
192,192,38625,128,0,38764:0:0:0:0:
320,192,38764,1,2,0:0:0:0:
448,192,38764,128,8,38904:0:0:0:0:
64,192,38904,128,2,39043:0:0:0:0:
320,192,38974,1,2,0:0:0:0:
192,192,39043,1,2,0:0:0:0:
448,192,39043,128,4,39602:0:0:0:0:
64,192,39183,1,0,0:0:0:0:
320,192,39253,1,0,0:0:0:0:
192,192,39323,1,0,0:0:0:0:
320,192,39462,1,0,0:0:0:0:
64,192,39602,128,2,39741:0:0:0:0:
192,192,39602,128,0,39741:0:0:0:65:Crash 2.wav
320,192,39741,1,0,0:0:0:0:
192,192,39811,1,0,0:0:0:0:
320,192,39881,128,2,40020:0:0:0:0:
448,192,39881,128,0,40020:0:0:0:65:Crash 2.wav
64,192,39950,1,0,0:0:0:0:
192,192,40020,1,0,0:0:0:0:
320,192,40090,1,0,0:0:0:0:
64,192,40160,1,2,0:0:0:0:
192,192,40160,1,4,0:0:0:0:
448,192,40160,128,0,40439:0:0:0:0:
64,192,40299,128,0,40439:0:0:0:0:
192,192,40439,128,2,40578:0:0:0:0:
320,192,40439,1,8,0:0:0:0:
448,192,40578,128,0,40718:0:0:0:0:
64,192,40718,128,2,40857:0:0:0:0:
192,192,40718,1,0,0:0:0:0:
448,192,40857,128,0,40997:0:0:0:0:
192,192,40997,128,2,41136:0:0:0:0:
320,192,40997,1,8,0:0:0:0:
64,192,41136,128,0,41276:0:0:0:0:
320,192,41276,1,2,0:0:0:0:
448,192,41276,128,0,41346:0:0:0:0:
448,192,41416,128,0,41555:0:0:0:0:
64,192,41555,1,2,0:0:0:0:
320,192,41555,128,8,41695:0:0:0:0:
192,192,41695,128,0,41834:0:0:0:0:
64,192,41834,128,2,41904:0:0:0:0:
448,192,41834,1,0,0:0:0:0:
64,192,41974,128,0,42113:0:0:0:0:
320,192,42113,1,2,0:0:0:0:
448,192,42113,1,8,0:0:0:0:
64,192,42253,1,2,0:0:0:0:
192,192,42253,1,0,0:0:0:0:
320,192,42392,128,2,42671:0:0:0:0:
448,192,42392,1,0,0:0:0:0:
64,192,42532,1,0,0:0:0:0:
448,192,42602,1,0,0:0:0:0:
64,192,42671,128,2,42811:0:0:0:0:
192,192,42671,1,8,0:0:0:0:
320,192,42811,128,0,42950:0:0:0:0:
192,192,42950,128,2,43090:0:0:0:0:
448,192,42950,1,0,0:0:0:0:
320,192,43090,128,0,43230:0:0:0:0:
64,192,43230,128,2,43369:0:0:0:0:
192,192,43230,1,8,0:0:0:0:
448,192,43369,128,0,43509:0:0:0:0:
64,192,43509,1,2,0:0:0:0:
320,192,43509,1,0,0:0:0:0:
320,192,43648,1,0,0:0:0:0:
192,192,43718,1,0,0:0:0:0:
64,192,43788,1,2,0:0:0:0:
448,192,43788,1,8,0:0:0:0:
320,192,43927,1,0,0:0:0:0:
192,192,44067,128,2,44206:0:0:0:0:
448,192,44067,128,0,44206:0:0:0:0:
320,192,44206,1,0,0:0:0:0:
192,192,44276,1,2,0:0:0:0:
64,192,44346,128,2,44485:0:0:0:0:
320,192,44346,128,8,44485:0:0:0:0:
192,192,44485,1,2,0:0:0:0:
448,192,44485,1,0,0:0:0:0:
64,192,44625,128,2,44904:0:0:0:0:
192,192,44625,1,4,0:0:0:0:
448,192,44764,128,0,44904:0:0:0:0:
192,192,44904,1,2,0:0:0:0:
320,192,44904,128,8,45043:0:0:0:0:
64,192,45043,128,0,45183:0:0:0:0:
320,192,45183,1,2,0:0:0:0:
448,192,45183,128,0,45323:0:0:0:0:
64,192,45323,128,0,45462:0:0:0:0:
192,192,45462,1,2,0:0:0:0:
320,192,45462,128,8,45602:0:0:0:0:
448,192,45602,128,0,45741:0:0:0:0:
64,192,45741,128,2,45811:0:0:0:0:
192,192,45741,1,0,0:0:0:0:
64,192,45881,128,0,46020:0:0:0:0:
192,192,46020,128,2,46160:0:0:0:0:
448,192,46020,1,8,0:0:0:0:
320,192,46160,128,0,46299:0:0:0:0:
64,192,46299,1,2,0:0:0:0:
448,192,46299,128,0,46369:0:0:0:0:
448,192,46439,128,0,46578:0:0:0:0:
320,192,46509,1,0,0:0:0:0:
64,192,46578,1,2,0:0:0:0:
192,192,46578,1,8,0:0:0:0:
320,192,46648,1,0,0:0:0:0:
64,192,46718,1,2,0:0:0:0:
448,192,46718,1,0,0:0:0:0:
192,192,46788,1,0,0:0:0:0:
64,192,46857,128,2,46997:0:0:0:0:
320,192,46857,128,4,46997:0:0:0:0:
448,192,46857,128,0,46997:0:0:0:0:
192,192,46997,1,0,0:0:0:0:
448,192,47136,1,0,0:0:0:0:
320,192,47276,1,0,0:0:0:0:
64,192,47416,128,2,47555:0:0:0:0:
192,192,47416,128,4,47555:0:0:0:0:
448,192,47416,128,0,47555:0:0:0:0:
320,192,47555,1,0,0:0:0:0:
64,192,47695,1,0,0:0:0:0:
192,192,47834,1,0,0:0:0:0:
64,192,47974,128,2,48113:0:0:0:0:
320,192,47974,128,0,48113:0:0:0:65:Crash 2.wav
448,192,47974,128,0,48113:0:0:0:0:
64,192,48253,128,2,48462:0:0:0:0:
192,192,48253,128,0,48462:0:0:0:65:Crash 2.wav
448,192,48253,128,0,48462:0:0:0:0:
64,192,48532,128,2,48811:0:0:0:0:
320,192,48532,128,4,48811:0:0:0:0:
448,192,48532,128,0,48811:0:0:0:0:
192,192,48811,1,0,0:0:0:75:Snare 2.wav
320,192,48881,1,0,0:0:0:75:Snare 2.wav
64,192,48950,1,0,0:0:0:75:Snare 2.wav
448,192,48950,1,0,0:0:0:0:
192,192,49020,1,0,0:0:0:75:Snare 2.wav
64,192,49090,1,2,0:0:0:0:
320,192,49090,1,4,0:0:0:0:
448,192,49090,1,0,0:0:0:0:
192,192,49230,128,0,49369:0:0:0:0:
64,192,49369,1,2,0:0:0:0:
448,192,49369,1,8,0:0:0:0:
192,192,49509,128,0,49648:0:0:0:0:
320,192,49648,1,2,0:0:0:0:
448,192,49648,1,0,0:0:0:0:
192,192,49788,128,0,49927:0:0:0:0:
64,192,49927,1,2,0:0:0:0:
448,192,49927,1,8,0:0:0:0:
192,192,50067,128,0,50206:0:0:0:0:
320,192,50206,1,2,0:0:0:0:
448,192,50206,1,0,0:0:0:0:
320,192,50346,128,0,50485:0:0:0:0:
64,192,50485,1,2,0:0:0:0:
448,192,50485,1,8,0:0:0:0:
320,192,50625,128,0,50764:0:0:0:0:
64,192,50764,1,2,0:0:0:0:
192,192,50764,1,0,0:0:0:0:
192,192,50904,128,0,51043:0:0:0:0:
64,192,51043,1,2,0:0:0:0:
448,192,51043,1,8,0:0:0:0:
192,192,51183,128,2,51323:0:0:0:0:
448,192,51183,1,0,0:0:0:0:
64,192,51323,1,2,0:0:0:0:
320,192,51323,1,0,0:0:0:0:
448,192,51462,128,0,51602:0:0:0:0:
192,192,51602,1,2,0:0:0:0:
320,192,51602,1,8,0:0:0:0:
448,192,51741,128,0,51881:0:0:0:0:
64,192,51881,1,2,0:0:0:0:
192,192,51881,1,0,0:0:0:0:
448,192,52020,128,0,52160:0:0:0:0:
192,192,52160,1,2,0:0:0:0:
320,192,52160,1,8,0:0:0:0:
448,192,52299,128,0,52439:0:0:0:0:
64,192,52439,1,2,0:0:0:0:
192,192,52439,1,0,0:0:0:0:
64,192,52578,128,0,52718:0:0:0:0:
192,192,52648,128,0,52718:0:0:0:0:
320,192,52718,1,2,0:0:0:0:
448,192,52718,1,8,0:0:0:0:
64,192,52857,128,0,52997:0:0:0:0:
320,192,52997,1,2,0:0:0:0:
448,192,52997,1,0,0:0:0:0:
192,192,53067,1,0,0:0:0:0:
64,192,53136,1,0,0:0:0:0:
320,192,53206,1,2,0:0:0:0:
192,192,53276,1,2,0:0:0:0:
448,192,53276,1,8,0:0:0:0:
64,192,53416,1,2,0:0:0:0:
320,192,53416,1,0,0:0:0:0:
192,192,53555,1,2,0:0:0:0:
320,192,53555,1,0,0:0:0:0:
64,192,53695,128,0,53834:0:0:0:0:
192,192,53834,1,2,0:0:0:0:
448,192,53834,1,8,0:0:0:0:
64,192,53974,128,0,54113:0:0:0:0:
320,192,54113,1,2,0:0:0:0:
448,192,54113,1,0,0:0:0:0:
64,192,54253,128,0,54392:0:0:0:0:
192,192,54392,1,2,0:0:0:0:
448,192,54392,1,8,0:0:0:0:
64,192,54532,128,0,54671:0:0:0:0:
320,192,54671,1,2,0:0:0:0:
448,192,54671,1,0,0:0:0:0:
448,192,54811,128,0,54950:0:0:0:0:
64,192,54950,1,2,0:0:0:0:
320,192,54950,1,8,0:0:0:0:
448,192,55090,128,0,55230:0:0:0:0:
64,192,55230,1,2,0:0:0:0:
192,192,55230,1,0,0:0:0:0:
64,192,55369,128,0,55509:0:0:0:0:
192,192,55509,1,2,0:0:0:0:
448,192,55509,1,8,0:0:0:0:
64,192,55648,128,2,55788:0:0:0:0:
320,192,55648,1,0,0:0:0:0:
192,192,55788,1,2,0:0:0:0:
448,192,55788,1,0,0:0:0:0:
320,192,55927,128,0,56067:0:0:0:0:
64,192,56067,1,2,0:0:0:0:
448,192,56067,1,8,0:0:0:0:
320,192,56206,1,0,0:0:0:0:
192,192,56276,1,0,0:0:0:0:
64,192,56346,1,2,0:0:0:0:
448,192,56346,1,0,0:0:0:0:
320,192,56485,1,0,0:0:0:0:
448,192,56555,1,2,0:0:0:0:
64,192,56625,1,2,0:0:0:0:
192,192,56625,1,8,0:0:0:0:
320,192,56764,1,2,0:0:0:0:
448,192,56764,1,0,0:0:0:0:
64,192,56904,128,2,57183:0:0:0:0:
192,192,56904,128,4,57183:0:0:0:0:
448,192,56904,128,0,57183:0:0:0:0:
320,192,57183,1,0,0:0:0:0:
192,192,57253,1,0,0:0:0:0:
320,192,57323,1,0,0:0:0:0:
192,192,57392,1,0,0:0:0:0:
320,192,57462,128,0,57602:0:0:0:0:
64,192,57602,1,2,0:0:0:0:
448,192,57602,1,0,0:0:0:0:
64,192,57741,1,2,0:0:0:0:
448,192,57741,1,0,0:0:0:0:
192,192,57881,1,2,0:0:0:0:
320,192,57881,1,0,0:0:0:0:
64,192,58020,128,0,58299:0:0:0:0:
192,192,58299,1,8,0:0:0:0:
320,192,58299,128,4,58578:0:0:0:0:
448,192,58299,128,0,58578:0:0:0:0:
64,192,58578,1,2,0:0:0:0:
192,192,58578,1,0,0:0:0:0:
320,192,58718,128,0,58857:0:0:0:0:
192,192,58857,1,2,0:0:0:0:
448,192,58857,1,8,0:0:0:0:
320,192,58997,128,0,59136:0:0:0:0:
64,192,59136,1,2,0:0:0:0:
192,192,59136,1,0,0:0:0:0:
64,192,59276,128,0,59416:0:0:0:0:
192,192,59416,1,2,0:0:0:0:
448,192,59416,1,8,0:0:0:0:
64,192,59555,128,0,59695:0:0:0:0:
320,192,59695,1,2,0:0:0:0:
448,192,59695,1,0,0:0:0:0:
320,192,59834,128,0,59974:0:0:0:0:
192,192,59974,1,2,0:0:0:0:
448,192,59974,1,8,0:0:0:0:
192,192,60113,1,2,0:0:0:0:
320,192,60113,128,0,60253:0:0:0:0:
64,192,60253,1,2,0:0:0:0:
448,192,60253,1,0,0:0:0:0:
192,192,60392,128,0,60532:0:0:0:0:
64,192,60532,1,2,0:0:0:0:
320,192,60532,1,8,0:0:0:0:
192,192,60671,128,0,60811:0:0:0:0:
320,192,60811,1,2,0:0:0:0:
448,192,60811,1,0,0:0:0:0:
192,192,60950,128,0,61090:0:0:0:0:
64,192,61090,1,2,0:0:0:0:
320,192,61090,1,8,0:0:0:0:
192,192,61230,128,0,61369:0:0:0:0:
320,192,61369,1,2,0:0:0:0:
448,192,61369,1,0,0:0:0:0:
448,192,61509,128,0,61648:0:0:0:0:
320,192,61578,128,0,61648:0:0:0:0:
64,192,61648,1,2,0:0:0:0:
192,192,61648,1,8,0:0:0:0:
448,192,61788,128,0,61927:0:0:0:0:
64,192,61927,1,2,0:0:0:0:
192,192,61927,1,0,0:0:0:0:
320,192,61997,1,0,0:0:0:0:
448,192,62067,1,0,0:0:0:0:
192,192,62136,1,2,0:0:0:0:
64,192,62206,1,2,0:0:0:0:
320,192,62206,1,8,0:0:0:0:
192,192,62346,1,2,0:0:0:0:
448,192,62346,1,0,0:0:0:0:
64,192,62485,1,2,0:0:0:0:
192,192,62485,1,0,0:0:0:0:
448,192,62625,128,0,62764:0:0:0:0:
64,192,62764,1,2,0:0:0:0:
320,192,62764,1,8,0:0:0:0:
448,192,62904,128,0,63043:0:0:0:0:
64,192,63043,1,2,0:0:0:0:
192,192,63043,1,0,0:0:0:0:
448,192,63183,128,0,63323:0:0:0:0:
64,192,63323,1,2,0:0:0:0:
320,192,63323,1,8,0:0:0:0:
448,192,63462,128,0,63602:0:0:0:0:
64,192,63602,1,2,0:0:0:0:
192,192,63602,1,0,0:0:0:0:
192,192,63741,128,0,63881:0:0:0:0:
64,192,63881,1,2,0:0:0:0:
320,192,63881,1,8,0:0:0:0:
192,192,64020,128,0,64160:0:0:0:0:
320,192,64160,1,2,0:0:0:0:
448,192,64160,1,0,0:0:0:0:
448,192,64299,128,0,64439:0:0:0:0:
64,192,64439,1,2,0:0:0:0:
320,192,64439,1,8,0:0:0:0:
192,192,64578,1,2,0:0:0:0:
320,192,64648,1,2,0:0:0:0:
64,192,64718,1,2,0:0:0:0:
192,192,64718,1,0,0:0:0:65:Crash 2.wav
448,192,64718,1,0,0:0:0:0:
64,192,64857,1,2,0:0:0:0:
320,192,64857,1,0,0:0:0:65:Crash 2.wav
448,192,64857,1,0,0:0:0:0:
64,192,65136,1,2,0:0:0:0:
192,192,65136,1,0,0:0:0:65:Crash 2.wav
320,192,65136,1,0,0:0:0:0:
192,192,65276,1,2,0:0:0:0:
320,192,65276,1,0,0:0:0:65:Crash 2.wav
448,192,65276,1,0,0:0:0:0:
64,192,65555,1,2,0:0:0:0:
192,192,65555,1,0,0:0:0:65:Crash 2.wav
448,192,65555,1,0,0:0:0:0:
64,192,65695,1,2,0:0:0:0:
320,192,65695,1,0,0:0:0:65:Crash 2.wav
448,192,65695,1,0,0:0:0:0:
192,192,65974,128,0,66113:0:0:0:0:
64,192,66113,128,2,66532:0:0:0:0:
320,192,66113,128,4,66392:0:0:0:0:
448,192,66113,128,0,66392:0:0:0:0:
192,192,66392,1,0,0:0:0:0:
320,192,66532,1,0,0:0:0:0:
448,192,66602,1,0,0:0:0:0:
64,192,66671,1,0,0:0:0:0:
192,192,66741,1,0,0:0:0:0:
448,192,66811,1,0,0:0:0:0:
320,192,66881,1,0,0:0:0:0:
64,192,66950,1,2,0:0:0:0:
192,192,66950,128,4,67229:0:0:0:0:
448,192,66950,1,0,0:0:0:0:
320,192,67090,1,0,0:0:0:0:
64,192,67160,1,0,0:0:0:0:
320,192,67229,1,2,0:0:0:0:
448,192,67229,1,8,0:0:0:0:
192,192,67369,1,0,0:0:0:0:
64,192,67509,1,2,0:0:0:0:
448,192,67509,1,0,0:0:0:0:
320,192,67578,1,0,0:0:0:0:
192,192,67648,1,0,0:0:0:0:
64,192,67718,1,0,0:0:0:0:
320,192,67788,1,8,0:0:0:0:
448,192,67788,128,2,67927:0:0:0:0:
192,192,67927,1,0,0:0:0:0:
320,192,67997,1,0,0:0:0:0:
64,192,68067,1,2,0:0:0:0:
192,192,68067,128,0,68346:0:0:0:0:
448,192,68206,1,0,0:0:0:0:
64,192,68276,1,0,0:0:0:0:
320,192,68346,1,2,0:0:0:0:
448,192,68346,1,8,0:0:0:0:
192,192,68485,1,0,0:0:0:0:
64,192,68625,1,2,0:0:0:0:
448,192,68625,1,0,0:0:0:0:
320,192,68695,1,0,0:0:0:0:
192,192,68764,1,0,0:0:0:0:
64,192,68834,1,0,0:0:0:0:
320,192,68904,1,2,0:0:0:0:
448,192,68904,1,8,0:0:0:0:
192,192,68974,1,0,0:0:0:0:
320,192,69043,1,0,0:0:0:0:
192,192,69113,1,0,0:0:0:0:
64,192,69183,1,2,0:0:0:0:
320,192,69183,1,4,0:0:0:0:
448,192,69183,128,0,69741:0:0:0:0:
192,192,69462,1,0,0:0:0:0:
64,192,69602,1,2,0:0:0:0:
320,192,69602,1,0,0:0:0:0:
64,192,69741,128,2,70299:0:0:0:0:
320,192,69741,1,0,0:0:0:0:
320,192,70020,1,8,0:0:0:0:
448,192,70020,1,0,0:0:0:0:
192,192,70299,1,2,0:0:0:0:
448,192,70299,128,0,70578:0:0:0:0:
64,192,70578,128,0,70718:0:0:0:0:
320,192,70718,128,2,71136:0:0:0:0:
448,192,70718,1,0,0:0:0:0:
64,192,70857,1,2,0:0:0:0:
192,192,70857,1,0,0:0:0:0:
64,192,71136,128,8,71416:0:0:0:0:
448,192,71136,1,0,0:0:0:0:
192,192,71416,1,2,0:0:0:0:
320,192,71416,128,0,71695:0:0:0:0:
192,192,71695,128,0,71974:0:0:0:0:
320,192,71834,1,2,0:0:0:0:
448,192,71834,1,0,0:0:0:0:
320,192,71974,1,2,0:0:0:0:
448,192,71974,128,0,72253:0:0:0:0:
64,192,72253,128,8,72532:0:0:0:0:
192,192,72253,1,0,0:0:0:0:
320,192,72532,128,2,72671:0:0:0:0:
448,192,72532,1,0,0:0:0:0:
192,192,72671,128,0,72811:0:0:0:0:
64,192,72811,128,0,72950:0:0:0:0:
320,192,72950,1,2,0:0:0:0:
448,192,72950,128,0,73229:0:0:0:0:
64,192,73090,1,2,0:0:0:0:
192,192,73090,1,0,0:0:0:0:
320,192,73229,1,0,0:0:0:0:
64,192,73369,1,8,0:0:0:0:
448,192,73369,1,0,0:0:0:0:
192,192,73648,128,2,74206:0:0:0:0:
448,192,73648,1,0,0:0:0:0:
64,192,73927,1,0,0:0:0:0:
320,192,74067,1,2,0:0:0:0:
448,192,74067,1,0,0:0:0:0:
320,192,74206,128,2,74764:0:0:0:0:
448,192,74206,1,0,0:0:0:0:
64,192,74485,1,8,0:0:0:0:
448,192,74485,1,0,0:0:0:0:
64,192,74764,128,2,75043:0:0:0:0:
192,192,74764,1,0,0:0:0:0:
448,192,75043,128,0,75323:0:0:0:0:
192,192,75183,1,2,0:0:0:0:
320,192,75183,1,0,0:0:0:0:
192,192,75323,128,2,75602:0:0:0:0:
320,192,75323,1,0,0:0:0:0:
64,192,75602,1,8,0:0:0:0:
320,192,75602,128,0,75881:0:0:0:0:
64,192,75881,128,2,76020:0:0:0:0:
448,192,75881,1,0,0:0:0:0:
192,192,76020,128,0,76160:0:0:0:0:
320,192,76160,128,0,76299:0:0:0:0:
64,192,76299,1,2,0:0:0:0:
448,192,76299,128,0,76997:0:0:0:0:
192,192,76439,1,2,0:0:0:0:
320,192,76439,1,0,0:0:0:0:
64,192,76578,1,0,0:0:0:0:
192,192,76718,1,8,0:0:0:0:
320,192,76857,1,0,0:0:0:0:
64,192,76997,1,2,0:0:0:0:
192,192,76997,1,0,0:0:0:0:
448,192,77136,1,0,0:0:0:0:
320,192,77276,1,0,0:0:0:0:
64,192,77416,1,2,0:0:0:0:
192,192,77416,1,0,0:0:0:0:
320,192,77555,1,2,0:0:0:0:
448,192,77555,1,0,0:0:0:0:
192,192,77695,1,0,0:0:0:0:
64,192,77834,1,8,0:0:0:0:
448,192,77834,1,0,0:0:0:0:
320,192,77974,1,0,0:0:0:0:
192,192,78043,1,0,0:0:0:0:
64,192,78113,1,2,0:0:0:0:
320,192,78113,1,0,0:0:0:65:Crash 2.wav
448,192,78113,1,0,0:0:0:0:
64,192,78253,1,2,0:0:0:0:
192,192,78253,1,0,0:0:0:65:Crash 2.wav
448,192,78253,1,0,0:0:0:0:
64,192,78532,128,2,79927:0:0:0:0:
320,192,78532,1,4,0:0:0:0:
448,192,78532,1,0,0:0:0:0:
192,192,78811,1,0,0:0:0:0:
320,192,78950,1,0,0:0:0:0:
448,192,79090,1,0,0:0:0:0:
192,192,79229,1,0,0:0:0:0:
448,192,79369,1,0,0:0:0:0:
320,192,79509,1,0,0:0:0:0:
192,192,79648,1,0,0:0:0:0:
320,192,79788,1,0,0:0:0:0:
192,192,79927,1,2,0:0:0:0:
448,192,79927,1,0,0:0:0:65:Crash 2.wav
64,192,80067,1,2,0:0:0:0:
320,192,80067,1,0,0:0:0:65:Crash 2.wav
64,192,80206,1,2,0:0:0:0:
192,192,80206,1,0,0:0:0:65:Crash 2.wav
64,192,80346,1,2,0:0:0:0:
320,192,80346,1,0,0:0:0:65:Crash 2.wav
448,192,80346,1,0,0:0:0:0:
192,192,80485,1,2,0:0:0:0:
320,192,80485,1,0,0:0:0:65:Crash 2.wav
448,192,80485,1,0,0:0:0:0:
64,192,80764,1,2,0:0:0:0:
192,192,80764,1,4,0:0:0:0:
448,192,80764,128,0,82020:0:0:0:0:
320,192,81043,1,0,0:0:0:0:
64,192,81183,1,0,0:0:0:0:
192,192,81323,1,0,0:0:0:0:
320,192,81462,1,0,0:0:0:0:
192,192,81602,1,0,0:0:0:0:
64,192,81741,1,0,0:0:0:0:
320,192,81881,1,0,0:0:0:0:
64,192,82020,1,2,0:0:0:0:
192,192,82020,1,0,0:0:0:0:
320,192,82090,1,0,0:0:0:0:
448,192,82160,1,0,0:0:0:0:
64,192,82229,1,2,0:0:0:0:
192,192,82299,1,2,0:0:0:0:
448,192,82299,1,0,0:0:0:0:
320,192,82369,1,0,0:0:0:0:
64,192,82439,1,2,0:0:0:0:
192,192,82509,1,2,0:0:0:0:
64,192,82578,1,2,0:0:0:0:
320,192,82578,1,4,0:0:0:0:
448,192,82578,1,0,0:0:0:0:
192,192,82718,1,0,0:0:0:0:
320,192,82857,1,2,0:0:0:0:
448,192,82857,1,8,0:0:0:0:
320,192,82997,1,0,0:0:0:0:
64,192,83136,1,2,0:0:0:0:
448,192,83136,1,0,0:0:0:0:
192,192,83206,1,0,0:0:0:0:
320,192,83276,1,0,0:0:0:0:
64,192,83416,1,2,0:0:0:0:
192,192,83416,1,8,0:0:0:0:
320,192,83485,1,0,0:0:0:0:
448,192,83555,1,0,0:0:0:0:
64,192,83695,1,2,0:0:0:0:
448,192,83695,1,0,0:0:0:0:
320,192,83834,1,0,0:0:0:0:
64,192,83974,1,2,0:0:0:0:
192,192,83974,1,8,0:0:0:0:
320,192,84113,1,0,0:0:0:0:
64,192,84253,1,2,0:0:0:0:
448,192,84253,1,0,0:0:0:0:
320,192,84323,1,0,0:0:0:0:
192,192,84392,1,0,0:0:0:0:
320,192,84532,1,2,0:0:0:0:
448,192,84532,1,8,0:0:0:0:
192,192,84602,1,0,0:0:0:0:
64,192,84671,1,0,0:0:0:0:
320,192,84811,1,2,0:0:0:0:
448,192,84811,1,0,0:0:0:0:
64,192,84950,1,2,0:0:0:0:
192,192,84950,1,0,0:0:0:0:
320,192,85090,1,2,0:0:0:0:
448,192,85090,1,8,0:0:0:0:
64,192,85229,1,2,0:0:0:0:
192,192,85229,1,0,0:0:0:0:
320,192,85369,1,2,0:0:0:0:
448,192,85369,1,0,0:0:0:0:
192,192,85439,1,2,0:0:0:0:
64,192,85509,1,2,0:0:0:0:
448,192,85509,1,0,0:0:0:0:
320,192,85578,1,2,0:0:0:0:
64,192,85648,1,2,0:0:0:0:
192,192,85648,1,8,0:0:0:0:
320,192,85718,1,2,0:0:0:0:
64,192,85788,1,2,0:0:0:0:
448,192,85788,1,0,0:0:0:0:
192,192,85857,1,2,0:0:0:0:
320,192,85927,1,2,0:0:0:0:
448,192,85927,128,4,86974:0:0:0:0:
192,192,86206,128,0,86485:0:0:0:0:
64,192,86485,128,0,86974:0:0:0:0:
192,192,86764,128,2,86974:0:0:0:0:
320,192,86764,128,0,86974:0:0:0:0:
64,192,87043,128,2,87323:0:0:0:0:
320,192,87043,128,4,87323:0:0:0:0:
448,192,87043,128,0,87323:0:0:0:0:
192,192,87323,1,0,0:0:0:0:
320,192,87462,1,0,0:0:0:0:
448,192,87602,1,0,0:0:0:0:
64,192,87741,128,2,87881:0:0:0:0:
192,192,87741,128,0,87881:0:0:0:65:Crash 2.wav
64,192,88020,1,2,0:0:0:0:
320,192,88020,128,4,88299:0:0:0:0:
448,192,88020,128,0,88299:0:0:0:0:
192,192,88299,1,2,0:0:0:0:
320,192,88369,1,0,0:0:0:0:
64,192,88439,1,2,0:0:0:0:
448,192,88439,128,8,88578:0:0:0:0:
192,192,88578,128,0,88718:0:0:0:0:
320,192,88718,1,2,0:0:0:0:
448,192,88718,1,0,0:0:0:0:
64,192,88857,128,0,88997:0:0:0:0:
320,192,88997,1,2,0:0:0:0:
448,192,88997,128,8,89136:0:0:0:0:
64,192,89136,1,2,0:0:0:0:
192,192,89136,128,0,89276:0:0:0:0:
320,192,89276,128,2,89555:0:0:0:0:
448,192,89276,1,0,0:0:0:0:
64,192,89416,1,0,0:0:0:0:
64,192,89555,128,2,89834:0:0:0:0:
192,192,89555,1,8,0:0:0:0:
448,192,89695,1,0,0:0:0:0:
320,192,89834,1,2,0:0:0:0:
448,192,89834,128,0,90113:0:0:0:0:
192,192,89974,1,0,0:0:0:0:
64,192,90113,1,2,0:0:0:0:
192,192,90113,128,8,90392:0:0:0:0:
320,192,90253,1,0,0:0:0:0:
320,192,90392,1,2,0:0:0:0:
448,192,90392,1,0,0:0:0:0:
64,192,90462,1,0,0:0:0:0:
192,192,90532,1,0,0:0:0:0:
320,192,90602,1,0,0:0:0:0:
64,192,90671,1,2,0:0:0:0:
448,192,90671,1,8,0:0:0:0:
192,192,90741,1,0,0:0:0:0:
320,192,90811,1,0,0:0:0:0:
448,192,90881,1,0,0:0:0:0:
64,192,90950,1,2,0:0:0:0:
192,192,90950,1,0,0:0:0:0:
448,192,91020,1,0,0:0:0:0:
320,192,91090,1,0,0:0:0:0:
64,192,91160,1,2,0:0:0:0:
192,192,91160,1,0,0:0:0:0:
320,192,91229,1,2,0:0:0:0:
448,192,91229,1,8,0:0:0:0:
64,192,91299,1,0,0:0:0:0:
192,192,91369,1,2,0:0:0:0:
448,192,91369,1,0,0:0:0:0:
320,192,91439,1,0,0:0:0:0:
192,192,91509,1,2,0:0:0:0:
448,192,91509,128,0,91788:0:0:0:0:
64,192,91648,1,0,0:0:0:0:
64,192,91788,128,2,92067:0:0:0:0:
192,192,91788,1,8,0:0:0:0:
320,192,91927,1,0,0:0:0:0:
320,192,92067,128,2,92346:0:0:0:0:
448,192,92067,1,0,0:0:0:0:
64,192,92346,128,2,92485:0:0:0:0:
192,192,92346,1,8,0:0:0:0:
448,192,92485,128,0,92625:0:0:0:0:
64,192,92625,1,2,0:0:0:0:
192,192,92625,1,0,0:0:0:65:Crash 2.wav
320,192,92625,1,0,0:0:0:0:
192,192,92764,1,2,0:0:0:0:
320,192,92764,1,0,0:0:0:65:Crash 2.wav
448,192,92764,1,0,0:0:0:0:
64,192,93043,128,2,93462:0:0:0:0:
320,192,93043,1,4,0:0:0:0:
448,192,93043,1,0,0:0:0:0:
192,192,93323,1,0,0:0:0:0:
320,192,93392,1,0,0:0:0:0:
448,192,93462,1,2,0:0:0:0:
64,192,93532,1,0,0:0:0:0:
192,192,93602,1,2,0:0:0:0:
320,192,93671,1,2,0:0:0:0:
64,192,93741,1,2,0:0:0:0:
192,192,93741,1,4,0:0:0:0:
448,192,93741,128,0,94020:0:0:0:0:
320,192,93881,1,0,0:0:0:0:
64,192,94020,1,2,0:0:0:0:
192,192,94020,128,8,94299:0:0:0:0:
320,192,94160,1,0,0:0:0:0:
64,192,94299,1,2,0:0:0:0:
448,192,94299,128,0,94439:0:0:0:0:
320,192,94439,128,0,94718:0:0:0:0:
192,192,94578,1,2,0:0:0:0:
448,192,94578,1,8,0:0:0:0:
64,192,94718,128,0,94997:0:0:0:0:
320,192,94857,1,2,0:0:0:0:
448,192,94857,1,0,0:0:0:65:Crash 2.wav
320,192,94997,1,2,0:0:0:0:
448,192,94997,1,0,0:0:0:65:Crash 2.wav
64,192,95136,1,2,0:0:0:0:
192,192,95136,1,0,0:0:0:65:Crash 2.wav
64,192,95276,1,2,0:0:0:0:
192,192,95276,1,0,0:0:0:65:Crash 2.wav
448,192,95346,1,0,0:0:0:0:
320,192,95416,1,0,0:0:0:0:
192,192,95485,1,0,0:0:0:0:
320,192,95555,1,2,0:0:0:50:
448,192,95555,1,0,0:0:0:0:
64,192,95695,1,2,0:0:0:60:
192,192,95695,1,0,0:0:0:0:
320,192,95834,1,2,0:0:0:70:
448,192,95834,1,0,0:0:0:0:
64,192,95974,128,2,96253:0:0:0:0:
192,192,95974,128,4,96253:0:0:0:0:
448,192,95974,128,0,96253:0:0:0:0:
320,192,96253,1,0,0:0:0:0:
64,192,96392,1,0,0:0:0:0:
192,192,96532,1,0,0:0:0:0:
64,192,96671,128,2,96811:0:0:0:0:
320,192,96671,128,0,96811:0:0:0:65:Crash 2.wav
448,192,96671,128,0,96811:0:0:0:0:
64,192,96950,128,2,97229:0:0:0:0:
192,192,96950,128,4,97229:0:0:0:0:
448,192,96950,1,0,0:0:0:0:
320,192,97229,1,2,0:0:0:0:
192,192,97299,1,0,0:0:0:0:
64,192,97369,128,2,97509:0:0:0:0:
448,192,97369,1,8,0:0:0:0:
320,192,97509,128,0,97648:0:0:0:0:
64,192,97648,1,2,0:0:0:0:
192,192,97648,1,0,0:0:0:0:
448,192,97788,128,0,97927:0:0:0:0:
64,192,97927,128,2,98067:0:0:0:0:
192,192,97927,1,8,0:0:0:0:
320,192,98067,128,2,98206:0:0:0:0:
448,192,98067,1,0,0:0:0:0:
64,192,98206,1,2,0:0:0:0:
192,192,98206,128,0,98485:0:0:0:0:
448,192,98346,1,0,0:0:0:0:
320,192,98485,1,2,0:0:0:0:
448,192,98485,128,8,98764:0:0:0:0:
64,192,98625,1,0,0:0:0:0:
64,192,98764,128,2,99043:0:0:0:0:
192,192,98764,1,0,0:0:0:0:
320,192,98904,1,0,0:0:0:0:
320,192,99043,128,2,99323:0:0:0:0:
448,192,99043,1,8,0:0:0:0:
192,192,99183,1,0,0:0:0:0:
64,192,99323,1,2,0:0:0:0:
192,192,99323,1,0,0:0:0:0:
448,192,99392,1,0,0:0:0:0:
320,192,99462,1,0,0:0:0:0:
192,192,99532,1,0,0:0:0:0:
64,192,99602,1,2,0:0:0:0:
448,192,99602,1,8,0:0:0:0:
320,192,99671,1,0,0:0:0:0:
192,192,99741,1,0,0:0:0:0:
64,192,99811,1,0,0:0:0:0:
320,192,99881,1,2,0:0:0:0:
448,192,99881,1,0,0:0:0:0:
64,192,99950,1,0,0:0:0:0:
192,192,100020,1,0,0:0:0:0:
320,192,100090,1,2,0:0:0:0:
448,192,100090,1,0,0:0:0:0:
64,192,100160,1,2,0:0:0:0:
192,192,100160,1,8,0:0:0:0:
448,192,100229,1,0,0:0:0:0:
64,192,100299,1,2,0:0:0:0:
320,192,100299,1,0,0:0:0:0:
192,192,100369,1,0,0:0:0:0:
64,192,100439,128,2,100718:0:0:0:0:
320,192,100439,1,0,0:0:0:0:
448,192,100578,1,0,0:0:0:0:
320,192,100718,1,2,0:0:0:0:
448,192,100718,128,8,100997:0:0:0:0:
192,192,100857,1,0,0:0:0:0:
64,192,100997,1,2,0:0:0:0:
192,192,100997,128,0,101276:0:0:0:0:
320,192,101136,1,0,0:0:0:0:
320,192,101276,128,2,101555:0:0:0:0:
448,192,101276,1,8,0:0:0:0:
64,192,101416,1,0,0:0:0:0:
64,192,101555,1,2,0:0:0:0:
192,192,101555,1,0,0:0:0:65:Crash 2.wav
448,192,101555,1,0,0:0:0:0:
192,192,101695,1,2,0:0:0:0:
320,192,101695,1,0,0:0:0:65:Crash 2.wav
448,192,101695,1,0,0:0:0:0:
64,192,101834,1,0,0:0:0:0:
192,192,101974,1,2,0:0:0:0:
320,192,101974,1,4,0:0:0:0:
448,192,101974,128,0,102392:0:0:0:0:
320,192,102253,1,0,0:0:0:0:
192,192,102323,1,2,0:0:0:0:
64,192,102392,1,2,0:0:0:0:
448,192,102462,1,0,0:0:0:0:
320,192,102532,1,2,0:0:0:0:
192,192,102602,1,2,0:0:0:0:
64,192,102671,128,2,102950:0:0:0:0:
320,192,102671,1,4,0:0:0:0:
448,192,102671,1,0,0:0:0:0:
192,192,102811,1,0,0:0:0:0:
320,192,102950,128,2,103229:0:0:0:0:
448,192,102950,1,8,0:0:0:0:
192,192,103090,1,0,0:0:0:0:
64,192,103229,1,2,0:0:0:0:
448,192,103229,1,0,0:0:0:0:
64,192,103369,128,0,103648:0:0:0:0:
192,192,103509,1,2,0:0:0:0:
320,192,103509,1,8,0:0:0:0:
448,192,103648,128,0,103927:0:0:0:0:
64,192,103788,1,2,0:0:0:0:
192,192,103788,1,0,0:0:0:0:
192,192,103927,1,0,0:0:0:0:
320,192,104067,128,2,104346:0:0:0:0:
448,192,104067,1,8,0:0:0:0:
64,192,104206,1,0,0:0:0:0:
192,192,104346,128,2,104625:0:0:0:0:
448,192,104346,1,0,0:0:0:0:
448,192,104485,1,0,0:0:0:0:
64,192,104625,128,2,104904:0:0:0:0:
320,192,104625,1,8,0:0:0:0:
192,192,104764,1,0,0:0:0:0:
192,192,104904,1,2,0:0:0:0:
320,192,104904,1,4,0:0:0:0:
448,192,104904,128,0,105183:0:0:0:0:
64,192,105043,1,0,0:0:0:0:
192,192,105183,1,2,0:0:0:0:
320,192,105183,1,8,0:0:0:0:
64,192,105323,128,0,105602:0:0:0:0:
192,192,105462,1,2,0:0:0:0:
448,192,105462,1,0,0:0:0:0:
320,192,105602,128,0,105881:0:0:0:0:
64,192,105741,1,2,0:0:0:0:
448,192,105741,1,8,0:0:0:0:
192,192,105881,128,0,106160:0:0:0:0:
64,192,106020,1,2,0:0:0:0:
320,192,106020,1,0,0:0:0:0:
448,192,106160,1,0,0:0:0:0:
320,192,106299,1,2,0:0:0:0:
448,192,106299,128,8,106578:0:0:0:0:
64,192,106439,1,0,0:0:0:0:
64,192,106578,128,2,106857:0:0:0:0:
192,192,106578,1,0,0:0:0:0:
320,192,106718,1,0,0:0:0:0:
320,192,106857,128,2,107136:0:0:0:0:
448,192,106857,1,8,0:0:0:0:
64,192,106997,1,2,0:0:0:0:
192,192,106997,1,0,0:0:0:0:
64,192,107136,1,2,0:0:0:0:
448,192,107136,1,0,0:0:0:65:Crash 2.wav
64,192,107276,1,2,0:0:0:0:
448,192,107276,1,0,0:0:0:65:Crash 2.wav
192,192,107416,128,8,107555:0:0:0:0:
320,192,107416,128,0,107555:0:0:0:0:
64,192,107555,1,0,0:0:0:0:
320,192,107695,1,2,0:0:0:0:
448,192,107695,1,0,0:0:0:65:Crash 2.wav
320,192,107834,1,2,0:0:0:0:
448,192,107834,1,0,0:0:0:65:Crash 2.wav
64,192,107974,128,8,108113:0:0:0:0:
192,192,107974,128,0,108113:0:0:0:0:
448,192,108113,1,0,0:0:0:0:
192,192,108253,1,2,0:0:0:0:
320,192,108253,1,0,0:0:0:65:Crash 2.wav
192,192,108392,1,2,0:0:0:0:
320,192,108392,1,0,0:0:0:65:Crash 2.wav
64,192,108532,128,8,108671:0:0:0:0:
448,192,108532,128,0,108671:0:0:0:0:
320,192,108671,1,0,0:0:0:0:
64,192,108811,1,2,0:0:0:0:
192,192,108811,1,0,0:0:0:65:Crash 2.wav
64,192,108950,1,0,0:0:0:65:Crash 2.wav
192,192,108950,1,0,0:0:0:0:
320,192,109020,1,2,0:0:0:0:
64,192,109090,1,2,0:0:0:0:
448,192,109090,1,0,0:0:0:0:
192,192,109160,1,2,0:0:0:0:
320,192,109229,1,2,0:0:0:0:
448,192,109229,1,0,0:0:0:0:
192,192,109299,1,2,0:0:0:0:
64,192,109369,1,2,0:0:0:0:
320,192,109369,1,4,0:0:0:0:
448,192,109369,128,0,109648:0:0:0:0:
192,192,109509,1,0,0:0:0:0:
64,192,109648,1,2,0:0:0:0:
320,192,109648,1,8,0:0:0:0:
192,192,109788,128,0,110067:0:0:0:0:
64,192,109927,1,2,0:0:0:0:
448,192,109927,1,0,0:0:0:0:
320,192,110067,128,0,110346:0:0:0:0:
64,192,110206,1,2,0:0:0:0:
192,192,110206,1,8,0:0:0:0:
448,192,110346,128,0,110625:0:0:0:0:
192,192,110485,1,2,0:0:0:0:
320,192,110485,1,0,0:0:0:0:
64,192,110625,1,0,0:0:0:0:
64,192,110764,128,2,111043:0:0:0:0:
448,192,110764,1,8,0:0:0:0:
320,192,110904,1,0,0:0:0:0:
320,192,111043,128,2,111323:0:0:0:0:
448,192,111043,1,0,0:0:0:0:
192,192,111183,1,0,0:0:0:0:
64,192,111323,1,2,0:0:0:0:
192,192,111323,128,8,111602:0:0:0:0:
320,192,111462,1,2,0:0:0:0:
448,192,111462,1,0,0:0:0:0:
64,192,111602,1,2,0:0:0:0:
320,192,111602,1,4,0:0:0:0:
448,192,111602,1,0,0:0:0:0:
64,192,111881,128,0,112160:0:0:0:65:Tom BDW.wav
192,192,112020,128,0,112299:0:0:0:0:
320,192,112160,128,0,112439:0:0:0:70:Tom BDP.wav
448,192,112299,128,0,112578:0:0:0:0:
192,192,112439,128,0,112718:0:0:0:0:
64,192,112578,128,0,112857:0:0:0:70:Tom BDP.wav
320,192,112718,128,0,112997:0:0:0:0:
448,192,112857,128,0,113136:0:0:0:70:Tom BDP.wav
192,192,112997,128,0,113276:0:0:0:0:
64,192,113276,128,0,113834:0:0:0:0:
448,192,113276,1,0,0:0:0:0:
320,192,113346,1,0,0:0:0:0:
192,192,113416,1,0,0:0:0:0:
448,192,113485,1,0,0:0:0:0:
320,192,113555,1,0,0:0:0:0:
192,192,113625,1,0,0:0:0:0:
448,192,113695,1,0,0:0:0:0:
320,192,113764,1,0,0:0:0:0:
192,192,113834,1,6,0:0:0:0:
448,192,113834,1,0,0:0:0:40:A7.wav
64,192,114113,1,0,0:0:0:30:C#7.wav
64,192,114392,1,0,0:0:0:30:D7.wav
448,192,114950,1,0,0:0:0:30:A7.wav
64,192,115229,1,0,0:0:0:30:C#7.wav
64,192,115509,1,0,0:0:0:30:D7.wav
448,192,116067,1,0,0:0:0:30:A7.wav
64,192,116346,1,0,0:0:0:30:C#7.wav
64,192,116625,1,0,0:0:0:30:D7.wav
448,192,117183,1,0,0:0:0:30:A7.wav
64,192,117462,1,0,0:0:0:30:C#7.wav
64,192,117741,1,0,0:0:0:30:D7.wav
448,192,118299,1,0,0:0:0:30:A7.wav
64,192,118578,1,0,0:0:0:30:C#7.wav
64,192,118857,1,0,0:0:0:30:D7.wav
448,192,119416,1,0,0:0:0:30:A7.wav
64,192,119695,1,0,0:0:0:30:C#7.wav
64,192,119974,1,0,0:0:0:30:D7.wav
448,192,120532,128,0,122764:0:0:0:30:A7.wav
64,192,120811,1,0,0:0:0:30:C#7.wav
64,192,121090,1,0,0:0:0:30:D7.wav
192,192,121369,1,0,0:0:0:45:G#6.wav
320,192,121648,128,0,122764:0:0:0:45:A7.wav
192,192,121788,1,0,0:0:0:50:A#6.wav
64,192,121927,1,0,0:0:0:50:C#7.wav
64,192,122206,128,0,122764:0:0:0:55:D7.wav
192,192,122485,128,2,122764:0:0:0:55:G#6.wav
448,192,123741,1,0,0:0:0:0:
320,192,123811,1,0,0:0:0:0:
192,192,123881,1,0,0:0:0:0:
64,192,123950,1,0,0:0:0:0:
320,192,124067,1,0,0:0:0:0:
448,192,124160,1,2,0:0:0:0:
320,192,124253,1,0,0:0:0:0:
448,192,124346,1,2,0:0:0:0:
64,192,124439,1,0,0:0:0:65:Snare.wav
192,192,124439,1,0,0:0:0:0:
64,192,124625,1,2,0:0:0:0:
448,192,124625,1,0,0:0:0:0:
64,192,124718,1,0,0:0:0:65:Snare.wav
192,192,124718,1,0,0:0:0:0:
320,192,124811,1,2,0:0:0:0:
448,192,124811,1,0,0:0:0:0:
64,192,124904,1,2,0:0:0:0:
192,192,124904,1,0,0:0:0:0:
320,192,124997,1,2,0:0:0:0:
448,192,124997,128,4,125555:0:0:0:0:
192,192,125090,1,0,0:0:0:0:
64,192,125183,1,0,0:0:0:0:
192,192,125276,1,0,0:0:0:0:
64,192,125369,1,0,0:0:0:0:
192,192,125462,1,0,0:0:0:0:
64,192,125555,1,0,0:0:0:65:Snare.wav
320,192,125555,1,0,0:0:0:0:
320,192,125788,1,0,0:0:0:0:
192,192,125881,1,0,0:0:0:0:
64,192,126020,1,2,0:0:0:0:
448,192,126020,1,0,0:0:0:0:
192,192,126113,1,0,0:0:0:0:
320,192,126113,1,0,0:0:0:0:
320,192,126299,1,2,0:0:0:0:
448,192,126299,1,0,0:0:0:0:
64,192,126392,128,2,126578:0:0:0:0:
192,192,126392,128,0,126578:0:0:0:0:
64,192,126671,1,0,0:0:0:65:Snare.wav
448,192,126671,128,0,126950:0:0:0:0:
192,192,126764,1,0,0:0:0:0:
320,192,126857,1,0,0:0:0:0:
64,192,126950,128,0,127229:0:0:0:0:
448,192,127043,1,0,0:0:0:0:
320,192,127136,1,0,0:0:0:0:
192,192,127229,1,2,0:0:0:0:
448,192,127229,128,0,127695:0:0:0:0:
64,192,127323,1,0,0:0:0:0:
192,192,127416,1,0,0:0:0:0:
320,192,127509,128,0,127695:0:0:0:0:
192,192,127602,128,0,127695:0:0:0:0:
64,192,127695,1,0,0:0:0:0:
320,192,127788,1,0,0:0:0:65:Snare.wav
448,192,127788,1,0,0:0:0:0:
192,192,127974,1,0,0:0:0:0:
320,192,128067,1,0,0:0:0:0:
448,192,128160,1,0,0:0:0:0:
64,192,128253,1,2,0:0:0:0:
192,192,128253,1,0,0:0:0:0:
320,192,128346,1,0,0:0:0:0:
192,192,128439,1,0,0:0:0:0:
320,192,128532,1,2,0:0:0:0:
448,192,128532,1,0,0:0:0:0:
64,192,128625,1,2,0:0:0:0:
192,192,128625,1,0,0:0:0:0:
448,192,128811,1,0,0:0:0:0:
64,192,128904,1,0,0:0:0:0:
320,192,128997,1,0,0:0:0:0:
64,192,129090,1,2,0:0:0:0:
192,192,129090,1,0,0:0:0:0:
320,192,129183,128,0,129369:0:0:0:65:Snare.wav
448,192,129183,128,0,129369:0:0:0:0:
64,192,129462,128,2,130020:0:0:0:0:
192,192,129462,1,0,0:0:0:0:
320,192,129555,1,0,0:0:0:0:
448,192,129648,1,0,0:0:0:0:
320,192,129741,1,0,0:0:0:0:
448,192,129834,1,0,0:0:0:0:
320,192,129927,1,0,0:0:0:0:
192,192,130020,1,0,0:0:0:65:Snare.wav
448,192,130020,1,0,0:0:0:0:
192,192,130253,1,0,0:0:0:0:
320,192,130346,1,0,0:0:0:0:
64,192,130485,1,2,0:0:0:0:
192,192,130485,1,0,0:0:0:0:
320,192,130578,1,0,0:0:0:0:
448,192,130578,1,0,0:0:0:0:
64,192,130671,1,0,0:0:0:0:
320,192,130764,1,2,0:0:0:0:
448,192,130764,1,0,0:0:0:0:
64,192,130857,128,2,131043:0:0:0:0:
192,192,130857,128,0,131043:0:0:0:0:
64,192,131136,128,0,131416:0:0:0:65:Snare.wav
448,192,131136,1,0,0:0:0:0:
320,192,131229,1,0,0:0:0:0:
192,192,131323,1,0,0:0:0:0:
448,192,131416,128,0,131695:0:0:0:0:
64,192,131509,1,0,0:0:0:0:
192,192,131602,1,0,0:0:0:0:
64,192,131695,128,2,131974:0:0:0:0:
320,192,131695,1,0,0:0:0:0:
448,192,131788,1,0,0:0:0:0:
320,192,131881,1,0,0:0:0:0:
192,192,131974,1,0,0:0:0:0:
448,192,132067,1,0,0:0:0:0:
64,192,132160,1,0,0:0:0:0:
320,192,132253,128,0,132532:0:0:0:65:Snare.wav
448,192,132253,128,0,132532:0:0:0:0:
192,192,132346,128,0,132718:0:0:0:0:
64,192,132439,128,0,132718:0:0:0:0:
320,192,132718,1,2,0:0:0:0:
448,192,132718,1,0,0:0:0:0:
64,192,132811,1,2,0:0:0:0:
192,192,132811,1,0,0:0:0:0:
320,192,132904,1,0,0:0:0:0:
448,192,132997,1,0,0:0:0:0:
320,192,133090,1,0,0:0:0:0:
192,192,133183,1,0,0:0:0:0:
64,192,133276,1,2,0:0:0:0:
448,192,133276,1,0,0:0:0:0:
320,192,133323,1,2,0:0:0:0:
64,192,133369,1,0,0:0:0:65:Snare.wav
192,192,133369,1,0,0:0:0:0:
64,192,133555,1,2,0:0:0:0:
448,192,133555,1,0,0:0:0:0:
320,192,133648,1,0,0:0:0:65:Snare.wav
448,192,133648,1,0,0:0:0:0:
64,192,133741,1,2,0:0:0:0:
192,192,133741,1,0,0:0:0:0:
320,192,133834,1,2,0:0:0:0:
448,192,133834,1,0,0:0:0:0:
64,192,133927,128,2,134485:0:0:0:0:
192,192,133927,1,4,0:0:0:0:
448,192,134020,1,0,0:0:0:0:
320,192,134113,1,0,0:0:0:0:
448,192,134206,1,0,0:0:0:0:
320,192,134299,1,0,0:0:0:0:
448,192,134392,1,0,0:0:0:0:
192,192,134485,1,0,0:0:0:65:Snare.wav
320,192,134485,1,0,0:0:0:0:
64,192,134718,1,0,0:0:0:0:
320,192,134811,1,0,0:0:0:0:
192,192,134950,1,2,0:0:0:0:
448,192,134950,1,0,0:0:0:0:
64,192,135043,1,0,0:0:0:0:
320,192,135043,1,0,0:0:0:0:
64,192,135229,1,2,0:0:0:0:
192,192,135229,1,0,0:0:0:0:
320,192,135323,128,2,135509:0:0:0:0:
448,192,135323,128,0,135509:0:0:0:0:
64,192,135602,128,0,135881:0:0:0:65:Snare.wav
448,192,135602,1,0,0:0:0:0:
320,192,135695,1,0,0:0:0:0:
192,192,135788,1,0,0:0:0:0:
448,192,135881,128,0,136160:0:0:0:0:
64,192,135974,1,0,0:0:0:0:
192,192,136067,1,0,0:0:0:0:
64,192,136160,128,2,136625:0:0:0:0:
320,192,136160,1,0,0:0:0:0:
192,192,136253,1,0,0:0:0:0:
320,192,136346,1,0,0:0:0:0:
448,192,136439,128,0,136625:0:0:0:0:
320,192,136532,128,0,136625:0:0:0:0:
192,192,136625,1,0,0:0:0:0:
64,192,136718,1,0,0:0:0:65:Snare.wav
448,192,136718,1,0,0:0:0:0:
320,192,136904,1,0,0:0:0:0:
192,192,136997,1,0,0:0:0:0:
64,192,137090,1,0,0:0:0:0:
320,192,137183,1,2,0:0:0:0:
448,192,137183,1,0,0:0:0:0:
192,192,137276,1,0,0:0:0:0:
320,192,137369,1,0,0:0:0:0:
64,192,137462,1,2,0:0:0:0:
192,192,137462,1,0,0:0:0:0:
320,192,137555,1,2,0:0:0:0:
448,192,137555,1,0,0:0:0:0:
64,192,137741,1,0,0:0:0:0:
448,192,137834,1,0,0:0:0:0:
192,192,137927,1,0,0:0:0:0:
320,192,138020,1,2,0:0:0:0:
448,192,138020,1,0,0:0:0:0:
64,192,138113,128,0,138299:0:0:0:65:Snare.wav
192,192,138113,128,0,138299:0:0:0:0:
320,192,138392,1,2,0:0:0:0:
448,192,138392,128,0,138950:0:0:0:0:
64,192,138485,1,0,0:0:0:0:
192,192,138578,1,0,0:0:0:0:
64,192,138671,1,0,0:0:0:0:
192,192,138764,1,0,0:0:0:0:
64,192,138857,1,0,0:0:0:0:
192,192,138950,1,0,0:0:0:65:Snare.wav
320,192,138950,1,0,0:0:0:0:
448,192,139183,1,0,0:0:0:0:
192,192,139276,1,0,0:0:0:0:
320,192,139416,1,2,0:0:0:0:
448,192,139416,1,0,0:0:0:0:
64,192,139509,1,0,0:0:0:0:
192,192,139509,1,0,0:0:0:0:
320,192,139602,1,0,0:0:0:0:
64,192,139695,1,2,0:0:0:0:
192,192,139695,1,0,0:0:0:0:
320,192,139788,128,2,139974:0:0:0:0:
448,192,139788,128,0,139974:0:0:0:0:
64,192,140067,1,0,0:0:0:65:Snare.wav
448,192,140067,128,0,140346:0:0:0:0:
192,192,140160,1,0,0:0:0:0:
320,192,140253,1,0,0:0:0:0:
64,192,140346,128,0,140625:0:0:0:0:
448,192,140439,1,0,0:0:0:0:
320,192,140532,1,0,0:0:0:0:
192,192,140625,1,2,0:0:0:0:
448,192,140625,128,0,140904:0:0:0:0:
64,192,140718,1,0,0:0:0:0:
192,192,140811,1,0,0:0:0:0:
320,192,140904,1,0,0:0:0:0:
64,192,140997,1,0,0:0:0:0:
448,192,141090,1,0,0:0:0:0:
64,192,141183,128,0,141462:0:0:0:65:Snare.wav
192,192,141183,128,0,141462:0:0:0:0:
320,192,141276,128,0,141648:0:0:0:0:
448,192,141369,128,0,141648:0:0:0:0:
64,192,141648,1,2,0:0:0:0:
192,192,141648,1,0,0:0:0:0:
320,192,141741,1,2,0:0:0:0:
448,192,141741,1,0,0:0:0:0:
192,192,141834,1,0,0:0:0:0:
64,192,141927,1,0,0:0:0:0:
320,192,142020,1,0,0:0:0:0:
192,192,142113,1,0,0:0:0:0:
320,192,142206,1,2,0:0:0:0:
448,192,142206,1,0,0:0:0:0:
192,192,142253,1,2,0:0:0:0:
64,192,142299,1,0,0:0:0:65:Snare.wav
448,192,142299,1,0,0:0:0:0:
64,192,142485,1,2,0:0:0:0:
192,192,142485,1,0,0:0:0:0:
64,192,142578,1,0,0:0:0:65:Snare.wav
448,192,142578,1,0,0:0:0:0:
192,192,142671,1,2,0:0:0:0:
320,192,142671,1,0,0:0:0:0:
64,192,142764,1,2,0:0:0:0:
448,192,142764,1,0,0:0:0:0:
320,192,142857,1,2,0:0:0:0:
448,192,142857,1,4,0:0:0:0:
192,192,142950,1,0,0:0:0:0:
320,192,143043,1,0,0:0:0:0:
192,192,143136,1,0,0:0:0:0:
448,192,143229,1,0,0:0:0:0:
192,192,143323,1,0,0:0:0:0:
448,192,143416,1,0,0:0:0:0:
64,192,143509,1,0,0:0:0:0:
448,192,143602,1,0,0:0:0:0:
64,192,143695,128,0,143974:0:0:0:0:
192,192,143788,128,0,143974:0:0:0:0:
320,192,143974,1,0,0:0:0:0:
448,192,143974,1,0,0:0:0:0:
192,192,144113,1,0,0:0:0:0:
320,192,144253,128,0,144532:0:0:0:0:
448,192,144253,128,0,144532:0:0:0:0:
64,192,144532,1,0,0:0:0:0:
192,192,144532,1,0,0:0:0:0:
320,192,144671,1,0,0:0:0:0:
64,192,144811,1,0,0:0:0:0:
448,192,144811,1,0,0:0:0:0:
64,192,145090,128,2,145369:0:0:0:0:
192,192,145090,1,4,0:0:0:0:
448,192,145090,1,0,0:0:0:0:
192,192,145229,128,0,145369:0:0:0:0:
320,192,145369,1,2,0:0:0:0:
448,192,145369,128,8,145509:0:0:0:0:
64,192,145509,128,0,145648:0:0:0:0:
192,192,145648,1,2,0:0:0:0:
320,192,145648,128,0,145788:0:0:0:0:
64,192,145788,128,0,145927:0:0:0:0:
320,192,145927,1,2,0:0:0:0:
448,192,145927,128,8,146067:0:0:0:0:
192,192,146067,128,0,146206:0:0:0:0:
64,192,146206,128,2,146276:0:0:0:0:
448,192,146206,1,0,0:0:0:0:
64,192,146346,128,0,146485:0:0:0:0:
320,192,146485,128,2,146625:0:0:0:0:
448,192,146485,1,8,0:0:0:0:
192,192,146625,128,0,146764:0:0:0:0:
64,192,146764,1,2,0:0:0:0:
448,192,146764,128,0,146834:0:0:0:0:
448,192,146904,128,0,147043:0:0:0:0:
64,192,147043,1,2,0:0:0:0:
192,192,147043,1,8,0:0:0:0:
320,192,147183,1,2,0:0:0:0:
448,192,147183,1,0,0:0:0:0:
64,192,147323,128,2,147602:0:0:0:0:
192,192,147323,1,0,0:0:0:0:
320,192,147462,1,0,0:0:0:0:
192,192,147532,1,0,0:0:0:0:
320,192,147602,1,2,0:0:0:0:
448,192,147602,128,8,147741:0:0:0:0:
192,192,147741,128,0,147881:0:0:0:0:
64,192,147881,1,2,0:0:0:0:
320,192,147881,128,0,148020:0:0:0:0:
192,192,148020,128,0,148160:0:0:0:0:
320,192,148160,1,2,0:0:0:0:
448,192,148160,128,8,148299:0:0:0:0:
64,192,148299,128,0,148439:0:0:0:0:
192,192,148439,1,2,0:0:0:0:
448,192,148439,1,0,0:0:0:0:
320,192,148578,1,0,0:0:0:0:
192,192,148648,1,0,0:0:0:0:
64,192,148718,1,2,0:0:0:0:
448,192,148718,1,8,0:0:0:0:
320,192,148857,1,0,0:0:0:0:
64,192,148997,128,2,149136:0:0:0:0:
192,192,148997,128,0,149136:0:0:0:0:
320,192,149136,1,0,0:0:0:0:
192,192,149206,1,2,0:0:0:0:
320,192,149276,128,2,149416:0:0:0:0:
448,192,149276,128,8,149416:0:0:0:0:
64,192,149416,1,2,0:0:0:0:
192,192,149416,1,0,0:0:0:0:
64,192,149555,1,2,0:0:0:0:
448,192,149555,128,0,149834:0:0:0:0:
320,192,149695,128,0,149834:0:0:0:0:
64,192,149834,128,2,149974:0:0:0:0:
192,192,149834,1,8,0:0:0:0:
448,192,149974,128,0,150113:0:0:0:0:
192,192,150113,128,2,150253:0:0:0:0:
320,192,150113,1,0,0:0:0:0:
448,192,150253,128,0,150392:0:0:0:0:
64,192,150392,128,2,150532:0:0:0:0:
192,192,150392,1,8,0:0:0:0:
320,192,150532,128,0,150671:0:0:0:0:
64,192,150671,1,2,0:0:0:0:
448,192,150671,128,0,150741:0:0:0:0:
448,192,150811,128,0,150950:0:0:0:0:
64,192,150950,1,2,0:0:0:0:
192,192,150950,128,8,151090:0:0:0:0:
320,192,151090,128,0,151229:0:0:0:0:
64,192,151229,128,2,151299:0:0:0:0:
448,192,151229,1,0,0:0:0:0:
64,192,151369,128,0,151509:0:0:0:0:
192,192,151439,1,0,0:0:0:0:
320,192,151509,1,2,0:0:0:0:
448,192,151509,1,8,0:0:0:0:
192,192,151578,1,0,0:0:0:0:
64,192,151648,1,2,0:0:0:0:
448,192,151648,1,0,0:0:0:0:
320,192,151718,1,0,0:0:0:0:
64,192,151788,128,2,151927:0:0:0:0:
192,192,151788,128,4,151927:0:0:0:0:
448,192,151788,128,0,151927:0:0:0:0:
320,192,151927,1,0,0:0:0:0:
64,192,152067,1,0,0:0:0:0:
192,192,152206,1,0,0:0:0:0:
64,192,152346,128,2,152485:0:0:0:0:
320,192,152346,128,4,152485:0:0:0:0:
448,192,152346,128,0,152485:0:0:0:0:
192,192,152485,1,0,0:0:0:0:
448,192,152625,1,0,0:0:0:0:
320,192,152764,1,0,0:0:0:0:
64,192,152904,128,2,153043:0:0:0:0:
192,192,152904,128,0,153043:0:0:0:65:Crash 2.wav
448,192,152904,128,0,153043:0:0:0:0:
64,192,153183,128,2,153392:0:0:0:0:
320,192,153183,128,0,153392:0:0:0:65:Crash 2.wav
448,192,153183,128,0,153392:0:0:0:0:
64,192,153462,128,2,153881:0:0:0:0:
192,192,153462,128,4,153881:0:0:0:0:
448,192,153462,128,0,153881:0:0:0:0:
64,192,154020,1,0,0:0:0:45:Kick.wav
448,192,154020,1,0,0:0:0:0:
192,192,154160,1,0,0:0:0:0:
64,192,154299,128,0,154346:0:0:0:60:Clap.wav
320,192,154299,128,0,154346:0:0:0:45:Kick.wav
192,192,154439,1,0,0:0:0:0:
64,192,154578,1,0,0:0:0:45:Kick.wav
192,192,154718,1,0,0:0:0:0:
64,192,154857,128,0,154904:0:0:0:60:Clap.wav
448,192,154857,128,0,154904:0:0:0:45:Kick.wav
192,192,154997,1,0,0:0:0:0:
320,192,155136,1,0,0:0:0:45:Kick.wav
448,192,155276,1,0,0:0:0:0:
64,192,155416,128,0,155462:0:0:0:60:Clap.wav
320,192,155416,128,0,155462:0:0:0:45:Kick.wav
448,192,155555,1,0,0:0:0:0:
320,192,155695,1,0,0:0:0:45:Kick.wav
192,192,155834,1,0,0:0:0:0:
320,192,155974,128,0,156020:0:0:0:60:Clap.wav
448,192,155974,128,0,156020:0:0:0:45:Kick.wav
192,192,156113,1,0,0:0:0:0:
64,192,156253,1,0,0:0:0:45:Kick.wav
320,192,156392,1,0,0:0:0:0:
64,192,156532,128,0,156578:0:0:0:60:Clap.wav
192,192,156532,128,0,156578:0:0:0:45:Kick.wav
320,192,156671,1,0,0:0:0:0:
192,192,156811,1,0,0:0:0:45:Kick.wav
320,192,156950,1,0,0:0:0:0:
192,192,157090,128,0,157136:0:0:0:60:Clap.wav
448,192,157090,128,0,157136:0:0:0:45:Kick.wav
320,192,157229,1,0,0:0:0:0:
64,192,157369,1,0,0:0:0:45:Kick.wav
192,192,157509,1,0,0:0:0:0:
64,192,157648,128,0,157695:0:0:0:60:Clap.wav
448,192,157648,128,0,157695:0:0:0:45:Kick.wav
320,192,157788,1,0,0:0:0:0:
192,192,157927,1,0,0:0:0:45:Kick.wav
448,192,158067,1,0,0:0:0:0:
64,192,158206,128,0,158253:0:0:0:60:Clap.wav
320,192,158206,128,0,158253:0:0:0:45:Kick.wav
448,192,158346,1,0,0:0:0:0:
64,192,158485,1,0,0:0:0:45:Kick.wav
192,192,158625,1,0,0:0:0:0:
64,192,158764,128,0,158811:0:0:0:60:Clap.wav
320,192,158764,128,0,158811:0:0:0:45:Kick.wav
192,192,158904,1,0,0:0:0:0:
64,192,159043,1,0,0:0:0:45:Kick.wav
192,192,159183,1,0,0:0:0:0:
64,192,159323,128,0,159369:0:0:0:60:Clap.wav
448,192,159323,128,0,159369:0:0:0:45:Kick.wav
192,192,159462,1,0,0:0:0:0:
320,192,159602,1,0,0:0:0:45:Kick.wav
448,192,159741,1,0,0:0:0:0:
64,192,159881,128,0,159927:0:0:0:60:Clap.wav
320,192,159881,128,0,159927:0:0:0:45:Kick.wav
448,192,160020,1,0,0:0:0:0:
320,192,160160,1,0,0:0:0:45:Kick.wav
192,192,160299,1,0,0:0:0:0:
320,192,160439,128,0,160485:0:0:0:60:Clap.wav
448,192,160439,128,0,160485:0:0:0:45:Kick.wav
192,192,160578,1,0,0:0:0:0:
64,192,160718,1,0,0:0:0:45:Kick.wav
320,192,160857,1,0,0:0:0:0:
64,192,160997,128,0,161043:0:0:0:60:Clap.wav
192,192,160997,128,0,161043:0:0:0:45:Kick.wav
320,192,161136,1,0,0:0:0:0:
448,192,161206,1,0,0:0:0:0:
192,192,161276,1,0,0:0:0:45:Kick.wav
320,192,161416,1,0,0:0:0:0:
192,192,161555,128,0,161602:0:0:0:60:Clap.wav
448,192,161555,128,0,161602:0:0:0:45:Kick.wav
64,192,161695,1,0,0:0:0:0:
192,192,161834,128,2,162113:0:0:0:0:
320,192,161834,128,4,162113:0:0:0:0:
448,192,161834,128,0,162113:0:0:0:0:
64,192,162113,1,0,0:0:0:0:
448,192,162183,1,0,0:0:0:0:
64,192,162253,1,0,0:0:0:0:
448,192,162323,1,0,0:0:0:0:
64,192,162392,128,0,162532:0:0:0:0:
192,192,162532,1,2,0:0:0:0:
320,192,162532,1,0,0:0:0:0:
192,192,162671,1,2,0:0:0:0:
320,192,162671,1,0,0:0:0:0:
64,192,162811,1,2,0:0:0:0:
448,192,162811,1,0,0:0:0:0:
320,192,162950,128,0,163229:0:0:0:0:
64,192,163229,128,2,163509:0:0:0:0:
192,192,163229,128,8,163509:0:0:0:0:
448,192,163229,1,4,0:0:0:0:
320,192,163509,1,2,0:0:0:0:
448,192,163509,1,0,0:0:0:0:
192,192,163648,128,0,163788:0:0:0:0:
64,192,163788,1,2,0:0:0:0:
320,192,163788,1,8,0:0:0:0:
192,192,163927,128,0,164067:0:0:0:0:
320,192,164067,1,2,0:0:0:0:
448,192,164067,1,0,0:0:0:0:
448,192,164206,128,0,164346:0:0:0:0:
64,192,164346,1,2,0:0:0:0:
320,192,164346,1,8,0:0:0:0:
448,192,164485,128,0,164625:0:0:0:0:
64,192,164625,1,2,0:0:0:0:
192,192,164625,1,0,0:0:0:0:
192,192,164764,128,0,164904:0:0:0:0:
64,192,164904,1,2,0:0:0:0:
320,192,164904,1,8,0:0:0:0:
192,192,165043,128,2,165183:0:0:0:0:
320,192,165043,1,0,0:0:0:0:
64,192,165183,1,2,0:0:0:0:
448,192,165183,1,0,0:0:0:0:
320,192,165323,128,0,165462:0:0:0:0:
192,192,165462,1,2,0:0:0:0:
448,192,165462,1,8,0:0:0:0:
320,192,165602,128,0,165741:0:0:0:0:
64,192,165741,1,2,0:0:0:0:
192,192,165741,1,0,0:0:0:0:
320,192,165881,128,0,166020:0:0:0:0:
192,192,166020,1,2,0:0:0:0:
448,192,166020,1,8,0:0:0:0:
320,192,166160,128,0,166299:0:0:0:0:
64,192,166299,1,2,0:0:0:0:
192,192,166299,1,0,0:0:0:0:
64,192,166439,128,0,166578:0:0:0:0:
192,192,166509,128,0,166578:0:0:0:0:
320,192,166578,1,2,0:0:0:0:
448,192,166578,1,8,0:0:0:0:
64,192,166718,128,0,166857:0:0:0:0:
320,192,166857,1,2,0:0:0:0:
448,192,166857,1,0,0:0:0:0:
192,192,166927,1,0,0:0:0:0:
64,192,166997,1,0,0:0:0:0:
320,192,167067,1,2,0:0:0:0:
192,192,167136,1,2,0:0:0:0:
448,192,167136,1,8,0:0:0:0:
64,192,167276,1,2,0:0:0:0:
320,192,167276,1,0,0:0:0:0:
320,192,167416,1,2,0:0:0:0:
448,192,167416,1,0,0:0:0:0:
64,192,167555,128,0,167695:0:0:0:0:
192,192,167695,1,2,0:0:0:0:
448,192,167695,1,8,0:0:0:0:
64,192,167834,128,0,167974:0:0:0:0:
320,192,167974,1,2,0:0:0:0:
448,192,167974,1,0,0:0:0:0:
64,192,168113,128,0,168253:0:0:0:0:
192,192,168253,1,2,0:0:0:0:
448,192,168253,1,8,0:0:0:0:
64,192,168392,128,0,168532:0:0:0:0:
320,192,168532,1,2,0:0:0:0:
448,192,168532,1,0,0:0:0:0:
320,192,168671,128,0,168811:0:0:0:0:
192,192,168811,1,2,0:0:0:0:
448,192,168811,1,8,0:0:0:0:
320,192,168950,128,0,169090:0:0:0:0:
64,192,169090,1,2,0:0:0:0:
192,192,169090,1,0,0:0:0:0:
64,192,169229,128,0,169369:0:0:0:0:
192,192,169369,1,2,0:0:0:0:
448,192,169369,1,8,0:0:0:0:
320,192,169509,1,2,0:0:0:0:
192,192,169578,1,2,0:0:0:0:
64,192,169648,1,2,0:0:0:0:
320,192,169648,1,0,0:0:0:65:Crash 2.wav
448,192,169648,1,0,0:0:0:0:
64,192,169788,1,2,0:0:0:0:
192,192,169788,1,0,0:0:0:65:Crash 2.wav
448,192,169788,1,0,0:0:0:0:
192,192,170067,1,2,0:0:0:0:
320,192,170067,1,0,0:0:0:65:Crash 2.wav
448,192,170067,1,0,0:0:0:0:
64,192,170206,1,2,0:0:0:0:
192,192,170206,1,0,0:0:0:65:Crash 2.wav
320,192,170206,1,0,0:0:0:0:
64,192,170485,1,2,0:0:0:0:
320,192,170485,1,0,0:0:0:65:Crash 2.wav
448,192,170485,1,0,0:0:0:0:
64,192,170625,1,2,0:0:0:0:
192,192,170625,1,0,0:0:0:65:Crash 2.wav
448,192,170625,1,0,0:0:0:0:
320,192,170904,128,0,171043:0:0:0:0:
64,192,171043,128,2,171323:0:0:0:0:
192,192,171043,128,4,171323:0:0:0:0:
448,192,171043,128,0,171462:0:0:0:0:
320,192,171323,1,0,0:0:0:0:
192,192,171462,1,0,0:0:0:0:
64,192,171532,1,0,0:0:0:0:
448,192,171602,1,0,0:0:0:0:
320,192,171671,1,0,0:0:0:0:
64,192,171741,1,0,0:0:0:0:
192,192,171811,1,0,0:0:0:0:
64,192,171881,1,2,0:0:0:0:
320,192,171881,128,4,172160:0:0:0:0:
448,192,171881,1,0,0:0:0:0:
192,192,172020,1,0,0:0:0:0:
448,192,172090,1,0,0:0:0:0:
64,192,172160,1,2,0:0:0:0:
192,192,172160,1,8,0:0:0:0:
320,192,172299,1,0,0:0:0:0:
64,192,172439,1,2,0:0:0:0:
448,192,172439,1,0,0:0:0:0:
192,192,172509,1,0,0:0:0:0:
320,192,172578,1,0,0:0:0:0:
448,192,172648,1,0,0:0:0:0:
64,192,172718,128,2,172857:0:0:0:0:
192,192,172718,1,8,0:0:0:0:
320,192,172857,1,0,0:0:0:0:
192,192,172927,1,0,0:0:0:0:
320,192,172997,128,2,173276:0:0:0:0:
448,192,172997,1,0,0:0:0:0:
64,192,173136,1,0,0:0:0:0:
448,192,173206,1,0,0:0:0:0:
64,192,173276,1,2,0:0:0:0:
192,192,173276,1,8,0:0:0:0:
320,192,173416,1,0,0:0:0:0:
64,192,173555,1,2,0:0:0:0:
448,192,173555,1,0,0:0:0:0:
192,192,173625,1,0,0:0:0:0:
320,192,173695,1,0,0:0:0:0:
448,192,173764,1,0,0:0:0:0:
64,192,173834,1,2,0:0:0:0:
192,192,173834,1,8,0:0:0:0:
320,192,173904,1,0,0:0:0:0:
192,192,173974,1,0,0:0:0:0:
320,192,174043,1,0,0:0:0:0:
64,192,174113,128,2,174671:0:0:0:0:
192,192,174113,1,4,0:0:0:0:
448,192,174113,1,0,0:0:0:0:
320,192,174392,1,0,0:0:0:0:
192,192,174532,1,2,0:0:0:0:
448,192,174532,1,0,0:0:0:0:
192,192,174671,1,2,0:0:0:0:
448,192,174671,128,0,175229:0:0:0:0:
64,192,174950,1,8,0:0:0:0:
192,192,174950,1,0,0:0:0:0:
64,192,175229,128,2,175509:0:0:0:0:
320,192,175229,1,0,0:0:0:0:
448,192,175509,128,0,175648:0:0:0:0:
64,192,175648,1,2,0:0:0:0:
192,192,175648,128,0,176067:0:0:0:0:
320,192,175788,1,2,0:0:0:0:
448,192,175788,1,0,0:0:0:0:
64,192,176067,1,8,0:0:0:0:
448,192,176067,128,0,176346:0:0:0:0:
192,192,176346,128,2,176625:0:0:0:0:
320,192,176346,1,0,0:0:0:0:
320,192,176625,128,0,176904:0:0:0:0:
64,192,176764,1,2,0:0:0:0:
192,192,176764,1,0,0:0:0:0:
64,192,176904,128,2,177183:0:0:0:0:
192,192,176904,1,0,0:0:0:0:
320,192,177183,1,8,0:0:0:0:
448,192,177183,128,0,177462:0:0:0:0:
64,192,177462,1,2,0:0:0:0:
192,192,177462,128,0,177602:0:0:0:0:
320,192,177602,128,0,177741:0:0:0:0:
448,192,177741,128,0,177881:0:0:0:0:
64,192,177881,128,2,178160:0:0:0:0:
192,192,177881,1,0,0:0:0:0:
320,192,178020,1,2,0:0:0:0:
448,192,178020,1,0,0:0:0:0:
192,192,178160,1,0,0:0:0:0:
64,192,178299,1,8,0:0:0:0:
448,192,178299,1,0,0:0:0:0:
64,192,178578,1,2,0:0:0:0:
320,192,178578,128,0,179136:0:0:0:0:
448,192,178857,1,0,0:0:0:0:
64,192,178997,1,2,0:0:0:0:
192,192,178997,1,0,0:0:0:0:
64,192,179136,1,2,0:0:0:0:
192,192,179136,128,0,179695:0:0:0:0:
64,192,179416,1,8,0:0:0:0:
448,192,179416,1,0,0:0:0:0:
320,192,179695,1,2,0:0:0:0:
448,192,179695,128,0,179974:0:0:0:0:
64,192,179974,128,0,180253:0:0:0:0:
192,192,180113,1,2,0:0:0:0:
320,192,180113,1,0,0:0:0:0:
192,192,180253,1,2,0:0:0:0:
320,192,180253,128,0,180532:0:0:0:0:
192,192,180532,128,8,180811:0:0:0:0:
448,192,180532,1,0,0:0:0:0:
64,192,180811,1,2,0:0:0:0:
448,192,180811,128,0,180950:0:0:0:0:
320,192,180950,128,0,181090:0:0:0:0:
192,192,181090,128,0,181229:0:0:0:0:
64,192,181229,128,2,181927:0:0:0:0:
448,192,181229,1,0,0:0:0:0:
192,192,181369,1,2,0:0:0:0:
320,192,181369,1,0,0:0:0:0:
448,192,181509,1,0,0:0:0:0:
320,192,181648,1,8,0:0:0:0:
192,192,181788,1,0,0:0:0:0:
320,192,181927,1,2,0:0:0:0:
448,192,181927,1,0,0:0:0:0:
64,192,182067,1,0,0:0:0:0:
192,192,182206,1,0,0:0:0:0:
320,192,182346,1,2,0:0:0:0:
448,192,182346,1,0,0:0:0:0:
64,192,182485,1,2,0:0:0:0:
192,192,182485,1,0,0:0:0:0:
320,192,182625,1,0,0:0:0:0:
64,192,182764,1,8,0:0:0:0:
448,192,182764,1,0,0:0:0:0:
192,192,182904,1,0,0:0:0:0:
320,192,182974,1,0,0:0:0:0:
64,192,183043,1,2,0:0:0:0:
192,192,183043,1,0,0:0:0:65:Crash 2.wav
448,192,183043,1,0,0:0:0:0:
64,192,183183,1,2,0:0:0:0:
320,192,183183,1,0,0:0:0:65:Crash 2.wav
448,192,183183,1,0,0:0:0:0:
64,192,183462,1,2,0:0:0:0:
192,192,183462,1,4,0:0:0:0:
448,192,183462,128,0,184857:0:0:0:0:
320,192,183741,1,0,0:0:0:0:
192,192,183881,1,0,0:0:0:0:
64,192,184020,1,0,0:0:0:0:
320,192,184160,1,0,0:0:0:0:
64,192,184299,1,0,0:0:0:0:
192,192,184439,1,0,0:0:0:0:
320,192,184578,1,0,0:0:0:0:
192,192,184718,1,0,0:0:0:0:
64,192,184857,1,2,0:0:0:0:
320,192,184857,1,0,0:0:0:65:Crash 2.wav
192,192,184997,1,2,0:0:0:0:
448,192,184997,1,0,0:0:0:65:Crash 2.wav
320,192,185136,1,2,0:0:0:0:
448,192,185136,1,0,0:0:0:65:Crash 2.wav
64,192,185276,1,2,0:0:0:0:
192,192,185276,1,0,0:0:0:65:Crash 2.wav
448,192,185276,1,0,0:0:0:0:
64,192,185416,1,2,0:0:0:0:
192,192,185416,1,0,0:0:0:65:Crash 2.wav
320,192,185416,1,0,0:0:0:0:
64,192,185695,128,2,186950:0:0:0:0:
320,192,185695,1,4,0:0:0:0:
448,192,185695,1,0,0:0:0:0:
192,192,185974,1,0,0:0:0:0:
448,192,186113,1,0,0:0:0:0:
320,192,186253,1,0,0:0:0:0:
192,192,186392,1,0,0:0:0:0:
320,192,186532,1,0,0:0:0:0:
448,192,186671,1,0,0:0:0:0:
192,192,186811,1,0,0:0:0:0:
320,192,186950,1,2,0:0:0:0:
448,192,186950,1,0,0:0:0:0:
192,192,187020,1,0,0:0:0:0:
64,192,187090,1,0,0:0:0:0:
448,192,187160,1,2,0:0:0:0:
64,192,187229,1,2,0:0:0:0:
320,192,187229,1,0,0:0:0:0:
192,192,187299,1,0,0:0:0:0:
448,192,187369,1,2,0:0:0:0:
320,192,187439,1,2,0:0:0:0:
64,192,187509,1,2,0:0:0:0:
192,192,187509,1,4,0:0:0:0:
448,192,187509,1,0,0:0:0:0:
320,192,187648,1,0,0:0:0:0:
64,192,187788,1,2,0:0:0:0:
192,192,187788,1,8,0:0:0:0:
192,192,187927,1,0,0:0:0:0:
64,192,188067,1,2,0:0:0:0:
448,192,188067,1,0,0:0:0:0:
320,192,188136,1,0,0:0:0:0:
192,192,188206,1,0,0:0:0:0:
320,192,188346,1,2,0:0:0:0:
448,192,188346,1,8,0:0:0:0:
192,192,188416,1,0,0:0:0:0:
64,192,188485,1,0,0:0:0:0:
64,192,188625,1,2,0:0:0:0:
448,192,188625,1,0,0:0:0:0:
192,192,188764,1,0,0:0:0:0:
320,192,188904,1,2,0:0:0:0:
448,192,188904,1,8,0:0:0:0:
192,192,189043,1,0,0:0:0:0:
64,192,189183,1,2,0:0:0:0:
448,192,189183,1,0,0:0:0:0:
192,192,189253,1,0,0:0:0:0:
320,192,189323,1,0,0:0:0:0:
64,192,189462,1,2,0:0:0:0:
192,192,189462,1,8,0:0:0:0:
320,192,189532,1,0,0:0:0:0:
448,192,189602,1,0,0:0:0:0:
64,192,189741,1,2,0:0:0:0:
192,192,189741,1,0,0:0:0:0:
320,192,189881,1,2,0:0:0:0:
448,192,189881,1,0,0:0:0:0:
64,192,190020,1,2,0:0:0:0:
192,192,190020,1,8,0:0:0:0:
320,192,190160,1,2,0:0:0:0:
448,192,190160,1,0,0:0:0:0:
64,192,190299,1,2,0:0:0:0:
192,192,190299,1,0,0:0:0:0:
320,192,190369,1,2,0:0:0:0:
64,192,190439,1,2,0:0:0:0:
448,192,190439,1,0,0:0:0:0:
192,192,190509,1,2,0:0:0:0:
320,192,190578,1,2,0:0:0:0:
448,192,190578,1,8,0:0:0:0:
192,192,190648,1,2,0:0:0:0:
64,192,190718,1,2,0:0:0:0:
448,192,190718,1,0,0:0:0:0:
320,192,190788,1,2,0:0:0:0:
64,192,190857,128,2,191904:0:0:0:0:
192,192,190857,1,4,0:0:0:0:
320,192,191136,128,0,191416:0:0:0:0:
448,192,191416,128,0,191904:0:0:0:0:
192,192,191695,128,2,191904:0:0:0:0:
320,192,191695,128,0,191904:0:0:0:0:
64,192,191974,128,2,192253:0:0:0:0:
192,192,191974,128,4,192253:0:0:0:0:
448,192,191974,128,0,192253:0:0:0:0:
320,192,192253,1,0,0:0:0:0:
192,192,192392,1,0,0:0:0:0:
64,192,192532,1,0,0:0:0:0:
320,192,192671,128,2,192811:0:0:0:0:
448,192,192671,128,0,192811:0:0:0:65:Crash 2.wav
64,192,192950,128,2,193229:0:0:0:0:
192,192,192950,128,4,193229:0:0:0:0:
448,192,192950,1,0,0:0:0:0:
320,192,193229,1,2,0:0:0:0:
192,192,193299,1,0,0:0:0:0:
64,192,193369,128,2,193509:0:0:0:0:
448,192,193369,1,8,0:0:0:0:
320,192,193509,128,0,193648:0:0:0:0:
64,192,193648,1,2,0:0:0:0:
192,192,193648,1,0,0:0:0:0:
448,192,193788,128,0,193927:0:0:0:0:
64,192,193927,128,2,194067:0:0:0:0:
192,192,193927,1,8,0:0:0:0:
320,192,194067,128,2,194206:0:0:0:0:
448,192,194067,1,0,0:0:0:0:
64,192,194206,1,2,0:0:0:0:
192,192,194206,128,0,194485:0:0:0:0:
448,192,194346,1,0,0:0:0:0:
320,192,194485,1,2,0:0:0:0:
448,192,194485,128,8,194764:0:0:0:0:
64,192,194625,1,0,0:0:0:0:
64,192,194764,128,2,195043:0:0:0:0:
192,192,194764,1,0,0:0:0:0:
320,192,194904,1,0,0:0:0:0:
320,192,195043,128,2,195323:0:0:0:0:
448,192,195043,1,8,0:0:0:0:
192,192,195183,1,0,0:0:0:0:
64,192,195323,1,2,0:0:0:0:
192,192,195323,1,0,0:0:0:0:
448,192,195392,1,0,0:0:0:0:
320,192,195462,1,0,0:0:0:0:
192,192,195532,1,0,0:0:0:0:
64,192,195602,1,2,0:0:0:0:
448,192,195602,1,8,0:0:0:0:
320,192,195671,1,0,0:0:0:0:
192,192,195741,1,0,0:0:0:0:
64,192,195811,1,0,0:0:0:0:
320,192,195881,1,2,0:0:0:0:
448,192,195881,1,0,0:0:0:0:
64,192,195950,1,0,0:0:0:0:
192,192,196020,1,0,0:0:0:0:
320,192,196090,1,2,0:0:0:0:
448,192,196090,1,0,0:0:0:0:
64,192,196160,1,2,0:0:0:0:
192,192,196160,1,8,0:0:0:0:
448,192,196229,1,0,0:0:0:0:
64,192,196299,1,2,0:0:0:0:
320,192,196299,1,0,0:0:0:0:
192,192,196369,1,0,0:0:0:0:
320,192,196439,1,2,0:0:0:0:
448,192,196439,128,0,196718:0:0:0:0:
64,192,196578,1,0,0:0:0:0:
64,192,196718,128,2,196997:0:0:0:0:
320,192,196718,1,8,0:0:0:0:
448,192,196857,1,0,0:0:0:0:
192,192,196997,1,2,0:0:0:0:
448,192,196997,128,0,197276:0:0:0:0:
64,192,197136,1,0,0:0:0:0:
64,192,197276,128,2,197416:0:0:0:0:
320,192,197276,1,8,0:0:0:0:
320,192,197416,128,0,197555:0:0:0:0:
64,192,197555,1,2,0:0:0:0:
192,192,197555,1,0,0:0:0:65:Crash 2.wav
448,192,197555,1,0,0:0:0:0:
64,192,197695,1,2,0:0:0:0:
320,192,197695,1,0,0:0:0:65:Crash 2.wav
448,192,197695,1,0,0:0:0:0:
192,192,197834,1,0,0:0:0:0:
64,192,197974,1,2,0:0:0:0:
320,192,197974,1,4,0:0:0:0:
448,192,197974,128,0,198392:0:0:0:0:
192,192,198253,1,0,0:0:0:0:
320,192,198323,1,0,0:0:0:0:
64,192,198392,1,2,0:0:0:0:
192,192,198462,1,0,0:0:0:0:
320,192,198532,1,2,0:0:0:0:
448,192,198602,1,2,0:0:0:0:
64,192,198671,128,2,198811:0:0:0:0:
192,192,198671,1,4,0:0:0:0:
320,192,198671,1,0,0:0:0:0:
448,192,198811,1,0,0:0:0:0:
64,192,198950,128,2,199229:0:0:0:0:
320,192,198950,1,8,0:0:0:0:
192,192,199090,1,0,0:0:0:0:
320,192,199229,1,2,0:0:0:0:
448,192,199229,128,0,199369:0:0:0:0:
192,192,199369,128,0,199509:0:0:0:0:
64,192,199509,1,2,0:0:0:0:
320,192,199509,1,8,0:0:0:0:
448,192,199648,128,0,199927:0:0:0:0:
64,192,199788,1,2,0:0:0:0:
192,192,199788,1,0,0:0:0:65:Crash 2.wav
64,192,199927,1,2,0:0:0:0:
192,192,199927,1,0,0:0:0:65:Crash 2.wav
320,192,200067,1,2,0:0:0:0:
448,192,200067,1,0,0:0:0:65:Crash 2.wav
320,192,200206,1,2,0:0:0:0:
448,192,200206,1,0,0:0:0:65:Crash 2.wav
64,192,200276,1,0,0:0:0:0:
192,192,200346,1,0,0:0:0:0:
320,192,200416,1,0,0:0:0:0:
64,192,200485,1,2,0:0:0:50:
192,192,200485,1,0,0:0:0:0:
320,192,200625,1,2,0:0:0:60:
448,192,200625,1,0,0:0:0:0:
64,192,200764,1,2,0:0:0:70:
192,192,200764,1,0,0:0:0:0:
64,192,200904,128,2,201183:0:0:0:0:
320,192,200904,128,4,201183:0:0:0:0:
448,192,200904,128,0,201183:0:0:0:0:
192,192,201183,1,0,0:0:0:0:
448,192,201323,1,0,0:0:0:0:
320,192,201462,1,0,0:0:0:0:
64,192,201602,128,2,201741:0:0:0:0:
192,192,201602,128,0,201741:0:0:0:65:Crash 2.wav
192,192,201881,1,2,0:0:0:0:
320,192,201881,128,4,202160:0:0:0:0:
448,192,201881,128,0,202160:0:0:0:0:
64,192,202160,1,2,0:0:0:0:
320,192,202229,1,0,0:0:0:0:
192,192,202299,1,2,0:0:0:0:
448,192,202299,128,8,202439:0:0:0:0:
64,192,202439,128,0,202578:0:0:0:0:
320,192,202578,1,2,0:0:0:0:
448,192,202578,1,0,0:0:0:0:
192,192,202718,128,0,202857:0:0:0:0:
64,192,202857,1,2,0:0:0:0:
320,192,202857,128,8,202997:0:0:0:0:
192,192,202997,1,2,0:0:0:0:
448,192,202997,128,0,203136:0:0:0:0:
64,192,203136,128,2,203416:0:0:0:0:
320,192,203136,1,0,0:0:0:0:
448,192,203276,1,0,0:0:0:0:
192,192,203416,1,2,0:0:0:0:
448,192,203416,128,8,203695:0:0:0:0:
64,192,203555,1,0,0:0:0:0:
64,192,203695,128,2,203974:0:0:0:0:
320,192,203695,1,0,0:0:0:0:
448,192,203834,1,0,0:0:0:0:
192,192,203974,1,2,0:0:0:0:
448,192,203974,128,8,204113:0:0:0:0:
320,192,204113,128,0,204253:0:0:0:0:
64,192,204253,1,2,0:0:0:0:
192,192,204253,1,0,0:0:0:0:
320,192,204323,1,0,0:0:0:0:
448,192,204392,1,0,0:0:0:0:
64,192,204462,1,0,0:0:0:0:
192,192,204532,1,2,0:0:0:0:
320,192,204532,1,8,0:0:0:0:
448,192,204602,1,0,0:0:0:0:
64,192,204671,1,0,0:0:0:0:
192,192,204741,1,0,0:0:0:0:
320,192,204811,1,2,0:0:0:0:
448,192,204811,1,0,0:0:0:0:
192,192,204881,1,0,0:0:0:0:
64,192,204950,1,0,0:0:0:0:
320,192,205020,1,2,0:0:0:0:
448,192,205020,1,0,0:0:0:0:
64,192,205090,1,2,0:0:0:0:
192,192,205090,1,8,0:0:0:0:
448,192,205160,1,0,0:0:0:0:
192,192,205229,1,2,0:0:0:0:
320,192,205229,1,0,0:0:0:0:
64,192,205299,1,0,0:0:0:0:
320,192,205369,1,2,0:0:0:0:
448,192,205369,128,0,205648:0:0:0:0:
64,192,205509,1,0,0:0:0:0:
64,192,205648,128,2,205927:0:0:0:0:
320,192,205648,1,8,0:0:0:0:
448,192,205788,1,0,0:0:0:0:
320,192,205927,1,2,0:0:0:0:
448,192,205927,128,0,206206:0:0:0:0:
192,192,206067,1,0,0:0:0:0:
64,192,206206,1,2,0:0:0:0:
192,192,206206,128,8,206485:0:0:0:0:
320,192,206346,1,0,0:0:0:0:
64,192,206485,1,2,0:0:0:0:
320,192,206485,1,0,0:0:0:65:Crash 2.wav
448,192,206485,1,0,0:0:0:0:
64,192,206625,1,2,0:0:0:0:
192,192,206625,1,0,0:0:0:65:Crash 2.wav
448,192,206625,1,0,0:0:0:0:
320,192,206764,1,0,0:0:0:0:
64,192,206904,128,2,207323:0:0:0:0:
192,192,206904,1,4,0:0:0:0:
448,192,206904,1,0,0:0:0:0:
320,192,207183,1,0,0:0:0:0:
448,192,207253,1,2,0:0:0:0:
192,192,207323,1,2,0:0:0:0:
320,192,207392,1,0,0:0:0:0:
64,192,207462,1,2,0:0:0:0:
448,192,207462,1,0,0:0:0:0:
192,192,207532,1,2,0:0:0:0:
64,192,207602,1,2,0:0:0:0:
320,192,207602,128,4,207741:0:0:0:0:
448,192,207602,1,0,0:0:0:0:
192,192,207741,1,0,0:0:0:0:
64,192,207881,1,2,0:0:0:0:
320,192,207881,128,8,208020:0:0:0:0:
192,192,208020,1,0,0:0:0:0:
320,192,208160,1,2,0:0:0:0:
448,192,208160,128,0,208299:0:0:0:0:
64,192,208299,128,0,208578:0:0:0:0:
192,192,208439,1,2,0:0:0:0:
448,192,208439,1,8,0:0:0:0:
320,192,208578,128,0,208857:0:0:0:0:
64,192,208718,1,2,0:0:0:0:
192,192,208718,1,0,0:0:0:0:
192,192,208857,1,0,0:0:0:0:
320,192,208997,1,2,0:0:0:0:
448,192,208997,128,8,209276:0:0:0:0:
192,192,209136,1,0,0:0:0:0:
64,192,209276,1,2,0:0:0:0:
320,192,209276,128,0,209555:0:0:0:0:
64,192,209416,1,0,0:0:0:0:
192,192,209555,128,2,209834:0:0:0:0:
448,192,209555,1,8,0:0:0:0:
320,192,209695,1,0,0:0:0:0:
64,192,209834,128,2,210113:0:0:0:0:
320,192,209834,1,4,0:0:0:0:
448,192,209834,1,0,0:0:0:0:
192,192,209974,1,0,0:0:0:0:
320,192,210113,1,2,0:0:0:0:
448,192,210113,1,8,0:0:0:0:
192,192,210253,128,0,210532:0:0:0:0:
64,192,210392,1,2,0:0:0:0:
320,192,210392,1,0,0:0:0:0:
448,192,210532,128,0,210811:0:0:0:0:
192,192,210671,1,2,0:0:0:0:
320,192,210671,1,8,0:0:0:0:
64,192,210811,128,0,211090:0:0:0:0:
192,192,210950,1,2,0:0:0:0:
448,192,210950,1,0,0:0:0:0:
320,192,211090,1,0,0:0:0:0:
320,192,211229,128,2,211509:0:0:0:0:
448,192,211229,1,8,0:0:0:0:
192,192,211369,1,0,0:0:0:0:
192,192,211509,128,2,211788:0:0:0:0:
448,192,211509,1,0,0:0:0:0:
64,192,211648,1,0,0:0:0:0:
64,192,211788,128,2,212067:0:0:0:0:
320,192,211788,1,8,0:0:0:0:
192,192,211927,1,2,0:0:0:0:
448,192,211927,1,0,0:0:0:0:
320,192,212067,1,2,0:0:0:0:
448,192,212067,1,0,0:0:0:65:Crash 2.wav
320,192,212206,1,2,0:0:0:0:
448,192,212206,1,0,0:0:0:65:Crash 2.wav
64,192,212346,128,8,212485:0:0:0:0:
192,192,212346,128,0,212485:0:0:0:0:
320,192,212485,1,0,0:0:0:0:
64,192,212625,1,2,0:0:0:0:
448,192,212625,1,0,0:0:0:65:Crash 2.wav
64,192,212764,1,2,0:0:0:0:
448,192,212764,1,0,0:0:0:65:Crash 2.wav
192,192,212904,128,8,213043:0:0:0:0:
320,192,212904,128,0,213043:0:0:0:0:
448,192,213043,1,0,0:0:0:0:
64,192,213183,1,2,0:0:0:0:
192,192,213183,1,0,0:0:0:65:Crash 2.wav
64,192,213323,1,2,0:0:0:0:
192,192,213323,1,0,0:0:0:65:Crash 2.wav
320,192,213462,128,8,213602:0:0:0:0:
448,192,213462,128,0,213602:0:0:0:0:
64,192,213602,1,0,0:0:0:0:
192,192,213741,1,2,0:0:0:0:
320,192,213741,1,0,0:0:0:65:Crash 2.wav
192,192,213881,1,0,0:0:0:65:Crash 2.wav
320,192,213881,1,0,0:0:0:0:
448,192,213950,1,2,0:0:0:0:
64,192,214020,1,2,0:0:0:0:
320,192,214020,1,0,0:0:0:0:
192,192,214090,1,2,0:0:0:0:
64,192,214160,1,2,0:0:0:0:
448,192,214160,1,0,0:0:0:0:
320,192,214229,1,2,0:0:0:0:
64,192,214299,128,2,214578:0:0:0:0:
192,192,214299,1,4,0:0:0:0:
448,192,214299,1,0,0:0:0:0:
320,192,214439,1,0,0:0:0:0:
192,192,214578,1,2,0:0:0:0:
448,192,214578,1,8,0:0:0:0:
320,192,214718,128,0,214997:0:0:0:0:
64,192,214857,1,2,0:0:0:0:
192,192,214857,1,0,0:0:0:0:
448,192,214997,128,0,215276:0:0:0:0:
64,192,215136,1,2,0:0:0:0:
320,192,215136,1,8,0:0:0:0:
192,192,215276,128,0,215555:0:0:0:0:
320,192,215416,1,2,0:0:0:0:
448,192,215416,1,0,0:0:0:0:
64,192,215555,1,0,0:0:0:0:
64,192,215695,128,2,215974:0:0:0:0:
448,192,215695,1,8,0:0:0:0:
320,192,215834,1,0,0:0:0:0:
320,192,215974,128,2,216253:0:0:0:0:
448,192,215974,1,0,0:0:0:0:
192,192,216113,1,0,0:0:0:0:
64,192,216253,1,2,0:0:0:0:
192,192,216253,128,8,216532:0:0:0:0:
320,192,216392,1,2,0:0:0:0:
448,192,216392,1,0,0:0:0:0:
64,192,216532,1,2,0:0:0:0:
320,192,216532,1,4,0:0:0:0:
448,192,216532,1,0,0:0:0:0:
192,192,216811,128,0,217090:0:0:0:65:Tom BDW.wav
320,192,216950,128,0,217229:0:0:0:0:
448,192,217090,128,0,217369:0:0:0:70:Tom BDP.wav
64,192,217229,128,0,217509:0:0:0:0:
192,192,217369,128,0,217648:0:0:0:0:
448,192,217509,128,0,217788:0:0:0:70:Tom BDP.wav
320,192,217648,128,0,217927:0:0:0:0:
192,192,217788,128,0,218067:0:0:0:70:Tom BDP.wav
64,192,217927,128,0,218206:0:0:0:0:
320,192,218206,1,0,0:0:0:0:
192,192,218276,1,0,0:0:0:0:
64,192,218346,1,0,0:0:0:0:
192,192,218416,1,0,0:0:0:0:
320,192,218485,1,0,0:0:0:0:
448,192,218555,1,0,0:0:0:0:
320,192,218625,1,0,0:0:0:0:
192,192,218695,1,0,0:0:0:0:
64,192,218764,1,2,0:0:0:0:
320,192,218764,1,4,0:0:0:0:
448,192,218764,1,0,0:0:0:0:
192,192,218904,1,0,0:0:0:0:
320,192,219043,1,2,0:0:0:0:
448,192,219043,128,8,219323:0:0:0:0:
64,192,219183,1,0,0:0:0:0:
64,192,219323,128,2,219462:0:0:0:0:
192,192,219323,1,0,0:0:0:0:
448,192,219462,128,0,219602:0:0:0:0:
64,192,219602,128,2,219741:0:0:0:0:
320,192,219602,1,8,0:0:0:0:
448,192,219741,1,0,0:0:0:0:
320,192,219811,1,0,0:0:0:0:
64,192,219881,1,2,0:0:0:0:
192,192,219881,1,0,0:0:0:0:
448,192,220020,1,0,0:0:0:0:
192,192,220160,1,2,0:0:0:0:
320,192,220160,1,8,0:0:0:0:
64,192,220299,128,0,220578:0:0:0:0:
320,192,220439,1,2,0:0:0:0:
448,192,220439,1,0,0:0:0:0:
192,192,220509,1,0,0:0:0:0:
448,192,220578,128,0,220718:0:0:0:0:
64,192,220718,1,2,0:0:0:0:
192,192,220718,1,8,0:0:0:0:
320,192,220857,1,2,0:0:0:0:
448,192,220857,1,0,0:0:0:0:
64,192,220997,1,2,0:0:0:0:
448,192,220997,1,0,0:0:0:0:
192,192,221090,1,0,0:0:0:0:
320,192,221183,1,0,0:0:0:0:
192,192,221276,1,2,0:0:0:0:
448,192,221276,1,8,0:0:0:0:
64,192,221369,1,0,0:0:0:0:
448,192,221462,1,0,0:0:0:0:
64,192,221555,1,2,0:0:0:0:
320,192,221555,1,0,0:0:0:0:
192,192,221648,1,0,0:0:0:0:
320,192,221741,1,0,0:0:0:0:
64,192,221834,1,2,0:0:0:0:
448,192,221834,1,8,0:0:0:0:
192,192,221927,1,0,0:0:0:0:
448,192,222020,1,0,0:0:0:0:
64,192,222113,1,2,0:0:0:0:
192,192,222113,1,0,0:0:0:0:
320,192,222206,1,0,0:0:0:0:
64,192,222299,1,0,0:0:0:0:
320,192,222392,1,2,0:0:0:0:
448,192,222392,1,8,0:0:0:0:
192,192,222485,1,0,0:0:0:0:
448,192,222578,1,0,0:0:0:0:
64,192,222671,1,2,0:0:0:0:
320,192,222671,1,0,0:0:0:0:
192,192,222764,1,0,0:0:0:0:
320,192,222857,1,0,0:0:0:0:
64,192,222950,1,2,0:0:0:0:
448,192,222950,1,8,0:0:0:0:
192,192,223043,1,0,0:0:0:0:
320,192,223136,1,0,0:0:0:0:
64,192,223229,1,2,0:0:0:0:
192,192,223229,1,4,0:0:0:0:
448,192,223229,1,0,0:0:0:0:
320,192,223299,1,0,0:0:0:0:
192,192,223369,1,0,0:0:0:0:
64,192,223439,1,0,0:0:0:0:
320,192,223509,1,2,0:0:0:0:
448,192,223509,1,8,0:0:0:0:
192,192,223578,1,0,0:0:0:0:
320,192,223648,1,0,0:0:0:0:
448,192,223718,1,0,0:0:0:0:
64,192,223788,1,2,0:0:0:0:
192,192,223788,1,0,0:0:0:0:
320,192,223857,1,0,0:0:0:0:
448,192,223927,1,0,0:0:0:0:
192,192,223997,1,0,0:0:0:0:
320,192,224067,1,2,0:0:0:0:
448,192,224067,128,8,224346:0:0:0:0:
64,192,224206,1,0,0:0:0:0:
192,192,224346,128,2,224485:0:0:0:0:
320,192,224346,1,0,0:0:0:0:
448,192,224485,1,0,0:0:0:0:
64,192,224625,128,2,224764:0:0:0:0:
192,192,224625,1,8,0:0:0:0:
448,192,224764,1,0,0:0:0:0:
192,192,224904,1,2,0:0:0:0:
320,192,224904,128,0,225043:0:0:0:0:
64,192,225043,1,0,0:0:0:0:
320,192,225183,1,2,0:0:0:0:
448,192,225183,128,8,225323:0:0:0:0:
64,192,225323,1,2,0:0:0:0:
192,192,225323,1,0,0:0:0:0:
64,192,225462,128,2,225881:0:0:0:0:
448,192,225462,1,0,0:0:0:0:
320,192,225602,1,2,0:0:0:0:
448,192,225602,1,0,0:0:0:0:
192,192,225741,1,2,0:0:0:0:
448,192,225741,1,8,0:0:0:0:
320,192,225881,1,2,0:0:0:0:
192,192,225950,1,0,0:0:0:0:
64,192,226020,1,2,0:0:0:0:
448,192,226020,128,0,226299:0:0:0:0:
64,192,226160,1,2,0:0:0:0:
192,192,226160,1,0,0:0:0:0:
64,192,226299,1,2,0:0:0:0:
320,192,226299,1,8,0:0:0:0:
192,192,226369,1,0,0:0:0:0:
320,192,226439,1,2,0:0:0:0:
448,192,226439,1,0,0:0:0:0:
192,192,226509,1,0,0:0:0:0:
64,192,226578,128,2,226857:0:0:0:0:
448,192,226578,1,0,0:0:0:0:
320,192,226718,1,2,0:0:0:0:
192,192,226788,1,2,0:0:0:0:
320,192,226857,1,2,0:0:0:0:
448,192,226857,1,8,0:0:0:0:
64,192,226997,1,2,0:0:0:0:
192,192,226997,1,0,0:0:0:0:
320,192,227067,1,2,0:0:0:0:
64,192,227136,1,2,0:0:0:0:
448,192,227136,1,0,0:0:0:0:
192,192,227206,1,2,0:0:0:0:
320,192,227276,1,2,0:0:0:0:
448,192,227276,1,0,0:0:0:0:
192,192,227346,1,2,0:0:0:0:
64,192,227416,1,2,0:0:0:0:
320,192,227416,1,8,0:0:0:0:
448,192,227485,1,2,0:0:0:0:
64,192,227555,1,2,0:0:0:0:
192,192,227555,1,0,0:0:0:0:
320,192,227625,1,2,0:0:0:0:
64,192,227695,128,2,227974:0:0:0:0:
192,192,227695,128,0,227974:0:0:0:65:Crash 2.wav
448,192,227695,128,0,227974:0:0:0:0:
64,192,228392,128,2,228532:0:0:0:0:
320,192,228392,128,0,228532:0:0:0:65:Crash 2.wav
448,192,228392,128,0,228532:0:0:0:0:
64,192,228811,128,2,228950:0:0:0:0:
192,192,228811,128,0,228950:0:0:0:65:Crash 2.wav
320,192,228811,128,0,228950:0:0:0:0:
64,192,229229,128,2,229927:0:0:0:0:
320,192,229229,128,0,229509:0:0:0:65:Crash 2.wav
448,192,229229,128,0,229509:0:0:0:0:
192,192,229509,128,0,229927:0:0:0:0:
64,192,230206,128,2,230485:0:0:0:0:
192,192,230206,128,0,230485:0:0:0:65:Crash 2.wav
448,192,230206,128,0,230485:0:0:0:0:
192,192,230625,128,2,230904:0:0:0:0:
320,192,230625,128,0,230904:0:0:0:65:Crash 2.wav
448,192,230625,128,0,230904:0:0:0:0:
64,192,231043,128,2,231183:0:0:0:0:
320,192,231043,128,0,231183:0:0:0:65:Crash 2.wav
448,192,231043,128,0,231183:0:0:0:0:
64,192,231323,128,2,231462:0:0:0:0:
192,192,231323,128,0,231462:0:0:0:65:Crash 2.wav
448,192,231323,128,0,231462:0:0:0:0:
192,192,231602,128,2,231741:0:0:0:0:
320,192,231602,128,0,231741:0:0:0:65:Crash 2.wav
448,192,231602,128,0,231741:0:0:0:0:
64,192,231881,128,2,232020:0:0:0:0:
192,192,231881,128,0,232020:0:0:0:65:Crash 2.wav
320,192,231881,128,0,232020:0:0:0:0:
448,192,232020,1,2,0:0:0:0:
64,192,232160,128,2,232439:0:0:0:0:
192,192,232160,1,4,0:0:0:0:
320,192,232160,1,0,0:0:0:0:
448,192,232299,1,0,0:0:0:0:
320,192,232439,1,2,0:0:0:0:
448,192,232439,128,8,232718:0:0:0:0:
192,192,232578,1,0,0:0:0:0:
64,192,232718,1,2,0:0:0:0:
192,192,232718,128,0,232997:0:0:0:0:
320,192,232997,1,2,0:0:0:0:
448,192,232997,128,8,233136:0:0:0:0:
64,192,233136,128,0,233276:0:0:0:0:
192,192,233276,1,2,0:0:0:0:
320,192,233276,1,0,0:0:0:65:Crash 2.wav
448,192,233276,1,0,0:0:0:0:
64,192,233416,1,2,0:0:0:0:
192,192,233416,1,0,0:0:0:65:Crash 2.wav
320,192,233416,1,0,0:0:0:0:
64,192,233695,1,2,0:0:0:0:
192,192,233695,1,4,0:0:0:0:
448,192,233695,128,0,234113:0:0:0:0:
320,192,233974,1,0,0:0:0:0:
192,192,234043,1,2,0:0:0:0:
64,192,234113,1,2,0:0:0:0:
448,192,234183,1,0,0:0:0:0:
320,192,234253,1,2,0:0:0:0:
192,192,234323,1,2,0:0:0:0:
64,192,234392,128,2,234671:0:0:0:0:
320,192,234392,1,4,0:0:0:0:
448,192,234392,1,0,0:0:0:0:
192,192,234532,1,0,0:0:0:0:
320,192,234671,128,2,234950:0:0:0:0:
448,192,234671,1,8,0:0:0:0:
192,192,234811,1,0,0:0:0:0:
64,192,234950,128,2,235090:0:0:0:0:
448,192,234950,1,0,0:0:0:0:
192,192,235090,128,0,235369:0:0:0:0:
64,192,235229,1,2,0:0:0:0:
320,192,235229,1,8,0:0:0:0:
448,192,235369,128,0,235648:0:0:0:0:
64,192,235509,1,2,0:0:0:0:
192,192,235509,1,0,0:0:0:65:Crash 2.wav
64,192,235648,1,2,0:0:0:0:
192,192,235648,1,0,0:0:0:65:Crash 2.wav
320,192,235788,1,2,0:0:0:0:
448,192,235788,1,0,0:0:0:65:Crash 2.wav
320,192,235927,1,2,0:0:0:0:
448,192,235927,1,0,0:0:0:65:Crash 2.wav
64,192,235997,1,0,0:0:0:0:
192,192,236067,1,0,0:0:0:0:
320,192,236136,1,0,0:0:0:0:
64,192,236206,1,2,0:0:0:50:
192,192,236206,1,0,0:0:0:0:
320,192,236346,1,2,0:0:0:60:
448,192,236346,1,0,0:0:0:0:
64,192,236485,1,2,0:0:0:70:
192,192,236485,1,0,0:0:0:0:
64,192,236625,128,2,236904:0:0:0:0:
320,192,236625,128,4,236904:0:0:0:0:
448,192,236625,128,0,236904:0:0:0:0:
192,192,236904,1,0,0:0:0:0:
448,192,237043,1,0,0:0:0:0:
320,192,237183,1,0,0:0:0:0:
64,192,237323,128,2,237462:0:0:0:0:
192,192,237323,128,0,237462:0:0:0:65:Crash 2.wav
448,192,237323,128,0,237462:0:0:0:0:
64,192,237602,1,2,0:0:0:0:
320,192,237602,128,4,237881:0:0:0:0:
448,192,237602,128,0,237881:0:0:0:0:
192,192,237881,1,2,0:0:0:0:
320,192,237950,1,0,0:0:0:0:
64,192,238020,1,2,0:0:0:0:
448,192,238020,128,8,238160:0:0:0:0:
192,192,238160,128,0,238299:0:0:0:0:
320,192,238299,1,2,0:0:0:0:
448,192,238299,1,0,0:0:0:0:
64,192,238439,128,0,238578:0:0:0:0:
320,192,238578,1,2,0:0:0:0:
448,192,238578,128,8,238718:0:0:0:0:
64,192,238718,1,2,0:0:0:0:
192,192,238718,128,0,238857:0:0:0:0:
320,192,238857,128,2,239136:0:0:0:0:
448,192,238857,1,0,0:0:0:0:
64,192,238997,1,0,0:0:0:0:
64,192,239136,128,2,239416:0:0:0:0:
192,192,239136,1,8,0:0:0:0:
448,192,239276,1,0,0:0:0:0:
320,192,239416,1,2,0:0:0:0:
448,192,239416,128,0,239695:0:0:0:0:
192,192,239555,1,0,0:0:0:0:
64,192,239695,1,2,0:0:0:0:
192,192,239695,128,8,239974:0:0:0:0:
320,192,239834,1,0,0:0:0:0:
320,192,239974,1,2,0:0:0:0:
448,192,239974,1,0,0:0:0:0:
64,192,240043,1,0,0:0:0:0:
192,192,240113,1,0,0:0:0:0:
320,192,240183,1,0,0:0:0:0:
64,192,240253,1,2,0:0:0:0:
448,192,240253,1,8,0:0:0:0:
192,192,240323,1,0,0:0:0:0:
320,192,240392,1,0,0:0:0:0:
448,192,240462,1,0,0:0:0:0:
64,192,240532,1,2,0:0:0:0:
192,192,240532,1,0,0:0:0:0:
448,192,240602,1,0,0:0:0:0:
320,192,240671,1,0,0:0:0:0:
192,192,240741,1,2,0:0:0:0:
64,192,240811,1,2,0:0:0:0:
448,192,240811,1,8,0:0:0:0:
320,192,240881,1,0,0:0:0:0:
64,192,240950,1,2,0:0:0:0:
192,192,240950,1,0,0:0:0:0:
320,192,241020,1,0,0:0:0:0:
192,192,241090,1,2,0:0:0:0:
448,192,241090,128,0,241369:0:0:0:0:
64,192,241229,1,0,0:0:0:0:
64,192,241369,128,2,241648:0:0:0:0:
192,192,241369,1,8,0:0:0:0:
320,192,241509,1,0,0:0:0:0:
320,192,241648,128,2,241927:0:0:0:0:
448,192,241648,1,0,0:0:0:0:
192,192,241788,1,0,0:0:0:0:
64,192,241927,1,2,0:0:0:0:
192,192,241927,128,8,242206:0:0:0:0:
448,192,242067,1,0,0:0:0:0:
64,192,242206,1,2,0:0:0:0:
320,192,242206,1,0,0:0:0:65:Crash 2.wav
448,192,242206,1,0,0:0:0:0:
64,192,242346,1,2,0:0:0:0:
192,192,242346,1,0,0:0:0:65:Crash 2.wav
320,192,242346,1,0,0:0:0:0:
448,192,242485,1,0,0:0:0:0:
64,192,242625,128,2,243043:0:0:0:0:
192,192,242625,1,4,0:0:0:0:
320,192,242625,1,0,0:0:0:0:
192,192,242904,1,0,0:0:0:0:
320,192,242974,1,2,0:0:0:0:
448,192,243043,1,2,0:0:0:0:
64,192,243113,1,0,0:0:0:0:
192,192,243183,1,2,0:0:0:0:
320,192,243253,1,2,0:0:0:0:
64,192,243323,1,2,0:0:0:0:
192,192,243323,1,4,0:0:0:0:
448,192,243323,128,0,243602:0:0:0:0:
320,192,243462,1,0,0:0:0:0:
64,192,243602,1,2,0:0:0:0:
192,192,243602,128,8,243881:0:0:0:0:
320,192,243741,1,0,0:0:0:0:
64,192,243881,1,2,0:0:0:0:
448,192,243881,1,0,0:0:0:0:
448,192,244020,128,0,244299:0:0:0:0:
192,192,244160,1,2,0:0:0:0:
320,192,244160,1,8,0:0:0:0:
64,192,244299,128,0,244578:0:0:0:0:
320,192,244439,1,2,0:0:0:0:
448,192,244439,1,0,0:0:0:0:
320,192,244578,1,0,0:0:0:0:
64,192,244718,1,2,0:0:0:0:
192,192,244718,128,8,244997:0:0:0:0:
448,192,244857,1,0,0:0:0:0:
64,192,244997,1,2,0:0:0:0:
320,192,244997,128,0,245276:0:0:0:0:
64,192,245136,1,0,0:0:0:0:
192,192,245276,1,2,0:0:0:0:
448,192,245276,128,8,245555:0:0:0:0:
320,192,245416,1,0,0:0:0:0:
64,192,245555,128,2,245834:0:0:0:0:
192,192,245555,1,4,0:0:0:0:
320,192,245555,1,0,0:0:0:0:
448,192,245695,1,0,0:0:0:0:
192,192,245834,1,2,0:0:0:0:
320,192,245834,1,8,0:0:0:0:
448,192,245974,128,0,246253:0:0:0:0:
64,192,246113,1,2,0:0:0:0:
320,192,246113,1,0,0:0:0:0:
192,192,246253,128,0,246532:0:0:0:0:
64,192,246392,1,2,0:0:0:0:
448,192,246392,1,8,0:0:0:0:
320,192,246532,128,0,246811:0:0:0:0:
192,192,246671,1,2,0:0:0:0:
448,192,246671,1,0,0:0:0:0:
64,192,246811,1,0,0:0:0:0:
64,192,246950,128,2,247229:0:0:0:0:
192,192,246950,1,8,0:0:0:0:
448,192,247090,1,0,0:0:0:0:
320,192,247229,1,2,0:0:0:0:
448,192,247229,128,0,247509:0:0:0:0:
192,192,247369,1,0,0:0:0:0:
64,192,247509,1,2,0:0:0:0:
192,192,247509,128,8,247788:0:0:0:0:
320,192,247648,1,2,0:0:0:0:
448,192,247648,1,0,0:0:0:0:
64,192,247788,1,2,0:0:0:0:
448,192,247788,1,0,0:0:0:65:Crash 2.wav
64,192,247927,1,2,0:0:0:0:
448,192,247927,1,0,0:0:0:65:Crash 2.wav
192,192,248067,128,8,248206:0:0:0:0:
320,192,248067,128,0,248206:0:0:0:0:
448,192,248206,1,0,0:0:0:0:
64,192,248346,1,2,0:0:0:0:
192,192,248346,1,0,0:0:0:65:Crash 2.wav
64,192,248485,1,2,0:0:0:0:
192,192,248485,1,0,0:0:0:65:Crash 2.wav
320,192,248625,128,8,248764:0:0:0:0:
448,192,248625,128,0,248764:0:0:0:0:
64,192,248764,1,0,0:0:0:0:
192,192,248904,1,2,0:0:0:0:
320,192,248904,1,0,0:0:0:65:Crash 2.wav
192,192,249043,1,2,0:0:0:0:
320,192,249043,1,0,0:0:0:65:Crash 2.wav
64,192,249183,128,8,249323:0:0:0:0:
448,192,249183,128,0,249323:0:0:0:0:
192,192,249323,1,0,0:0:0:0:
320,192,249462,1,2,0:0:0:0:
448,192,249462,1,0,0:0:0:65:Crash 2.wav
320,192,249602,1,0,0:0:0:65:Crash 2.wav
448,192,249602,1,0,0:0:0:0:
192,192,249671,1,2,0:0:0:0:
64,192,249741,1,2,0:0:0:0:
448,192,249741,1,0,0:0:0:0:
320,192,249811,1,2,0:0:0:0:
64,192,249881,1,2,0:0:0:0:
192,192,249881,1,0,0:0:0:0:
320,192,249950,1,2,0:0:0:0:
64,192,250020,128,2,250299:0:0:0:0:
192,192,250020,1,4,0:0:0:0:
448,192,250020,1,0,0:0:0:0:
320,192,250160,1,0,0:0:0:0:
192,192,250299,1,2,0:0:0:0:
448,192,250299,1,8,0:0:0:0:
320,192,250439,128,0,250718:0:0:0:0:
64,192,250578,1,2,0:0:0:0:
448,192,250578,1,0,0:0:0:0:
192,192,250718,128,0,250997:0:0:0:0:
320,192,250857,1,2,0:0:0:0:
448,192,250857,1,8,0:0:0:0:
64,192,250997,128,0,251276:0:0:0:0:
192,192,251136,1,2,0:0:0:0:
320,192,251136,1,0,0:0:0:0:
448,192,251276,1,0,0:0:0:0:
64,192,251416,1,2,0:0:0:0:
448,192,251416,128,8,251695:0:0:0:0:
192,192,251555,1,0,0:0:0:0:
64,192,251695,1,2,0:0:0:0:
192,192,251695,128,0,251974:0:0:0:0:
320,192,251834,1,0,0:0:0:0:
320,192,251974,128,2,252253:0:0:0:0:
448,192,251974,1,8,0:0:0:0:
64,192,252113,1,2,0:0:0:0:
192,192,252113,1,0,0:0:0:0:
64,192,252253,1,2,0:0:0:0:
192,192,252253,1,4,0:0:0:0:
448,192,252253,1,0,0:0:0:0:
448,192,252532,128,0,252811:0:0:0:65:Tom BDW.wav
320,192,252671,128,0,252950:0:0:0:0:
192,192,252811,128,0,253090:0:0:0:70:Tom BDP.wav
64,192,252950,128,0,253229:0:0:0:0:
320,192,253090,128,0,253369:0:0:0:0:
448,192,253229,128,0,253509:0:0:0:70:Tom BDP.wav
192,192,253369,128,0,253648:0:0:0:0:
64,192,253509,128,0,253788:0:0:0:70:Tom BDP.wav
320,192,253648,128,0,253927:0:0:0:0:
64,192,253927,128,2,254346:0:0:0:0:
192,192,253927,128,4,254346:0:0:0:0:
448,192,253927,128,0,254346:0:0:0:0:
