osu file format v14

[General]
AudioFilename: audio.mp3
AudioLeadIn: 0
PreviewTime: 110690
Countdown: 0
SampleSet: Soft
StackLeniency: 0.7
Mode: 2
LetterboxInBreaks: 0
WidescreenStoryboard: 1

[Editor]
Bookmarks: 19577,141814
DistanceSpacing: 1.1
BeatDivisor: 4
GridSize: 4
TimelineZoom: 2.999999

[Metadata]
Title:Bassline Yatteru? w
TitleUnicode:ベースラインやってる?笑
Artist:Camellia feat. Nanahira
ArtistUnicode:かめりあ feat. ななひら
Creator:My Angel RangE
Version:Rain
Source:
Tags:wacca video game かめるかめりあ kamelcamellia 4orce! force! japanese mapper's guild electronic featured artist fa confetto c93 comiket comic market 93 can i friend you on bassbook? lol wara maimai でらっくす splash+ plus chunithm paradise lost オンゲキ ongeki summer plus muse dash
BeatmapID:2655321
BeatmapSetID:1277984

[Difficulty]
HPDrainRate:5
CircleSize:4
OverallDifficulty:9.2
ApproachRate:9.2
SliderMultiplier:1.8
SliderTickRate:2

[Events]
//Background and Video events
0,0,"85.png",0,0
//Break Periods
//Storyboard Layer 0 (Background)
//Storyboard Layer 1 (Fail)
//Storyboard Layer 2 (Pass)
//Storyboard Layer 3 (Foreground)
//Storyboard Layer 4 (Overlay)
//Storyboard Sound Samples

[TimingPoints]
3995,468.75,4,2,0,40,1,0
7745,-66.6666666666667,4,2,0,40,0,0
9620,-50,4,2,0,40,0,0
10088,-100,4,2,0,40,0,0
10557,-50,4,2,0,40,0,0
11026,-100,4,2,0,40,0,0
13604,-66.6666666666667,4,2,0,40,0,0
15245,-66.6666666666667,4,2,0,40,0,0
18995,-83.3333333333333,4,2,0,60,0,0
24151,-66.6666666666667,4,2,0,60,0,0
24620,-33.3333333333333,4,2,0,60,0,0
26495,-66.6666666666667,4,2,0,60,0,0
29073,-33.3333333333333,4,2,0,60,0,0
29307,-66.6666666666667,4,2,0,60,0,0
63995,-66.6666666666667,4,2,0,60,0,0
80870,-33.3333333333333,4,2,0,80,0,0
81338,-33.3333333333333,4,2,0,70,0,0
86495,-50,4,2,0,70,0,0
88370,-33.3333333333333,4,2,0,70,0,0
93995,-50,4,2,0,70,0,0
94932,-28.5714285714286,4,2,0,70,0,0
95401,-33.3333333333333,4,2,0,70,0,0
110870,-40,4,2,0,80,0,1
112745,-33.3333333333333,4,2,0,80,0,1
113213,-40,4,2,0,80,0,1
113916,-31.25,4,2,0,80,0,1
114620,-40,4,2,0,80,0,1
116495,-33.3333333333333,4,2,0,80,0,1
116963,-40,4,2,0,80,0,1
117432,-33.3333333333333,4,2,0,80,0,1
118370,-40,4,2,0,80,0,1
121416,-31.25,4,2,0,80,0,1
122120,-40,4,2,0,80,0,1
125870,-66.6666666666667,4,2,0,60,0,0
126338,476.190476190476,4,2,0,60,1,0
127052,375,4,2,0,60,1,0
127755,357.142857142857,4,2,0,60,1,0
130567,351.493848857645,4,2,0,60,1,0
155171,500,4,2,0,40,1,0
155546,545.454545454546,4,2,0,40,1,0
156091,600,4,2,0,40,1,0
156766,857.142857142857,4,2,0,40,1,0
156766,-50,4,2,0,40,0,0
157194,1714.2857142857,4,2,0,40,1,0
157729,468.75,4,2,0,40,1,0
157729,-66.6666666666667,4,2,0,40,0,0
172729,-66.6666666666667,4,2,0,60,0,0
187729,-66.6666666666667,4,2,0,40,0,0
195229,-66.6666666666667,4,2,0,60,0,0
204604,-33.3333333333333,4,2,0,70,0,0
210229,-50,4,2,0,70,0,0
212104,-33.3333333333333,4,2,0,70,0,0
217729,-50,4,2,0,70,0,0
218666,-28.5714285714286,4,2,0,70,0,0
219604,-33.3333333333333,4,2,0,70,0,0
234604,-40,4,2,0,80,0,1
236479,-33.3333333333333,4,2,0,80,0,1
236947,-40,4,2,0,80,0,1
237650,-31.25,4,2,0,80,0,1
238354,-40,4,2,0,80,0,1
240229,-33.3333333333333,4,2,0,80,0,1
240697,-40,4,2,0,80,0,1
241166,-33.3333333333333,4,2,0,80,0,1
242104,-40,4,2,0,80,0,1
245150,-31.25,4,2,0,80,0,1
245854,-40,4,2,0,80,0,1
249604,-66.6666666666667,4,2,0,80,0,1
250072,-40,4,2,0,80,0,1
253354,-66.6666666666667,4,2,0,80,0,1
253822,-40,4,2,0,80,0,1
257104,-66.6666666666667,4,2,0,80,0,1
257572,-40,4,2,0,80,0,1
264604,-66.6666666666667,4,2,0,60,0,0
270229,-50,4,2,0,60,0,0
270697,-66.6666666666667,4,2,0,60,0,0
271049,-50,4,2,0,60,0,0
271635,-66.6666666666667,4,2,0,60,0,0

[Colours]
Combo1 : 255,163,70
Combo2 : 0,172,44
Combo3 : 255,255,57

[HitObjects]
72,184,3995,6,0,L|272:184,1,180,4|0,3:0|1:0,0:0:0:0:
144,192,5401,1,0,1:0:0:0:
312,192,5870,6,0,L|488:120,2,180,4|0|2,3:0|1:0|0:0,0:0:0:0:
160,224,7276,1,0,1:0:0:0:
328,224,7745,6,0,L|48:224,1,270.000010299683,4|0,3:0|1:0,0:0:0:0:
328,224,9151,1,0,1:0:0:0:
136,224,9620,6,0,P|40:160|160:120,1,270,4|0,3:0|0:0,0:0:0:0:
224,104,10088,2,0,L|248:280,1,135,0|0,1:0|0:0,0:0:0:0:
328,240,10557,6,0,P|424:176|304:104,1,270,4|0,3:0|0:0,0:0:0:0:
242,237,11026,2,0,L|224:104,1,135,0|0,1:0|0:0,0:0:0:0:
46,104,11495,6,0,L|136:104,1,90,4|0,3:0|3:0,0:0:0:0:
296,28,11963,2,0,L|206:28,1,90,0|0,1:0|3:0,0:0:0:0:
364,112,12666,6,0,L|468:112,2,90,4|0|4,3:0|1:0|3:0,0:0:0:0:
160,176,13370,6,0,L|144:96,1,45,4|0,3:0|0:0,0:0:0:0:
248,136,13604,2,0,L|440:136,2,135.000005149842,2|2|2,0:0|0:0|0:0,0:0:0:0:
88,140,14307,6,0,P|40:76|96:52,1,135.000005149842,2|4,0:0|3:0,0:0:0:0:
264,64,14776,1,0,1:0:0:0:
324,64,14893,1,0,0:0:0:0:
384,64,15010,1,4,3:0:0:0:
152,120,15245,6,0,P|80:176|216:208,1,270.000010299683,4|0,3:0|1:0,0:0:0:0:
352,248,15948,1,0,0:0:0:0:
200,248,16182,6,0,L|144:96,1,135.000005149842,0|4,0:0|3:0,0:0:0:0:
344,240,16651,1,0,1:0:0:0:
256,239,16885,2,0,L|256:151,1,67.5000025749208,0|0,0:0|3:0,0:0:0:0:
200,184,17120,5,0,3:0:0:0:
256,172,17178,1,0,3:0:0:0:
296,200,17237,1,0,3:0:0:0:
312,240,17295,1,0,3:0:0:0:
320,284,17354,1,0,3:0:0:0:
288,332,17412,1,0,3:0:0:0:
240,344,17471,1,0,3:0:0:0:
192,312,17530,1,0,3:0:0:0:
140,308,17588,5,0,3:0:0:0:
83,302,17646,1,0,3:0:0:0:
52,264,17705,1,0,3:0:0:0:
40,220,17763,1,0,3:0:0:0:
56,172,17822,1,0,3:0:0:0:
104,136,17880,1,0,3:0:0:0:
160,144,17939,1,0,3:0:0:0:
220,184,17998,1,4,3:0:0:0:
292,160,18057,5,0,3:0:0:0:
340,120,18116,1,0,3:0:0:0:
352,56,18174,1,0,3:0:0:0:
304,12,18233,1,0,3:0:0:0:
228,0,18291,1,4,3:0:0:0:
168,40,18350,1,0,3:0:0:0:
152,112,18409,1,0,3:0:0:0:
204,152,18467,1,0,3:0:0:0:
268,160,18526,6,0,L|380:56,1,135.000005149842,2|2,0:0|0:0,0:0:0:0:
72,160,18995,6,0,L|180:160,1,107.999996704102,4|0,3:1|0:0,0:0:0:0:
48,76,19463,2,0,L|48:184,1,107.999996704102,0|0,1:0|0:0,0:0:0:0:
252,176,19932,6,0,L|144:176,1,107.999996704102,4|0,3:0|0:0,0:0:0:0:
368,208,20400,2,0,L|368:80,1,107.999996704102,0|0,1:0|0:0,0:0:0:0:
144,96,20870,5,4,3:0:0:0:
280,96,21104,2,0,L|416:96,2,107.999996704102,0|0|2,0:0|1:0|0:0,0:0:0:0:
56,96,21807,6,0,L|56:232,1,107.999996704102,4|0,3:0|0:0,0:0:0:0:
216,264,22276,2,0,L|216:156,1,107.999996704102,0|0,1:0|0:0,0:0:0:0:
40,304,22745,6,0,L|280:304,1,215.999993408203,4|0,3:0|1:0,0:0:0:0:
72,208,23448,1,0,0:0:0:0:
272,208,23682,6,0,L|296:64,1,107.999996704102,4|0,3:0|0:0,0:0:0:0:
480,208,24151,2,0,L|345:208,1,135.000005149842,0|0,1:0|0:0,0:0:0:0:
192,96,24620,6,0,L|368:320,3,270.000010299683,4|0|0|0,3:0|0:0|1:0|0:0,0:0:0:0:
192,96,25557,6,0,L|16:320,3,270.000010299683,4|0|0|0,3:0|0:0|1:0|0:0,0:0:0:0:
376,296,26495,6,0,L|416:144,1,135.000005149842,4|0,3:0|3:0,0:0:0:0:
248,168,26963,2,0,L|113:168,1,135.000005149842,0|0,1:0|3:0,0:0:0:0:
256,72,27432,6,0,L|376:176,1,135.000005149842,4|0,3:0|3:0,0:0:0:0:
120,208,27901,2,0,L|120:40,1,135.000005149842,0|0,1:0|3:0,0:0:0:0:
328,212,28370,6,0,L|168:172,2,135.000005149842,4|0|0,3:0|3:0|1:0,0:0:0:0:
120,224,29073,1,0,3:0:0:0:
336,280,29307,6,0,L|520:280,1,135.000005149842,4|0,3:0|3:0,0:0:0:0:
304,176,29776,2,0,L|120:176,1,135.000005149842,0|0,1:0|3:0,0:0:0:0:
296,32,30245,5,4,3:0:0:0:
360,56,30323,1,0,3:0:0:0:
400,112,30401,1,0,3:0:0:0:
400,176,30479,1,0,3:0:0:0:
360,232,30557,1,0,3:0:0:0:
296,256,30635,1,0,3:0:0:0:
136,256,30713,5,0,1:0:0:0:
72,232,30791,1,0,3:0:0:0:
32,176,30869,1,0,3:0:0:0:
32,112,30947,1,0,3:0:0:0:
72,56,31025,1,0,3:0:0:0:
136,32,31103,1,0,3:0:0:0:
328,80,31182,5,4,3:0:0:0:
392,104,31260,1,0,3:0:0:0:
432,160,31338,1,0,3:0:0:0:
432,224,31416,1,0,3:0:0:0:
392,280,31494,1,0,3:0:0:0:
364,312,31572,1,0,3:0:0:0:
160,312,31651,5,0,1:0:0:0:
88,256,31729,1,0,3:3:0:0:
128,176,31807,1,0,3:0:0:0:
216,128,31885,1,0,3:0:0:0:
288,64,31963,1,0,3:0:0:0:
212,8,32041,1,0,3:0:0:0:
76,32,32120,5,0,3:0:0:0:
20,68,32198,1,0,3:0:0:0:
0,128,32276,1,0,3:0:0:0:
36,180,32354,1,0,3:0:0:0:
88,208,32432,1,0,3:0:0:0:
140,184,32510,1,0,3:0:0:0:
328,148,32588,5,0,3:0:0:0:
384,172,32666,1,0,3:0:0:0:
420,216,32744,1,0,3:0:0:0:
424,272,32822,1,0,3:0:0:0:
380,320,32900,1,0,3:0:0:0:
324,340,32978,1,0,3:0:0:0:
168,308,33057,5,0,3:0:0:0:
137,297,33115,1,0,3:0:0:0:
113,274,33174,1,0,3:0:0:0:
101,243,33232,1,0,3:0:0:0:
103,210,33291,1,0,3:0:0:0:
119,180,33349,1,0,3:0:0:0:
147,161,33408,1,0,3:0:0:0:
176,152,33467,1,0,3:0:0:0:
268,160,33526,5,0,3:0:0:0:
299,171,33584,1,0,3:0:0:0:
323,194,33643,1,0,3:0:0:0:
335,225,33701,1,0,3:0:0:0:
333,258,33760,1,0,3:0:0:0:
317,288,33818,1,0,3:0:0:0:
289,307,33877,1,0,3:0:0:0:
260,316,33936,1,0,3:0:0:0:
116,316,33995,5,4,3:1:0:0:
116,316,34463,2,0,L|116:208,1,67.5000025749208,2|2,0:0|0:0,0:0:0:0:
308,192,34815,6,0,L|76:192,1,202.500007724762,2|2,0:0|0:0,0:0:0:0:
268,256,35401,2,0,L|268:96,1,135.000005149842,2|2,0:0|0:0,0:0:0:0:
64,56,35870,6,0,L|224:56,1,135.000005149842,2|2,0:0|0:0,0:0:0:0:
416,64,36338,2,0,L|416:164,1,67.5000025749208,2|2,0:0|0:0,0:0:0:0:
228,140,36690,5,2,0:0:0:0:
444,228,37041,2,0,L|256:228,1,135.000005149842,2|2,0:0|0:0,0:0:0:0:
80,224,37745,5,2,0:0:0:0:
288,220,38213,2,0,L|288:128,1,67.5000025749208,2|2,0:0|0:0,0:0:0:0:
116,64,38565,6,0,L|318:64,1,202.500007724762,2|2,0:0|0:0,0:0:0:0:
96,176,39151,2,0,L|100:32,1,135.000005149842,2|2,0:0|0:0,0:0:0:0:
240,268,39620,6,0,L|68:268,2,135.000005149842,2|2|2,0:0|0:0|0:0,0:0:0:0:
344,268,40205,1,2,0:0:0:0:
132,320,40440,6,0,L|128:88,1,202.500007724762,2|2,0:0|0:0,0:0:0:0:
228,116,40909,1,2,0:0:0:0:
284,104,41026,1,2,0:0:0:0:
304,40,41143,1,2,0:0:0:0:
264,8,41260,1,2,0:0:0:0:
208,16,41377,1,2,0:0:0:0:
25,68,41495,6,0,L|25:203,1,135.000005149842,4|0,3:0|0:0,0:0:0:0:
148,272,41963,2,0,L|148:156,1,67.5000025749208,0|0,1:0|0:0,0:0:0:0:
248,72,42315,1,0,0:0:0:0:
328,72,42432,6,0,L|328:207,1,135.000005149842,4|0,3:0|0:0,0:0:0:0:
472,348,42900,2,0,L|472:213,1,135.000005149842,0|0,1:0|0:0,0:0:0:0:
304,212,43370,6,0,L|480:212,1,135.000005149842,4|0,3:0|0:0,0:0:0:0:
264,120,43838,2,0,L|144:120,1,67.5000025749208,0|0,1:0|0:0,0:0:0:0:
300,212,44190,1,0,0:0:0:0:
300,296,44307,6,0,L|476:296,1,135.000005149842,4|0,3:0|1:0,0:0:0:0:
276,208,44775,2,0,L|100:208,1,135.000005149842,0|0,1:0|0:0,0:0:0:0:
360,208,45245,6,0,L|360:64,1,135.000005149842,4|0,3:0|0:0,0:0:0:0:
200,76,45713,2,0,L|320:76,1,67.5000025749208,0|0,1:0|0:0,0:0:0:0:
168,76,46065,1,0,0:0:0:0:
88,76,46182,6,0,L|88:220,1,135.000005149842,4|0,3:0|0:0,0:0:0:0:
268,212,46650,2,0,L|124:212,1,135.000005149842,0|0,1:0|0:0,0:0:0:0:
340,212,47120,6,0,L|340:44,1,135.000005149842,4|0,3:0|0:0,0:0:0:0:
140,212,47588,2,0,L|136:96,1,67.5000025749208,0|0,1:0|0:0,0:0:0:0:
276,292,48057,6,0,L|104:292,3,135.000005149842,4|0|0|0,3:0|0:0|1:0|0:0,0:0:0:0:
464,292,48995,6,0,L|464:108,1,135.000005149842,4|0,0:1|0:0,0:0:0:0:
264,160,49463,2,0,L|352:160,1,67.5000025749208,0|0,1:0|0:0,0:0:0:0:
128,160,49932,6,0,L|128:295,1,135.000005149842,4|0,3:0|0:0,0:0:0:0:
312,200,50401,2,0,L|172:200,1,135.000005149842,0|0,1:0|0:0,0:0:0:0:
352,200,50870,6,0,L|352:44,1,135.000005149842,4|0,3:0|0:0,0:0:0:0:
164,64,51338,2,0,L|68:64,1,67.5000025749208,0|0,1:0|0:0,0:0:0:0:
328,136,51690,1,0,0:0:0:0:
320,64,51807,5,4,3:0:0:0:
112,172,52041,1,4,0:1:0:0:
412,168,52276,1,4,0:1:0:0:
160,172,52745,6,0,L|160:12,1,135.000005149842,4|0,3:0|0:0,0:0:0:0:
392,168,53213,2,0,L|300:168,1,67.5000025749208,0|0,1:0|0:0,0:0:0:0:
196,168,53565,1,0,0:0:0:0:
116,164,53682,6,0,L|116:312,1,135.000005149842,4|0,3:0|0:0,0:0:0:0:
284,232,54151,2,0,L|116:232,1,135.000005149842,0|0,1:0|0:0,0:0:0:0:
328,300,54620,6,0,L|328:136,1,135.000005149842,4|0,3:0|0:0,0:0:0:0:
500,112,55088,2,0,L|408:112,1,67.5000025749208,0|0,1:0|0:0,0:0:0:0:
168,112,55440,1,0,0:0:0:0:
168,112,55557,6,0,L|168:272,1,135.000005149842,4|2,3:0|0:0,0:0:0:0:
92,208,55909,1,2,0:0:0:0:
32,216,56026,1,2,0:0:0:0:
0,284,56143,1,2,0:0:0:0:
48,340,56260,1,2,0:0:0:0:
108,328,56377,1,2,0:0:0:0:
468,260,56495,6,0,L|468:96,1,135.000005149842,4|0,0:1|0:0,0:0:0:0:
340,260,56963,2,0,L|340:144,1,67.5000025749208,0|0,1:0|0:0,0:0:0:0:
248,56,57315,1,0,0:0:0:0:
160,60,57432,6,0,L|160:195,1,135.000005149842,0|0,0:0|0:0,0:0:0:0:
16,336,57900,2,0,L|16:201,1,135.000005149842,0|0,1:0|0:0,0:0:0:0:
184,200,58370,6,0,L|8:200,1,135.000005149842,4|0,3:0|0:0,0:0:0:0:
224,108,58838,2,0,L|344:108,1,67.5000025749208,0|0,1:0|0:0,0:0:0:0:
188,284,59307,5,4,3:0:0:0:
76,288,59541,1,4,0:1:0:0:
376,284,59776,1,4,0:1:0:0:
404,196,60245,6,0,L|404:52,1,135.000005149842,4|0,3:0|0:0,0:0:0:0:
224,64,60713,2,0,L|344:64,1,67.5000025749208,0|0,1:0|0:0,0:0:0:0:
224,64,61065,1,0,0:0:0:0:
132,68,61182,6,0,L|132:212,1,135.000005149842,4|0,3:0|0:0,0:0:0:0:
312,200,61650,2,0,L|168:200,1,135.000005149842,0|0,1:0|0:0,0:0:0:0:
332,200,62120,6,0,L|332:32,1,135.000005149842,4|0,3:0|0:0,0:0:0:0:
164,200,62588,2,0,L|160:84,1,67.5000025749208,0|0,1:0|0:0,0:0:0:0:
416,200,62940,1,2,0:0:0:0:
332,200,63057,2,0,L|197:200,3,135.000005149842,0|2|2|2,0:0|0:0|0:0|0:0,0:0:0:0:
496,272,63995,6,0,L|324:272,3,135.000005149842,4|0|0|0,3:0|3:0|1:0|3:0,0:0:0:0:
208,272,64932,6,0,L|20:272,1,135.000005149842,4|0,3:0|3:0,0:0:0:0:
256,180,65401,2,0,L|68:180,1,135.000005149842,0|0,1:0|3:0,0:0:0:0:
40,180,65752,1,0,3:0:0:0:
224,88,65870,6,0,L|396:88,3,135.000005149842,4|0|0|0,3:0|3:0|1:0|3:0,0:0:0:0:
476,92,66807,6,0,L|288:92,1,135.000005149842,4|0,3:0|3:0,0:0:0:0:
172,184,67276,2,0,L|360:184,1,135.000005149842,0|0,1:0|3:0,0:0:0:0:
404,184,67627,1,0,3:0:0:0:
216,264,67745,6,0,L|44:264,3,135.000005149842,4|0|0|0,3:0|3:0|1:0|3:0,0:0:0:0:
224,192,68682,6,0,L|304:56,1,135.000005149842,4|0,3:0|3:0,0:0:0:0:
124,272,69151,2,0,L|44:136,1,135.000005149842,0|0,1:0|3:0,0:0:0:0:
144,156,69502,1,0,3:0:0:0:
328,156,69620,6,0,L|500:156,3,135.000005149842,4|0|0|0,3:0|3:0|1:0|3:0,0:0:0:0:
320,192,70557,6,0,L|278:63,1,135.000005149842,4|0,3:0|3:0,0:0:0:0:
472,264,71026,2,0,L|513:135,1,135.000005149842,0|0,1:0|3:0,0:0:0:0:
272,136,71495,5,4,3:0:0:0:
224,160,71573,1,0,3:0:0:0:
200,200,71651,1,0,3:0:0:0:
200,240,71729,1,4,3:0:0:0:
224,288,71807,1,0,3:0:0:0:
280,304,71885,1,0,3:0:0:0:
368,300,71963,5,4,3:0:0:0:
416,276,72041,1,0,3:0:0:0:
440,236,72119,1,0,3:0:0:0:
440,196,72197,1,4,3:0:0:0:
416,148,72275,1,0,3:0:0:0:
360,132,72353,1,0,3:0:0:0:
268,132,72432,6,0,L|188:132,2,45.0000017166138,4|0|0,3:0|3:0|3:0,0:0:0:0:
340,56,72666,2,0,L|420:56,2,45.0000017166138,4|0|0,3:0|3:0|3:0,0:0:0:0:
268,132,72901,6,0,L|188:132,2,45.0000017166138,4|0|0,3:0|3:0|3:0,0:0:0:0:
340,56,73135,2,0,L|420:56,2,45.0000017166138,4|0|0,3:0|3:0|3:0,0:0:0:0:
200,52,73370,5,4,3:0:0:0:
128,84,73448,1,0,3:0:0:0:
88,148,73526,1,0,3:0:0:0:
112,220,73604,1,4,3:0:0:0:
168,252,73682,1,0,3:0:0:0:
240,228,73760,1,0,3:0:0:0:
304,160,73838,5,4,3:0:0:0:
376,192,73916,1,0,3:0:0:0:
416,256,73994,1,0,3:0:0:0:
392,328,74072,1,4,3:0:0:0:
336,360,74150,1,0,3:0:0:0:
264,336,74228,1,0,3:0:0:0:
180,320,74307,5,4,3:0:0:0:
96,324,74385,1,0,3:0:0:0:
180,320,74463,1,0,3:0:0:0:
264,248,74541,1,4,3:0:0:0:
348,252,74619,1,0,3:0:0:0:
264,248,74697,1,0,3:0:0:0:
180,320,74776,5,4,3:0:0:0:
96,324,74854,1,0,3:0:0:0:
180,320,74932,1,0,3:0:0:0:
264,248,75010,1,4,3:0:0:0:
348,252,75088,1,0,3:0:0:0:
264,248,75166,1,0,3:0:0:0:
164,248,75245,6,0,L|320:184,3,135.000005149842,4|0|0|0,3:0|3:0|3:0|3:0,0:0:0:0:
448,244,76182,6,0,L|292:180,4,135.000005149842,0|0|0|0|0,3:0|3:0|3:0|3:0|3:0,0:0:0:0:
96,188,77588,5,0,3:0:0:0:
96,188,77823,1,2,0:0:0:0:
260,188,78057,1,0,3:0:0:0:
260,188,78292,1,2,0:0:0:0:
424,188,78526,1,0,3:0:0:0:
424,188,78761,1,2,0:0:0:0:
132,248,78995,6,0,P|36:240|128:184,2,270.000010299683,0|0|0,0:0|0:0|0:0,0:0:0:0:
276,248,80401,2,0,L|100:248,1,135.000005149842,0|0,0:0|0:0,0:0:0:0:
472,352,80870,6,0,L|392:8,1,270.000010299683,4|0,0:1|0:0,0:0:0:0:
168,168,81338,2,0,P|20:172|156:236,1,405.000015449525,0|0,1:0|0:0,0:0:0:0:
328,168,81807,6,0,P|476:172|340:236,1,405.000015449525,0|0,1:0|0:0,0:0:0:0:
168,168,82276,2,0,P|20:172|156:236,1,405.000015449525,0|0,1:0|0:0,0:0:0:0:
328,208,82745,6,0,P|372:168|360:296,1,270.000010299683,4|0,3:0|1:0,0:0:0:0:
240,304,83213,2,0,L|240:34,1,270.000010299683,4|0,3:0|1:0,0:0:0:0:
388,200,83682,6,0,P|314:118|289:225,1,270.000010299683,4|0,3:0|1:0,0:0:0:0:
480,280,84151,2,0,L|480:-32,1,270.000010299683,4|0,3:0|1:0,0:0:0:0:
96,356,84620,6,0,L|24:64,1,270.000010299683,4|0,3:0|0:0,0:0:0:0:
272,208,85088,2,0,P|320:168|252:152,1,135.000005149842,0|0,1:0|0:0,0:0:0:0:
92,136,85323,2,0,P|47:174|95:208,1,135.000005149842,0|0,1:0|0:0,0:0:0:0:
316,224,85557,6,0,P|452:204|292:152,1,405.000015449525,0|0,1:0|0:0,0:0:0:0:
144,104,86026,2,0,P|-4:161|142:223,1,405.000015449525,0|0,1:0|0:0,0:0:0:0:
315,295,86495,6,0,P|408:223|317:149,1,270,0|0,1:0|0:0,0:0:0:0:
220,152,86963,2,0,P|128:226|221:298,1,270,0|0,1:0|0:0,0:0:0:0:
315,295,87432,6,0,P|408:223|317:149,1,270,0|0,1:0|0:0,0:0:0:0:
220,152,87900,2,0,P|128:226|221:298,1,270,0|0,1:0|0:0,0:0:0:0:
400,300,88370,6,0,L|120:72,1,270.000010299683,4|0,0:1|0:0,0:0:0:0:
440,341,88838,2,0,B|440:76|440:76|440:316,1,405.000015449525,0|0,1:0|0:0,0:0:0:0:
252,340,89307,6,0,B|252:75|252:75|252:315,1,405.000015449525,0|0,1:0|0:0,0:0:0:0:
64,332,89776,2,0,B|64:67|64:67|64:307,1,405.000015449525,0|0,1:0|0:0,0:0:0:0:
240,228,90245,6,0,P|360:248|304:132,1,270.000010299683,4|0,3:0|1:0,0:0:0:0:
120,76,90713,2,0,L|120:364,1,270.000010299683,4|0,3:0|1:0,0:0:0:0:
324,256,91182,6,0,P|250:155|165:269,1,270.000010299683,4|0,3:0|1:0,0:0:0:0:
416,344,91651,2,0,L|417:69,1,270.000010299683,4|0,3:0|1:0,0:0:0:0:
80,356,92120,6,0,P|16:256|76:128,1,270.000010299683,4|0,3:0|0:0,0:0:0:0:
164,128,92471,1,2,0:0:0:0:
376,204,92588,2,0,L|464:80,1,135.000005149842,0|0,1:0|0:0,0:0:0:0:
264,200,92823,2,0,L|176:76,1,135.000005149842,0|0,1:0|0:0,0:0:0:0:
360,268,93057,6,0,P|488:264|348:172,1,405.000015449525,0|0,1:0|0:0,0:0:0:0:
184,160,93526,2,0,P|38:215|184:272,1,405.000015449525,0|0,1:0|0:0,0:0:0:0:
364,284,93995,6,0,P|492:268|400:176,1,270,0|0,1:0|0:0,0:0:0:0:
360,168,94463,2,0,P|272:96|408:40,1,270,0|0,1:0|0:0,0:0:0:0:
452,64,94932,2,0,P|396:228|292:28,1,472.500004506111,0|0,1:0|0:0,0:0:0:0:
324,68,95401,6,0,L|436:168,2,135.000005149842,4|4|4,3:0|3:0|3:0,0:0:0:0:
88,232,95870,2,0,L|312:28,1,270.000010299683,4|0,3:0|0:0,0:0:0:0:
72,340,96338,6,0,B|72:75|72:75|72:315,1,405.000015449525,0|0,1:0|0:0,0:0:0:0:
256,339,96807,2,0,B|256:74|256:74|256:314,1,405.000015449525,0|0,1:0|0:0,0:0:0:0:
440,328,97276,2,0,B|440:63|440:63|440:303,1,405.000015449525,0|0,1:0|0:0,0:0:0:0:
256,339,97745,5,4,3:0:0:0:
168,344,97862,1,0,0:0:0:0:
168,256,97979,1,0,0:0:0:0:
260,256,98096,1,0,0:0:0:0:
436,256,98213,2,0,L|524:128,2,135.000005149842,0|0|0,1:0|0:0|0:0,0:0:0:0:
336,260,98565,1,0,0:0:0:0:
148,256,98682,6,0,P|52:192|172:168,1,270.000010299683,4|0,3:0|0:0,0:0:0:0:
232,204,99034,1,0,0:0:0:0:
408,212,99151,1,0,1:0:0:0:
500,216,99268,1,0,0:0:0:0:
500,124,99385,1,0,0:0:0:0:
408,128,99502,1,0,0:0:0:0:
216,128,99620,6,0,P|108:108|60:248,1,270.000010299683,4|0,3:0|0:0,0:0:0:0:
160,240,99971,1,0,0:0:0:0:
368,240,100088,2,0,L|484:152,2,135.000005149842,0|0|0,1:0|0:0|1:0,0:0:0:0:
276,240,100440,1,0,0:0:0:0:
96,28,100557,6,0,P|-8:224|112:368,1,405.000015449525,0|0,1:0|0:0,0:0:0:0:
268,268,101026,2,0,P|412:220|272:196,1,405.000015449525,0|0,1:0|0:0,0:0:0:0:
88,264,101495,6,0,L|-16:144,2,135.000005149842,4|0|0,3:0|0:0|0:0,0:0:0:0:
180,264,101846,1,0,0:0:0:0:
404,264,101963,2,0,P|492:240|368:204,1,270.000010299683,0|0,1:0|0:0,0:0:0:0:
320,204,102315,1,0,0:0:0:0:
132,168,102432,6,0,L|28:48,2,135.000005149842,4|0|0,3:0|0:0|0:0,0:0:0:0:
224,168,102783,1,0,0:0:0:0:
408,308,102901,2,0,L|216:80,1,270.000010299683,0|0,1:0|0:0,0:0:0:0:
436,56,103370,6,0,B|436:268|436:268|436:72,1,405.000015449525,4|0,3:0|0:0,0:0:0:0:
228,260,103838,1,0,1:0:0:0:
136,260,103955,1,0,0:0:0:0:
228,260,104073,1,0,0:0:0:0:
136,260,104190,1,0,0:0:0:0:
48,168,104307,5,0,1:0:0:0:
140,168,104424,1,0,0:0:0:0:
232,172,104542,1,0,0:0:0:0:
140,168,104659,1,0,0:0:0:0:
332,172,104776,2,0,P|472:132|304:64,1,405.000015449525,0|0,1:0|0:0,0:0:0:0:
144,72,105245,5,4,3:0:0:0:
60,132,105362,1,0,0:0:0:0:
64,220,105479,1,0,0:0:0:0:
152,268,105596,1,0,0:0:0:0:
352,256,105713,5,0,1:0:0:0:
436,196,105830,1,0,0:0:0:0:
432,108,105947,1,0,0:0:0:0:
344,60,106064,1,0,0:0:0:0:
164,104,106182,6,0,P|8:208|184:224,1,450.000017166138,4|0,3:0|0:0,0:0:0:0:
432,292,106651,2,0,L|436:4,1,270.000010299683,0|0,1:0|0:0,0:0:0:0:
136,172,107120,5,4,3:0:0:0:
300,160,107354,1,2,0:0:0:0:
136,172,107588,1,2,0:0:0:0:
300,160,107822,1,2,0:0:0:0:
136,172,108057,5,4,3:0:0:0:
436,196,108291,1,2,0:0:0:0:
136,172,108525,1,2,0:0:0:0:
436,196,108759,1,2,0:0:0:0:
136,60,108995,6,0,B|56:132|100:172|100:172|408:140|408:140|392:248|392:248|384:352|384:352|64:340|216:76,1,1080.00004119873,4|4,3:0|3:0,0:0:0:0:
108,272,110870,6,0,P|32:256|132:212,1,225,4|0,3:1|0:0,0:0:0:0:
196,216,111221,1,0,0:0:0:0:
372,212,111338,2,0,L|508:92,2,112.5,0|0|0,1:0|0:0|0:0,0:0:0:0:
288,216,111690,1,0,0:0:0:0:
104,276,111807,6,0,P|28:220|132:176,1,225,4|0,3:0|0:0,0:0:0:0:
184,216,112159,1,0,0:0:0:0:
376,212,112276,2,0,P|452:156|348:112,1,225,0|4,1:0|3:0,0:0:0:0:
276,100,112627,1,0,0:0:0:0:
96,96,112745,6,0,P|52:172|120:220,1,135.000005149842,4|0,3:0|0:0,0:0:0:0:
288,296,112979,2,0,P|307:234|263:187,1,135.000005149842,0|0,0:0|0:0,0:0:0:0:
84,304,113213,2,0,L|-52:184,2,112.5,0|0|0,1:0|0:0|0:0,0:0:0:0:
176,304,113565,1,0,0:0:0:0:
400,304,113682,6,0,L|400:164,1,112.5,4|0,3:0|0:0,0:0:0:0:
199,95,113916,2,0,L|399:303,1,288,4|4,0:1|0:1,0:0:0:0:
120,312,114620,6,0,L|0:96,1,225,4|0,3:0|0:0,0:0:0:0:
104,112,114971,1,0,0:0:0:0:
328,200,115088,2,0,L|476:72,2,112.5,0|0|0,1:0|0:0|0:0,0:0:0:0:
236,200,115440,1,0,0:0:0:0:
56,200,115557,6,0,L|236:20,1,225,4|0,3:0|0:0,0:0:0:0:
320,44,115909,1,0,0:0:0:0:
128,268,116026,2,0,L|96:120,1,112.5,0|0,1:0|0:0,0:0:0:0:
296,324,116260,2,0,L|328:176,1,112.5,4|0,3:0|0:0,0:0:0:0:
96,308,116495,6,0,L|324:104,1,270.000010299683,4|0,3:0|0:0,0:0:0:0:
200,128,116846,1,0,0:0:0:0:
404,160,116963,2,0,L|520:28,2,112.5,0|0|0,1:0|0:0|0:0,0:0:0:0:
304,160,117315,1,0,0:0:0:0:
104,160,117432,6,0,P|16:236|156:312,1,270.000010299683,4|2,3:0|0:0,0:0:0:0:
204,328,117784,1,2,0:0:0:0:
308,328,117901,1,2,0:0:0:0:
204,328,118018,1,2,0:0:0:0:
100,328,118135,1,2,0:0:0:0:
204,328,118252,1,2,0:0:0:0:
408,328,118370,6,0,P|484:256|376:248,1,225,4|0,3:1|0:0,0:0:0:0:
312,224,118721,1,0,0:0:0:0:
112,228,118838,2,0,L|-4:124,2,112.5,0|0|0,1:0|0:0|0:0,0:0:0:0:
216,228,119190,1,0,0:0:0:0:
36,316,119307,6,0,L|204:124,1,225,4|0,3:0|0:0,0:0:0:0:
88,148,119659,1,0,0:0:0:0:
312,296,119776,2,0,L|376:128,1,112.5,0|0,1:0|0:0,0:0:0:0:
160,184,120010,2,0,L|96:16,1,112.5,4|0,3:0|0:0,0:0:0:0:
360,104,120245,6,0,P|440:132|344:168,1,225,4|0,3:0|0:0,0:0:0:0:
276,148,120596,1,0,0:0:0:0:
96,184,120713,2,0,L|4:252,2,112.5,0|0|0,1:0|0:0|0:0,0:0:0:0:
192,184,121065,1,0,0:0:0:0:
368,200,121182,6,0,L|436:64,1,112.5,4|0,3:0|0:0,0:0:0:0:
188,316,121416,2,0,L|-12:88,1,288,4|4,0:1|0:1,0:0:0:0:
372,288,122120,6,0,P|436:260|340:180,1,225,4|0,3:0|0:0,0:0:0:0:
292,228,122471,1,0,0:0:0:0:
112,228,122588,2,0,L|4:148,2,112.5,0|0|0,1:0|0:0|0:0,0:0:0:0:
208,228,122940,1,0,0:0:0:0:
396,228,123057,6,0,P|464:184|336:152,1,225,4|0,3:0|0:0,0:0:0:0:
304,168,123409,1,0,0:0:0:0:
121,96,123526,2,0,P|44:158|116:228,1,225,0|4,1:0|3:0,0:0:0:0:
212,168,123877,1,0,0:0:0:0:
416,168,123995,6,0,L|228:40,1,225,4|0,3:0|0:0,0:0:0:0:
452,168,124463,2,0,L|452:320,1,112.5,0|0,1:0|0:0,0:0:0:0:
252,232,124815,1,0,0:0:0:0:
164,232,124932,2,0,L|404:84,3,225,4|0|0|4,3:0|0:0|1:0|3:0,0:0:0:0:
32,232,125870,5,4,0:1:0:0:
120,188,127755,5,2,0:0:0:0:
292,192,128067,2,0,L|296:68,1,90,2|2,0:0|0:0,0:0:0:0:
136,104,128424,1,2,0:0:0:0:
288,104,128603,1,2,0:0:0:0:
440,104,129317,5,4,3:0:0:0:
288,104,129496,1,4,3:0:0:0:
148,188,129853,1,8,3:0:0:0:
304,144,130031,1,8,3:0:0:0:
376,172,130120,1,8,3:0:0:0:
408,252,130209,1,8,3:0:0:0:
380,328,130299,1,4,3:0:0:0:
312,368,130388,1,4,3:0:0:0:
240,340,130478,1,4,3:0:0:0:
92,336,130567,6,0,L|-4:336,1,90,4|0,0:1|0:0,0:0:0:0:
208,248,130918,2,0,L|312:248,1,90,0|0,1:0|0:0,0:0:0:0:
64,336,131269,2,0,P|12:264|76:248,1,180,4|0,3:0|1:0,0:0:0:0:
184,292,131797,1,2,0:0:0:0:
376,292,131972,6,0,L|520:292,2,135,2|2|2,0:0|0:0|0:0,0:0:0:0:
288,208,132675,2,0,L|132:208,2,135,2|2|2,0:0|0:0|0:0,0:0:0:0:
52,348,133378,6,0,L|52:244,1,90,4|0,3:0|0:0,0:0:0:0:
152,260,133730,1,0,1:0:0:0:
388,344,133906,2,0,L|388:240,1,90,4|4,3:0|3:0,0:0:0:0:
292,256,134258,1,0,0:0:0:0:
56,152,134433,1,0,1:0:0:0:
208,152,134609,2,0,L|252:152,2,30,2|2|0,0:0|0:0|0:0,0:0:0:0:
124,152,134784,6,0,L|12:152,2,90,4|0|0,3:0|0:0|1:0,0:0:0:0:
244,152,135312,1,0,0:0:0:0:
56,232,135487,2,0,L|56:336,1,90,4|0,3:0|0:0,0:0:0:0:
292,324,135839,1,0,1:0:0:0:
292,324,136190,6,0,L|408:324,2,90,4|0|0,3:0|0:0|1:0,0:0:0:0:
88,328,136718,2,0,L|88:256,1,45,2|2,0:0|0:0,0:0:0:0:
168,244,136893,2,0,L|284:244,1,90,4|0,3:0|0:0,0:0:0:0:
436,248,137245,2,0,L|436:352,1,90,0|0,1:0|0:0,0:0:0:0:
260,160,137596,6,0,L|104:160,2,135,2|2|2,0:0|0:0|0:0,0:0:0:0:
376,76,138299,2,0,L|540:76,2,135,2|2|2,0:0|0:0|0:0,0:0:0:0:
136,80,139002,6,0,L|136:196,1,90,4|0,3:0|0:0,0:0:0:0:
232,172,139354,1,0,1:0:0:0:
468,268,139530,2,0,L|468:156,1,90,4|4,3:0|3:0,0:0:0:0:
372,176,139882,1,0,0:0:0:0:
136,172,140057,1,0,1:0:0:0:
248,176,140233,2,0,L|260:260,1,45,2|2,0:0|0:0,0:0:0:0:
192,292,140408,5,0,3:0:0:0:
116,264,140496,1,0,3:0:0:0:
104,184,140584,1,0,3:0:0:0:
172,132,140672,1,0,3:0:0:0:
328,208,140760,5,0,3:0:0:0:
404,180,140848,1,0,3:0:0:0:
416,100,140936,1,0,3:0:0:0:
348,48,141024,1,0,3:0:0:0:
196,36,141111,5,0,3:0:0:0:
120,64,141199,1,0,3:0:0:0:
108,144,141287,1,0,3:0:0:0:
176,196,141375,1,0,3:0:0:0:
332,240,141463,6,0,L|416:224,1,45,0|0,3:0|3:0,0:0:0:0:
216,340,141639,2,0,L|152:312,1,45,0|0,3:0|3:0,0:0:0:0:
420,336,141814,6,0,L|516:336,1,90,4|0,0:1|0:0,0:0:0:0:
304,248,142166,2,0,L|200:248,1,90,0|0,1:0|0:0,0:0:0:0:
448,336,142517,2,0,P|500:264|436:248,1,180,4|0,3:0|1:0,0:0:0:0:
328,292,143045,1,2,0:0:0:0:
136,292,143220,6,0,L|-8:292,2,135,2|2|2,0:0|0:0|0:0,0:0:0:0:
224,208,143923,2,0,L|380:208,2,135,2|2|2,0:0|0:0|0:0,0:0:0:0:
460,348,144626,6,0,L|460:244,1,90,4|0,3:0|0:0,0:0:0:0:
360,260,144978,1,0,1:0:0:0:
124,344,145153,2,0,L|124:240,1,90,4|4,3:0|3:0,0:0:0:0:
220,256,145505,1,0,0:0:0:0:
456,152,145681,1,0,1:0:0:0:
304,152,145856,2,0,L|260:152,2,30,2|2|0,0:0|0:0|0:0,0:0:0:0:
388,152,146032,6,0,L|500:152,2,90,4|0|0,3:0|0:0|1:0,0:0:0:0:
268,152,146559,1,0,0:0:0:0:
456,232,146735,2,0,L|456:336,1,90,4|0,3:0|0:0,0:0:0:0:
220,324,147087,1,0,1:0:0:0:
220,324,147438,6,0,L|104:324,2,90,4|0|0,3:0|0:0|1:0,0:0:0:0:
424,328,147965,2,0,L|424:256,1,45,2|2,0:0|0:0,0:0:0:0:
344,244,148141,2,0,L|228:244,1,90,4|0,3:0|0:0,0:0:0:0:
76,248,148493,2,0,L|76:352,1,90,0|0,1:0|0:0,0:0:0:0:
252,160,148844,6,0,L|408:160,2,135,2|2|2,0:0|0:0|0:0,0:0:0:0:
136,76,149547,2,0,L|-28:76,2,135,2|2|2,0:0|0:0|0:0,0:0:0:0:
376,80,150250,6,0,L|376:196,1,90,4|0,3:0|0:0,0:0:0:0:
280,172,150602,1,0,1:0:0:0:
44,268,150777,2,0,L|44:156,1,90,4|4,3:0|3:0,0:0:0:0:
140,176,151129,1,0,0:0:0:0:
376,176,151304,1,0,1:0:0:0:
264,176,151480,2,0,L|252:260,1,45,2|2,0:0|0:0,0:0:0:0:
320,292,151655,5,0,3:0:0:0:
396,264,151743,1,0,3:0:0:0:
408,184,151831,1,0,3:0:0:0:
340,132,151919,1,0,3:0:0:0:
184,208,152007,5,0,3:0:0:0:
108,180,152095,1,0,3:0:0:0:
96,100,152183,1,0,3:0:0:0:
164,48,152271,1,0,3:0:0:0:
316,36,152358,5,0,3:0:0:0:
392,64,152446,1,0,3:0:0:0:
404,144,152534,1,0,3:0:0:0:
336,196,152622,1,0,3:0:0:0:
180,240,152710,6,0,L|96:224,1,45,0|0,3:0|3:0,0:0:0:0:
296,340,152886,2,0,L|360:312,1,45,0|0,3:0|3:0,0:0:0:0:
96,340,153062,6,0,L|96:240,1,90,4|0,0:1|0:0,0:0:0:0:
224,256,153413,2,0,L|344:256,1,90,0|0,1:0|0:0,0:0:0:0:
400,160,153765,2,0,L|220:160,1,180,4|0,3:0|1:0,0:0:0:0:
304,80,154292,1,0,0:0:0:0:
176,160,154468,6,0,L|12:160,2,135,2|2|2,0:0|0:0|0:0,0:0:0:0:
336,164,155171,2,0,L|201:164,1,135,2|2,0:0|0:0,0:0:0:0:
376,164,155818,1,2,0:0:0:0:
104,288,156091,5,4,1:0:0:0:
240,256,156391,1,0,0:0:0:0:
92,292,156766,2,0,L|280:296,1,180,4|0,3:0|1:0,0:0:0:0:
344,76,157729,5,2,0:0:0:0:
344,76,158197,2,0,L|344:196,1,90.0000034332277,2|2,0:0|0:0,0:0:0:0:
204,192,158588,2,0,L|428:192,1,180.000006866455,2|2,0:0|0:0,0:0:0:0:
244,128,159135,2,0,L|244:288,1,135.000005149842,2|2,0:0|0:0,0:0:0:0:
448,328,159604,6,0,L|288:328,1,135.000005149842,2|2,0:0|0:0,0:0:0:0:
96,320,160072,2,0,L|96:204,1,90.0000034332277,2|2,0:0|0:0,0:0:0:0:
296,224,160463,1,2,0:0:0:0:
432,160,161479,5,2,0:0:0:0:
224,164,161947,2,0,L|224:268,1,90.0000034332277,2|2,0:0|0:0,0:0:0:0:
396,320,162338,6,0,L|212:320,1,180.000006866455,2|2,0:0|0:0,0:0:0:0:
416,208,162885,2,0,L|412:352,1,135.000005149842,2|2,0:0|0:0,0:0:0:0:
280,116,163354,6,0,L|452:116,2,135.000005149842,2|2|2,0:0|0:0|0:0,0:0:0:0:
168,116,163979,1,2,0:0:0:0:
386,87,164213,6,0,L|383:271,1,180.000006866455,4|2,3:0|0:0,0:0:0:0:
288,268,164643,1,2,0:0:0:0:
384,267,164760,1,2,0:0:0:0:
296,300,164877,1,2,0:0:0:0:
360,296,164994,1,2,0:0:0:0:
304,328,165111,1,2,0:0:0:0:
484,312,165229,6,0,L|484:177,1,135.000005149842,4|0,3:0|0:0,0:0:0:0:
364,112,165697,2,0,L|364:228,1,67.5000025749208,0|0,1:0|0:0,0:0:0:0:
184,312,166166,6,0,L|184:177,1,135.000005149842,4|0,3:0|0:0,0:0:0:0:
40,36,166634,2,0,L|40:171,1,135.000005149842,0|0,1:0|0:0,0:0:0:0:
208,172,167104,6,0,L|32:172,1,135.000005149842,4|0,3:0|0:0,0:0:0:0:
248,264,167572,2,0,L|368:264,1,67.5000025749208,0|0,1:0|0:0,0:0:0:0:
212,88,168041,6,0,L|36:88,1,135.000005149842,4|2,3:0|0:0,0:0:0:0:
272,88,168510,1,2,0:0:0:0:
132,176,168979,6,0,L|132:320,1,135.000005149842,4|0,3:0|0:0,0:0:0:0:
312,308,169447,2,0,L|192:308,1,67.5000025749208,0|0,1:0|0:0,0:0:0:0:
404,304,169916,6,0,L|404:160,1,135.000005149842,4|0,3:0|0:0,0:0:0:0:
224,172,170384,2,0,L|368:172,1,135.000005149842,0|0,1:0|0:0,0:0:0:0:
180,172,170854,6,0,L|180:340,1,135.000005149842,4|0,3:0|0:0,0:0:0:0:
372,172,171322,2,0,L|376:288,1,67.5000025749208,0|0,1:0|0:0,0:0:0:0:
236,92,171791,6,0,L|408:92,3,135.000005149842,4|0|2|0,3:0|0:0|0:0|1:0,0:0:0:0:
48,92,172729,6,0,L|48:276,1,135.000005149842,4|0,0:1|0:0,0:0:0:0:
204,224,173197,2,0,L|116:224,1,67.5000025749208,0|0,1:0|0:0,0:0:0:0:
296,224,173549,1,0,0:0:0:0:
384,224,173666,6,0,L|384:89,1,135.000005149842,4|0,3:0|0:0,0:0:0:0:
200,184,174135,2,0,L|340:184,1,135.000005149842,0|0,1:0|0:0,0:0:0:0:
160,184,174604,6,0,L|160:340,1,135.000005149842,4|0,3:0|0:0,0:0:0:0:
348,320,175072,2,0,L|444:320,1,67.5000025749208,0|0,1:0|0:0,0:0:0:0:
192,244,175424,1,0,0:0:0:0:
244,320,175541,5,4,3:0:0:0:
400,212,175775,1,4,0:1:0:0:
100,216,176010,1,4,0:1:0:0:
352,212,176479,6,0,L|352:372,1,135.000005149842,4|0,3:0|0:0,0:0:0:0:
120,216,176947,2,0,L|212:216,1,67.5000025749208,0|0,1:0|0:0,0:0:0:0:
328,216,177299,1,0,0:0:0:0:
416,216,177416,6,0,L|416:68,1,135.000005149842,4|0,3:0|0:0,0:0:0:0:
228,152,177885,2,0,L|396:152,1,135.000005149842,0|0,1:0|0:0,0:0:0:0:
184,84,178354,6,0,L|184:248,1,135.000005149842,4|0,3:0|0:0,0:0:0:0:
12,272,178822,2,0,L|104:272,1,67.5000025749208,0|0,1:0|0:0,0:0:0:0:
220,268,179174,1,0,0:0:0:0:
312,272,179291,6,0,L|312:112,1,135.000005149842,4|2,3:0|0:0,0:0:0:0:
432,140,179643,1,2,0:0:0:0:
480,116,179760,1,2,0:0:0:0:
500,60,179877,1,2,0:0:0:0:
464,24,179994,1,2,0:0:0:0:
412,32,180111,1,2,0:0:0:0:
236,116,180229,6,0,L|236:280,1,135.000005149842,4|0,0:1|0:0,0:0:0:0:
128,156,180697,2,0,L|128:272,1,67.5000025749208,0|0,1:0|0:0,0:0:0:0:
260,324,181049,1,0,0:0:0:0:
352,324,181166,6,0,L|352:189,1,135.000005149842,0|0,0:0|0:0,0:0:0:0:
496,48,181634,2,0,L|496:183,1,135.000005149842,0|0,1:0|0:0,0:0:0:0:
404,112,181986,1,0,0:0:0:0:
328,184,182104,6,0,L|504:184,1,135.000005149842,4|0,3:0|0:0,0:0:0:0:
288,276,182572,2,0,L|168:276,1,67.5000025749208,0|0,1:0|0:0,0:0:0:0:
328,176,182924,1,0,0:0:0:0:
324,100,183041,5,4,3:0:0:0:
436,96,183275,1,4,0:1:0:0:
136,100,183510,1,4,0:1:0:0:
108,188,183979,6,0,L|108:332,1,135.000005149842,4|0,3:0|0:0,0:0:0:0:
288,320,184447,2,0,L|168:320,1,67.5000025749208,0|0,1:0|0:0,0:0:0:0:
304,316,184799,1,0,0:0:0:0:
388,316,184916,6,0,L|388:172,1,135.000005149842,4|0,3:0|0:0,0:0:0:0:
213,184,185384,2,0,L|357:184,1,135.000005149842,0|0,1:0|0:0,0:0:0:0:
172,184,185854,6,0,L|172:352,1,135.000005149842,4|0,3:0|0:0,0:0:0:0:
348,184,186322,2,0,L|352:300,1,67.5000025749208,0|0,1:0|0:0,0:0:0:0:
180,184,186791,6,0,L|315:184,3,135.000005149842,4|2|2|2,3:0|0:0|0:0|0:0,0:0:0:0:
16,112,187729,6,0,L|188:112,3,135.000005149842,4|0|0|0,3:0|0:0|1:0|0:0,0:0:0:0:
304,272,188666,6,0,L|492:272,1,135.000005149842,4|0,3:0|0:0,0:0:0:0:
256,180,189135,2,0,L|444:180,1,135.000005149842,0|0,1:0|3:0,0:0:0:0:
472,180,189486,1,0,3:0:0:0:
288,88,189604,6,0,L|116:88,3,135.000005149842,4|0|0|0,3:0|0:0|1:0|0:0,0:0:0:0:
36,92,190541,6,0,L|224:92,1,135.000005149842,4|0,3:0|0:0,0:0:0:0:
340,184,191010,2,0,L|152:184,1,135.000005149842,0|0,1:0|3:0,0:0:0:0:
108,184,191361,1,0,3:0:0:0:
296,264,191479,6,0,L|468:264,3,135.000005149842,4|0|0|0,3:0|0:0|1:0|0:0,0:0:0:0:
288,192,192416,6,0,L|208:56,1,135.000005149842,4|0,3:0|0:0,0:0:0:0:
388,272,192885,2,0,L|468:136,1,135.000005149842,0|0,1:0|3:0,0:0:0:0:
368,156,193236,1,0,3:0:0:0:
184,156,193354,6,0,L|12:156,3,135.000005149842,4|0|0|0,3:0|0:0|1:0|0:0,0:0:0:0:
208,192,194291,6,0,L|250:63,1,135.000005149842,4|0,3:0|0:0,0:0:0:0:
80,264,194760,2,0,L|39:135,1,135.000005149842,0|0,1:0|0:0,0:0:0:0:
228,132,195229,5,4,3:0:0:0:
276,156,195307,1,0,3:0:0:0:
300,196,195385,1,0,3:0:0:0:
300,236,195463,1,4,3:0:0:0:
276,284,195541,1,0,3:0:0:0:
220,300,195619,1,0,3:0:0:0:
132,296,195697,5,4,3:0:0:0:
84,272,195775,1,0,3:0:0:0:
60,232,195853,1,0,3:0:0:0:
60,192,195931,1,4,3:0:0:0:
84,144,196009,1,0,3:0:0:0:
140,128,196087,1,0,3:0:0:0:
232,128,196166,6,0,L|312:128,2,45.0000017166138,4|0|0,3:0|3:0|3:0,0:0:0:0:
160,52,196400,2,0,L|80:52,2,45.0000017166138,4|0|0,3:0|3:0|3:0,0:0:0:0:
232,128,196635,6,0,L|312:128,2,45.0000017166138,4|0|0,3:0|3:0|3:0,0:0:0:0:
160,52,196869,2,0,L|80:52,2,45.0000017166138,4|0|0,3:0|3:0|3:0,0:0:0:0:
316,52,197104,5,4,3:0:0:0:
388,84,197182,1,0,3:0:0:0:
428,148,197260,1,0,3:0:0:0:
404,220,197338,1,4,3:0:0:0:
348,252,197416,1,0,3:0:0:0:
276,228,197494,1,0,3:0:0:0:
212,160,197572,5,4,3:0:0:0:
140,192,197650,1,0,3:0:0:0:
100,256,197728,1,0,3:0:0:0:
124,328,197806,1,4,3:0:0:0:
180,360,197884,1,0,3:0:0:0:
252,336,197962,1,0,3:0:0:0:
336,320,198041,5,4,3:0:0:0:
412,324,198119,1,0,3:0:0:0:
336,320,198197,1,0,3:0:0:0:
252,248,198275,1,4,3:0:0:0:
184,248,198353,1,0,3:0:0:0:
252,248,198431,1,0,3:0:0:0:
336,320,198510,5,4,3:0:0:0:
412,324,198588,1,0,3:0:0:0:
336,320,198666,1,0,3:0:0:0:
252,248,198744,1,4,3:0:0:0:
184,248,198822,1,0,3:0:0:0:
252,248,198900,1,0,3:0:0:0:
348,252,198979,6,0,L|192:188,3,135.000005149842,4|0|0|0,3:0|3:0|3:0|3:0,0:0:0:0:
32,168,199916,6,0,L|188:104,4,135.000005149842,0|0|0|0|0,3:0|3:0|3:0|3:0|3:0,0:0:0:0:
408,184,201322,5,0,3:0:0:0:
408,184,201557,1,2,0:0:0:0:
248,184,201791,1,0,3:0:0:0:
248,184,202026,1,2,0:0:0:0:
88,188,202260,1,0,3:0:0:0:
88,188,202495,1,2,0:0:0:0:
380,248,202729,6,0,P|476:240|384:184,2,270.000010299683,0|0|0,0:0|0:0|0:0,0:0:0:0:
236,248,204135,2,0,L|412:248,1,135.000005149842,0|0,0:0|0:0,0:0:0:0:
40,352,204604,6,0,L|120:8,1,270.000010299683,4|0,0:1|0:0,0:0:0:0:
312,168,205072,2,0,P|460:172|324:236,1,405.000015449525,0|0,1:0|0:0,0:0:0:0:
152,168,205541,6,0,P|4:172|140:236,1,405.000015449525,0|0,1:0|0:0,0:0:0:0:
312,168,206010,2,0,P|460:172|324:236,1,405.000015449525,0|0,1:0|0:0,0:0:0:0:
152,228,206479,6,0,P|108:188|120:316,1,270.000010299683,4|0,3:0|1:0,0:0:0:0:
224,320,206947,2,0,L|224:28,1,270.000010299683,4|0,3:0|1:0,0:0:0:0:
448,204,207416,6,0,P|360:123|295:223,1,270.000010299683,4|0,3:0|1:0,0:0:0:0:
80,336,207885,2,0,L|80:36,1,270.000010299683,4|0,3:0|1:0,0:0:0:0:
416,356,208354,6,0,L|488:64,1,270.000010299683,4|0,3:0|0:0,0:0:0:0:
240,208,208822,2,0,P|192:168|260:152,1,135.000005149842,0|0,1:0|0:0,0:0:0:0:
420,136,209057,2,0,P|465:174|417:208,1,135.000005149842,0|0,1:0|0:0,0:0:0:0:
196,224,209291,6,0,P|60:204|220:152,1,405.000015449525,0|0,1:0|0:0,0:0:0:0:
368,104,209760,2,0,P|516:161|370:223,1,405.000015449525,0|0,1:0|0:0,0:0:0:0:
197,89,210229,6,0,P|104:161|195:235,1,270,0|0,1:0|0:0,0:0:0:0:
292,232,210697,2,0,P|384:158|291:86,1,270,0|0,1:0|0:0,0:0:0:0:
197,89,211166,2,0,P|104:161|195:235,1,270,0|0,1:0|0:0,0:0:0:0:
292,232,211635,2,0,P|384:158|291:86,1,270,0|0,1:0|0:0,0:0:0:0:
112,84,212104,6,0,L|392:312,1,270.000010299683,4|0,0:1|0:0,0:0:0:0:
72,43,212572,2,0,B|72:308|72:308|72:68,1,405.000015449525,0|0,1:0|0:0,0:0:0:0:
260,44,213041,6,0,B|260:309|260:309|260:69,1,405.000015449525,0|0,1:0|0:0,0:0:0:0:
448,52,213510,2,0,B|448:317|448:317|448:77,1,405.000015449525,0|0,1:0|0:0,0:0:0:0:
252,228,213979,6,0,P|132:248|188:132,1,270.000010299683,4|0,3:0|1:0,0:0:0:0:
372,76,214447,2,0,L|372:364,1,270.000010299683,4|0,3:0|1:0,0:0:0:0:
168,256,214916,6,0,P|242:155|327:269,1,270.000010299683,4|0,3:0|1:0,0:0:0:0:
76,344,215385,2,0,L|75:69,1,270.000010299683,4|0,3:0|1:0,0:0:0:0:
428,36,215854,6,0,L|492:299,1,270.000010299683,4|0,3:0|0:0,0:0:0:0:
392,300,216205,1,2,0:0:0:0:
132,188,216322,2,0,L|44:312,1,135.000005149842,0|0,1:0|0:0,0:0:0:0:
244,192,216557,2,0,L|332:316,1,135.000005149842,0|0,1:0|0:0,0:0:0:0:
140,124,216791,6,0,P|12:128|152:220,1,405.000015449525,0|0,1:0|0:0,0:0:0:0:
336,232,217260,2,0,P|482:177|336:120,1,405.000015449525,0|0,1:0|0:0,0:0:0:0:
168,100,217729,6,0,P|40:116|132:208,1,270,0|0,1:0|0:0,0:0:0:0:
180,216,218197,2,0,P|268:288|132:344,1,270,0|0,1:0|0:0,0:0:0:0:
88,320,218666,6,0,P|144:156|248:356,1,472.500004506111,4|0,3:0|0:0,0:0:0:0:
188,320,219135,1,4,3:0:0:0:
88,320,219369,1,4,3:0:0:0:
88,320,219486,1,4,3:0:0:0:
334,92,219604,6,0,L|188:319,1,270.000010299683,4|0,3:0|0:0,0:0:0:0:
440,44,220072,2,0,B|440:309|440:309|440:69,1,405.000015449525,0|0,1:0|0:0,0:0:0:0:
256,45,220541,6,0,B|256:310|256:310|256:70,1,405.000015449525,0|0,1:0|0:0,0:0:0:0:
72,56,221010,2,0,B|72:321|72:321|72:81,1,405.000015449525,0|0,1:0|0:0,0:0:0:0:
256,45,221479,5,4,3:0:0:0:
344,40,221596,1,0,0:0:0:0:
344,128,221713,1,0,0:0:0:0:
252,128,221830,1,0,0:0:0:0:
76,128,221947,2,0,L|-12:256,2,135.000005149842,0|0|0,1:0|0:0|0:0,0:0:0:0:
176,124,222299,1,0,0:0:0:0:
364,128,222416,6,0,P|460:192|340:216,1,270.000010299683,4|0,3:0|0:0,0:0:0:0:
276,240,222807,1,0,0:0:0:0:
88,200,222885,2,0,B|88:96|88:96|88:296,1,270.000010299683,0|0,1:0|0:0,0:0:0:0:
296,256,223354,6,0,P|404:276|452:136,1,270.000010299683,4|0,3:0|0:0,0:0:0:0:
352,144,223705,1,0,0:0:0:0:
144,144,223822,2,0,L|28:232,2,135.000005149842,0|0|0,1:0|0:0|1:0,0:0:0:0:
236,144,224174,1,0,0:0:0:0:
416,356,224291,6,0,P|520:160|400:16,1,405.000015449525,0|0,1:0|0:0,0:0:0:0:
244,116,224760,2,0,P|100:164|240:188,1,405.000015449525,0|0,1:0|0:0,0:0:0:0:
424,120,225229,6,0,L|528:240,2,135.000005149842,4|0|0,3:0|0:0|0:0,0:0:0:0:
332,120,225580,1,0,0:0:0:0:
108,120,225697,2,0,P|20:144|144:180,1,270.000010299683,0|0,1:0|0:0,0:0:0:0:
192,180,226049,1,0,0:0:0:0:
380,216,226166,6,0,L|484:336,2,135.000005149842,4|0|0,3:0|0:0|0:0,0:0:0:0:
288,216,226517,1,0,0:0:0:0:
100,76,226635,2,0,L|356:220,1,270.000010299683,0|0,1:0|0:0,0:0:0:0:
76,328,227104,6,0,B|76:116|76:116|76:312,1,405.000015449525,4|0,3:0|0:0,0:0:0:0:
264,324,227572,2,0,P|400:272|248:188,1,405.000015449525,0|0,1:0|0:0,0:0:0:0:
160,252,228041,6,0,P|24:200|176:116,1,405.000015449525,0|0,1:0|0:0,0:0:0:0:
249,186,228510,2,0,P|402:239|264:324,1,405.000015449525,0|0,1:0|0:0,0:0:0:0:
140,340,228979,6,0,L|24:80,1,270.000010299683,4|0,3:0|0:0,0:0:0:0:
132,96,229330,1,0,0:0:0:0:
312,192,229447,2,0,L|384:44,1,135.000005149842,0|0,1:0|0:0,0:0:0:0:
152,308,229682,2,0,L|80:160,1,135.000005149842,0|0,0:0|0:0,0:0:0:0:
344,308,229916,6,0,P|496:176|320:160,1,450.000017166138,4|0,3:0|0:0,0:0:0:0:
84,52,230385,2,0,L|84:340,1,270.000010299683,0|0,1:0|0:0,0:0:0:0:
384,216,230854,5,4,3:0:0:0:
220,228,231088,1,2,0:0:0:0:
384,216,231322,1,2,0:0:0:0:
220,228,231556,1,2,0:0:0:0:
384,216,231791,5,4,3:0:0:0:
88,172,232025,1,2,0:0:0:0:
384,216,232259,1,2,0:0:0:0:
88,172,232493,1,2,0:0:0:0:
392,308,232729,6,0,B|472:236|428:196|428:196|120:228|120:228|136:120|136:120|144:16|144:16|464:28|312:292,1,1080.00004119873,4|4,3:0|3:0,0:0:0:0:
404,112,234604,6,0,P|480:128|380:172,1,225,4|0,3:1|0:0,0:0:0:0:
316,168,234955,1,0,0:0:0:0:
140,172,235072,2,0,L|4:292,2,112.5,0|0|0,1:0|0:0|0:0,0:0:0:0:
224,168,235424,1,0,0:0:0:0:
408,108,235541,6,0,P|484:164|380:208,1,225,4|0,3:0|0:0,0:0:0:0:
328,168,235893,1,0,0:0:0:0:
136,172,236010,2,0,P|60:228|164:272,1,225,0|4,1:0|3:0,0:0:0:0:
236,284,236361,1,0,0:0:0:0:
416,288,236479,6,0,P|460:212|392:164,1,135.000005149842,4|0,3:0|0:0,0:0:0:0:
224,88,236713,2,0,P|205:150|249:197,1,135.000005149842,0|0,0:0|0:0,0:0:0:0:
428,80,236947,2,0,L|564:200,2,112.5,0|0|0,1:0|0:0|0:0,0:0:0:0:
336,80,237299,1,0,0:0:0:0:
112,80,237416,6,0,L|112:220,1,112.5,4|0,3:0|0:0,0:0:0:0:
311,287,237650,2,0,L|136:4,1,288,4|4,0:1|0:1,0:0:0:0:
392,72,238354,6,0,L|512:288,1,225,4|0,3:0|0:0,0:0:0:0:
408,272,238705,1,0,0:0:0:0:
184,184,238822,2,0,L|36:312,2,112.5,0|0|0,1:0|0:0|0:0,0:0:0:0:
276,184,239174,1,0,0:0:0:0:
456,184,239291,6,0,L|276:364,1,225,4|0,3:0|0:0,0:0:0:0:
192,340,239643,1,0,0:0:0:0:
384,116,239760,2,0,L|416:264,1,112.5,0|0,1:0|0:0,0:0:0:0:
216,60,239994,2,0,L|184:208,1,112.5,4|0,3:0|0:0,0:0:0:0:
384,48,240229,6,0,L|192:296,1,270.000010299683,4|0,3:0|0:0,0:0:0:0:
316,264,240580,1,0,0:0:0:0:
108,224,240697,2,0,L|-8:356,2,112.5,0|0|0,1:0|0:0|0:0,0:0:0:0:
208,224,241049,1,0,0:0:0:0:
408,224,241166,6,0,P|496:148|356:72,1,270.000010299683,4|2,3:0|0:0,0:0:0:0:
308,56,241518,1,2,0:0:0:0:
204,56,241635,1,2,0:0:0:0:
308,56,241752,1,2,0:0:0:0:
412,56,241869,1,2,0:0:0:0:
308,56,241986,1,2,0:0:0:0:
104,56,242104,6,0,P|28:128|136:136,1,225,4|0,3:1|0:0,0:0:0:0:
200,160,242455,1,0,0:0:0:0:
400,156,242572,2,0,L|516:260,2,112.5,0|0|0,1:0|0:0|0:0,0:0:0:0:
296,156,242924,1,0,0:0:0:0:
476,68,243041,6,0,L|276:260,1,225,4|0,3:0|0:0,0:0:0:0:
408,228,243393,1,0,0:0:0:0:
200,88,243510,2,0,L|136:256,1,112.5,0|0,1:0|0:0,0:0:0:0:
352,200,243744,2,0,L|416:368,1,112.5,4|0,3:0|0:0,0:0:0:0:
152,280,243979,6,0,P|72:252|168:216,1,225,4|0,3:0|0:0,0:0:0:0:
236,236,244330,1,0,0:0:0:0:
416,200,244447,2,0,L|508:132,2,112.5,0|0|0,1:0|0:0|0:0,0:0:0:0:
320,200,244799,1,0,0:0:0:0:
144,184,244916,6,0,L|76:320,1,112.5,4|0,3:0|0:0,0:0:0:0:
324,68,245150,2,0,L|504:320,1,288,4|4,0:1|0:1,0:0:0:0:
140,96,245854,6,0,P|76:124|172:204,1,225,4|0,3:0|0:0,0:0:0:0:
220,156,246205,1,0,0:0:0:0:
400,156,246322,2,0,L|508:236,2,112.5,0|0|0,1:0|0:0|0:0,0:0:0:0:
304,156,246674,1,0,0:0:0:0:
116,156,246791,6,0,P|48:200|176:232,1,225,4|0,3:0|0:0,0:0:0:0:
208,216,247143,1,0,0:0:0:0:
391,288,247260,2,0,P|468:226|396:156,1,225,0|4,1:0|3:0,0:0:0:0:
300,216,247611,1,0,0:0:0:0:
96,216,247729,6,0,L|284:344,1,225,4|0,3:0|0:0,0:0:0:0:
60,216,248197,2,0,L|60:64,1,112.5,0|0,1:0|0:0,0:0:0:0:
260,152,248549,1,0,0:0:0:0:
348,152,248666,6,0,L|108:300,3,225,4|0|0|4,3:0|0:0|1:0|3:0,0:0:0:0:
472,152,249604,6,0,L|472:396,1,202.500007724762,4|0,3:0|0:0,0:0:0:0:
272,352,250072,2,0,L|124:180,1,225,4|4,3:1|3:0,0:0:0:0:
216,180,250424,1,0,0:0:0:0:
408,124,250541,6,0,L|408:364,1,225,4|0,3:0|0:0,0:0:0:0:
324,348,250893,1,0,0:0:0:0:
60,252,251010,2,0,L|160:48,1,225,0|4,1:0|3:0,0:0:0:0:
372,236,251479,6,0,L|164:88,1,225,4|0,3:0|0:0,0:0:0:0:
280,108,251830,1,0,0:0:0:0:
496,72,251947,2,0,L|488:360,1,225,0|0,1:0|0:0,0:0:0:0:
292,296,252416,5,4,3:0:0:0:
440,236,252650,1,4,3:0:0:0:
136,192,252885,1,4,0:1:0:0:
72,340,253354,6,0,L|72:88,1,202.500007724762,4|0,3:0|0:0,0:0:0:0:
256,300,253822,2,0,L|456:84,1,225,0|4,1:0|3:0,0:0:0:0:
312,136,254174,1,0,0:0:0:0:
92,124,254291,6,0,L|92:364,1,225,4|0,3:0|0:0,0:0:0:0:
176,348,254643,1,0,0:0:0:0:
440,252,254760,2,0,L|400:16,1,225,0|4,1:0|3:0,0:0:0:0:
72,216,255229,6,0,L|256:72,1,225,4|0,0:1|0:0,0:0:0:0:
364,76,255580,1,0,0:0:0:0:
62,242,255697,2,0,L|268:130,1,225,4|0,0:1|0:0,0:0:0:0:
383,135,256048,1,0,0:0:0:0:
93,301,256166,6,0,L|19:78,1,225,4|4,0:1|3:0,0:0:0:0:
117,88,256518,1,0,0:0:0:0:
316,264,256635,2,0,L|396:124,1,112.5,4|0,3:0|0:0,0:0:0:0:
468,316,256869,2,0,L|388:176,1,112.5,4|0,3:0|0:0,0:0:0:0:
40,152,257104,6,0,L|40:396,1,202.500007724762,4|0,3:0|0:0,0:0:0:0:
240,352,257572,2,0,L|388:180,1,225,0|4,1:0|3:0,0:0:0:0:
296,180,257924,1,0,0:0:0:0:
104,124,258041,6,0,L|104:364,1,225,4|0,3:0|0:0,0:0:0:0:
188,348,258393,1,0,0:0:0:0:
452,252,258510,2,0,L|352:48,1,225,0|4,1:0|3:0,0:0:0:0:
140,236,258979,6,0,L|348:88,1,225,4|0,3:0|0:0,0:0:0:0:
232,108,259330,1,0,0:0:0:0:
16,72,259447,2,0,L|24:360,1,225,0|0,1:0|0:0,0:0:0:0:
220,296,259916,5,4,3:0:0:0:
72,236,260150,1,4,3:0:0:0:
376,192,260385,1,4,0:1:0:0:
440,340,260854,6,0,L|440:80,1,225,4|4,3:0|3:0,0:0:0:0:
284,336,261322,2,0,L|288:80,1,225,4|4,3:0|3:0,0:0:0:0:
96,232,261791,2,0,L|252:52,3,225,4|4|4|4,3:0|3:0|3:0|3:0,0:0:0:0:
96,168,262729,6,0,L|328:168,1,225,4|4,3:0|3:0,0:0:0:0:
24,168,263197,2,0,L|24:320,1,112.5,4|4,3:0|3:0,0:0:0:0:
320,224,263549,1,4,3:0:0:0:
408,224,263666,6,0,L|144:156,3,225,4|4|4|4,3:0|3:0|3:0|3:0,0:0:0:0:
512,228,264604,6,0,L|460:104,1,135.000005149842,4|0,0:1|0:0,0:0:0:0:
276,104,265072,2,0,L|460:104,1,135.000005149842,0|0,1:0|0:0,0:0:0:0:
160,188,265775,6,0,L|4:124,2,135.000005149842,4|0|0,3:0|1:0|0:0,0:0:0:0:
372,184,266479,6,0,L|432:32,1,135.000005149842,4|0,3:0|0:0,0:0:0:0:
272,312,266947,2,0,L|212:160,1,135.000005149842,0|0,1:0|0:0,0:0:0:0:
408,312,267416,6,0,L|520:228,2,135.000005149842,2|2|0,0:0|0:0|1:0,0:0:0:0:
284,312,268119,1,2,0:0:0:0:
56,312,268354,6,0,L|240:84,1,270.000010299683,4|0,3:0|1:0,0:0:0:0:
112,104,269057,1,2,0:0:0:0:
264,216,269291,6,0,L|332:72,1,135.000005149842,0|4,0:0|3:0,0:0:0:0:
136,316,269760,2,0,L|68:172,1,135.000005149842,0|2,1:0|0:0,0:0:0:0:
376,224,270229,6,0,P|464:152|300:152,1,360,4|0,3:0|1:0,0:0:0:0:
184,240,271049,2,0,P|116:168|328:132,1,450,4|0,3:0|1:0,0:0:0:0:
172,264,272104,6,0,L|24:220,3,135.000005149842,4|0|0|0,3:0|3:0|3:0|3:0,0:0:0:0:
240,176,273041,2,0,L|388:132,3,135.000005149842,0|0|0|0,3:0|3:0|3:0|3:0,0:0:0:0:
140,304,273979,6,0,L|276:252,3,135.000005149842,4|0|0|0,3:0|3:0|3:0|3:0,0:0:0:0:
480,308,274916,2,0,L|344:256,3,135.000005149842,0|0|0|0,3:0|3:0|3:0|3:0,0:0:0:0:
184,264,275854,5,4,3:0:0:0:
140,252,275932,1,0,3:0:0:0:
104,216,276010,1,0,3:0:0:0:
108,168,276088,1,0,3:0:0:0:
136,136,276166,1,0,3:0:0:0:
180,124,276244,1,0,3:0:0:0:
264,120,276322,5,0,3:0:0:0:
308,132,276400,1,0,3:0:0:0:
344,168,276478,1,0,3:0:0:0:
340,216,276556,1,0,3:0:0:0:
312,248,276634,1,0,3:0:0:0:
268,260,276712,1,0,3:0:0:0:
184,264,276791,5,0,3:0:0:0:
112,248,276869,1,0,3:0:0:0:
72,180,276947,1,0,3:0:0:0:
92,108,277025,1,0,3:0:0:0:
152,56,277104,1,0,3:0:0:0:
224,76,277182,1,0,3:0:0:0:
324,32,277260,5,0,3:0:0:0:
396,48,277338,1,0,3:0:0:0:
436,116,277416,1,0,3:0:0:0:
416,188,277494,1,0,3:0:0:0:
356,240,277573,1,0,3:0:0:0:
284,220,277651,1,0,3:0:0:0:
188,188,277729,6,0,P|92:120|164:288,1,495.000018882752,4|0,3:0|0:0,0:0:0:0:
248,272,278666,6,0,P|388:336|456:172,1,360.000013732911,4|0,3:0|1:0,0:0:0:0:
88,256,279604,1,0,1:0:0:0:
256,192,279838,12,0,282416,0:0:0:0:
180,192,283002,5,0,1:0:0:0:
