osu file format v14

[General]
AudioFilename: audio.mp3
AudioLeadIn: 0
PreviewTime: 110690
Countdown: 0
SampleSet: Soft
StackLeniency: 0.7
Mode: 2
LetterboxInBreaks: 0
WidescreenStoryboard: 0

[Editor]
Bookmarks: 219604
DistanceSpacing: 0.9
BeatDivisor: 4
GridSize: 4
TimelineZoom: 2.799999

[Metadata]
Title:Bassline Yatteru? w
TitleUnicode:ベースラインやってる?笑
Artist:Camellia feat. Nanahira
ArtistUnicode:かめりあ feat. ななひら
Creator:My Angel RangE
Version:Bassline!
Source:
Tags:wacca video game かめるかめりあ kamelcamellia 4orce! force! japanese mapper's guild electronic featured artist fa confetto c93 comiket comic market 93 can i friend you on bassbook? lol wara maimai でらっくす splash+ plus chunithm paradise lost オンゲキ ongeki summer plus muse dash
BeatmapID:2655081
BeatmapSetID:1277984

[Difficulty]
HPDrainRate:6
CircleSize:4
OverallDifficulty:9.6
ApproachRate:9.6
SliderMultiplier:2.2
SliderTickRate:2

[Events]
//Background and Video events
0,0,"85.png",0,0
//Break Periods
//Storyboard Layer 0 (Background)
//Storyboard Layer 1 (Fail)
//Storyboard Layer 2 (Pass)
//Storyboard Layer 3 (Foreground)
//Storyboard Layer 4 (Overlay)
//Storyboard Sound Samples

[TimingPoints]
3995,468.75,4,2,0,40,1,0
7745,-66.6666666666667,4,2,0,40,0,0
9620,-50,4,2,0,40,0,0
10088,-100,4,2,0,40,0,0
10557,-50,4,2,0,40,0,0
11026,-100,4,2,0,40,0,0
13604,-66.6666666666667,4,2,0,40,0,0
15245,-66.6666666666667,4,2,0,40,0,0
18995,-83.3333333333333,4,2,0,60,0,0
20870,-33.3333333333333,4,2,0,60,0,0
21573,-83.3333333333333,4,2,0,60,0,0
24151,-66.6666666666667,4,2,0,60,0,0
24620,-33.3333333333333,4,2,0,60,0,0
26495,-66.6666666666667,4,2,0,60,0,0
29073,-33.3333333333333,4,2,0,60,0,0
29307,-66.6666666666667,4,2,0,60,0,0
63995,-66.6666666666667,4,2,0,60,0,0
80870,-33.3333333333333,4,2,0,80,0,0
81338,-33.3333333333333,4,2,0,70,0,0
86495,-50,4,2,0,70,0,0
86963,-40,4,2,0,70,0,0
87432,-33.3333333333333,4,2,0,70,0,0
88370,-33.3333333333333,4,2,0,70,0,0
93995,-50,4,2,0,70,0,0
94463,-40,4,2,0,70,0,0
94932,-28.5714285714286,4,2,0,70,0,0
95401,-33.3333333333333,4,2,0,70,0,0
96807,-40,4,2,0,70,0,0
97745,-33.3333333333333,4,2,0,70,0,0
100557,-40,4,2,0,70,0,0
101495,-33.3333333333333,4,2,0,70,0,0
110870,-34.4827586206897,4,2,0,80,0,1
111104,-40,4,2,0,80,0,1
112745,-34.4827586206897,4,2,0,80,0,1
113213,-40,4,2,0,80,0,1
113916,-31.25,4,2,0,80,0,1
114620,-34.4827586206897,4,2,0,80,0,1
114854,-40,4,2,0,80,0,1
116495,-34.4827586206897,4,2,0,80,0,1
116963,-40,4,2,0,80,0,1
117432,-34.4827586206897,4,2,0,80,0,1
118370,-34.4827586206897,4,2,0,80,0,1
118604,-40,4,2,0,80,0,1
120245,-34.4827586206897,4,2,0,80,0,1
120479,-40,4,2,0,80,0,1
121416,-31.25,4,2,0,80,0,1
122120,-34.4827586206897,4,2,0,80,0,1
122354,-40,4,2,0,80,0,1
123995,-34.4827586206897,4,2,0,80,0,1
124346,-40,4,2,0,80,0,1
125870,-66.6666666666667,4,2,0,60,0,0
126338,476.190476190476,4,2,0,60,1,0
127052,375,4,2,0,60,1,0
127755,357.142857142857,4,2,0,60,1,0
130567,351.493848857645,4,2,0,60,1,0
155171,500,4,2,0,40,1,0
155546,545.454545454546,4,2,0,40,1,0
156091,600,4,2,0,40,1,0
156766,857.142857142857,4,2,0,40,1,0
156766,-50,4,2,0,40,0,0
157194,1714.2857142857,4,2,0,40,1,0
157729,468.75,4,2,0,40,1,0
157729,-66.6666666666667,4,2,0,40,0,0
172729,-66.6666666666667,4,2,0,60,0,0
187729,-66.6666666666667,4,2,0,40,0,0
195229,-66.6666666666667,4,2,0,60,0,0
204604,-33.3333333333333,4,2,0,70,0,0
210229,-50,4,2,0,70,0,0
210697,-40,4,2,0,70,0,0
211166,-33.3333333333333,4,2,0,70,0,0
212104,-33.3333333333333,4,2,0,70,0,0
217729,-50,4,2,0,70,0,0
218197,-40,4,2,0,70,0,0
218666,-28.5714285714286,4,2,0,70,0,0
219604,-33.3333333333333,4,2,0,70,0,0
234604,-33.3333333333333,4,2,0,80,0,1
234838,-40,4,2,0,80,0,1
236479,-34.4827586206897,4,2,0,80,0,1
236947,-40,4,2,0,80,0,1
237650,-31.25,4,2,0,80,0,1
238354,-34.4827586206897,4,2,0,80,0,1
238588,-40,4,2,0,80,0,1
240229,-34.4827586206897,4,2,0,80,0,1
240697,-40,4,2,0,80,0,1
241166,-34.4827586206897,4,2,0,80,0,1
242104,-34.4827586206897,4,2,0,80,0,1
242338,-40,4,2,0,80,0,1
243979,-34.4827586206897,4,2,0,80,0,1
244213,-40,4,2,0,80,0,1
245150,-31.25,4,2,0,80,0,1
245854,-34.4827586206897,4,2,0,80,0,1
246088,-40,4,2,0,80,0,1
247729,-34.4827586206897,4,2,0,80,0,1
248197,-40,4,2,0,80,0,1
249604,-66.6666666666667,4,2,0,80,0,1
250072,-40,4,2,0,80,0,1
253354,-66.6666666666667,4,2,0,80,0,1
253822,-40,4,2,0,80,0,1
257104,-66.6666666666667,4,2,0,80,0,1
257572,-40,4,2,0,80,0,1
264604,-66.6666666666667,4,2,0,60,0,0
270229,-50,4,2,0,60,0,0
270697,-66.6666666666667,4,2,0,60,0,0
271049,-50,4,2,0,60,0,0
271635,-66.6666666666667,4,2,0,60,0,0

[Colours]
Combo1 : 255,163,70
Combo2 : 0,172,44
Combo3 : 255,255,57

[HitObjects]
96,280,3995,6,0,P|40:240|112:216,1,165,4|0,3:0|0:0,0:0:0:0:
328,240,4463,1,0,1:0:0:0:
224,240,4698,1,4,3:0:0:0:
232,240,5401,6,0,P|280:200|216:160,1,110,0|0,1:0|3:0,0:0:0:0:
168,160,5713,1,0,3:0:0:0:
168,200,5791,1,0,3:0:0:0:
368,80,5870,6,0,L|232:80,1,110,4|0,3:0|0:0,0:0:0:0:
96,64,6338,2,0,L|96:168,1,73.3333333333333,0|0,1:0|0:0,0:0:0:0:
176,136,6573,1,2,0:0:0:0:
392,136,6807,5,2,0:0:0:0:
256,136,6963,2,0,L|224:16,1,110,2|0,0:0|0:0,0:0:0:0:
336,136,7276,2,0,L|384:63,1,73.3333333333333,0|0,1:0|0:0,0:0:0:0:
256,176,7510,2,0,L|200:110,1,73.3333333333333,2|0,0:0|0:0,0:0:0:0:
456,288,7745,6,0,L|112:288,1,330.000012588501,4|0,3:0|1:0,0:0:0:0:
224,208,8448,1,0,3:0:0:0:
224,208,9151,5,0,1:0:0:0:
112,192,9385,1,0,3:0:0:0:
336,192,9620,6,0,P|456:200|332:152,1,366.666666666667,4|0,3:0|0:0,0:0:0:0:
112,91,10088,2,0,L|112:208,1,110,0|0,1:0|0:0,0:0:0:0:
328,264,10557,6,0,B|112:216|112:216|112:384,1,366.666666666667,4|0,3:0|0:0,0:0:0:0:
328,374,11026,2,0,L|328:216,1,110,0|0,1:0|0:0,0:0:0:0:
132,240,11495,6,0,L|132:120,1,110,4|0,3:0|3:0,0:0:0:0:
272,240,11963,2,0,L|148:240,1,110,0|0,1:0|3:0,0:0:0:0:
164,232,12432,1,0,0:0:0:0:
464,128,12666,5,4,3:0:0:0:
212,128,12901,1,0,1:0:0:0:
368,128,13135,1,4,3:0:0:0:
56,128,13370,6,0,L|56:208,1,73.3333333333333,4|0,3:0|0:0,0:0:0:0:
216,184,13604,2,0,L|372:80,2,165.000006294251,2|2|2,0:0|0:0|0:0,0:0:0:0:
104,184,14307,5,2,0:0:0:0:
104,184,14463,1,2,0:0:0:0:
256,184,14541,2,0,L|128:184,1,110.000004196167,4|0,3:0|0:0,0:0:0:0:
296,184,14776,1,0,1:0:0:0:
296,184,14932,1,0,3:0:0:0:
96,96,15010,2,0,B|40:96|40:96|96:96,1,110.000004196167,4|0,3:0|0:0,0:0:0:0:
344,120,15245,6,0,P|424:144|328:192,1,220.000008392334,4|0,3:0|0:0,0:0:0:0:
128,216,15713,2,0,L|73:216,1,55.0000020980836,0|0,1:0|0:0,0:0:0:0:
128,216,15870,1,0,0:0:0:0:
305,216,15948,1,0,0:0:0:0:
305,216,16104,1,0,0:0:0:0:
104,216,16182,5,0,0:0:0:0:
104,216,16338,1,0,0:0:0:0:
353,240,16416,1,4,3:0:0:0:
353,240,16573,1,0,0:0:0:0:
188,244,16651,1,0,1:0:0:0:
288,240,16807,1,0,0:0:0:0:
112,168,16885,1,0,0:0:0:0:
56,144,16944,1,0,3:0:0:0:
48,96,17002,1,0,3:0:0:0:
104,56,17061,1,0,3:0:0:0:
272,72,17120,5,0,3:0:0:0:
328,48,17178,1,0,3:0:0:0:
368,84,17237,1,0,3:0:0:0:
336,136,17295,1,0,3:0:0:0:
288,144,17354,1,0,3:0:0:0:
252,180,17412,1,0,3:0:0:0:
256,236,17471,1,0,3:0:0:0:
316,248,17530,1,0,3:0:0:0:
144,240,17588,5,0,3:0:0:0:
88,264,17646,1,0,3:0:0:0:
32,240,17705,1,0,3:0:0:0:
0,192,17763,1,0,3:0:0:0:
8,136,17822,1,0,3:0:0:0:
48,104,17880,1,0,3:0:0:0:
104,96,17939,1,0,3:0:0:0:
304,240,17998,5,4,3:0:0:0:
352,216,18057,1,0,3:0:0:0:
392,176,18116,1,0,3:0:0:0:
364,128,18174,1,0,3:0:0:0:
308,120,18233,1,0,3:0:0:0:
156,84,18291,5,4,3:0:0:0:
96,112,18350,1,0,3:0:0:0:
104,172,18409,1,0,3:0:0:0:
164,196,18467,1,0,3:0:0:0:
360,168,18526,6,0,L|360:48,1,82.5000031471254,2|0,0:0|0:0,0:0:0:0:
168,160,18760,2,0,L|168:48,1,82.5000031471254,2|0,0:0|0:0,0:0:0:0:
432,168,18995,6,0,L|264:168,1,131.99999597168,4|0,3:1|0:0,0:0:0:0:
504,104,19463,2,0,L|504:248,1,131.99999597168,0|0,1:0|0:0,0:0:0:0:
296,248,19932,6,0,L|448:248,1,131.99999597168,4|0,3:0|0:0,0:0:0:0:
192,312,20401,2,0,L|192:168,1,131.99999597168,0|0,1:0|0:0,0:0:0:0:
368,288,20870,6,0,L|108:288,1,220.000008392334,4|0,3:0|0:0,0:0:0:0:
148,288,21104,2,0,L|328:100,1,220.000008392334
300,129,21338,2,0,L|72:128,1,220.000008392334,0|0,1:0|0:0,0:0:0:0:
152,128,21573,2,0,L|248:128,1,87.9999973144532,2|0,0:0|0:0,0:0:0:0:
68,128,21807,6,0,L|68:224,1,87.9999973144532,4|0,3:0|0:0,0:0:0:0:
144,216,22041,1,0,0:0:0:0:
144,216,22198,1,0,0:0:0:0:
320,212,22276,2,0,L|232:212,1,87.9999973144532,0|0,1:0|0:0,0:0:0:0:
368,212,22510,2,0,L|456:212,1,87.9999973144532,0|0,0:0|0:0,0:0:0:0:
96,152,22745,6,0,L|264:152,1,131.99999597168,4|0,3:0|0:0,0:0:0:0:
56,152,23213,1,0,1:0:0:0:
272,216,23448,1,0,0:0:0:0:
272,144,23604,1,0,0:0:0:0:
56,216,23682,5,4,3:0:0:0:
56,216,23838,1,0,0:0:0:0:
272,208,23916,1,0,0:0:0:0:
272,216,24073,1,0,0:0:0:0:
16,320,24151,2,0,L|216:312,1,165.000006294251,0|0,1:0|0:0,0:0:0:0:
180,313,24541,1,0,0:0:0:0:
344,312,24620,6,0,L|109:313,1,220.000008392334,4|0,3:0|0:0,0:0:0:0:
125,313,24854,2,0,L|313:153,1,220.000008392334
292,170,25088,2,0,L|57:169,1,220.000008392334,0|0,1:0|0:0,0:0:0:0:
72,169,25323,2,0,L|240:360,1,220.000008392334
217,334,25557,6,0,L|468:336,1,220.000008392334,4|0,3:0|0:0,0:0:0:0:
436,335,25791,2,0,L|245:207,1,220.000008392334
253,212,26026,2,0,L|485:211,1,220.000008392334,0|0,1:0|0:0,0:0:0:0:
472,211,26260,2,0,L|312:56,1,220.000008392334,0|0,0:0|0:0,0:0:0:0:
96,272,26495,5,4,3:0:0:0:
208,272,26651,2,0,L|248:232,1,55.0000020980836,0|0,3:0|3:0,3:3:0:0:
368,240,26885,1,0,3:0:0:0:
200,240,26963,1,0,1:0:0:0:
72,240,27120,1,0,3:0:0:0:
56,208,27198,1,0,3:0:0:0:
168,208,27354,1,0,3:0:0:0:
368,208,27432,5,4,3:0:0:0:
240,96,27588,1,0,3:0:0:0:
192,96,27667,1,0,3:0:0:0:
424,104,27823,1,0,3:0:0:0:
424,104,27901,2,0,L|424:224,1,110.000004196167,0|0,1:0|3:0,0:0:0:0:
184,208,28135,1,0,3:0:0:0:
152,208,28194,1,0,3:0:0:0:
120,208,28252,1,0,3:0:0:0:
152,208,28311,1,0,3:0:0:0:
312,272,28370,6,0,L|312:120,1,110.000004196167,4|0,3:0|3:0,0:0:0:0:
152,336,28604,2,0,L|152:226,1,110.000004196167,0|0,3:0|3:0,0:0:0:0:
344,288,28838,2,0,L|344:136,1,110.000004196167,0|0,1:0|0:0,0:0:0:0:
120,352,29073,2,0,L|352:352,1,220.000008392334,0|0,3:0|3:0,0:0:0:0:
40,352,29307,6,0,L|40:224,1,110.000004196167,4|0,3:0|3:0,0:0:0:0:
128,240,29541,2,0,L|238:240,1,110.000004196167,0|0,3:0|3:0,0:0:0:0:
476,40,29776,2,0,L|476:168,1,110.000004196167,0|0,1:0|3:0,0:0:0:0:
396,152,30010,2,0,L|286:152,1,110.000004196167,0|0,3:0|3:0,0:0:0:0:
136,152,30245,5,4,3:0:0:0:
72,168,30323,1,0,3:0:0:0:
40,216,30401,1,0,3:0:0:0:
40,272,30479,1,0,3:0:0:0:
80,320,30557,1,0,3:0:0:0:
144,336,30635,1,0,3:0:0:0:
304,240,30713,5,0,1:0:0:0:
368,224,30791,1,0,3:0:0:0:
400,176,30869,1,0,3:0:0:0:
400,120,30947,1,0,3:0:0:0:
360,72,31025,1,0,3:0:0:0:
296,56,31103,1,0,3:0:0:0:
136,120,31182,6,0,L|40:104,2,55.0000020980836,4|0|0,3:0|3:0|3:0,0:0:0:0:
228,136,31416,2,0,L|324:120,2,55.0000020980836,0|0|0,3:0|3:0|3:0,0:0:0:0:
88,208,31651,5,0,1:0:0:0:
16,216,31729,1,0,3:3:0:0:
88,208,31807,1,0,3:0:0:0:
160,264,31885,1,0,3:0:0:0:
240,248,31963,1,0,3:0:0:0:
320,224,32041,1,0,3:0:0:0:
160,216,32120,5,0,3:0:0:0:
104,160,32198,1,0,3:0:0:0:
160,112,32276,1,0,3:0:0:0:
240,72,32354,1,0,3:0:0:0:
296,128,32432,1,0,3:0:0:0:
240,176,32510,1,0,3:0:0:0:
160,112,32588,5,0,3:0:0:0:
88,80,32666,1,0,3:0:0:0:
152,32,32745,1,0,3:0:0:0:
224,32,32823,1,0,3:0:0:0:
296,72,32901,1,0,3:0:0:0:
224,112,32979,1,0,3:0:0:0:
64,96,33057,5,0,3:0:0:0:
48,168,33116,1,0,3:0:0:0:
104,216,33174,1,0,3:0:0:0:
184,208,33233,1,0,3:0:0:0:
216,144,33291,1,0,3:0:0:0:
192,80,33350,1,0,3:0:0:0:
128,72,33409,1,0,3:0:0:0:
80,128,33467,1,0,3:0:0:0:
272,192,33526,5,0,3:0:0:0:
320,208,33584,1,0,3:0:0:0:
368,192,33643,1,0,3:0:0:0:
408,152,33702,1,0,3:0:0:0:
416,104,33760,1,0,3:0:0:0:
392,64,33819,1,0,3:0:0:0:
344,40,33877,1,0,3:0:0:0:
296,56,33936,1,0,3:0:0:0:
88,160,33995,5,4,3:1:0:0:
424,160,34463,1,2,0:0:0:0:
288,160,34580,1,2,0:0:0:0:
112,80,34815,6,0,L|112:352,1,247.500009441376,2|2,0:0|0:0,0:0:0:0:
304,328,35401,1,2,0:0:0:0:
112,328,35635,1,2,0:0:0:0:
304,328,35870,6,0,L|469:328,1,165.000006294251,2|2,0:0|0:0,0:0:0:0:
200,192,36338,2,0,L|200:320,1,82.5000031471254,2|2,0:0|0:0,0:0:0:0:
392,192,36690,1,2,0:0:0:0:
176,272,37041,6,0,L|144:152,1,110.000004196167,2|0,0:0|0:0,0:0:0:0:
264,152,37276,2,0,P|304:80|200:96,1,220.000008392334,2|0,0:0|0:0,0:0:0:0:
64,152,37745,5,2,0:0:0:0:
64,152,38213,1,2,0:0:0:0:
200,152,38330,1,2,0:0:0:0:
376,72,38565,2,0,L|376:344,1,247.500009441376,2|2,0:0|0:0,0:0:0:0:
184,320,39151,1,2,0:0:0:0:
376,320,39385,1,2,0:0:0:0:
184,320,39620,6,0,L|19:320,1,165.000006294251,2|2,0:0|0:0,0:0:0:0:
424,208,40088,2,0,L|424:312,1,82.5000031471254,2|2,0:0|0:0,0:0:0:0:
96,184,40440,1,2,0:0:0:0:
96,184,40791,5,2,0:0:0:0:
248,160,40909,1,2,0:0:0:0:
112,168,41026,1,2,0:0:0:0:
216,136,41143,1,2,0:0:0:0:
128,152,41260,1,2,0:0:0:0:
192,120,41377,1,2,0:0:0:0:
8,200,41495,6,0,L|184:200,1,165.000006294251,4|0,3:0|0:0,0:0:0:0:
8,216,41963,2,0,L|120:216,1,82.5000031471254,0|0,1:0|0:0,0:0:0:0:
176,216,42198,1,0,0:0:0:0:
424,144,42432,6,0,L|248:144,1,165.000006294251,4|0,3:0|0:0,0:0:0:0:
424,144,42901,2,0,L|248:144,1,165.000006294251,0|0,1:0|0:0,0:0:0:0:
40,136,43370,6,0,L|216:136,1,165.000006294251,4|0,3:0|0:0,0:0:0:0:
432,128,43838,1,0,1:0:0:0:
360,104,43955,1,0,0:0:0:0:
176,272,44190,1,0,0:0:0:0:
256,272,44307,5,4,3:0:0:0:
456,272,44541,2,0,P|475:214|440:184,1,110.000004196167,0|0,1:0|0:0,0:0:0:0:
304,184,44776,2,0,P|216:136|304:72,1,220.000008392334,0|0,1:0|0:0,0:0:0:0:
496,208,45245,6,0,L|328:208,1,165.000006294251,4|0,3:0|0:0,0:0:0:0:
96,208,45713,1,0,1:0:0:0:
184,208,45830,2,0,L|184:96,2,82.5000031471254,0|0|0,0:0|0:0|0:0,0:0:0:0:
8,264,46182,6,0,L|200:264,1,165.000006294251,4|0,3:0|0:0,0:0:0:0:
8,264,46651,2,0,L|184:264,1,165.000006294251,0|0,1:0|0:0,0:0:0:0:
472,264,47120,6,0,P|520:200|432:152,1,165.000006294251,4|0,3:0|0:0,0:0:0:0:
216,176,47588,2,0,L|128:176,2,82.5000031471254,0|0|0,1:0|0:0|0:0,0:0:0:0:
304,176,47940,1,0,0:0:0:0:
480,120,48057,6,0,L|480:304,1,165.000006294251,4|0,3:0|0:0,0:0:0:0:
136,272,48526,1,0,1:0:0:0:
336,200,48760,1,0,0:0:0:0:
40,272,48995,6,0,L|216:272,1,165.000006294251,4|0,0:1|0:0,0:0:0:0:
48,168,49463,1,0,1:0:0:0:
136,168,49580,1,0,0:0:0:0:
360,176,49815,1,0,0:0:0:0:
176,176,49932,6,0,L|176:-8,1,165.000006294251,4|0,3:0|0:0,0:0:0:0:
392,176,50401,2,0,L|392:341,1,165.000006294251,0|0,1:0|0:0,0:0:0:0:
75,176,50870,6,0,L|251:176,1,165.000006294251,4|0,3:0|0:0,0:0:0:0:
75,176,51338,1,0,1:0:0:0:
179,341,51455,2,0,L|179:176,1,165.000006294251,0|0,0:0|0:0,0:0:0:0:
360,176,51807,5,4,3:0:0:0:
168,80,52041,2,0,L|296:80,1,110.000004196167,4|0,0:1|0:0,0:0:0:0:
472,80,52276,2,0,L|472:248,1,165.000006294251,4|0,0:1|0:0,0:0:0:0:
152,240,52745,6,0,L|317:240,1,165.000006294251,4|0,3:0|0:0,0:0:0:0:
240,144,53213,1,0,1:0:0:0:
144,144,53330,1,0,0:0:0:0:
144,144,53565,1,0,0:0:0:0:
336,144,53682,6,0,L|336:256,1,82.5000031471254,4|0,3:0|0:0,0:0:0:0:
240,224,53916,1,0,0:0:0:0:
240,224,54151,2,0,L|404:223,1,165.000006294251,0|0,1:0|0:0,0:0:0:0:
88,336,54620,6,0,L|88:144,1,165.000006294251,4|0,3:0|0:0,0:0:0:0:
410,185,55088,2,0,L|492:185,1,82.5000031471254,0|0,1:0|0:0,0:0:0:0:
328,184,55440,1,0,0:0:0:0:
416,184,55557,6,0,L|416:88,1,82.5000031471254,4|0,3:0|0:0,0:0:0:0:
328,104,55791,1,2,0:0:0:0:
416,101,55909,1,2,0:0:0:0:
224,64,56026,1,2,0:0:0:0:
112,64,56144,1,2,0:0:0:0:
224,64,56260,1,2,0:0:0:0:
144,64,56378,1,2,0:0:0:0:
368,104,56495,6,0,L|368:296,1,165.000006294251,4|0,0:1|0:0,0:0:0:0:
256,272,56963,1,0,1:0:0:0:
352,272,57080,1,0,0:0:0:0:
8,272,57354,1,4,3:0:0:0:
8,232,57432,5,0,0:0:0:0:
168,232,57666,1,0,0:0:0:0:
333,232,57901,2,0,L|168:232,1,165.000006294251,0|0,1:0|0:0,0:0:0:0:
464,72,58370,6,0,L|488:240,1,165.000006294251,4|0,3:0|0:0,0:0:0:0:
192,224,58838,1,0,1:0:0:0:
104,224,58955,1,0,0:0:0:0:
192,224,59073,1,0,0:0:0:0:
272,224,59190,1,0,0:0:0:0:
56,224,59307,5,4,3:0:0:0:
216,192,59541,2,0,L|216:312,1,110.000004196167,4|0,0:1|0:0,0:0:0:0:
416,264,59776,2,0,P|488:208|384:160,1,247.500009441376,4|0,0:1|0:0,0:0:0:0:
208,160,60245,6,0,L|16:160,1,165.000006294251,4|0,3:0|0:0,0:0:0:0:
256,80,60713,1,0,1:0:0:0:
344,80,60830,1,0,0:0:0:0:
128,80,61065,1,0,0:0:0:0:
312,80,61182,6,0,L|312:224,1,82.5000031471254,4|0,3:0|0:0,0:0:0:0:
232,168,61416,1,0,0:0:0:0:
40,80,61651,2,0,L|40:256,1,165.000006294251,0|0,1:0|0:0,0:0:0:0:
400,240,62120,6,0,L|235:240,1,165.000006294251,4|0,3:0|0:0,0:0:0:0:
72,240,62588,1,0,1:0:0:0:
192,240,62705,1,0,0:0:0:0:
416,80,62940,6,0,L|416:336,1,247.500009441376,2|2,0:0|0:0,0:0:0:0:
216,264,63526,1,2,0:0:0:0:
384,192,63760,1,2,0:0:0:0:
48,264,63995,6,0,L|48:72,1,165.000006294251,4|0,3:0|3:0,0:0:0:0:
200,264,64463,2,0,L|200:72,1,165.000006294251,0|0,1:0|3:0,0:0:0:0:
360,264,64932,6,0,L|360:72,1,165.000006294251,4|0,3:0|3:0,0:0:0:0:
512,264,65401,1,0,1:0:0:0:
360,240,65635,1,0,3:0:0:0:
336,216,65694,1,0,3:0:0:0:
336,176,65752,1,0,3:0:0:0:
360,160,65811,1,0,3:0:0:0:
496,264,65870,6,0,L|496:72,1,165.000006294251,4|0,3:0|3:0,0:0:0:0:
344,264,66338,2,0,L|344:72,1,165.000006294251,0|0,1:0|3:0,0:0:0:0:
184,264,66807,6,0,L|184:72,1,165.000006294251,4|0,3:0|3:0,0:0:0:0:
32,264,67276,1,0,1:0:0:0:
184,280,67510,1,0,3:0:0:0:
224,248,67569,1,0,3:0:0:0:
216,192,67627,1,0,3:0:0:0:
176,176,67686,1,0,3:0:0:0:
48,264,67745,6,0,L|232:264,1,165.000006294251,4|0,3:0|3:0,0:0:0:0:
48,184,68213,2,0,L|232:184,1,165.000006294251,0|0,1:0|3:0,0:0:0:0:
384,88,68682,6,0,L|200:88,1,165.000006294251,4|0,3:0|3:0,0:0:0:0:
384,176,69151,1,0,1:0:0:0:
200,176,69385,1,0,3:0:0:0:
160,216,69444,1,0,3:0:0:0:
176,272,69502,1,0,3:0:0:0:
224,288,69561,1,0,0:0:0:0:
456,344,69620,6,0,L|272:344,1,165.000006294251,4|0,3:0|3:0,0:0:0:0:
456,264,70088,2,0,L|272:264,1,165.000006294251,0|0,1:0|3:0,0:0:0:0:
120,168,70557,6,0,L|304:168,1,165.000006294251,4|0,3:0|3:0,0:0:0:0:
128,64,71026,2,0,L|312:64,1,165.000006294251,0|0,1:0|3:0,0:0:0:0:
104,136,71495,5,4,3:0:0:0:
56,160,71573,1,0,3:0:0:0:
32,200,71651,1,0,3:0:0:0:
32,240,71729,1,4,3:0:0:0:
56,288,71807,1,0,3:0:0:0:
112,304,71885,1,0,3:0:0:0:
296,296,71963,5,4,3:0:0:0:
344,272,72041,1,0,3:0:0:0:
368,232,72119,1,0,3:0:0:0:
368,192,72197,1,4,3:0:0:0:
344,144,72275,1,0,3:0:0:0:
288,128,72353,1,0,3:0:0:0:
112,128,72432,5,4,3:0:0:0:
64,104,72510,1,0,3:0:0:0:
80,56,72588,1,0,3:0:0:0:
248,40,72666,1,4,3:0:0:0:
296,80,72745,1,0,3:0:0:0:
256,128,72823,1,0,3:0:0:0:
80,128,72901,5,4,3:0:0:0:
24,96,72979,1,0,3:0:0:0:
72,64,73057,1,0,3:0:0:0:
280,136,73135,1,4,3:0:0:0:
336,96,73213,1,0,3:0:0:0:
272,64,73291,1,0,3:0:0:0:
128,136,73370,5,4,3:0:0:0:
56,168,73448,1,0,3:0:0:0:
16,232,73526,1,0,3:0:0:0:
40,304,73604,1,4,3:0:0:0:
96,336,73682,1,0,3:0:0:0:
168,312,73760,1,0,3:0:0:0:
384,136,73838,5,4,3:0:0:0:
456,168,73916,1,0,3:0:0:0:
496,232,73994,1,0,3:0:0:0:
472,304,74072,1,4,3:0:0:0:
416,336,74150,1,0,3:0:0:0:
344,312,74228,1,0,3:0:0:0:
136,168,74307,5,4,3:0:0:0:
80,168,74385,1,0,3:0:0:0:
24,168,74463,1,0,3:0:0:0:
248,88,74541,1,4,3:0:0:0:
304,88,74619,1,0,3:0:0:0:
360,88,74697,1,0,3:0:0:0:
120,88,74776,5,4,3:0:0:0:
48,88,74854,1,0,3:0:0:0:
120,88,74932,1,0,3:0:0:0:
272,168,75010,1,4,3:0:0:0:
344,168,75088,1,0,3:0:0:0:
272,168,75166,1,0,3:0:0:0:
64,232,75245,5,4,3:0:0:0:
288,232,75401,1,0,3:0:0:0:
328,224,75479,1,0,3:0:0:0:
48,232,75635,1,0,3:0:0:0:
24,184,75713,1,0,3:0:0:0:
288,232,75870,1,0,3:0:0:0:
328,224,75948,1,0,3:0:0:0:
48,232,76104,1,0,3:0:0:0:
24,184,76182,5,0,3:0:0:0:
192,232,76338,1,0,3:0:0:0:
200,192,76416,1,0,3:0:0:0:
352,240,76573,1,0,3:0:0:0:
368,192,76651,1,0,3:0:0:0:
240,112,76807,1,0,3:0:0:0:
232,72,76885,1,0,3:0:0:0:
96,120,77042,1,0,3:0:0:0:
80,72,77120,1,0,3:0:0:0:
376,144,77588,5,0,3:0:0:0:
376,144,77823,1,2,0:0:0:0:
224,144,78057,1,0,3:0:0:0:
224,144,78292,1,2,0:0:0:0:
72,144,78526,1,0,3:0:0:0:
72,144,78761,1,2,0:0:0:0:
328,168,78995,6,0,P|228:176|336:108,2,330.000012588501
352,124,80166,1,0,0:0:0:0:
120,120,80323,1,0,0:0:0:0:
32,120,80401,2,0,L|264:120,1,220.000008392334,0|0,0:0|0:0,0:0:0:0:
32,152,80870,6,0,L|376:152,1,330.000012588501,4|0,0:1|0:0,0:0:0:0:
424,272,81338,2,0,B|96:176|96:176|96:368,1,495.000018882752,0|0,1:0|0:0,0:0:0:0:
96,136,81807,6,0,B|424:40|424:40|424:193,1,495.000018882752,0|0,1:0|0:0,0:0:0:0:
424,272,82276,2,0,B|96:176|96:176|96:368,1,495.000018882752,0|0,1:0|0:0,0:0:0:0:
304,320,82745,6,0,L|304:16,1,247.500009441376,4|0,3:0|0:0,0:0:0:0:
136,328,82979,2,0,L|136:128,1,165.000006294251,0|0,1:0|0:0,0:0:0:0:
320,336,83213,2,0,L|320:32,1,247.500009441376,4|0,3:0|0:0,0:0:0:0:
136,328,83448,2,0,L|24:160,1,165.000006294251,0|0,1:0|0:0,0:0:0:0:
352,336,83682,6,0,L|352:32,1,247.500009441376,4|0,3:0|0:0,0:0:0:0:
136,328,83916,2,0,L|136:128,1,165.000006294251,0|0,1:0|0:0,0:0:0:0:
384,336,84151,2,0,L|384:32,1,247.500009441376,4|0,3:0|0:0,0:0:0:0:
136,328,84385,2,0,L|0:112,1,165.000006294251,0|0,1:0|0:0,0:0:0:0:
272,96,84620,6,0,P|416:144|224:216,1,495.000018882752,4|0,3:0|0:0,0:0:0:0:
24,216,85088,2,0,L|160:80,1,165.000006294251,0|0,1:0|0:0,0:0:0:0:
392,216,85323,2,0,L|256:80,1,165.000006294251,0|0,1:0|0:0,0:0:0:0:
92,248,85557,6,0,B|420:152|420:152|420:344,1,495.000018882752,0|0,1:0|0:0,0:0:0:0:
416,168,86026,2,0,B|88:72|88:72|88:225,1,495.000018882752,0|0,1:0|0:0,0:0:0:0:
296,216,86495,6,0,P|408:200|328:140,1,220,0|0,1:0|0:0,0:0:0:0:
296,144,86846,1,0,0:0:0:0:
380,144,86963,2,0,P|496:112|436:76,1,275,0|0,1:0|0:0,0:0:0:0:
372,72,87315,1,0,0:0:0:0:
464,80,87432,6,0,P|312:176|204:52,1,330.000012588501,0|0,1:0|0:0,0:0:0:0:
292,96,87784,1,0,0:0:0:0:
208,92,87901,2,0,B|72:192|72:192|208:92,1,330.000012588501,0|0,1:0|0:0,0:0:0:0:
287,107,88252,1,0,0:0:0:0:
64,192,88370,6,0,L|456:192,1,330.000012588501,4|0,0:1|0:0,0:0:0:0:
464,272,88838,2,0,B|136:176|136:176|136:368,1,495.000018882752,0|0,1:0|0:0,0:0:0:0:
136,136,89307,6,0,B|464:40|464:40|464:193,1,495.000018882752,0|0,1:0|0:0,0:0:0:0:
464,272,89776,2,0,B|136:176|136:176|136:368,1,495.000018882752,0|0,1:0|0:0,0:0:0:0:
320,336,90245,6,0,L|320:32,1,247.500009441376,4|0,3:0|0:0,0:0:0:0:
152,328,90479,2,0,L|152:112,1,165.000006294251,0|0,1:0|0:0,0:0:0:0:
352,336,90713,2,0,L|352:32,1,247.500009441376,4|0,3:0|0:0,0:0:0:0:
152,328,90948,2,0,L|8:120,1,165.000006294251,0|0,1:0|0:0,0:0:0:0:
384,336,91182,6,0,L|384:32,1,247.500009441376,4|0,3:0|0:0,0:0:0:0:
152,328,91416,2,0,L|152:104,1,165.000006294251,0|0,1:0|0:0,0:0:0:0:
416,336,91651,2,0,L|416:32,1,247.500009441376,4|0,3:0|0:0,0:0:0:0:
152,328,91885,2,0,L|16:144,1,165.000006294251,0|0,1:0|0:0,0:0:0:0:
392,272,92120,6,0,B|64:144,1,330.000012588501,4|0,3:0|0:0,0:0:0:0:
96,96,92412,1,2,0:0:0:0:
172,96,92471,2,0,L|228:32,1,82.5000031471254,2|2,0:0|0:0,0:0:0:0:
384,104,92588,2,0,L|272:-24,1,165.000006294251,0|0,1:0|0:0,0:0:0:0:
56,232,92823,2,0,L|168:104,1,165.000006294251,0|0,1:0|0:0,0:0:0:0:
392,136,93057,6,0,B|64:40|64:40|64:193,1,495.000018882752,0|0,1:0|0:0,0:0:0:0:
64,272,93526,2,0,B|392:176|392:176|392:368,1,495.000018882752,0|0,1:0|0:0,0:0:0:0:
176,288,93995,6,0,P|64:224|184:248,1,330,0|0,1:0|0:0,0:0:0:0:
264,288,94463,2,0,P|408:232|256:248,1,412.5,0|0,1:0|0:0,0:0:0:0:
176,288,94932,6,0,P|144:176|344:312,1,577.500005507469,0|0,1:0|0:0,0:0:0:0:
64,304,95401,2,0,L|104:224,1,82.5000031471254,4|0,3:0|0:0,0:0:0:0:
232,304,95518,2,0,L|288:192,1,82.5000031471254,4|0,3:0|0:0,0:0:0:0:
400,304,95635,2,0,L|456:184,1,82.5000031471254,4|0,3:0|0:0,0:0:0:0:
80,272,95870,6,0,L|480:272,1,330.000012588501,4|0,3:0|0:0,0:0:0:0:
88,248,96338,2,0,P|240:360|320:96,1,495.000018882752,0|0,1:0|0:0,0:0:0:0:
156,192,96807,6,0,P|12:204|160:144,1,458.333333333333,0|0,1:0|0:0,0:0:0:0:
328,144,97276,2,0,P|492:192|325:221,1,458.333333333333,0|0,1:0|0:0,0:0:0:0:
160,256,97745,6,0,L|72:96,1,165.000006294251,4|0,3:0|0:0,0:0:0:0:
312,256,97979,2,0,L|400:96,1,165.000006294251,0|0,0:0|0:0,0:0:0:0:
295,112,98213,1,0,1:0:0:0:
207,112,98330,1,0,0:0:0:0:
295,112,98448,1,0,0:0:0:0:
391,111,98565,1,0,0:0:0:0:
128,104,98682,6,0,P|38:239|178:154,1,330.000012588501,4|0,3:0|0:0,0:0:0:0:
336,224,99034,1,0,0:0:0:0:
440,224,99151,1,0,1:0:0:0:
336,224,99268,1,0,0:0:0:0:
440,224,99385,1,0,0:0:0:0:
336,224,99502,1,0,0:0:0:0:
72,224,99620,6,0,L|432:224,1,330.000012588501,4|0,3:0|0:0,0:0:0:0:
504,224,99971,1,0,0:0:0:0:
272,224,100088,2,0,L|272:48,1,165.000006294251,0|0,1:0|0:0,0:0:0:0:
448,224,100323,2,0,L|448:48,1,165.000006294251,0|0,1:0|0:0,0:0:0:0:
188,128,100557,6,0,P|40:208|192:184,1,458.333333333333,0|0,1:0|0:0,0:0:0:0:
344,204,101026,2,0,P|492:120|336:148,1,458.333333333333,0|0,1:0|0:0,0:0:0:0:
64,96,101495,5,4,3:0:0:0:
160,96,101612,1,0,0:0:0:0:
40,96,101729,2,0,L|40:264,1,165.000006294251,0|0,0:0|0:0,0:0:0:0:
264,96,101963,2,0,P|376:128|248:224,1,330.000012588501,0|0,1:0|0:0,0:0:0:0:
176,240,102315,1,0,0:0:0:0:
384,240,102432,5,4,3:0:0:0:
472,240,102549,1,0,0:0:0:0:
384,240,102666,1,0,0:0:0:0:
288,240,102784,1,0,0:0:0:0:
96,240,102901,2,0,P|-24:184|112:160,1,330.000012588501,0|0,1:0|0:0,0:0:0:0:
192,144,103252,1,0,0:0:0:0:
400,144,103370,6,0,L|24:136,1,330.000012588501,4|0,3:0|0:0,0:0:0:0:
152,136,103721,1,0,0:0:0:0:
392,144,103838,1,0,1:0:0:0:
496,120,103955,1,0,0:0:0:0:
392,144,104073,1,0,0:0:0:0:
496,120,104190,1,0,0:0:0:0:
280,208,104307,5,0,1:0:0:0:
176,184,104424,1,0,0:0:0:0:
280,208,104542,1,0,0:0:0:0:
176,184,104659,1,0,0:0:0:0:
392,216,104776,2,0,P|488:168|320:168,1,495.000018882752,0|0,1:0|0:0,0:0:0:0:
120,144,105245,5,4,3:0:0:0:
224,128,105362,1,0,0:0:0:0:
120,144,105479,1,0,0:0:0:0:
24,112,105596,1,0,0:0:0:0:
224,128,105713,5,0,1:0:0:0:
120,112,105830,1,0,0:0:0:0:
24,168,105948,1,0,0:0:0:0:
120,240,106064,1,0,0:0:0:0:
376,128,106182,6,0,P|488:160|360:272,1,330.000012588501,4|0,3:0|0:0,0:0:0:0:
296,288,106534,1,0,0:0:0:0:
96,296,106651,2,0,L|96:64,1,220.000008392334,0|0,1:0|0:0,0:0:0:0:
288,288,106885,2,0,L|288:64,1,220.000008392334,0|0,0:0|0:0,0:0:0:0:
96,304,107120,6,0,L|496:304,3,330.000012588501,4|2|2|2,3:0|0:0|0:0|0:0,0:0:0:0:
426,304,108057,6,0,L|96:304,3,330.000012588501,4|2|2|2,3:0|0:0|0:0|0:0,0:0:0:0:
96,304,108995,5,4,3:0:0:0:
312,248,109229,1,4,3:0:0:0:
64,304,109463,1,4,3:0:0:0:
184,224,109697,1,4,3:0:0:0:
32,304,109932,5,4,3:0:0:0:
224,304,110166,1,4,3:0:0:0:
416,304,110401,1,4,3:0:0:0:
168,264,110635,1,0,3:0:0:0:
128,248,110694,1,0,3:0:0:0:
128,208,110752,1,0,3:0:0:0:
160,192,110811,1,0,3:0:0:0:
480,128,110870,6,0,L|156:124,1,319.000009735108,4|0,3:1|0:0,0:0:0:0:
272,128,111221,1,0,0:0:0:0:
96,264,111338,2,0,L|232:128,2,137.5,0|0|0,1:0|0:0|0:0,0:0:0:0:
0,264,111690,1,0,0:0:0:0:
208,264,111807,6,0,P|320:232|192:160,1,275,4|0,3:0|0:0,0:0:0:0:
160,128,112159,1,0,0:0:0:0:
408,136,112276,2,0,L|496:16,1,137.5,0|0,1:0|0:0,0:0:0:0:
288,232,112510,2,0,L|200:112,1,137.5,4|0,3:0|0:0,0:0:0:0:
480,272,112745,6,0,L|88:272,1,319.000009735108,4|0,3:0|0:0,0:0:0:0:
264,272,113096,1,0,0:0:0:0:
56,272,113213,2,0,L|56:80,1,137.5,0|0,1:0|0:0,0:0:0:0:
152,136,113448,1,0,0:0:0:0:
56,134,113565,1,0,0:0:0:0:
256,136,113682,6,0,L|256:273,1,137.5,4|0,3:0|0:0,0:0:0:0:
80,144,113916,2,0,L|344:144,1,264,4|0,0:1|0:0,0:0:0:0:
344,144,114151,2,0,B|8:144|8:144|103:310,1,528,4|0,0:1|0:0,0:0:0:0:
344,144,114620,6,0,L|24:144,1,319.000009735108,4|0,3:0|0:0,0:0:0:0:
104,144,114971,1,0,0:0:0:0:
408,264,115088,2,0,L|544:128,2,137.5,0|0|0,1:0|0:0|0:0,0:0:0:0:
312,264,115440,1,0,0:0:0:0:
120,272,115557,6,0,P|8:240|136:168,1,275,4|0,3:0|0:0,0:0:0:0:
176,144,115909,1,0,0:0:0:0:
416,144,116026,2,0,L|328:24,1,137.5,0|0,1:0|0:0,0:0:0:0:
160,144,116260,2,0,L|248:24,1,137.5,4|0,3:0|0:0,0:0:0:0:
56,176,116495,6,0,L|388:176,1,319.000009735108,4|0,3:0|0:0,0:0:0:0:
484,176,116846,1,0,0:0:0:0:
168,248,116963,2,0,L|48:144,2,137.5,0|0|0,1:0|0:0|0:0,0:0:0:0:
288,248,117315,1,0,0:0:0:0:
40,248,117432,6,0,L|376:248,1,319.000009735108,4|2,3:0|0:0,0:0:0:0:
480,248,117784,1,2,0:0:0:0:
359,248,117901,1,2,0:0:0:0:
464,216,118018,1,2,0:0:0:0:
375,216,118135,1,2,0:0:0:0:
448,184,118252,1,2,0:0:0:0:
128,160,118370,6,0,L|472:160,1,319.000009735108,4|0,3:1|0:0,0:0:0:0:
368,160,118721,1,0,0:0:0:0:
112,160,118838,2,0,L|-24:24,2,137.5,0|0|0,1:0|0:0|0:0,0:0:0:0:
208,160,119190,1,0,0:0:0:0:
384,160,119307,6,0,P|496:192|368:264,1,275,4|0,3:0|0:0,0:0:0:0:
336,296,119659,1,0,0:0:0:0:
120,168,119776,2,0,L|32:48,1,137.5,0|0,1:0|0:0,0:0:0:0:
240,280,120010,2,0,L|328:160,1,137.5,4|0,3:0|0:0,0:0:0:0:
56,280,120245,6,0,L|412:280,1,319.000009735108,4|0,3:0|0:0,0:0:0:0:
264,280,120596,1,0,0:0:0:0:
464,280,120713,2,0,L|464:128,1,137.5,0|0,1:0|0:0,0:0:0:0:
360,144,120948,1,0,0:0:0:0:
464,142,121065,1,0,0:0:0:0:
256,144,121182,6,0,L|256:281,1,137.5,4|0,3:0|0:0,0:0:0:0:
70,144,121416,2,0,L|334:144,1,264,4|0,0:1|0:0,0:0:0:0:
336,144,121651,2,0,B|0:144|0:144|120:352,1,528,4|0,0:1|0:0,0:0:0:0:
336,144,122120,6,0,L|0:144,1,319.000009735108,4|0,3:0|0:0,0:0:0:0:
128,144,122471,1,0,0:0:0:0:
336,144,122588,2,0,L|472:8,2,137.5,0|0|0,1:0|0:0|0:0,0:0:0:0:
240,144,122940,1,0,0:0:0:0:
416,272,123057,6,0,P|506:233|378:161,1,275,4|0,3:0|0:0,0:0:0:0:
336,136,123409,1,0,0:0:0:0:
80,256,123526,2,0,L|40:120,1,137.5,0|0,1:0|0:0,0:0:0:0:
224,336,123760,2,0,L|264:200,1,137.5,4|0,3:0|0:0,0:0:0:0:
8,272,123995,6,0,L|364:272,1,319.000009735108,4|0,3:0|0:0,0:0:0:0:
248,272,124346,1,0,0:0:0:0:
424,160,124463,1,0,1:0:0:0:
320,160,124580,2,0,L|320:312,1,137.5,0|0,0:0|0:0,0:0:0:0:
512,160,124815,1,0,0:0:0:0:
240,152,124932,6,0,P|136:176|240:232,1,275,4|0,3:0|0:0,0:0:0:0:
320,208,125284,1,0,0:0:0:0:
136,240,125401,2,0,L|120:72,1,137.5,0|0,1:0|0:0,0:0:0:0:
400,352,125635,2,0,L|416:184,1,137.5,4|0,3:0|0:0,0:0:0:0:
112,352,125870,5,4,0:1:0:0:
256,304,126104,1,0,0:0:0:0:
400,264,126338,2,0,L|408:144,1,110,0|0,1:0|0:0,0:0:0:0:
184,144,127052,2,0,L|368:136,1,165,4|0,3:0|1:0,0:0:0:0:
120,136,127708,1,0,0:0:0:0:
128,144,127755,5,2,0:0:0:0:
288,136,128067,1,2,0:0:0:0:
40,136,128246,1,2,0:0:0:0:
288,224,128424,2,0,L|288:96,1,110,2|2,0:0|0:0,0:0:0:0:
128,56,128960,5,8,3:0:0:0:
56,88,129049,1,8,3:0:0:0:
40,160,129138,1,8,3:0:0:0:
88,208,129228,1,4,3:0:0:0:
312,208,129317,1,4,3:0:0:0:
64,240,129496,1,4,3:0:0:0:
72,272,129853,5,8,3:0:0:0:
352,304,130032,1,8,3:0:0:0:
416,304,130121,1,8,3:0:0:0:
464,256,130210,1,8,3:0:0:0:
464,184,130299,1,4,3:0:0:0:
400,136,130389,1,4,3:0:0:0:
336,152,130478,1,4,3:0:0:0:
168,96,130567,6,0,L|40:96,1,110,4|0,0:1|0:0,0:0:0:0:
304,96,130918,2,0,L|304:256,1,110,0|0,1:0|0:0,0:0:0:0:
216,208,131182,1,0,0:0:0:0:
72,208,131269,2,0,L|72:80,1,110,4|0,3:0|0:0,0:0:0:0:
336,208,131621,1,0,1:0:0:0:
208,208,131797,1,2,0:0:0:0:
448,128,131972,6,0,L|280:128,2,165,2|2|2,0:0|0:0|0:0,0:0:0:0:
256,96,132675,2,0,L|421:96,2,165,2|2|2,0:0|0:0|0:0,0:0:0:0:
504,96,133378,6,0,L|504:232,1,110,4|0,3:0|0:0,0:0:0:0:
384,208,133730,1,0,1:0:0:0:
128,320,133906,2,0,L|128:208,1,110,4|4,3:0|3:0,0:0:0:0:
232,208,134258,1,0,0:0:0:0:
480,200,134433,1,0,1:0:0:0:
336,200,134609,2,0,L|296:152,2,36.6666666666667,2|2|0,0:0|0:0|0:0,0:0:0:0:
472,200,134784,6,0,L|344:200,1,110,4|0,3:0|0:0,0:0:0:0:
56,122,135136,2,0,L|56:264,1,110,0|0,1:0|0:0,0:0:0:0:
208,232,135487,2,0,L|96:232,1,110,4|0,3:0|0:0,0:0:0:0:
372,232,135839,1,0,1:0:0:0:
120,232,136190,6,0,L|116:107,1,110,4|0,3:0|0:0,0:0:0:0:
456,96,136542,2,0,L|456:240,1,110,0|2,1:0|0:0,0:0:0:0:
376,208,136805,1,2,0:0:0:0:
216,208,136893,2,0,L|216:83,1,110,4|0,3:0|0:0,0:0:0:0:
480,152,137244,1,0,1:0:0:0:
376,152,137420,1,0,0:0:0:0:
104,104,137596,6,0,L|280:104,2,165,2|2|2,0:0|0:0|0:0,0:0:0:0:
328,72,138299,2,0,L|163:72,2,165,2|2|2,0:0|0:0|0:0,0:0:0:0:
56,72,139002,6,0,L|56:232,1,110,4|0,3:0|0:0,0:0:0:0:
160,184,139353,1,0,1:0:0:0:
400,296,139530,2,0,L|400:160,1,110,4|4,3:0|3:0,0:0:0:0:
280,184,139881,1,0,0:0:0:0:
512,184,140056,1,0,1:0:0:0:
224,120,140233,1,2,0:0:0:0:
160,136,140320,1,2,0:0:0:0:
128,184,140408,5,0,3:0:0:0:
144,248,140496,1,0,3:0:0:0:
192,288,140584,1,0,3:0:0:0:
256,264,140671,1,0,3:0:0:0:
408,240,140759,5,0,3:0:0:0:
472,192,140847,1,0,3:0:0:0:
480,120,140936,1,0,3:0:0:0:
408,80,141023,1,0,3:0:0:0:
224,192,141111,5,0,3:0:0:0:
152,144,141199,1,0,3:0:0:0:
160,72,141287,1,0,3:0:0:0:
224,32,141374,1,0,3:0:0:0:
448,240,141462,5,0,3:0:0:0:
480,272,141550,1,0,3:0:0:0:
448,304,141639,1,0,3:0:0:0:
256,184,141727,1,0,3:0:0:0:
464,176,141814,6,0,L|464:66,1,110,4|0,0:1|0:0,0:0:0:0:
224,112,142166,2,0,L|224:272,1,110,0|0,1:0|0:0,0:0:0:0:
312,224,142429,1,0,0:0:0:0:
456,224,142517,2,0,L|456:96,1,110,4|0,3:0|0:0,0:0:0:0:
192,224,142869,1,0,1:0:0:0:
320,224,143045,1,2,0:0:0:0:
80,144,143220,6,0,L|248:144,2,165,2|2|2,0:0|0:0|0:0,0:0:0:0:
268,112,143923,2,0,L|103:112,2,165,2|2|2,0:0|0:0|0:0,0:0:0:0:
24,112,144626,6,0,L|24:248,1,110,4|0,3:0|0:0,0:0:0:0:
144,224,144977,1,0,1:0:0:0:
400,336,145153,2,0,L|400:224,1,110,4|4,3:0|3:0,0:0:0:0:
296,224,145505,1,0,0:0:0:0:
48,216,145680,1,0,1:0:0:0:
192,216,145856,2,0,L|232:168,2,36.6666666666667,2|2|0,0:0|0:0|0:0,0:0:0:0:
64,216,146032,6,0,L|192:216,1,110,4|0,3:0|0:0,0:0:0:0:
472,138,146384,2,0,L|472:280,1,110,0|0,1:0|0:0,0:0:0:0:
296,248,146735,2,0,L|408:248,1,110,4|0,3:0|0:0,0:0:0:0:
152,240,147086,2,0,L|152:128,1,110,0|0,1:0|0:0,0:0:0:0:
400,248,147438,6,0,L|404:123,1,110,4|0,3:0|0:0,0:0:0:0:
72,112,147789,2,0,L|72:256,1,110,0|2,1:0|0:0,0:0:0:0:
152,224,148052,1,2,0:0:0:0:
312,224,148141,2,0,L|312:99,1,110,4|0,3:0|0:0,0:0:0:0:
48,168,148493,1,0,1:0:0:0:
152,168,148668,1,0,0:0:0:0:
424,120,148844,6,0,L|248:120,2,165,2|2|2,0:0|0:0|0:0,0:0:0:0:
184,88,149547,2,0,L|349:88,2,165,2|2|2,0:0|0:0|0:0,0:0:0:0:
472,88,150250,6,0,L|472:248,1,110,4|0,3:0|0:0,0:0:0:0:
368,200,150602,1,0,1:0:0:0:
128,312,150777,2,0,L|128:176,1,110,4|4,3:0|3:0,0:0:0:0:
232,200,151129,1,0,0:0:0:0:
32,204,151305,1,0,1:0:0:0:
296,128,151480,1,2,0:0:0:0:
360,144,151568,1,2,0:0:0:0:
392,192,151656,5,0,3:0:0:0:
376,256,151744,1,0,3:0:0:0:
328,296,151832,1,0,3:0:0:0:
264,272,151920,1,0,3:0:0:0:
112,248,152008,5,0,3:0:0:0:
48,200,152095,1,0,3:0:0:0:
40,128,152183,1,0,3:0:0:0:
112,88,152271,1,0,3:0:0:0:
296,200,152359,5,0,3:0:0:0:
368,152,152447,1,0,3:0:0:0:
360,80,152535,1,0,3:0:0:0:
296,40,152623,1,0,3:0:0:0:
72,248,152711,5,0,3:0:0:0:
40,280,152798,1,0,3:0:0:0:
72,312,152886,1,0,3:0:0:0:
264,192,152974,1,0,3:0:0:0:
48,112,153062,6,0,L|48:256,1,110,4|0,0:1|0:0,0:0:0:0:
376,232,153414,1,0,1:0:0:0:
376,122,153589,1,0,0:0:0:0:
280,120,153677,1,0,0:0:0:0:
112,120,153765,2,0,L|112:230,1,110,4|0,3:0|0:0,0:0:0:0:
376,232,154117,1,0,1:0:0:0:
424,144,154292,1,0,0:0:0:0:
120,216,154468,6,0,L|312:216,2,165,2|2|2,0:0|0:0|0:0,0:0:0:0:
304,240,155171,2,0,L|168:240,1,110,2|0,0:0|0:0,0:0:0:0:
72,240,155546,5,2,0:0:0:0:
192,192,155818,1,2,0:0:0:0:
448,192,156091,1,4,1:0:0:0:
320,128,156391,1,0,0:0:0:0:
192,168,156766,6,0,L|480:168,1,220,4|0,3:0|1:0,0:0:0:0:
136,168,157729,5,2,0:0:0:0:
424,160,158197,1,2,0:0:0:0:
280,160,158354,1,2,0:0:0:0:
112,80,158588,6,0,L|112:336,1,220.000008392334,2|2,0:0|0:0,0:0:0:0:
304,328,159135,1,2,0:0:0:0:
112,328,159369,1,2,0:0:0:0:
304,328,159604,6,0,L|469:328,1,165.000006294251,2|2,0:0|0:0,0:0:0:0:
200,192,160072,2,0,L|200:312,1,110.000004196167,2|2,0:0|0:0,0:0:0:0:
360,224,160463,1,2,0:0:0:0:
64,152,161479,5,2,0:0:0:0:
64,152,161947,1,2,0:0:0:0:
200,152,162104,1,2,0:0:0:0:
392,120,162338,6,0,L|392:376,1,220.000008392334,2|2,0:0|0:0,0:0:0:0:
184,320,162885,1,2,0:0:0:0:
376,320,163119,1,2,0:0:0:0:
184,320,163354,6,0,L|19:320,1,165.000006294251,2|2,0:0|0:0,0:0:0:0:
288,184,163822,2,0,L|288:312,1,110.000004196167,2|2,0:0|0:0,0:0:0:0:
96,184,164232,1,4,3:0:0:0:
96,184,164408,5,4,3:0:0:0:
96,184,164525,1,2,0:0:0:0:
248,160,164643,1,2,0:0:0:0:
112,168,164760,1,2,0:0:0:0:
216,136,164877,1,2,0:0:0:0:
128,152,164994,1,2,0:0:0:0:
192,120,165111,1,2,0:0:0:0:
64,224,165229,6,0,L|240:224,1,165.000006294251,4|0,3:0|0:0,0:0:0:0:
64,224,165697,2,0,L|240:224,1,165.000006294251,0|0,1:0|0:0,0:0:0:0:
424,144,166166,6,0,L|248:144,1,165.000006294251,4|0,3:0|0:0,0:0:0:0:
424,144,166634,2,0,L|248:144,1,165.000006294251,0|0,1:0|0:0,0:0:0:0:
40,136,167104,6,0,L|216:136,1,165.000006294251,4|0,3:0|0:0,0:0:0:0:
432,128,167572,1,0,1:0:0:0:
360,104,167689,1,0,0:0:0:0:
176,272,167924,1,0,0:0:0:0:
264,272,168041,5,4,3:0:0:0:
456,272,168275,2,0,P|475:214|440:176,1,110.000004196167,2|0,0:0|0:0,0:0:0:0:
352,176,168510,2,0,P|264:128|360:80,1,220.000008392334,2|0,0:0|0:0,0:0:0:0:
496,208,168979,6,0,L|328:208,1,165.000006294251,4|0,3:0|0:0,0:0:0:0:
120,200,169447,1,0,1:0:0:0:
208,200,169604,2,0,L|208:72,1,110.000004196167,0|0,0:0|0:0,0:0:0:0:
40,288,169916,6,0,L|216:288,1,165.000006294251,4|0,3:0|0:0,0:0:0:0:
40,288,170385,2,0,L|216:288,1,165.000006294251,0|0,1:0|0:0,0:0:0:0:
416,296,170854,6,0,P|472:224|408:168,1,165.000006294251,4|0,3:0|0:0,0:0:0:0:
216,176,171322,2,0,L|326:176,1,110.000004196167,0|0,1:0|0:0,0:0:0:0:
128,112,171791,6,0,L|128:296,1,165.000006294251,4|0,3:0|0:0,0:0:0:0:
352,205,172260,1,2,0:0:0:0:
128,277,172494,1,0,1:0:0:0:
480,280,172729,6,0,L|304:280,1,165.000006294251,4|0,0:1|0:0,0:0:0:0:
472,176,173197,1,0,1:0:0:0:
384,176,173314,1,0,0:0:0:0:
160,184,173549,1,0,0:0:0:0:
344,184,173666,6,0,L|344:0,1,165.000006294251,4|0,3:0|0:0,0:0:0:0:
128,184,174135,2,0,L|128:349,1,165.000006294251,0|0,1:0|0:0,0:0:0:0:
445,184,174604,6,0,L|269:184,1,165.000006294251,4|0,3:0|0:0,0:0:0:0:
445,184,175072,1,0,1:0:0:0:
341,349,175189,2,0,L|341:184,1,165.000006294251,0|0,0:0|0:0,0:0:0:0:
160,184,175541,5,4,3:0:0:0:
352,88,175775,2,0,L|224:88,1,110.000004196167,4|0,0:1|0:0,0:0:0:0:
48,88,176010,2,0,L|48:256,1,165.000006294251,4|0,0:1|0:0,0:0:0:0:
368,248,176479,6,0,L|203:248,1,165.000006294251,4|0,3:0|0:0,0:0:0:0:
280,152,176947,1,0,1:0:0:0:
376,152,177064,1,0,0:0:0:0:
376,152,177299,1,0,0:0:0:0:
184,152,177416,6,0,L|184:264,1,82.5000031471254,4|0,3:0|0:0,0:0:0:0:
280,232,177650,1,0,0:0:0:0:
280,232,177885,2,0,L|116:231,1,165.000006294251,0|0,1:0|0:0,0:0:0:0:
432,344,178354,6,0,L|432:152,1,165.000006294251,4|0,3:0|0:0,0:0:0:0:
110,193,178822,2,0,L|28:193,1,82.5000031471254,0|0,1:0|0:0,0:0:0:0:
192,192,179174,1,0,0:0:0:0:
104,192,179291,6,0,L|104:96,1,82.5000031471254,4|0,3:0|0:0,0:0:0:0:
192,112,179525,1,2,0:0:0:0:
104,109,179643,1,2,0:0:0:0:
296,72,179760,1,2,0:0:0:0:
417,103,179878,1,2,0:0:0:0:
312,72,179994,1,2,0:0:0:0:
389,74,180112,1,2,0:0:0:0:
152,112,180229,6,0,L|152:304,1,165.000006294251,4|0,0:1|0:0,0:0:0:0:
264,280,180697,1,0,1:0:0:0:
168,280,180814,1,0,0:0:0:0:
512,280,181088,1,4,3:0:0:0:
512,240,181166,5,0,0:0:0:0:
352,240,181400,1,0,0:0:0:0:
187,240,181635,2,0,L|352:240,1,165.000006294251,0|0,1:0|0:0,0:0:0:0:
56,80,182104,6,0,L|32:248,1,165.000006294251,4|0,3:0|0:0,0:0:0:0:
328,232,182572,1,0,1:0:0:0:
416,232,182689,1,0,0:0:0:0:
328,232,182807,1,0,0:0:0:0:
248,232,182924,1,0,0:0:0:0:
464,232,183041,5,4,3:0:0:0:
304,200,183275,2,0,L|304:320,1,110.000004196167,4|0,0:1|0:0,0:0:0:0:
104,272,183510,2,0,P|32:216|136:168,1,247.500009441376,4|0,0:1|0:0,0:0:0:0:
312,176,183979,6,0,L|504:176,1,165.000006294251,4|0,3:0|0:0,0:0:0:0:
280,88,184447,1,0,1:0:0:0:
192,88,184564,1,0,0:0:0:0:
408,88,184799,1,0,0:0:0:0:
224,88,184916,6,0,L|224:232,1,82.5000031471254,4|0,3:0|0:0,0:0:0:0:
304,176,185150,1,0,0:0:0:0:
480,88,185385,2,0,L|480:264,1,165.000006294251,0|0,1:0|0:0,0:0:0:0:
120,248,185854,6,0,L|285:248,1,165.000006294251,4|0,3:0|0:0,0:0:0:0:
448,248,186322,1,0,1:0:0:0:
328,248,186439,1,0,0:0:0:0:
104,88,186674,6,0,L|104:344,1,247.500009441376,2|2,0:0|0:0,0:0:0:0:
304,272,187260,1,2,0:0:0:0:
456,272,187494,1,2,0:0:0:0:
136,264,187729,6,0,L|136:72,1,165.000006294251,4|0,3:0|0:0,0:0:0:0:
304,264,188197,2,0,L|304:72,1,165.000006294251,0|0,1:0|0:0,0:0:0:0:
144,264,188666,6,0,L|144:72,1,165.000006294251,4|0,3:0|0:0,0:0:0:0:
0,264,189135,1,0,1:0:0:0:
152,240,189369,1,0,3:0:0:0:
184,224,189428,1,0,3:0:0:0:
192,184,189486,1,0,3:0:0:0:
152,152,189545,1,0,3:0:0:0:
16,264,189604,6,0,L|16:72,1,165.000006294251,4|0,3:0|0:0,0:0:0:0:
168,264,190072,2,0,L|168:72,1,165.000006294251,0|0,1:0|0:0,0:0:0:0:
328,264,190541,6,0,L|328:72,1,165.000006294251,4|0,3:0|0:0,0:0:0:0:
480,264,191010,1,0,1:0:0:0:
328,280,191244,1,0,3:0:0:0:
280,256,191303,1,0,3:0:0:0:
280,208,191361,1,0,3:0:0:0:
320,176,191420,1,0,3:0:0:0:
464,264,191479,6,0,L|296:264,1,165.000006294251,4|0,3:0|0:0,0:0:0:0:
464,184,191947,2,0,L|280:184,1,165.000006294251,0|0,1:0|0:0,0:0:0:0:
128,88,192416,6,0,L|312:88,1,165.000006294251,4|0,3:0|0:0,0:0:0:0:
128,176,192885,1,0,1:0:0:0:
312,176,193119,1,0,3:0:0:0:
336,192,193178,1,0,3:0:0:0:
344,224,193236,1,0,3:0:0:0:
320,256,193295,1,0,3:0:0:0:
56,344,193354,6,0,L|240:344,1,165.000006294251,4|0,3:0|0:0,0:0:0:0:
56,264,193822,2,0,L|240:264,1,165.000006294251,0|0,1:0|0:0,0:0:0:0:
392,168,194291,6,0,L|208:168,1,165.000006294251,4|0,3:0|0:0,0:0:0:0:
384,64,194760,2,0,L|200:64,1,165.000006294251,0|0,1:0|0:0,0:0:0:0:
408,136,195229,5,4,3:0:0:0:
456,160,195307,1,0,3:0:0:0:
480,200,195385,1,0,3:0:0:0:
480,240,195463,1,4,3:0:0:0:
456,288,195541,1,0,3:0:0:0:
400,304,195619,1,0,3:0:0:0:
216,296,195697,5,4,3:0:0:0:
168,272,195775,1,0,3:0:0:0:
144,232,195853,1,0,3:0:0:0:
144,192,195932,1,4,3:0:0:0:
168,144,196009,1,0,3:0:0:0:
224,128,196087,1,0,3:0:0:0:
400,128,196166,5,4,3:0:0:0:
448,104,196244,1,0,3:0:0:0:
432,56,196322,1,0,3:0:0:0:
264,40,196400,1,4,3:0:0:0:
216,80,196479,1,0,3:0:0:0:
256,128,196557,1,0,3:0:0:0:
432,128,196635,5,4,3:0:0:0:
488,96,196713,1,0,3:0:0:0:
440,64,196791,1,0,3:0:0:0:
232,136,196869,1,4,3:0:0:0:
176,96,196947,1,0,3:0:0:0:
240,64,197025,1,0,3:0:0:0:
384,136,197104,5,4,3:0:0:0:
456,168,197182,1,0,3:0:0:0:
496,232,197260,1,0,3:0:0:0:
472,304,197338,1,4,3:0:0:0:
416,336,197416,1,0,3:0:0:0:
344,312,197494,1,0,3:0:0:0:
128,136,197572,5,4,3:0:0:0:
56,168,197650,1,0,3:0:0:0:
16,232,197728,1,0,3:0:0:0:
40,304,197807,1,4,3:0:0:0:
96,336,197884,1,0,3:0:0:0:
168,312,197962,1,0,3:0:0:0:
376,168,198041,5,4,3:0:0:0:
432,168,198119,1,0,3:0:0:0:
488,168,198197,1,0,3:0:0:0:
264,88,198275,1,4,3:0:0:0:
208,88,198353,1,0,3:0:0:0:
152,88,198431,1,0,3:0:0:0:
392,88,198510,5,4,3:0:0:0:
464,88,198588,1,0,3:0:0:0:
392,88,198666,1,0,3:0:0:0:
240,168,198744,1,4,3:0:0:0:
168,168,198822,1,0,3:0:0:0:
240,168,198900,1,0,3:0:0:0:
448,232,198979,5,4,3:0:0:0:
224,232,199135,1,0,3:0:0:0:
184,224,199213,1,0,3:0:0:0:
464,232,199369,1,0,3:0:0:0:
488,184,199447,1,0,3:0:0:0:
224,232,199604,1,0,3:0:0:0:
184,224,199682,1,0,3:0:0:0:
464,232,199838,1,0,3:0:0:0:
488,184,199916,5,0,3:0:0:0:
320,232,200072,1,0,3:0:0:0:
312,192,200150,1,0,3:0:0:0:
160,240,200307,1,0,3:0:0:0:
144,192,200385,1,0,3:0:0:0:
272,112,200541,1,0,3:0:0:0:
280,72,200619,1,0,3:0:0:0:
416,120,200776,1,0,3:0:0:0:
432,72,200854,1,0,3:0:0:0:
112,144,201322,5,0,3:0:0:0:
112,144,201557,1,2,0:0:0:0:
264,144,201791,1,0,3:0:0:0:
264,144,202026,1,2,0:0:0:0:
416,144,202260,1,0,3:0:0:0:
416,144,202495,1,2,0:0:0:0:
160,160,202729,6,0,P|276:128|144:88,2,330.000012588501
88,112,203900,1,0,0:0:0:0:
88,112,204057,1,0,0:0:0:0:
472,104,204135,2,0,L|252:104,1,220.000008392334
473,145,204604,6,0,L|129:145,1,330.000012588501,4|0,0:1|0:0,0:0:0:0:
64,272,205072,2,0,B|392:176|392:176|392:368,1,495.000018882752,0|0,1:0|0:0,0:0:0:0:
392,136,205541,6,0,B|64:40|64:40|64:193,1,495.000018882752,0|0,1:0|0:0,0:0:0:0:
64,272,206010,2,0,B|392:176|392:176|392:368,1,495.000018882752,0|0,1:0|0:0,0:0:0:0:
200,336,206479,6,0,L|200:32,1,247.500009441376,4|0,3:0|0:0,0:0:0:0:
368,328,206713,2,0,L|368:72,1,165.000006294251,0|0,1:0|0:0,0:0:0:0:
168,336,206947,2,0,L|168:32,1,247.500009441376,4|0,3:0|0:0,0:0:0:0:
368,328,207182,2,0,L|504:120,1,165.000006294251,0|0,1:0|0:0,0:0:0:0:
136,336,207416,6,0,L|136:32,1,247.500009441376,4|0,3:0|0:0,0:0:0:0:
368,328,207650,2,0,L|368:160,1,165.000006294251,0|0,1:0|0:0,0:0:0:0:
104,336,207885,2,0,L|104:32,1,247.500009441376,4|0,3:0|0:0,0:0:0:0:
368,328,208119,2,0,L|504:112,1,165.000006294251,0|0,1:0|0:0,0:0:0:0:
216,96,208354,6,0,P|72:144|264:216,1,495.000018882752,4|0,3:0|0:0,0:0:0:0:
464,216,208822,2,0,L|328:80,1,165.000006294251,0|0,1:0|0:0,0:0:0:0:
96,216,209057,2,0,L|232:80,1,165.000006294251,0|0,1:0|0:0,0:0:0:0:
416,272,209291,6,0,B|88:176|88:176|88:368,1,495.000018882752,0|0,1:0|0:0,0:0:0:0:
88,136,209760,2,0,B|416:40|416:40|416:193,1,495.000018882752,0|0,1:0|0:0,0:0:0:0:
224,224,210229,6,0,P|112:184|192:120,1,220,0|0,1:0|0:0,0:0:0:0:
216,144,210580,1,0,0:0:0:0:
128,208,210697,2,0,P|8:208|88:104,1,275,0|0,1:0|0:0,0:0:0:0:
136,128,211049,1,0,0:0:0:0:
52,132,211166,6,0,P|184:220|312:88,1,330.000012588501,0|0,1:0|0:0,0:0:0:0:
216,112,211518,1,0,0:0:0:0:
316,364,211635,2,0,L|316:34,1,330.000012588501,0|0,1:0|0:0,0:0:0:0:
216,112,211986,1,0,0:0:0:0:
496,192,212104,6,0,L|104:200,1,330.000012588501,4|0,0:1|0:0,0:0:0:0:
48,272,212572,2,0,B|376:176|376:176|376:368,1,495.000018882752,0|0,1:0|0:0,0:0:0:0:
376,136,213041,6,0,B|48:40|48:40|48:193,1,495.000018882752,0|0,1:0|0:0,0:0:0:0:
48,272,213510,2,0,B|376:176|376:176|376:368,1,495.000018882752,0|0,1:0|0:0,0:0:0:0:
192,336,213979,6,0,L|192:32,1,247.500009441376,4|0,3:0|0:0,0:0:0:0:
368,328,214213,2,0,L|368:160,1,165.000006294251,0|0,1:0|0:0,0:0:0:0:
160,336,214447,2,0,L|160:32,1,247.500009441376,4|0,3:0|0:0,0:0:0:0:
368,328,214682,2,0,L|520:128,1,165.000006294251,0|0,1:0|0:0,0:0:0:0:
128,336,214916,6,0,L|128:32,1,247.500009441376,4|0,3:0|0:0,0:0:0:0:
368,328,215150,2,0,L|368:128,1,165.000006294251,0|0,1:0|0:0,0:0:0:0:
96,336,215385,2,0,L|96:32,1,247.500009441376,4|0,3:0|0:0,0:0:0:0:
368,328,215619,2,0,L|528:120,1,165.000006294251,0|0,1:0|0:0,0:0:0:0:
120,272,215854,6,0,B|448:144,1,330.000012588501,4|0,3:0|0:0,0:0:0:0:
416,96,216146,1,2,0:0:0:0:
336,96,216205,2,0,L|280:32,1,82.5000031471254,2|2,0:0|0:0,0:0:0:0:
128,104,216322,2,0,L|240:-24,1,165.000006294251,0|0,1:0|0:0,0:0:0:0:
456,232,216557,2,0,L|344:104,1,165.000006294251,0|0,1:0|0:0,0:0:0:0:
120,136,216791,6,0,B|448:40|448:40|448:193,1,495.000018882752,0|0,1:0|0:0,0:0:0:0:
448,193,217260,2,0,B|120:97|120:97|120:289,1,495.000018882752,0|0,1:0|0:0,0:0:0:0:
336,288,217729,6,0,P|448:232|328:248,1,330,0|0,1:0|0:0,0:0:0:0:
248,232,218197,2,0,P|104:176|256:192,1,412.5,0|0,1:0|0:0,0:0:0:0:
440,280,218666,6,0,L|392:176,1,96.2500009179115,4|0,3:0|0:0,0:0:0:0:
256,288,218783,2,0,L|208:160,1,96.2500009179115,4|0,3:0|0:0,0:0:0:0:
80,288,218900,2,0,L|32:176,1,96.2500009179115,4|0,3:0|0:0,0:0:0:0:
464,280,219135,1,4,3:0:0:0:
256,296,219369,2,0,L|256:56,1,192.500001835823,4|4,3:0|3:0,0:0:0:0:
432,272,219604,6,0,L|32:272,1,330.000012588501,4|0,3:0|0:0,0:0:0:0:
416,256,220072,6,0,P|264:368|184:104,1,495.000018882752,0|0,1:0|0:0,0:0:0:0:
336,168,220541,2,0,P|440:216|328:96,1,495.000018882752,0|0,1:0|0:0,0:0:0:0:
184,168,221010,2,0,P|11:229|191:269,1,495.000018882752,0|0,1:0|0:0,0:0:0:0:
400,264,221479,6,0,L|488:104,1,165.000006294251,4|0,3:0|0:0,0:0:0:0:
344,264,221713,2,0,L|256:104,1,165.000006294251,0|0,0:0|0:0,0:0:0:0:
64,112,221947,1,0,1:0:0:0:
160,112,222064,1,0,0:0:0:0:
271,111,222182,2,0,L|272:320,1,165.000006294251,0|0,0:0|0:0,0:0:0:0:
96,264,222416,6,0,P|-24:208|104:160,1,330.000012588501,4|0,3:0|0:0,0:0:0:0:
232,128,222807,1,0,0:0:0:0:
392,136,222885,1,0,1:0:0:0:
392,136,223041,1,0,0:0:0:0:
232,128,223119,2,0,L|232:360,1,220.000008392334,0|0,0:0|0:0,0:0:0:0:
456,336,223354,6,0,L|112:272,1,330.000012588501,4|0,3:0|0:0,0:0:0:0:
24,272,223705,1,0,0:0:0:0:
240,224,223822,2,0,L|240:48,1,165.000006294251,0|0,1:0|0:0,0:0:0:0:
64,224,224057,2,0,L|64:48,1,165.000006294251,0|0,1:0|0:0,0:0:0:0:
320,96,224291,6,0,P|504:200|312:224,1,495.000018882752,0|0,1:0|0:0,0:0:0:0:
184,248,224760,2,0,P|6:170|186:97,1,495.000018882752,0|0,1:0|0:0,0:0:0:0:
408,224,225229,6,0,P|472:216|360:128,1,330.000012588501,4|0,3:0|0:0,0:0:0:0:
272,104,225580,1,0,0:0:0:0:
48,256,225697,2,0,L|80:32,1,165.000006294251,0|0,1:0|0:0,0:0:0:0:
216,312,225932,2,0,L|184:88,1,165.000006294251,0|0,0:0|0:0,0:0:0:0:
16,320,226166,6,0,L|344:248,1,330.000012588501,4|0,3:0|0:0,0:0:0:0:
248,224,226518,1,0,0:0:0:0:
48,232,226635,2,0,L|24:32,1,165.000006294251,0|0,1:0|0:0,0:0:0:0:
144,304,226869,2,0,L|168:104,1,165.000006294251,0|0,0:0|0:0,0:0:0:0:
408,16,227104,6,0,L|408:400,1,330.000012588501,4|0,3:0|0:0,0:0:0:0:
104,272,227572,6,0,B|432:176|432:176|432:368,1,495.000018882752,0|0,1:0|0:0,0:0:0:0:
432,136,228041,2,0,B|104:40|104:40|104:193,1,495.000018882752,0|0,1:0|0:0,0:0:0:0:
104,272,228510,2,0,B|432:176|432:176|432:368,1,495.000018882752,0|0,1:0|0:0,0:0:0:0:
224,328,228979,6,0,L|48:32,1,330.000012588501,4|0,3:0|0:0,0:0:0:0:
152,88,229330,1,0,0:0:0:0:
416,88,229447,2,0,L|416:253,1,165.000006294251,0|0,1:0|0:0,0:0:0:0:
272,280,229682,2,0,L|272:115,1,165.000006294251,0|0,0:0|0:0,0:0:0:0:
472,328,229916,6,0,L|104:256,1,330.000012588501,4|0,3:0|0:0,0:0:0:0:
240,264,230307,1,0,0:0:0:0:
400,256,230385,1,0,1:0:0:0:
400,256,230541,1,0,0:0:0:0:
240,264,230619,2,0,L|240:32,1,220.000008392334,0|0,0:0|0:0,0:0:0:0:
464,312,230854,6,0,L|64:312,3,330.000012588501,4|2|2|2,3:0|0:0|0:0|0:0,0:0:0:0:
134,312,231791,2,0,L|464:312,3,330.000012588501,4|2|2|2,3:0|0:0|0:0|0:0,0:0:0:0:
464,312,232729,5,4,3:0:0:0:
232,232,232963,1,4,3:0:0:0:
468,300,233197,1,4,3:0:0:0:
144,232,233431,1,4,3:0:0:0:
472,344,233666,6,0,L|296:56,1,330.000012588501,4|2,3:0|0:0,0:0:0:0:
400,64,234018,1,2,0:0:0:0:
168,184,234135,2,0,L|128:24,1,165.000006294251,4|2,3:0|0:0,0:0:0:0:
352,128,234369,1,0,3:0:0:0:
392,152,234428,1,0,3:0:0:0:
392,192,234486,1,0,3:0:0:0:
352,216,234545,1,0,3:0:0:0:
32,128,234604,6,0,L|368:128,1,330.000012588501,4|0,3:1|0:0,0:0:0:0:
240,128,234955,1,0,0:0:0:0:
416,264,235072,2,0,L|280:128,2,137.5,0|0|0,1:0|0:0|0:0,0:0:0:0:
512,264,235424,1,0,0:0:0:0:
304,264,235541,6,0,P|192:232|320:160,1,275,4|0,3:0|0:0,0:0:0:0:
352,128,235893,1,0,0:0:0:0:
104,136,236010,2,0,L|16:16,1,137.5,0|0,1:0|0:0,0:0:0:0:
224,232,236244,2,0,L|312:112,1,137.5,4|0,3:0|0:0,0:0:0:0:
32,272,236479,6,0,L|428:272,1,319.000009735108,4|0,3:0|0:0,0:0:0:0:
248,272,236830,1,0,0:0:0:0:
456,272,236947,2,0,L|456:80,1,137.5,0|0,1:0|0:0,0:0:0:0:
360,136,237182,1,0,0:0:0:0:
456,134,237299,1,0,0:0:0:0:
256,136,237416,6,0,L|256:273,1,137.5,4|0,3:0|0:0,0:0:0:0:
432,144,237650,2,0,L|168:144,1,264,4|0,0:1|0:0,0:0:0:0:
168,144,237885,2,0,B|504:144|504:144|409:310,1,528,4|0,0:1|0:0,0:0:0:0:
168,144,238354,6,0,L|492:144,1,319.000009735108,4|0,3:0|0:0,0:0:0:0:
408,144,238705,1,0,0:0:0:0:
104,264,238822,2,0,L|-32:128,2,137.5,0|0|0,1:0|0:0|0:0,0:0:0:0:
200,264,239174,1,0,0:0:0:0:
392,272,239291,6,0,P|504:240|376:168,1,275,4|0,3:0|0:0,0:0:0:0:
336,144,239643,1,0,0:0:0:0:
96,144,239760,2,0,L|184:24,1,137.5,0|0,1:0|0:0,0:0:0:0:
352,144,239994,2,0,L|264:24,1,137.5,4|0,3:0|0:0,0:0:0:0:
464,176,240229,6,0,L|132:176,1,319.000009735108,4|0,3:0|0:0,0:0:0:0:
48,176,240580,1,0,0:0:0:0:
344,248,240697,2,0,L|464:144,2,137.5,0|0|0,1:0|0:0|0:0,0:0:0:0:
224,248,241049,1,0,0:0:0:0:
472,248,241166,6,0,L|132:248,1,319.000009735108,4|2,3:0|0:0,0:0:0:0:
24,248,241518,1,2,0:0:0:0:
153,248,241635,1,2,0:0:0:0:
24,248,241752,1,2,0:0:0:0:
123,248,241869,1,2,0:0:0:0:
24,248,241986,1,2,0:0:0:0:
384,160,242104,6,0,L|36:160,1,319.000009735108,4|0,3:1|0:0,0:0:0:0:
144,160,242455,1,0,0:0:0:0:
400,160,242572,2,0,L|536:24,2,137.5,0|0|0,1:0|0:0|0:0,0:0:0:0:
304,160,242924,1,0,0:0:0:0:
128,160,243041,6,0,P|16:192|144:264,1,275,4|0,3:0|0:0,0:0:0:0:
176,296,243393,1,0,0:0:0:0:
392,168,243510,2,0,L|480:48,1,137.5,0|0,1:0|0:0,0:0:0:0:
272,280,243744,2,0,L|184:160,1,137.5,4|0,3:0|0:0,0:0:0:0:
456,280,243979,6,0,L|100:280,1,319.000009735108,4|0,3:0|0:0,0:0:0:0:
248,280,244330,1,0,0:0:0:0:
48,280,244447,2,0,L|48:128,1,137.5,0|0,1:0|0:0,0:0:0:0:
152,144,244682,1,0,0:0:0:0:
48,142,244799,1,0,0:0:0:0:
240,144,244916,6,0,L|240:281,1,137.5,4|0,3:0|0:0,0:0:0:0:
440,144,245150,2,0,L|96:144,1,264,4|0,0:1|0:0,0:0:0:0:
176,144,245385,2,0,B|512:144|512:144|392:352,1,528,4|0,0:1|0:0,0:0:0:0:
176,144,245854,6,0,L|528:144,1,319.000009735108,4|0,3:0|0:0,0:0:0:0:
384,144,246205,1,0,0:0:0:0:
176,144,246322,2,0,L|40:8,2,137.5,0|0|0,1:0|0:0|0:0,0:0:0:0:
272,144,246674,1,0,0:0:0:0:
96,272,246791,6,0,P|6:233|134:161,1,275,4|0,3:0|0:0,0:0:0:0:
176,136,247143,1,0,0:0:0:0:
432,256,247260,2,0,L|472:120,1,137.5,0|0,1:0|0:0,0:0:0:0:
288,336,247494,2,0,L|248:200,1,137.5,4|0,3:0|0:0,0:0:0:0:
504,272,247729,6,0,L|152:272,1,319.000009735108,4|0,3:0|0:0,0:0:0:0:
264,272,248080,1,0,0:0:0:0:
88,160,248197,1,0,1:0:0:0:
192,160,248314,2,0,L|192:312,1,137.5,0|0,0:0|0:0,0:0:0:0:
0,160,248549,1,0,0:0:0:0:
272,152,248666,6,0,P|376:176|272:232,1,275,4|0,3:0|0:0,0:0:0:0:
208,208,249018,1,0,0:0:0:0:
304,232,249135,2,0,L|320:64,1,137.5,0|0,1:0|0:0,0:0:0:0:
112,352,249369,2,0,L|96:184,1,137.5,4|0,3:0|0:0,0:0:0:0:
384,312,249604,6,0,L|112:320,1,247.500009441376,4|0,3:0|0:0,0:0:0:0:
416,328,250072,2,0,L|456:160,1,137.5,4|0,3:1|0:0,0:0:0:0:
256,232,250307,2,0,L|216:64,1,137.5,4|0,3:0|0:0,0:0:0:0:
424,232,250541,6,0,L|184:72,1,275,4|0,3:0|0:0,0:0:0:0:
280,80,250893,1,0,0:0:0:0:
504,232,251010,2,0,L|480:72,1,137.5,0|0,1:0|0:0,0:0:0:0:
296,232,251244,2,0,L|312:48,1,137.5,4|0,3:0|0:0,0:0:0:0:
104,232,251479,6,0,P|24:248|120:336,1,275,4|0,3:0|0:0,0:0:0:0:
216,336,251830,1,0,0:0:0:0:
400,328,251947,2,0,P|480:312|384:224,1,275,0|0,1:0|0:0,0:0:0:0:
288,224,252298,1,0,0:0:0:0:
88,232,252416,6,0,L|64:96,1,137.5,4|0,3:0|0:0,0:0:0:0:
344,112,252650,2,0,L|344:288,1,137.5,4|0,3:0|0:0,0:0:0:0:
48,232,252885,2,0,L|296:40,1,275,4|0,0:1|0:0,0:0:0:0:
48,160,253354,6,0,L|312:152,1,247.500009441376,4|0,3:0|0:0,0:0:0:0:
88,312,253822,2,0,L|48:136,1,137.5,0|0,1:0|0:0,0:0:0:0:
248,360,254057,2,0,L|288:184,1,137.5,4|0,3:0|0:0,0:0:0:0:
96,232,254291,6,0,L|328:40,1,275,4|0,3:0|0:0,0:0:0:0:
224,56,254643,1,0,0:0:0:0:
8,224,254760,2,0,L|48:64,1,137.5,0|0,1:0|0:0,0:0:0:0:
216,232,254994,2,0,L|200:48,1,137.5,4|0,3:0|0:0,0:0:0:0:
408,232,255229,6,0,P|488:248|392:336,1,275,4|0,0:1|0:0,0:0:0:0:
296,336,255580,1,0,0:0:0:0:
112,328,255697,2,0,P|32:312|128:224,1,275,4|0,0:1|0:0,0:0:0:0:
224,224,256048,1,0,0:0:0:0:
424,232,256166,6,0,L|448:96,1,137.5,4|0,0:1|0:0,0:0:0:0:
168,112,256400,2,0,L|168:288,1,137.5,4|0,3:0|0:0,0:0:0:0:
448,232,256635,2,0,L|312:104,1,137.5,4|0,3:0|0:0,0:0:0:0:
128,256,256869,2,0,L|104:96,1,137.5,4|0,3:0|0:0,0:0:0:0:
328,320,257104,6,0,L|512:104,1,247.500009441376,4|0,3:0|0:0,0:0:0:0:
96,328,257572,2,0,L|56:160,1,137.5,0|0,1:0|0:0,0:0:0:0:
256,232,257807,2,0,L|296:64,1,137.5,4|0,3:0|0:0,0:0:0:0:
88,232,258041,6,0,L|352:128,1,275,4|0,3:0|0:0,0:0:0:0:
256,136,258393,1,0,0:0:0:0:
16,232,258510,2,0,L|64:72,1,137.5,0|0,1:0|0:0,0:0:0:0:
232,232,258744,2,0,L|208:48,1,137.5,4|0,3:0|0:0,0:0:0:0:
408,232,258979,6,0,P|488:248|392:336,1,275,4|0,3:0|0:0,0:0:0:0:
296,336,259330,1,0,0:0:0:0:
112,328,259447,2,0,P|32:312|128:224,1,275,0|0,1:0|0:0,0:0:0:0:
224,224,259798,1,0,0:0:0:0:
424,232,259916,6,0,L|448:96,1,137.5,4|0,3:0|0:0,0:0:0:0:
168,112,260150,2,0,L|168:288,1,137.5,4|0,3:0|0:0,0:0:0:0:
464,232,260385,2,0,L|216:40,1,275,4|0,0:1|0:0,0:0:0:0:
72,256,260854,6,0,L|48:72,1,137.5,4|0,3:0|0:0,0:0:0:0:
192,256,261088,2,0,L|168:72,1,137.5,4|0,3:0|0:0,0:0:0:0:
320,256,261322,2,0,L|296:72,1,137.5,4|0,3:0|0:0,0:0:0:0:
440,256,261557,2,0,L|416:72,1,137.5,4|0,3:0|0:0,0:0:0:0:
224,224,261791,6,0,L|248:40,1,137.5,4|0,3:0|0:0,0:0:0:0:
416,272,262025,2,0,L|392:88,1,137.5,4|0,3:0|0:0,0:0:0:0:
192,256,262260,2,0,L|216:72,1,137.5,4|0,3:0|0:0,0:0:0:0:
432,288,262494,2,0,L|408:104,1,137.5,4|0,3:0|0:0,0:0:0:0:
184,96,262729,5,4,3:0:0:0:
112,112,262787,1,0,3:0:0:0:
96,184,262846,1,0,3:0:0:0:
152,248,262904,1,0,3:0:0:0:
320,248,262963,5,4,3:0:0:0:
392,208,263021,1,0,3:0:0:0:
408,128,263080,1,0,3:0:0:0:
336,80,263139,1,0,3:0:0:0:
152,240,263197,6,0,L|200:152,1,68.75,4|0,3:0|3:0,0:0:0:0:
352,240,263314,2,0,P|440:136|305:118,1,275,4|4,3:0|3:0,0:0:0:0:
136,152,263666,5,4,3:0:0:0:
112,160,263725,1,0,3:0:0:0:
104,200,263783,1,0,3:0:0:0:
128,240,263842,1,0,3:0:0:0:
312,240,263900,5,4,3:0:0:0:
336,232,263959,1,0,3:0:0:0:
344,192,264017,1,0,3:0:0:0:
320,152,264076,1,0,3:0:0:0:
104,144,264135,5,4,3:0:0:0:
48,200,264193,1,0,3:0:0:0:
64,272,264252,1,0,3:0:0:0:
136,296,264311,1,0,3:0:0:0:
344,264,264369,5,4,3:0:0:0:
400,208,264427,1,0,3:0:0:0:
384,136,264486,1,0,3:0:0:0:
312,112,264545,1,0,3:0:0:0:
80,296,264604,5,4,0:1:0:0:
264,296,264838,1,0,0:0:0:0:
72,336,265072,2,0,L|40:144,1,165.000006294251,0|0,1:0|0:0,0:0:0:0:
288,296,265776,5,4,3:0:0:0:
432,272,266010,2,0,L|456:80,1,165.000006294251,0|0,1:0|0:0,0:0:0:0:
160,224,266479,6,0,L|136:32,1,165.000006294251,4|0,3:0|0:0,0:0:0:0:
280,224,266947,2,0,L|464:160,1,165.000006294251,0|0,1:0|0:0,0:0:0:0:
280,200,267416,5,2,0:0:0:0:
320,176,267533,1,2,0:0:0:0:
120,200,267650,2,0,L|-8:48,2,165.000006294251,2|0|2,0:0|1:0|0:0,0:0:0:0:
328,176,268354,6,0,P|448:208|328:296,1,330.000012588501,4|0,3:0|1:0,0:0:0:0:
224,248,269057,1,2,0:0:0:0:
336,248,269525,6,0,L|512:144,2,165.000006294251,4|0|2,3:0|1:0|0:0,0:0:0:0:
160,248,270229,6,0,P|72:240|192:144,1,330,4|0,3:0|0:0,0:0:0:0:
352,232,270697,2,0,L|384:24,1,165.000006294251,0|0,1:0|0:0,0:0:0:0:
112,72,271049,6,0,L|136:312,1,220,4|0,3:0|0:0,0:0:0:0:
320,264,271400,2,0,L|344:120,1,110,4|0,3:0|0:0,0:0:0:0:
144,264,271635,2,0,L|64:192,2,82.5000031471254,0|4|4,1:0|3:0|3:0,0:0:0:0:
448,256,272104,5,4,3:0:0:0:
344,128,272260,1,0,3:0:0:0:
344,128,272338,1,0,3:0:0:0:
240,128,272494,1,0,3:0:0:0:
240,128,272572,1,0,3:0:0:0:
136,128,272729,1,0,3:0:0:0:
136,128,272807,1,0,3:0:0:0:
280,208,272963,1,0,3:0:0:0:
280,208,273041,5,0,3:0:0:0:
384,208,273197,1,0,3:0:0:0:
384,208,273275,1,0,3:0:0:0:
264,232,273432,1,0,3:0:0:0:
264,232,273510,1,0,3:0:0:0:
400,240,273666,1,0,3:0:0:0:
416,272,273744,1,0,3:0:0:0:
424,296,273822,1,0,3:0:0:0:
416,320,273900,1,0,3:0:0:0:
216,328,273979,5,4,3:0:0:0:
72,152,274135,1,0,3:0:0:0:
72,152,274213,1,0,3:0:0:0:
176,152,274369,1,0,3:0:0:0:
176,152,274447,1,0,3:0:0:0:
280,152,274604,1,0,3:0:0:0:
280,152,274682,1,0,3:0:0:0:
136,232,274838,1,0,3:0:0:0:
136,232,274916,5,0,3:0:0:0:
32,232,275072,1,0,3:0:0:0:
32,232,275150,1,0,3:0:0:0:
152,256,275307,1,0,3:0:0:0:
152,256,275385,1,0,3:0:0:0:
280,104,275541,1,0,3:0:0:0:
296,136,275619,1,0,3:0:0:0:
304,160,275697,1,0,3:0:0:0:
296,184,275775,1,0,3:0:0:0:
96,192,275854,5,4,3:0:0:0:
64,216,275932,1,0,3:0:0:0:
48,240,276010,1,0,3:0:0:0:
48,280,276088,1,0,3:0:0:0:
64,320,276166,1,0,3:0:0:0:
96,336,276244,1,0,3:0:0:0:
136,328,276322,5,0,3:0:0:0:
160,288,276400,1,0,3:0:0:0:
144,248,276479,1,0,3:0:0:0:
104,232,276557,1,0,3:0:0:0:
64,256,276635,1,0,3:0:0:0:
64,296,276713,1,0,3:0:0:0:
112,320,276791,5,0,3:0:0:0:
160,288,276869,1,0,3:0:0:0:
192,232,276947,1,0,3:0:0:0:
176,176,277025,1,0,3:0:0:0:
112,160,277104,1,0,3:0:0:0:
48,192,277182,1,0,3:0:0:0:
32,264,277260,5,0,3:0:0:0:
80,320,277338,1,0,3:0:0:0:
160,320,277416,1,0,3:0:0:0:
224,288,277494,1,0,3:0:0:0:
264,224,277572,1,0,3:0:0:0:
216,152,277650,1,0,3:0:0:0:
144,200,277729,6,0,P|80:112|288:160,1,550.000020980836,4|0,3:0|0:0,0:0:0:0:
208,160,278666,6,0,P|328:264|464:80,1,440.000016784669,4|0,3:0|1:0,0:0:0:0:
24,176,279604,5,0,1:0:0:0:
256,192,279721,12,0,282416,0:0:0:0:
416,144,283002,5,0,1:0:0:0:
