osu file format v14

[General]
AudioFilename: audio.mp3
AudioLeadIn: 0
PreviewTime: 33693
Countdown: 0
SampleSet: Normal
StackLeniency: 0.2
Mode: 1
LetterboxInBreaks: 0
WidescreenStoryboard: 0

[Editor]
DistanceSpacing: 1
BeatDivisor: 4
GridSize: 32
TimelineZoom: 2

[Metadata]
Title:Bassdrop Freaks
TitleUnicode:ベィスドロップ・フリークス
Artist:Camellia feat. Nanahira
ArtistUnicode:かめりあ feat. ななひら
Creator:Misery
Version:Oni
Source:beatmania IIDX 22 PENDUAL
Tags:cametek かめりあ drumstep sugar wave a-style drum and bass dnb exit tunes meltical ddr dance revolution bassu duroppu
BeatmapID:1410097
BeatmapSetID:666248

[Difficulty]
HPDrainRate:5.2
CircleSize:4
OverallDifficulty:5.8
ApproachRate:9
SliderMultiplier:1.4
SliderTickRate:1

[Events]
//Background and Video events
0,0,"bg.jpg",0,0
//Break Periods
//Storyboard Layer 0 (Background)
//Storyboard Layer 1 (Fail)
//Storyboard Layer 2 (Pass)
//Storyboard Layer 3 (Foreground)
//Storyboard Sound Samples

[TimingPoints]
1515,335.195530726257,4,1,1,75,1,0
1515,-83.3333333333333,4,1,1,75,0,0
2855,-83.3333333333333,4,1,1,75,0,0
24308,-100,4,1,1,75,0,0
29671,-83.3333333333333,4,1,1,75,0,0
30341,-80,4,1,1,75,0,0
31012,-76.9230769230769,4,1,1,75,0,0
31682,-74.0740740740741,4,1,1,75,0,0
32352,-71.4285714285714,4,1,1,75,0,0
35034,-66.6666666666667,4,1,1,75,0,1
56487,-75.0001875004688,4,1,1,75,0,0
99392,-66.6666666666667,4,1,1,75,0,1
110118,-75.0001875004688,4,1,1,75,0,0

[Colours]
Combo1 : 0,0,255
Combo2 : 255,0,0

[HitObjects]
256,192,2520,5,0,0:0:0:0:
256,192,2688,1,0,0:0:0:0:
256,192,2855,1,6,0:0:0:0:
256,192,3190,1,0,0:0:0:0:
256,192,3526,1,8,0:0:0:0:
256,192,3609,1,0,0:0:0:0:
256,192,3693,1,0,0:0:0:0:
256,192,3861,1,0,0:0:0:0:
256,192,4028,1,2,0:0:0:0:
256,192,4196,1,0,0:0:0:0:
256,192,4364,1,0,0:0:0:0:
256,192,4531,1,8,0:0:0:0:
256,192,4699,1,2,0:0:0:0:
256,192,5034,1,0,0:0:0:0:
256,192,5118,1,0,0:0:0:0:
256,192,5202,1,2,0:0:0:0:
256,192,5453,1,0,0:0:0:0:
256,192,5537,1,8,0:0:0:0:
256,192,5704,1,0,0:0:0:0:
256,192,5872,1,0,0:0:0:0:
256,192,6040,1,0,0:0:0:0:
256,192,6207,1,8,0:0:0:0:
256,192,6375,1,2,0:0:0:0:
256,192,6459,1,0,0:0:0:0:
256,192,6542,1,8,0:0:0:0:
256,192,6626,1,0,0:0:0:0:
256,192,6710,1,2,0:0:0:0:
256,192,7045,1,8,0:0:0:0:
256,192,7213,1,8,0:0:0:0:
256,192,7380,1,2,0:0:0:0:
256,192,7548,1,2,0:0:0:0:
256,192,7632,1,0,0:0:0:0:
256,192,7716,1,0,0:0:0:0:
256,192,7883,1,2,0:0:0:0:
256,192,7967,1,0,0:0:0:0:
256,192,8051,1,0,0:0:0:0:
256,192,8218,1,2,0:0:0:0:
256,192,8554,1,0,0:0:0:0:
256,192,8889,1,8,0:0:0:0:
256,192,8973,1,0,0:0:0:0:
256,192,9056,1,0,0:0:0:0:
256,192,9224,1,0,0:0:0:0:
256,192,9392,1,2,0:0:0:0:
256,192,9727,1,0,0:0:0:0:
256,192,9811,1,0,0:0:0:0:
256,192,9894,1,8,0:0:0:0:
256,192,10062,1,2,0:0:0:0:
256,192,10397,1,0,0:0:0:0:
256,192,10481,1,0,0:0:0:0:
256,192,10565,1,2,0:0:0:0:
256,192,10732,1,0,0:0:0:0:
256,192,10900,1,2,0:0:0:0:
256,192,11068,1,0,0:0:0:0:
256,192,11235,1,2,0:0:0:0:
256,192,11403,1,0,0:0:0:0:
256,192,11570,1,2,0:0:0:0:
256,192,11738,1,0,0:0:0:0:
256,192,11906,1,2,0:0:0:0:
256,192,12073,1,0,0:0:0:0:
256,192,12241,1,2,0:0:0:0:
256,192,12408,1,0,0:0:0:0:
256,192,12492,1,2,0:0:0:0:
256,192,12576,1,0,0:0:0:0:
256,192,12660,1,0,0:0:0:0:
256,192,12744,1,2,0:0:0:0:
256,192,12911,1,0,0:0:0:0:
256,192,12995,1,2,0:0:0:0:
256,192,13079,1,0,0:0:0:0:
256,192,13246,1,0,0:0:0:0:
256,192,13330,1,2,0:0:0:0:
256,192,13414,1,0,0:0:0:0:
256,192,13498,1,0,0:0:0:0:
256,192,13582,1,2,0:0:0:0:
256,192,13917,1,0,0:0:0:0:
256,192,14252,1,8,0:0:0:0:
256,192,14420,1,0,0:0:0:0:
256,192,14587,1,0,0:0:0:0:
256,192,14755,1,0,0:0:0:0:
256,192,14922,1,2,0:0:0:0:
256,192,15090,1,0,0:0:0:0:
256,192,15258,1,0,0:0:0:0:
256,192,15425,1,0,0:0:0:0:
256,192,15509,1,0,0:0:0:0:
256,192,15593,1,8,0:0:0:0:
256,192,15760,1,0,0:0:0:0:
256,192,15928,1,2,0:0:0:0:
256,192,16012,1,0,0:0:0:0:
256,192,16096,1,0,0:0:0:0:
256,192,16179,1,0,0:0:0:0:
256,192,16263,1,2,0:0:0:0:
256,192,16515,1,0,0:0:0:0:
256,192,16766,1,0,0:0:0:0:
256,192,16933,1,8,0:0:0:0:
256,192,17101,1,0,0:0:0:0:
256,192,17269,1,0,0:0:0:0:
256,192,17436,1,0,0:0:0:0:
256,192,17604,1,2,0:0:0:0:
256,192,17771,1,0,0:0:0:0:
256,192,17939,1,0,0:0:0:0:
256,192,18107,1,0,0:0:0:0:
256,192,18274,1,8,0:0:0:0:
256,192,18358,1,0,0:0:0:0:
256,192,18442,1,0,0:0:0:0:
256,192,18609,1,2,0:0:0:0:
256,192,18693,1,0,0:0:0:0:
256,192,18777,1,0,0:0:0:0:
256,192,18945,1,2,0:0:0:0:
256,192,19112,1,0,0:0:0:0:
256,192,19280,1,0,0:0:0:0:
256,192,19447,1,0,0:0:0:0:
256,192,19615,1,8,0:0:0:0:
256,192,19783,1,0,0:0:0:0:
256,192,19950,1,0,0:0:0:0:
256,192,20118,1,0,0:0:0:0:
256,192,20285,1,2,0:0:0:0:
256,192,20453,1,0,0:0:0:0:
256,192,20621,1,0,0:0:0:0:
256,192,20788,1,0,0:0:0:0:
256,192,20872,1,0,0:0:0:0:
256,192,20956,1,8,0:0:0:0:
256,192,21123,1,0,0:0:0:0:
256,192,21291,1,0,0:0:0:0:
256,192,21459,1,0,0:0:0:0:
256,192,21626,1,2,0:0:0:0:
256,192,21878,1,0,0:0:0:0:
256,192,22045,1,0,0:0:0:0:
256,192,22129,1,2,0:0:0:0:
256,192,22297,1,8,0:0:0:0:
256,192,22464,1,0,0:0:0:0:
256,192,22632,1,0,0:0:0:0:
256,192,22716,1,2,0:0:0:0:
256,192,22799,1,2,0:0:0:0:
256,192,22883,1,2,0:0:0:0:
256,192,22967,1,0,0:0:0:0:
256,192,23051,1,2,0:0:0:0:
256,192,23218,1,0,0:0:0:0:
256,192,23302,1,2,0:0:0:0:
256,192,23470,1,2,0:0:0:0:
256,192,23637,1,8,0:0:0:0:
256,192,23721,1,0,0:0:0:0:
256,192,23805,1,0,0:0:0:0:
256,192,23889,1,0,0:0:0:0:
256,192,23973,1,2,0:0:0:0:
256,192,24140,1,0,0:0:0:0:
256,192,24308,1,12,0:0:0:0:
256,192,24643,1,0,0:0:0:0:
256,192,24811,1,2,0:0:0:0:
256,192,24978,1,0,0:0:0:0:
256,192,25146,1,2,0:0:0:0:
256,192,25230,1,2,0:0:0:0:
256,192,25313,1,0,0:0:0:0:
256,192,25481,1,2,0:0:0:0:
256,192,25649,1,0,0:0:0:0:
256,192,25816,1,0,0:0:0:0:
256,192,25984,1,0,0:0:0:0:
256,192,26151,1,0,0:0:0:0:
256,192,26319,1,2,0:0:0:0:
256,192,26487,1,2,0:0:0:0:
256,192,26654,1,2,0:0:0:0:
256,192,26822,1,0,0:0:0:0:
256,192,26989,1,0,0:0:0:0:
256,192,27157,1,2,0:0:0:0:
256,192,27241,1,2,0:0:0:0:
256,192,27325,1,2,0:0:0:0:
256,192,27492,1,0,0:0:0:0:
256,192,27660,1,0,0:0:0:0:
256,192,27827,1,0,0:0:0:0:
256,192,27911,1,2,0:0:0:0:
256,192,27995,1,0,0:0:0:0:
256,192,28163,1,2,0:0:0:0:
256,192,28330,1,0,0:0:0:0:
256,192,28498,1,2,0:0:0:0:
256,192,28665,1,0,0:0:0:0:
256,192,28833,1,2,0:0:0:0:
256,192,29001,1,0,0:0:0:0:
256,192,29168,1,0,0:0:0:0:
256,192,29336,1,0,0:0:0:0:
256,192,29420,1,2,0:0:0:0:
256,192,29503,1,2,0:0:0:0:
256,192,29587,1,2,0:0:0:0:
256,192,29671,1,2,0:0:0:0:
256,192,29839,1,0,0:0:0:0:
256,192,30006,1,2,0:0:0:0:
256,192,30174,1,0,0:0:0:0:
256,192,30341,1,2,0:0:0:0:
256,192,30509,1,0,0:0:0:0:
256,192,30677,1,2,0:0:0:0:
256,192,30844,1,0,0:0:0:0:
256,192,31012,1,2,0:0:0:0:
256,192,31179,1,0,0:0:0:0:
256,192,31347,1,2,0:0:0:0:
256,192,31515,1,0,0:0:0:0:
256,192,31682,1,2,0:0:0:0:
256,192,31850,1,0,0:0:0:0:
256,192,32017,1,2,0:0:0:0:
256,192,32185,1,0,0:0:0:0:
256,192,32352,1,2,0:0:0:0:
256,192,32436,1,0,0:0:0:0:
256,192,32520,1,0,0:0:0:0:
256,192,32604,1,0,0:0:0:0:
256,192,32688,1,2,0:0:0:0:
256,192,32771,1,0,0:0:0:0:
256,192,32855,1,0,0:0:0:0:
256,192,32939,1,0,0:0:0:0:
256,192,33023,1,2,0:0:0:0:
256,192,33190,1,0,0:0:0:0:
256,192,33358,1,2,0:0:0:0:
256,192,33442,1,0,0:0:0:0:
256,192,33526,1,0,0:0:0:0:
256,192,33609,1,0,0:0:0:0:
256,192,33693,1,2,0:0:0:0:
256,192,34028,1,0,0:0:0:0:
256,192,34196,1,0,0:0:0:0:
256,192,34364,1,0,0:0:0:0:
256,192,34699,1,8,0:0:0:0:
256,192,34866,1,0,0:0:0:0:
256,192,34950,1,0,0:0:0:0:
256,192,35034,1,6,0:0:0:0:
256,192,35369,1,0,0:0:0:0:
256,192,35537,1,0,0:0:0:0:
256,192,35621,1,0,0:0:0:0:
256,192,35704,1,8,0:0:0:0:
256,192,35872,1,0,0:0:0:0:
256,192,36040,1,0,0:0:0:0:
256,192,36207,1,0,0:0:0:0:
256,192,36375,1,2,0:0:0:0:
256,192,36710,1,2,0:0:0:0:
256,192,36794,1,2,0:0:0:0:
256,192,36878,1,0,0:0:0:0:
256,192,36961,1,0,0:0:0:0:
256,192,37045,1,8,0:0:0:0:
256,192,37380,1,2,0:0:0:0:
256,192,37464,1,0,0:0:0:0:
256,192,37548,1,2,0:0:0:0:
256,192,37632,1,0,0:0:0:0:
256,192,37716,1,2,0:0:0:0:
256,192,38051,1,2,0:0:0:0:
256,192,38135,1,0,0:0:0:0:
256,192,38218,1,0,0:0:0:0:
256,192,38302,1,2,0:0:0:0:
256,192,38386,1,8,0:0:0:0:
256,192,38637,1,0,0:0:0:0:
256,192,38889,1,0,0:0:0:0:
256,192,38973,1,8,0:0:0:0:
256,192,39056,1,2,0:0:0:0:
256,192,39224,1,0,0:0:0:0:
256,192,39392,1,8,0:0:0:0:
256,192,39559,1,2,0:0:0:0:
256,192,39643,1,2,0:0:0:0:
256,192,39727,1,0,0:0:0:0:
256,192,39894,1,8,0:0:0:0:
256,192,40062,1,8,0:0:0:0:
256,192,40230,1,0,0:0:0:0:
256,192,40313,1,0,0:0:0:0:
256,192,40397,1,12,0:0:0:0:
256,192,40732,1,0,0:0:0:0:
256,192,40816,1,2,0:0:0:0:
256,192,40900,1,0,0:0:0:0:
256,192,40984,1,0,0:0:0:0:
256,192,41068,1,8,0:0:0:0:
256,192,41235,1,0,0:0:0:0:
256,192,41403,1,0,0:0:0:0:
256,192,41570,1,0,0:0:0:0:
256,192,41738,1,2,0:0:0:0:
256,192,42073,1,0,0:0:0:0:
256,192,42157,1,2,0:0:0:0:
256,192,42241,1,0,0:0:0:0:
256,192,42325,1,0,0:0:0:0:
256,192,42408,1,8,0:0:0:0:
256,192,42576,1,0,0:0:0:0:
256,192,42660,1,2,0:0:0:0:
256,192,42744,1,0,0:0:0:0:
256,192,42827,1,0,0:0:0:0:
256,192,42911,1,2,0:0:0:0:
256,192,42995,1,0,0:0:0:0:
256,192,43079,1,2,0:0:0:0:
256,192,43414,1,2,0:0:0:0:
256,192,43498,1,0,0:0:0:0:
256,192,43582,1,0,0:0:0:0:
256,192,43665,1,0,0:0:0:0:
256,192,43749,1,8,0:0:0:0:
256,192,43917,1,0,0:0:0:0:
256,192,44084,1,0,0:0:0:0:
256,192,44336,1,0,0:0:0:0:
256,192,44420,1,2,0:0:0:0:
256,192,44587,1,0,0:0:0:0:
256,192,44671,1,2,0:0:0:0:
256,192,44839,1,0,0:0:0:0:
256,192,44922,1,2,0:0:0:0:
256,192,45006,1,2,0:0:0:0:
256,192,45090,1,0,0:0:0:0:
256,192,45258,1,10,0:0:0:0:
256,192,45341,1,8,0:0:0:0:
256,192,45425,1,0,0:0:0:0:
256,192,45593,1,0,0:0:0:0:
256,192,45760,1,6,0:0:0:0:
256,192,46096,1,0,0:0:0:0:
256,192,46179,1,2,0:0:0:0:
256,192,46263,1,0,0:0:0:0:
256,192,46347,1,0,0:0:0:0:
256,192,46431,1,8,0:0:0:0:
256,192,46598,1,0,0:0:0:0:
256,192,46766,1,0,0:0:0:0:
256,192,46933,1,0,0:0:0:0:
256,192,47101,1,2,0:0:0:0:
256,192,47436,1,2,0:0:0:0:
256,192,47520,1,0,0:0:0:0:
256,192,47604,1,0,0:0:0:0:
256,192,47688,1,0,0:0:0:0:
256,192,47771,1,8,0:0:0:0:
256,192,47883,1,0,0:0:0:0:
256,192,47995,1,0,0:0:0:0:
256,192,48107,1,2,0:0:0:0:
256,192,48218,1,0,0:0:0:0:
256,192,48330,1,0,0:0:0:0:
256,192,48442,1,2,0:0:0:0:
256,192,48777,1,2,0:0:0:0:
256,192,48861,1,0,0:0:0:0:
256,192,48945,1,0,0:0:0:0:
256,192,49028,1,2,0:0:0:0:
256,192,49112,1,8,0:0:0:0:
256,192,49364,1,0,0:0:0:0:
256,192,49615,1,0,0:0:0:0:
256,192,49699,1,8,0:0:0:0:
256,192,49783,1,2,0:0:0:0:
256,192,49950,1,2,0:0:0:0:
256,192,50118,1,8,0:0:0:0:
256,192,50285,1,0,0:0:0:0:
256,192,50369,1,0,0:0:0:0:
256,192,50453,1,8,0:0:0:0:
256,192,50621,1,8,0:0:0:0:
256,192,50788,1,8,0:0:0:0:
256,192,50956,1,0,0:0:0:0:
256,192,51040,1,0,0:0:0:0:
256,192,51123,1,2,0:0:0:0:
256,192,51459,1,2,0:0:0:0:
256,192,51542,1,0,0:0:0:0:
256,192,51626,1,0,0:0:0:0:
256,192,51710,1,0,0:0:0:0:
256,192,51794,1,8,0:0:0:0:
256,192,51961,1,0,0:0:0:0:
256,192,52129,1,0,0:0:0:0:
256,192,52297,1,0,0:0:0:0:
256,192,52464,1,2,0:0:0:0:
256,192,52799,1,0,0:0:0:0:
256,192,52883,1,2,0:0:0:0:
256,192,52967,1,0,0:0:0:0:
256,192,53051,1,0,0:0:0:0:
256,192,53135,1,8,0:0:0:0:
256,192,53302,1,0,0:0:0:0:
256,192,53386,1,2,0:0:0:0:
256,192,53470,1,0,0:0:0:0:
256,192,53554,1,0,0:0:0:0:
256,192,53637,1,2,0:0:0:0:
256,192,53721,1,0,0:0:0:0:
256,192,53805,1,2,0:0:0:0:
256,192,54140,1,2,0:0:0:0:
256,192,54224,1,0,0:0:0:0:
256,192,54308,1,0,0:0:0:0:
256,192,54392,1,0,0:0:0:0:
256,192,54475,1,8,0:0:0:0:
256,192,54643,1,0,0:0:0:0:
256,192,54727,1,0,0:0:0:0:
256,192,54894,1,0,0:0:0:0:
256,192,54978,1,0,0:0:0:0:
256,192,55146,1,6,0:0:0:0:
256,192,55397,1,6,0:0:0:0:
256,192,55649,1,6,0:0:0:0:
256,192,55900,1,6,0:0:0:0:
256,192,56151,1,2,0:0:0:0:
256,192,56235,1,2,0:0:0:0:
256,192,56319,1,0,0:0:0:0:
256,192,56403,1,0,0:0:0:0:
256,192,56487,1,2,0:0:0:0:
256,192,56822,1,0,0:0:0:0:
256,192,57157,1,8,0:0:0:0:
256,192,57408,1,0,0:0:0:0:
256,192,57660,1,0,0:0:0:0:
256,192,57827,1,2,0:0:0:0:
256,192,57995,1,0,0:0:0:0:
256,192,58163,1,2,0:0:0:0:
256,192,58330,1,2,0:0:0:0:
256,192,58414,1,0,0:0:0:0:
256,192,58498,1,8,0:0:0:0:
256,192,58833,1,2,0:0:0:0:
256,192,58917,1,0,0:0:0:0:
256,192,59001,1,0,0:0:0:0:
256,192,59084,1,0,0:0:0:0:
256,192,59168,1,2,0:0:0:0:
256,192,59336,1,0,0:0:0:0:
256,192,59503,1,0,0:0:0:0:
256,192,59671,1,0,0:0:0:0:
256,192,59839,1,8,0:0:0:0:
256,192,60090,1,0,0:0:0:0:
256,192,60341,1,0,0:0:0:0:
256,192,60509,1,2,0:0:0:0:
256,192,60677,1,0,0:0:0:0:
256,192,60844,1,0,0:0:0:0:
256,192,61012,1,0,0:0:0:0:
256,192,61179,1,8,0:0:0:0:
256,192,61263,1,0,0:0:0:0:
256,192,61347,1,0,0:0:0:0:
256,192,61515,1,2,0:0:0:0:
256,192,61598,1,0,0:0:0:0:
256,192,61682,1,0,0:0:0:0:
256,192,61850,1,6,0:0:0:0:
256,192,62185,1,0,0:0:0:0:
256,192,62520,1,8,0:0:0:0:
256,192,62771,1,0,0:0:0:0:
256,192,63023,1,0,0:0:0:0:
256,192,63190,1,2,0:0:0:0:
256,192,63358,1,0,0:0:0:0:
256,192,63526,1,0,0:0:0:0:
256,192,63693,1,0,0:0:0:0:
256,192,63777,1,2,0:0:0:0:
256,192,63861,1,8,0:0:0:0:
256,192,64196,1,0,0:0:0:0:
256,192,64531,1,2,0:0:0:0:
256,192,64783,1,0,0:0:0:0:
256,192,64866,1,8,0:0:0:0:
256,192,65118,1,2,0:0:0:0:
256,192,65202,1,0,0:0:0:0:
256,192,65453,1,0,0:0:0:0:
256,192,65537,1,8,0:0:0:0:
256,192,65788,1,2,0:0:0:0:
256,192,65872,1,0,0:0:0:0:
256,192,66123,1,0,0:0:0:0:
256,192,66207,1,8,0:0:0:0:
256,192,66459,1,2,0:0:0:0:
256,192,66542,1,0,0:0:0:0:
256,192,66710,1,2,0:0:0:0:
256,192,66878,1,8,0:0:0:0:
256,192,67045,1,0,0:0:0:0:
256,192,67129,1,0,0:0:0:0:
256,192,67213,1,6,0:0:0:0:
256,192,67548,1,8,0:0:0:0:
256,192,67883,1,0,0:0:0:0:
256,192,68051,1,2,0:0:0:0:
256,192,68218,1,8,0:0:0:0:
256,192,68386,1,0,0:0:0:0:
256,192,68554,1,2,0:0:0:0:
256,192,68721,1,0,0:0:0:0:
256,192,68889,1,8,0:0:0:0:
256,192,69056,1,0,0:0:0:0:
256,192,69224,1,0,0:0:0:0:
256,192,69392,1,2,0:0:0:0:
256,192,69559,1,8,0:0:0:0:
256,192,69643,1,0,0:0:0:0:
256,192,69727,1,0,0:0:0:0:
256,192,69811,1,0,0:0:0:0:
256,192,69894,1,2,0:0:0:0:
256,192,70146,1,0,0:0:0:0:
256,192,70230,1,8,0:0:0:0:
256,192,70397,1,0,0:0:0:0:
256,192,70565,1,0,0:0:0:0:
256,192,70732,1,0,0:0:0:0:
256,192,70900,1,8,0:0:0:0:
256,192,71068,1,0,0:0:0:0:
256,192,71235,1,2,0:0:0:0:
256,192,71403,1,0,0:0:0:0:
256,192,71570,1,8,0:0:0:0:
256,192,71738,1,0,0:0:0:0:
256,192,71906,1,2,0:0:0:0:
256,192,71989,1,0,0:0:0:0:
256,192,72073,1,0,0:0:0:0:
256,192,72241,1,8,0:0:0:0:
256,192,72325,1,0,0:0:0:0:
256,192,72408,1,0,0:0:0:0:
256,192,72576,1,6,0:0:0:0:
256,192,72744,1,0,0:0:0:0:
256,192,72911,1,8,0:0:0:0:
256,192,73079,1,0,0:0:0:0:
256,192,73246,1,0,0:0:0:0:
256,192,73414,1,0,0:0:0:0:
256,192,73582,1,8,0:0:0:0:
256,192,73749,1,0,0:0:0:0:
256,192,73917,1,2,0:0:0:0:
256,192,74168,1,0,0:0:0:0:
256,192,74252,1,8,0:0:0:0:
256,192,74420,1,2,0:0:0:0:
256,192,74672,1,0,0:0:0:0:
256,192,74755,1,2,0:0:0:0:
256,192,74922,1,8,0:0:0:0:
256,192,75174,1,0,0:0:0:0:
256,192,75258,1,2,0:0:0:0:
256,192,75509,1,0,0:0:0:0:
256,192,75760,1,0,0:0:0:0:
256,192,75844,1,2,0:0:0:0:
256,192,76012,1,0,0:0:0:0:
256,192,76096,1,2,0:0:0:0:
256,192,76263,1,2,0:0:0:0:
256,192,76347,1,2,0:0:0:0:
256,192,76431,1,2,0:0:0:0:
256,192,76598,1,0,0:0:0:0:
256,192,76682,1,2,0:0:0:0:
256,192,76850,1,0,0:0:0:0:
256,192,76933,1,2,0:0:0:0:
256,192,77101,1,2,0:0:0:0:
256,192,77269,1,8,0:0:0:0:
256,192,77352,1,0,0:0:0:0:
256,192,77436,1,0,0:0:0:0:
256,192,77520,1,0,0:0:0:0:
256,192,77604,1,2,0:0:0:0:
256,192,77855,1,0,0:0:0:0:
256,192,77939,1,6,0:0:0:0:
256,192,78190,1,0,0:0:0:0:
256,192,78274,1,0,0:0:0:0:
256,192,78442,1,0,0:0:0:0:
256,192,78609,1,8,0:0:0:0:
256,192,78777,1,0,0:0:0:0:
256,192,78945,1,0,0:0:0:0:
256,192,79112,1,0,0:0:0:0:
256,192,79196,1,0,0:0:0:0:
256,192,79280,1,2,0:0:0:0:
256,192,79447,1,0,0:0:0:0:
256,192,79615,1,2,0:0:0:0:
256,192,79699,1,0,0:0:0:0:
256,192,79783,1,0,0:0:0:0:
256,192,79866,1,2,0:0:0:0:
256,192,79950,1,8,0:0:0:0:
256,192,80285,1,2,0:0:0:0:
256,192,80369,1,2,0:0:0:0:
256,192,80453,1,0,0:0:0:0:
256,192,80537,1,0,0:0:0:0:
256,192,80621,1,2,0:0:0:0:
256,192,80956,1,2,0:0:0:0:
256,192,81040,1,0,0:0:0:0:
256,192,81123,1,0,0:0:0:0:
256,192,81291,1,8,0:0:0:0:
256,192,81459,1,0,0:0:0:0:
256,192,81542,1,0,0:0:0:0:
256,192,81626,1,0,0:0:0:0:
256,192,81794,1,2,0:0:0:0:
256,192,82045,1,0,0:0:0:0:
256,192,82129,1,2,0:0:0:0:
256,192,82297,1,8,0:0:0:0:
256,192,82464,1,0,0:0:0:0:
256,192,82548,1,0,0:0:0:0:
256,192,82632,1,8,0:0:0:0:
256,192,82799,1,0,0:0:0:0:
256,192,82883,1,8,0:0:0:0:
256,192,83051,1,0,0:0:0:0:
256,192,83135,1,8,0:0:0:0:
256,192,83302,1,6,0:0:0:0:
256,192,83470,1,0,0:0:0:0:
256,192,83554,1,0,0:0:0:0:
256,192,83637,1,2,0:0:0:0:
256,192,83805,1,0,0:0:0:0:
256,192,83973,1,8,0:0:0:0:
256,192,84140,1,0,0:0:0:0:
256,192,84308,1,2,0:0:0:0:
256,192,84475,1,0,0:0:0:0:
256,192,84559,1,0,0:0:0:0:
256,192,84643,1,2,0:0:0:0:
256,192,84811,1,0,0:0:0:0:
256,192,84978,1,0,0:0:0:0:
256,192,85062,1,0,0:0:0:0:
256,192,85146,1,2,0:0:0:0:
256,192,85313,1,8,0:0:0:0:
256,192,85565,1,0,0:0:0:0:
256,192,85649,1,0,0:0:0:0:
256,192,85816,1,0,0:0:0:0:
256,192,85984,1,6,0:0:0:0:
256,192,86151,1,0,0:0:0:0:
256,192,86319,1,0,0:0:0:0:
256,192,86487,1,0,0:0:0:0:
256,192,86654,1,8,0:0:0:0:
256,192,86822,1,0,0:0:0:0:
256,192,86906,1,0,0:0:0:0:
256,192,87073,1,0,0:0:0:0:
256,192,87157,1,0,0:0:0:0:
256,192,87325,1,2,0:0:0:0:
256,192,87492,1,0,0:0:0:0:
256,192,87576,1,0,0:0:0:0:
256,192,87660,1,0,0:0:0:0:
256,192,87827,1,6,0:0:0:0:
256,192,87995,1,0,0:0:0:0:
256,192,88079,1,0,0:0:0:0:
256,192,88163,1,0,0:0:0:0:
256,192,88330,1,2,0:0:0:0:
256,192,88582,1,0,0:0:0:0:
256,192,88665,1,2,0:0:0:0:
256,192,88833,1,0,0:0:0:0:
256,192,89001,1,0,0:0:0:0:
256,192,89168,1,0,0:0:0:0:
256,192,89336,1,12,0:0:0:0:
256,192,89503,1,0,0:0:0:0:
256,192,89671,1,0,0:0:0:0:
256,192,89839,1,0,0:0:0:0:
256,192,89923,1,0,0:0:0:0:
256,192,90007,1,2,0:0:0:0:
256,192,90174,1,0,0:0:0:0:
256,192,90341,1,2,0:0:0:0:
256,192,90425,1,0,0:0:0:0:
256,192,90509,1,0,0:0:0:0:
256,192,90593,1,2,0:0:0:0:
256,192,90677,1,8,0:0:0:0:
256,192,91012,1,2,0:0:0:0:
256,192,91096,1,2,0:0:0:0:
256,192,91179,1,0,0:0:0:0:
256,192,91263,1,0,0:0:0:0:
256,192,91347,1,2,0:0:0:0:
256,192,91682,1,2,0:0:0:0:
256,192,91766,1,0,0:0:0:0:
256,192,91850,1,0,0:0:0:0:
256,192,92017,1,2,0:0:0:0:
256,192,92185,1,0,0:0:0:0:
256,192,92352,1,0,0:0:0:0:
256,192,92520,1,2,0:0:0:0:
256,192,92688,1,2,0:0:0:0:
256,192,92771,1,0,0:0:0:0:
256,192,92855,1,8,0:0:0:0:
256,192,93023,1,0,0:0:0:0:
256,192,93190,1,2,0:0:0:0:
256,192,93274,1,0,0:0:0:0:
256,192,93358,1,8,0:0:0:0:
256,192,93526,1,2,0:0:0:0:
256,192,93609,1,0,0:0:0:0:
256,192,93693,1,8,0:0:0:0:
256,192,93861,1,0,0:0:0:0:
256,192,94028,1,6,0:0:0:0:
256,192,94280,1,0,0:0:0:0:
256,192,94364,1,0,0:0:0:0:
256,192,94531,1,0,0:0:0:0:
256,192,94699,1,8,0:0:0:0:
256,192,94783,1,0,0:0:0:0:
256,192,94866,1,2,0:0:0:0:
256,192,94950,1,0,0:0:0:0:
256,192,95034,1,2,0:0:0:0:
256,192,95118,1,0,0:0:0:0:
256,192,95202,1,0,0:0:0:0:
256,192,95285,1,0,0:0:0:0:
256,192,95369,1,2,0:0:0:0:
256,192,95537,1,0,0:0:0:0:
256,192,95704,1,0,0:0:0:0:
256,192,95788,1,0,0:0:0:0:
256,192,95872,1,0,0:0:0:0:
256,192,96040,1,8,0:0:0:0:
256,192,96375,1,2,0:0:0:0:
256,192,96459,1,0,0:0:0:0:
256,192,96542,1,2,0:0:0:0:
256,192,96626,1,0,0:0:0:0:
256,192,96710,1,2,0:0:0:0:
256,192,96878,1,0,0:0:0:0:
256,192,97045,1,2,0:0:0:0:
256,192,97213,1,0,0:0:0:0:
256,192,97380,1,2,0:0:0:0:
256,192,97548,1,0,0:0:0:0:
256,192,97716,1,2,0:0:0:0:
256,192,97883,1,0,0:0:0:0:
256,192,98051,1,8,0:0:0:0:
256,192,98218,1,0,0:0:0:0:
256,192,98302,1,8,0:0:0:0:
256,192,98470,1,0,0:0:0:0:
256,192,98554,1,8,0:0:0:0:
256,192,98721,1,12,0:0:0:0:
256,192,99056,1,2,0:0:0:0:
256,192,99140,1,2,0:0:0:0:
256,192,99224,1,0,0:0:0:0:
256,192,99308,1,0,0:0:0:0:
256,192,99392,1,12,0:0:0:0:
256,192,99559,1,0,0:0:0:0:
256,192,99727,1,8,0:0:0:0:
256,192,99894,1,0,0:0:0:0:
256,192,99978,1,0,0:0:0:0:
256,192,100062,1,2,0:0:0:0:
256,192,100230,1,2,0:0:0:0:
256,192,100397,1,8,0:0:0:0:
256,192,100565,1,0,0:0:0:0:
256,192,100732,1,2,0:0:0:0:
256,192,100900,1,0,0:0:0:0:
256,192,100984,1,0,0:0:0:0:
256,192,101068,1,8,0:0:0:0:
256,192,101151,1,0,0:0:0:0:
256,192,101235,1,0,0:0:0:0:
256,192,101319,1,2,0:0:0:0:
256,192,101403,1,0,0:0:0:0:
256,192,101570,1,2,0:0:0:0:
256,192,101738,1,8,0:0:0:0:
256,192,101822,1,0,0:0:0:0:
256,192,101906,1,0,0:0:0:0:
256,192,101989,1,0,0:0:0:0:
256,192,102073,1,2,0:0:0:0:
256,192,102241,1,0,0:0:0:0:
256,192,102408,1,8,0:0:0:0:
256,192,102576,1,0,0:0:0:0:
256,192,102660,1,0,0:0:0:0:
256,192,102744,1,2,0:0:0:0:
256,192,102911,1,2,0:0:0:0:
256,192,103079,1,8,0:0:0:0:
256,192,103246,1,0,0:0:0:0:
256,192,103414,1,2,0:0:0:0:
256,192,103665,1,0,0:0:0:0:
256,192,103749,1,8,0:0:0:0:
256,192,103917,1,0,0:0:0:0:
256,192,104084,1,2,0:0:0:0:
256,192,104168,1,0,0:0:0:0:
256,192,104252,1,2,0:0:0:0:
256,192,104420,1,8,0:0:0:0:
256,192,104503,1,0,0:0:0:0:
256,192,104587,1,2,0:0:0:0:
256,192,104755,1,6,0:0:0:0:
256,192,104922,1,0,0:0:0:0:
256,192,105090,1,8,0:0:0:0:
256,192,105258,1,0,0:0:0:0:
256,192,105341,1,0,0:0:0:0:
256,192,105425,1,2,0:0:0:0:
256,192,105593,1,2,0:0:0:0:
256,192,105760,1,8,0:0:0:0:
256,192,105928,1,0,0:0:0:0:
256,192,106096,1,2,0:0:0:0:
256,192,106431,1,8,0:0:0:0:
256,192,106515,1,0,0:0:0:0:
256,192,106598,1,0,0:0:0:0:
256,192,106682,1,0,0:0:0:0:
256,192,106766,1,2,0:0:0:0:
256,192,106933,1,2,0:0:0:0:
256,192,107017,1,0,0:0:0:0:
256,192,107101,1,8,0:0:0:0:
256,192,107185,1,0,0:0:0:0:
256,192,107269,1,2,0:0:0:0:
256,192,107352,1,0,0:0:0:0:
256,192,107436,1,2,0:0:0:0:
256,192,107771,1,8,0:0:0:0:
256,192,107855,1,0,0:0:0:0:
256,192,107939,1,0,0:0:0:0:
256,192,108023,1,0,0:0:0:0:
256,192,108107,1,2,0:0:0:0:
256,192,108442,1,0,0:0:0:0:
256,192,108609,1,2,0:0:0:0:
256,192,108693,1,2,0:0:0:0:
256,192,108777,1,2,0:0:0:0:
256,192,109028,1,0,0:0:0:0:
256,192,109112,1,8,0:0:0:0:
256,192,109280,1,2,0:0:0:0:
256,192,109364,1,0,0:0:0:0:
256,192,109447,1,0,0:0:0:0:
256,192,109615,1,8,0:0:0:0:
256,192,109783,1,2,0:0:0:0:
256,192,110034,1,0,0:0:0:0:
256,192,110118,1,6,0:0:0:0:
256,192,110285,1,0,0:0:0:0:
256,192,110453,1,2,0:0:0:0:
256,192,110621,1,0,0:0:0:0:
256,192,110788,1,2,0:0:0:0:
256,192,110956,1,0,0:0:0:0:
256,192,111123,1,2,0:0:0:0:
256,192,111291,1,0,0:0:0:0:
256,192,111459,1,0,0:0:0:0:
256,192,111542,1,0,0:0:0:0:
256,192,111626,1,0,0:0:0:0:
256,192,111710,1,0,0:0:0:0:
256,192,111794,1,0,0:0:0:0:
256,192,111878,1,0,0:0:0:0:
256,192,111961,1,0,0:0:0:0:
256,192,112045,1,0,0:0:0:0:
256,192,112129,1,0,0:0:0:0:
256,192,112464,1,0,0:0:0:0:
256,192,112548,1,0,0:0:0:0:
256,192,112632,1,0,0:0:0:0:
256,192,112716,1,0,0:0:0:0:
256,192,112799,1,6,0:0:0:0:
256,192,112967,12,0,114140,0:0:0:0:
