osu file format v14

[General]
AudioFilename: audio.mp3
AudioLeadIn: 0
PreviewTime: 44306
Countdown: 0
SampleSet: Normal
StackLeniency: 0.7
Mode: 1
LetterboxInBreaks: 0
WidescreenStoryboard: 0

[Editor]
DistanceSpacing: 1.9
BeatDivisor: 6
GridSize: 32
TimelineZoom: 2.35

[Metadata]
Title:Bassdrop Freaks (Long Ver.)
TitleUnicode:ベィスドロップ・フリークス(Long Ver.)
Artist:Camellia feat. Nanahira
ArtistUnicode:かめりあ feat. ななひら
Creator:yassu-
Version:A-STYLE DRUMSTEP
Source:beatmania IIDX 22 PENDUAL
Tags:Meltical sugar wave EXIT TUNES
BeatmapID:1305282
BeatmapSetID:619270

[Difficulty]
HPDrainRate:4
CircleSize:5
OverallDifficulty:6.2
ApproachRate:5
SliderMultiplier:1.4
SliderTickRate:1

[Events]
//Background and Video events
0,0,"maxresdefault[1].jpg",0,50
//Break Periods
//Storyboard Layer 0 (Background)
//Storyboard Layer 1 (Fail)
//Storyboard Layer 2 (Pass)
//Storyboard Layer 3 (Foreground)
//Storyboard Sound Samples

[TimingPoints]
1401,335.195530726257,4,1,0,90,1,0
3244,-100,4,1,1,90,0,0
3454,-100,4,1,0,90,0,0
4333,-100,4,1,1,90,0,0
4501,-100,4,1,0,90,0,0
6009,-100,4,1,1,90,0,0
6177,-100,4,1,0,90,0,0
6764,-100,4,1,1,90,0,0
7183,-100,4,1,0,90,0,0
8607,-100,4,1,1,90,0,0
8859,-100,4,1,0,90,0,0
9697,-100,4,1,1,90,0,0
9864,-100,4,1,0,90,0,0
10367,-100,4,1,1,90,0,0
10618,-100,4,1,2,90,0,0
10870,-100,4,1,0,70,0,0
11373,-100,4,1,2,70,0,0
11540,-100,4,1,0,70,0,0
11708,-100,4,1,2,70,0,0
11833,-100,4,1,0,70,0,0
12085,-100,4,1,2,80,0,0
12185,-100,4,1,0,80,0,0
12336,-100,4,1,2,80,0,0
12420,-100,4,1,0,80,0,0
12588,-100,4,1,2,80,0,0
12671,-100,4,1,0,80,0,0
12839,-100,4,1,2,80,0,0
13007,-100,4,1,0,80,0,0
13384,-100,4,1,0,90,0,0
13970,-100,4,1,1,90,0,0
14222,-100,4,1,0,90,0,0
14725,-100,4,1,2,90,0,0
14892,-100,4,1,0,90,0,0
15353,-100,4,1,2,90,0,0
15437,-100,4,1,1,90,0,0
15563,-100,4,1,0,90,0,0
16736,-100,4,1,1,90,0,0
16861,-100,4,1,0,90,0,0
17406,-100,4,1,2,90,0,0
17574,-100,4,1,0,90,0,0
18035,-100,4,1,2,90,0,0
18118,-100,4,1,1,90,0,0
18244,-100,4,1,0,90,0,0
19417,-100,4,1,1,90,0,0
19585,-100,4,1,0,90,0,0
20088,-100,4,1,2,90,0,0
20255,-100,4,1,0,90,0,0
20716,-100,4,1,2,90,0,0
20800,-100,4,1,1,90,0,0
20926,-100,4,1,0,90,0,0
21428,-100,4,1,2,90,0,0
21596,-100,4,1,0,90,0,0
21889,-100,4,1,1,90,0,0
21973,-100,4,1,2,90,0,0
22057,-100,4,1,0,90,0,0
22141,-100,4,1,1,90,0,0
22266,-100,4,1,0,90,0,0
22434,-100,4,1,1,90,0,0
22560,-100,4,1,2,90,0,0
22644,-100,4,1,1,90,0,0
22853,-100,4,1,2,90,0,0
22979,-100,4,1,0,90,0,0
23104,-100,4,1,2,90,0,0
23230,-100,4,1,0,90,0,0
23314,-100,4,1,2,90,0,0
23398,-100,4,1,0,90,0,0
23482,-100,4,1,1,90,0,0
23579,-100,4,1,0,90,0,0
24138,-100,4,1,2,50,0,0
24361,-125,4,1,0,50,0,0
34752,-111.111111111111,4,1,0,80,0,0
40227,-108.695652173913,4,1,0,80,0,0
40870,-106.382978723404,4,1,0,80,0,0
41540,-104.166666666667,4,1,0,80,0,0
42211,-102.040816326531,4,1,0,80,0,0
42909,-100,4,1,0,80,0,0
44264,-100,4,1,2,80,0,0
45060,-166.666666666667,4,1,2,80,0,0
45227,-55.5555555555556,4,1,1,100,0,0
45479,-100,4,1,2,95,0,0
45646,-90.9090909090909,4,1,2,95,0,1
45814,-90.9090909090909,4,1,0,95,0,1
46275,-90.9090909090909,4,1,1,95,0,1
46359,-90.9090909090909,4,1,0,95,0,1
46903,-90.9090909090909,4,1,2,95,0,1
47029,-90.9090909090909,4,1,0,95,0,1
47532,-90.9090909090909,4,1,2,95,0,1
47616,-90.9090909090909,4,1,1,95,0,1
47741,-90.9090909090909,4,1,0,95,0,1
48286,-90.9090909090909,4,1,2,95,0,1
48495,-90.9090909090909,4,1,0,95,0,1
48956,-90.9090909090909,4,1,1,95,0,1
49040,-90.9090909090909,4,1,0,95,0,1
49543,-90.9090909090909,4,1,1,95,0,1
49627,-90.9090909090909,4,1,2,95,0,1
49920,-90.9090909090909,4,1,1,95,0,1
50088,-90.9090909090909,4,1,2,95,0,1
50297,-90.9090909090909,4,1,1,95,0,1
50549,-90.9090909090909,4,1,0,95,0,1
50632,-90.9090909090909,4,1,1,95,0,1
50716,-90.9090909090909,4,1,0,95,0,1
50968,-90.9090909090909,4,1,2,95,0,1
51177,-90.9090909090909,4,1,0,95,0,1
51638,-90.9090909090909,4,1,1,95,0,1
51722,-90.9090909090909,4,1,0,95,0,1
52266,-90.9090909090909,4,1,2,95,0,1
52392,-90.9090909090909,4,1,0,95,0,1
52895,-90.9090909090909,4,1,2,95,0,1
52979,-90.9090909090909,4,1,1,95,0,1
53104,-90.9090909090909,4,1,0,95,0,1
53649,-90.9090909090909,4,1,2,95,0,1
53859,-90.9090909090909,4,1,0,95,0,1
54278,-90.9090909090909,4,1,1,95,0,1
54445,-90.9090909090909,4,1,0,95,0,1
54906,-90.9090909090909,4,1,2,95,0,1
55074,-90.9090909090909,4,1,0,95,0,1
55199,-90.9090909090909,4,1,2,95,0,1
55325,-90.9090909090909,4,1,0,95,0,1
55409,-90.9090909090909,4,1,1,95,0,1
55493,-90.9090909090909,4,1,2,95,0,1
55660,-90.9090909090909,4,1,1,95,0,1
55786,-90.9090909090909,4,1,2,95,0,1
55912,-90.9090909090909,4,1,1,95,0,1
55995,-90.9090909090909,4,1,0,95,0,1
56163,-90.9090909090909,4,1,1,95,0,1
56289,-90.9090909090909,4,1,2,95,0,1
56373,-90.9090909090909,4,1,2,95,0,0
56401,-90.9090909090909,4,1,0,30,0,0
56833,-90.9090909090909,4,1,0,95,0,0
56875,-90.9090909090909,4,1,0,95,0,1
57001,-90.9090909090909,4,1,1,95,0,1
57085,-90.9090909090909,4,1,0,95,0,1
57630,-90.9090909090909,4,1,2,95,0,1
57755,-90.9090909090909,4,1,0,95,0,1
58258,-90.9090909090909,4,1,2,95,0,1
58342,-90.9090909090909,4,1,1,95,0,1
58440,-90.9090909090909,4,1,0,95,0,1
58998,-90.9090909090909,4,1,2,95,0,1
59222,-90.9090909090909,4,1,0,95,0,1
59683,-90.9090909090909,4,1,1,95,0,1
59766,-90.9090909090909,4,1,0,95,0,1
60269,-90.9090909090909,4,1,1,95,0,1
60353,-90.9090909090909,4,1,2,95,0,1
60646,-90.9090909090909,4,1,1,95,0,1
60814,-90.9090909090909,4,1,2,95,0,1
61023,-90.9090909090909,4,1,1,95,0,1
61275,-90.9090909090909,4,1,0,95,0,1
61359,-90.9090909090909,4,1,1,95,0,1
61442,-90.9090909090909,4,1,0,95,0,1
61694,-90.9090909090909,4,1,2,95,0,1
61861,-90.9090909090909,4,1,0,95,0,1
62364,-90.9090909090909,4,1,1,95,0,1
62448,-90.9090909090909,4,1,0,95,0,1
62993,-90.9090909090909,4,1,2,95,0,1
63118,-90.9090909090909,4,1,0,95,0,1
63621,-90.9090909090909,4,1,2,95,0,1
63705,-90.9090909090909,4,1,1,95,0,1
63831,-90.9090909090909,4,1,0,95,0,1
64375,-90.9090909090909,4,1,2,95,0,1
64585,-90.9090909090909,4,1,0,95,0,1
65004,-90.9090909090909,4,1,1,95,0,1
65381,-90.9090909090909,4,1,0,95,0,1
65507,-90.9090909090909,4,1,1,95,0,1
65842,-90.9090909090909,4,1,2,95,0,1
66051,-90.9090909090909,4,1,1,95,0,1
66135,-90.9090909090909,4,1,2,95,0,1
66219,-90.9090909090909,4,1,1,95,0,1
66345,-90.9090909090909,4,1,0,95,0,1
66554,-90.9090909090909,4,1,1,95,0,1
66638,-90.9090909090909,4,1,0,95,0,1
66722,-90.9090909090909,4,1,1,95,0,1
66764,-90.9090909090909,4,1,1,95,0,0
66931,-90.9090909090909,4,1,2,95,0,0
67099,-90.9090909090909,4,1,2,90,0,1
67266,-90.9090909090909,4,1,0,90,0,1
67727,-90.9090909090909,4,1,1,90,0,1
67811,-90.9090909090909,4,1,0,90,0,1
68356,-90.9090909090909,4,1,2,90,0,1
68523,-90.9090909090909,4,1,0,90,0,1
68984,-90.9090909090909,4,1,2,90,0,1
69068,-90.9090909090909,4,1,1,90,0,1
69194,-90.9090909090909,4,1,0,90,0,1
69738,-90.9090909090909,4,1,2,90,0,1
69948,-90.9090909090909,4,1,0,90,0,1
70409,-90.9090909090909,4,1,1,90,0,1
70493,-90.9090909090909,4,1,0,90,0,1
70618,-90.9090909090909,4,1,2,90,0,1
70744,-90.9090909090909,4,1,0,90,0,1
70870,-90.9090909090909,4,1,2,90,0,1
70995,-90.9090909090909,4,1,1,90,0,1
71079,-90.9090909090909,4,1,2,90,0,1
71205,-90.9090909090909,4,1,0,90,0,1
71373,-90.9090909090909,4,1,1,90,0,1
71540,-90.9090909090909,4,1,0,90,0,1
71750,-90.9090909090909,4,1,2,90,0,1
71875,-90.9090909090909,4,1,0,90,0,1
72085,-90.9090909090909,4,1,1,90,0,1
72169,-90.9090909090909,4,1,0,90,0,1
72420,-90.9090909090909,4,1,2,90,0,1
72630,-90.9090909090909,4,1,0,90,0,1
73090,-90.9090909090909,4,1,1,90,0,1
73174,-90.9090909090909,4,1,0,90,0,1
73719,-90.9090909090909,4,1,2,90,0,1
73887,-90.9090909090909,4,1,0,90,0,1
74347,-90.9090909090909,4,1,2,90,0,1
74431,-90.9090909090909,4,1,1,90,0,1
74557,-90.9090909090909,4,1,0,90,0,1
75102,-90.9090909090909,4,1,2,90,0,1
75269,-90.9090909090909,4,1,1,90,0,1
75437,-90.9090909090909,4,1,0,90,0,1
75563,-90.9090909090909,4,1,2,90,0,1
75688,-90.9090909090909,4,1,0,90,0,1
75856,-90.9090909090909,4,1,2,90,0,1
75940,-90.9090909090909,4,1,0,90,0,1
76065,-90.9090909090909,4,1,1,90,0,1
76233,-90.9090909090909,4,1,0,90,0,1
76359,-90.9090909090909,4,1,2,90,0,1
76526,-90.9090909090909,4,1,0,90,0,1
76903,-90.9090909090909,4,1,2,90,0,1
77029,-90.9090909090909,4,1,0,90,0,1
77197,-90.9090909090909,4,1,2,90,0,1
77448,-90.9090909090909,4,1,1,90,0,1
77685,-90.9090909090909,4,1,0,90,0,1
77797,-90.9090909090909,4,1,2,90,0,1
77867,-90.9090909090909,4,1,0,90,0,1
78076,-90.9090909090909,4,1,1,90,0,1
78202,-90.9090909090909,4,1,0,90,0,1
78579,-90.9090909090909,4,1,2,90,0,1
78705,-90.9090909090909,4,1,0,90,0,1
78789,-90.9090909090909,4,1,1,90,0,1
78873,-90.9090909090909,4,1,0,90,0,1
79124,-90.9090909090909,4,1,2,90,0,1
79208,-90.9090909090909,4,1,0,90,0,1
79417,-90.9090909090909,4,1,1,90,0,1
79543,-90.9090909090909,4,1,0,90,0,1
79920,-90.9090909090909,4,1,2,90,0,1
80088,-90.9090909090909,4,1,1,90,0,1
80213,-90.9090909090909,4,1,0,90,0,1
80465,-90.9090909090909,4,1,2,90,0,1
80549,-90.9090909090909,4,1,0,90,0,1
80758,-90.9090909090909,4,1,1,90,0,1
80884,-90.9090909090909,4,1,0,90,0,1
81261,-90.9090909090909,4,1,2,90,0,1
81387,-90.9090909090909,4,1,0,90,0,1
81470,-90.9090909090909,4,1,1,90,0,1
81554,-90.9090909090909,4,1,0,90,0,1
81806,-90.9090909090909,4,1,2,90,0,1
81889,-90.9090909090909,4,1,0,90,0,1
82099,-90.9090909090909,4,1,1,90,0,1
82225,-90.9090909090909,4,1,0,90,0,1
82602,-90.9090909090909,4,1,2,90,0,1
82727,-90.9090909090909,4,1,0,90,0,1
82811,-90.9090909090909,4,1,1,90,0,1
82895,-90.9090909090909,4,1,0,90,0,1
83146,-90.9090909090909,4,1,2,90,0,1
83356,-86.9565217391304,4,1,0,90,0,1
83691,-85.4700854700855,4,1,0,90,0,1
83859,-83.3333333333333,4,1,0,90,0,1
84194,-80,4,1,0,90,0,1
84529,-76.9230769230769,4,1,0,90,0,1
84864,-74.0740740740741,4,1,0,90,0,1
85199,-71.4285714285714,4,1,0,90,0,1
85535,-68.9655172413793,4,1,0,90,0,1
87127,-66.6666666666667,4,1,2,100,0,1
87378,-71.4285714285714,4,1,2,100,0,1
87630,-76.9230769230769,4,1,2,100,0,1
87881,-83.3333333333333,4,1,2,100,0,1
88090,-90.9090909090909,4,1,1,100,0,1
88384,-100,4,1,2,80,0,1
88551,-100,4,1,2,80,0,0
88719,-100,4,1,0,80,0,0
89054,-100,4,1,1,80,0,0
89306,-100,4,1,0,80,0,0
89808,-100,4,1,2,80,0,0
89976,-100,4,1,0,80,0,0
90437,-100,4,1,2,80,0,0
90521,-100,4,1,1,80,0,0
90646,-100,4,1,0,80,0,0
91191,-100,4,1,2,80,0,0
91317,-100,4,1,0,80,0,0
91819,-100,4,1,1,80,0,0
91945,-100,4,1,0,80,0,0
92490,-100,4,1,2,80,0,0
92657,-100,4,1,0,80,0,0
93118,-100,4,1,2,80,0,0
93202,-100,4,1,1,80,0,0
93328,-100,4,1,0,80,0,0
93873,-100,4,1,2,80,0,0
93998,-100,4,1,0,80,0,0
94417,-100,4,1,1,80,0,0
94669,-100,4,1,0,80,0,0
95171,-100,4,1,2,80,0,0
95339,-100,4,1,0,80,0,0
95800,-100,4,1,2,80,0,0
95884,-100,4,1,1,80,0,0
96009,-100,4,1,0,80,0,0
96428,-100,4,1,2,80,0,0
96680,-100,4,1,0,80,0,0
96889,-100,4,1,1,80,0,0
97015,-100,4,1,0,80,0,0
97183,-100,4,1,2,80,0,0
97308,-100,4,1,0,80,0,0
97518,-100,4,1,1,80,0,0
97685,-100,4,1,0,80,0,0
97895,-100,4,1,2,80,0,0
98021,-100,4,1,0,80,0,0
98230,-100,4,1,1,80,0,0
98356,-100,4,1,0,80,0,0
98523,-100,4,1,2,80,0,0
98649,-100,4,1,1,80,0,0
98733,-100,4,1,2,80,0,0
98859,-100,4,1,1,80,0,0
99236,-100,4,1,2,80,0,0
99445,-100,4,1,1,80,0,0
99697,-100,4,1,0,80,0,0
100074,-100,4,1,2,80,0,0
100199,-100,4,1,1,80,0,0
100367,-100,4,1,0,80,0,0
100535,-100,4,1,2,80,0,0
100702,-100,4,1,0,80,0,0
100912,-100,4,1,1,80,0,0
101037,-100,4,1,0,80,0,0
101289,-100,4,1,2,80,0,0
101540,-100,4,1,1,80,0,0
101792,-100,4,1,2,80,0,0
102127,-100,4,1,1,80,0,0
102378,-100,4,1,0,80,0,0
102713,-100,4,1,2,80,0,0
102881,-100,4,1,1,80,0,0
103049,-100,4,1,0,80,0,0
103258,-100,4,1,2,80,0,0
103384,-100,4,1,0,80,0,0
103551,-100,4,1,1,80,0,0
103719,-100,4,1,0,80,0,0
104054,-100,4,1,2,80,0,0
104222,-100,4,1,1,80,0,0
104347,-100,4,1,0,80,0,0
104599,-100,4,1,2,80,0,0
104808,-100,4,1,1,80,0,0
105060,-100,4,1,0,80,0,0
105395,-100,4,1,2,80,0,0
105563,-100,4,1,1,80,0,0
105730,-100,4,1,0,80,0,0
105898,-100,4,1,2,80,0,0
106149,-100,4,1,1,80,0,0
106401,-100,4,1,0,80,0,0
106652,-100,4,1,2,80,0,0
106903,-100,4,1,1,80,0,0
107155,-100,4,1,2,80,0,0
107406,-100,4,1,0,80,0,0
107574,-100,4,1,1,80,0,0
107699,-100,4,1,0,80,0,0
107825,-100,4,1,2,80,0,0
107951,-100,4,1,1,80,0,0
108118,-100,4,1,2,80,0,0
108244,-100,4,1,1,80,0,0
108370,-100,4,1,2,80,0,0
108454,-100,4,1,1,80,0,0
108663,-100,4,1,2,80,0,0
108789,-100,4,1,0,80,0,0
108914,-100,4,1,2,80,0,0
109040,-100,4,1,0,80,0,0
109124,-100,4,1,2,80,0,0
109208,-100,4,1,0,80,0,0
109292,-100,4,1,1,80,0,0
109375,-100,4,1,0,80,0,0
109948,-100,4,1,2,80,0,0
110171,-100,4,1,0,80,0,0
110590,-100,4,1,1,80,0,0
110758,-100,4,1,0,80,0,0
111303,-100,4,1,2,80,0,0
111387,-100,4,1,0,80,0,0
111889,-100,4,1,2,80,0,0
111973,-100,4,1,1,80,0,0
112099,-100,4,1,0,80,0,0
112937,-100,4,1,2,80,0,0
113063,-100,4,1,0,80,0,0
113314,-100,4,1,1,80,0,0
113440,-100,4,1,0,80,0,0
113775,-100,4,1,2,80,0,0
113942,-100,4,1,0,80,0,0
114110,-100,4,1,2,80,0,0
114222,-100,4,1,0,80,0,0
114333,-100,4,1,1,80,0,0
114403,-100,4,1,0,80,0,0
114487,-100,4,1,2,80,0,0
114655,-100,4,1,1,80,0,0
114990,-100,4,1,0,80,0,0
115116,-100,4,1,1,80,0,0
115283,-100,4,1,2,80,0,0
115535,-100,4,1,0,80,0,0
115954,-100,4,1,1,80,0,0
116121,-100,4,1,0,80,0,0
116289,-100,4,1,2,80,0,0
116456,-100,4,1,0,80,0,0
117169,-100,4,1,2,80,0,0
117252,-100,4,1,0,80,0,0
117336,-100,4,1,1,80,0,0
117462,-100,4,1,0,80,0,0
117965,-100,4,1,2,80,0,0
118132,-100,4,1,0,80,0,0
118677,-100,4,1,1,80,0,0
118831,-100,4,1,0,80,0,0
120563,-100,4,1,0,5,0,0
121317,-100,4,1,1,80,0,0
121484,-100,4,1,0,80,0,0
122029,-100,4,1,2,80,0,0
122113,-100,4,1,0,80,0,0
122616,-100,4,1,2,80,0,0
122699,-100,4,1,1,80,0,0
122825,-100,4,1,0,80,0,0
123579,-100,4,1,2,80,0,0
123789,-100,4,1,0,80,0,0
124040,-100,4,1,1,80,0,0
124166,-100,4,1,0,80,0,0
124501,-100,4,1,1,80,0,0
124948,-100,4,1,0,80,0,0
125213,-100,4,1,2,80,0,0
125381,-100,4,1,1,80,0,0
125465,-100,4,1,0,80,0,0
125549,-100,4,1,2,80,0,0
125632,-100,4,1,0,80,0,0
125716,-100,4,1,1,80,0,0
125800,-100,4,1,0,80,0,0
126009,-100,4,1,2,80,0,0
126261,-100,4,1,0,80,0,0
126680,-100,4,1,1,80,0,0
126847,-100,4,1,0,80,0,0
127392,-100,4,1,2,80,0,0
127476,-100,4,1,0,80,0,0
127979,-100,4,1,2,80,0,0
128063,-100,4,1,1,80,0,0
128188,-100,4,1,0,80,0,0
128733,-100,4,1,2,80,0,0
128859,-100,4,1,0,80,0,0
130032,-90.9090909090909,4,1,2,100,0,0
130367,-83.3333333333333,4,1,2,100,0,0
130618,-76.9230769230769,4,1,2,100,0,0
130702,-73.5294117647059,4,1,1,100,0,0
130954,-90.9090909090909,4,1,0,95,0,0
131414,-90.9090909090909,4,1,2,95,0,0
131456,-90.9090909090909,4,1,2,95,0,1
131624,-90.9090909090909,4,1,0,95,0,1
132085,-90.9090909090909,4,1,1,95,0,1
132169,-90.9090909090909,4,1,0,95,0,1
132755,-90.9090909090909,4,1,2,95,0,1
132923,-90.9090909090909,4,1,0,95,0,1
133342,-90.9090909090909,4,1,2,95,0,1
133426,-90.9090909090909,4,1,1,95,0,1
133551,-90.9090909090909,4,1,0,95,0,1
134096,-90.9090909090909,4,1,2,95,0,1
134306,-90.9090909090909,4,1,0,95,0,1
134766,-90.9090909090909,4,1,1,95,0,1
134850,-90.9090909090909,4,1,0,95,0,1
135353,-90.9090909090909,4,1,1,95,0,1
135437,-90.9090909090909,4,1,2,95,0,1
135730,-90.9090909090909,4,1,1,95,0,1
135898,-90.9090909090909,4,1,2,95,0,1
136107,-90.9090909090909,4,1,1,95,0,1
136359,-90.9090909090909,4,1,0,95,0,1
136442,-90.9090909090909,4,1,1,95,0,1
136526,-90.9090909090909,4,1,0,95,0,1
136778,-90.9090909090909,4,1,2,95,0,1
136987,-90.9090909090909,4,1,0,95,0,1
137448,-90.9090909090909,4,1,1,95,0,1
137532,-90.9090909090909,4,1,0,95,0,1
138118,-90.9090909090909,4,1,2,95,0,1
138286,-90.9090909090909,4,1,0,95,0,1
138705,-90.9090909090909,4,1,2,95,0,1
138789,-90.9090909090909,4,1,1,95,0,1
138914,-90.9090909090909,4,1,0,95,0,1
139459,-90.9090909090909,4,1,2,95,0,1
139669,-90.9090909090909,4,1,0,95,0,1
140116,-90.9090909090909,4,1,1,95,0,1
140227,-90.9090909090909,4,1,0,95,0,1
140618,-90.9090909090909,4,1,2,95,0,1
140898,-90.9090909090909,4,1,0,95,0,1
141009,-90.9090909090909,4,1,2,95,0,1
141121,-90.9090909090909,4,1,0,95,0,1
141233,-90.9090909090909,4,1,2,95,0,1
141456,-90.9090909090909,4,1,1,95,0,1
141568,-90.9090909090909,4,1,0,95,0,1
141680,-90.9090909090909,4,1,2,95,0,1
141792,-90.9090909090909,4,1,0,95,0,1
142015,-90.9090909090909,4,1,2,95,0,1
142183,-90.9090909090909,4,1,2,95,0,0
142350,-90.9090909090909,4,1,1,95,0,0
142853,-90.9090909090909,4,1,1,95,0,1
142937,-90.9090909090909,4,1,0,95,0,1
143482,-90.9090909090909,4,1,2,95,0,1
143649,-90.9090909090909,4,1,0,95,0,1
144152,-90.9090909090909,4,1,1,95,0,1
144278,-90.9090909090909,4,1,0,95,0,1
144403,-90.9090909090909,4,1,1,95,0,1
144487,-90.9090909090909,4,1,0,95,0,1
144655,-90.9090909090909,4,1,1,95,0,1
144780,-90.9090909090909,4,1,2,95,0,1
145032,-90.9090909090909,4,1,1,95,0,1
145618,-90.9090909090909,4,1,0,95,0,1
146079,-90.9090909090909,4,1,1,95,0,1
146163,-90.9090909090909,4,1,2,95,0,1
146456,-90.9090909090909,4,1,1,95,0,1
146624,-90.9090909090909,4,1,2,95,0,1
146833,-90.9090909090909,4,1,1,95,0,1
147085,-90.9090909090909,4,1,0,95,0,1
147169,-90.9090909090909,4,1,1,95,0,1
147252,-90.9090909090909,4,1,0,95,0,1
147504,-90.9090909090909,4,1,2,95,0,1
147630,-89.2857142857143,4,1,0,95,0,1
147797,-87.719298245614,4,1,1,95,0,1
147965,-87.719298245614,4,1,2,95,0,1
148090,-87.719298245614,4,1,1,95,0,1
148216,-87.719298245614,4,1,0,95,0,1
148342,-87.719298245614,4,1,1,95,0,1
148426,-87.719298245614,4,1,0,95,0,1
148509,-87.719298245614,4,1,2,95,0,1
148593,-87.719298245614,4,1,1,95,0,1
148719,-87.719298245614,4,1,0,95,0,1
148845,-86.9565217391304,4,1,2,95,0,1
148928,-86.2068965517241,4,1,0,95,0,1
149054,-85.4700854700855,4,1,0,95,0,1
149138,-84.0336134453781,4,1,1,95,0,1
149306,-84.0336134453781,4,1,2,95,0,1
149431,-84.0336134453781,4,1,1,95,0,1
149557,-84.0336134453781,4,1,0,95,0,1
149683,-84.0336134453781,4,1,1,95,0,1
149766,-84.0336134453781,4,1,0,95,0,1
149850,-84.0336134453781,4,1,2,95,0,1
149934,-84.0336134453781,4,1,1,95,0,1
150060,-84.0336134453781,4,1,0,95,0,1
150185,-83.3333333333333,4,1,2,95,0,1
150269,-82.6446280991736,4,1,0,95,0,1
150395,-81.9672131147541,4,1,0,95,0,1
150479,-81.3008130081301,4,1,0,95,0,1
150521,-80.6451612903226,4,1,1,95,0,1
150646,-80.6451612903226,4,1,2,95,0,1
150772,-80.6451612903226,4,1,1,95,0,1
150898,-80.6451612903226,4,1,0,95,0,1
151023,-80.6451612903226,4,1,1,95,0,1
151107,-80.6451612903226,4,1,0,95,0,1
151191,-80.6451612903226,4,1,2,95,0,1
151275,-80.6451612903226,4,1,1,95,0,1
151359,-80.6451612903226,4,1,0,95,0,1
151526,-80.6451612903226,4,1,2,95,0,1
151736,-79.3650793650794,4,1,2,95,0,1
151778,-78.7401574803149,4,1,1,95,0,1
151861,-78.125,4,1,0,95,0,1
151945,-78.125,4,1,2,95,0,1
152029,-78.125,4,1,1,95,0,1
152113,-78.125,4,1,0,95,0,1
152197,-78.125,4,1,1,95,0,1
152294,-78.125,4,1,0,95,0,1
152853,-78.125,4,1,2,50,0,1
152909,-78.125,4,1,2,50,0,0
153076,-133.333333333333,4,1,0,50,0,0
161917,-133.333333333333,4,1,0,60,0,0
162420,-133.333333333333,4,1,0,70,0,0
162965,-100,4,1,2,90,0,0
163258,-100,4,1,1,90,0,0
163384,-100,4,1,2,90,0,0
163551,-100,4,1,0,90,0,0
164138,-100,4,1,1,90,0,0
164347,-100,4,1,0,90,0,0
165227,-100,4,1,1,90,0,0
165395,-100,4,1,0,90,0,0
166903,-100,4,1,1,90,0,0
167071,-100,4,1,0,90,0,0
167741,-100,4,1,1,90,0,0
168076,-100,4,1,0,90,0,0
169585,-100,4,1,1,90,0,0
169752,-100,4,1,0,90,0,0
170590,-100,4,1,1,90,0,0
170758,-100,4,1,0,90,0,0
171512,-100,4,1,2,90,0,0
171764,-100,4,1,0,70,0,0
172979,-100,4,1,0,80,0,0
173984,-100,4,1,1,80,0,0
174194,-100,4,1,0,100,0,0
174529,-117.647058823529,4,1,0,60,0,0
184920,-100,4,1,0,100,0,0
185255,-111.111111111111,4,1,0,70,0,0
195646,-100,4,1,0,100,0,0
195982,-105.263157894737,4,1,0,80,0,0
206456,-100,4,1,0,100,0,0
206708,-100,4,1,0,90,0,0
211861,-100,4,1,1,90,0,0
211987,-100,4,1,0,90,0,0
212155,-100,4,1,1,90,0,0
212322,-100,4,1,0,90,0,0
212490,-100,4,1,1,90,0,0
212657,-100,4,1,0,90,0,0
212825,-100,4,1,1,90,0,0
212993,-100,4,1,0,90,0,0
213160,-100,4,1,1,90,0,0
213286,-100,4,1,0,90,0,0
213537,-100,4,1,1,90,0,0
213621,-100,4,1,0,90,0,0
213873,-100,4,1,1,90,0,0
213956,-100,4,1,0,90,0,0
214208,-100,4,1,1,90,0,0
214292,-100,4,1,0,90,0,0
214543,-100,4,1,1,90,0,0
214613,-100,4,1,0,90,0,0
214878,-100,4,1,1,90,0,0
214948,-100,4,1,0,90,0,0
215213,-100,4,1,1,90,0,0
215283,-100,4,1,0,90,0,0
215549,-100,4,1,1,90,0,0
215618,-100,4,1,0,90,0,0
215884,-100,4,1,2,90,0,0
216680,-200,4,1,2,90,0,0
216847,-50,4,1,1,90,0,0
217099,-50,4,1,2,95,0,0
217266,-90.9090909090909,4,1,2,95,0,1
217434,-90.9090909090909,4,1,0,95,0,1
217895,-90.9090909090909,4,1,1,95,0,1
217979,-90.9090909090909,4,1,0,95,0,1
218523,-90.9090909090909,4,1,2,95,0,1
218649,-90.9090909090909,4,1,0,95,0,1
219152,-90.9090909090909,4,1,2,95,0,1
219236,-90.9090909090909,4,1,1,95,0,1
219361,-90.9090909090909,4,1,0,95,0,1
219906,-90.9090909090909,4,1,2,95,0,1
220116,-90.9090909090909,4,1,0,95,0,1
220576,-90.9090909090909,4,1,1,95,0,1
220660,-90.9090909090909,4,1,0,95,0,1
221163,-90.9090909090909,4,1,1,95,0,1
221247,-90.9090909090909,4,1,2,95,0,1
221540,-90.9090909090909,4,1,1,95,0,1
221708,-90.9090909090909,4,1,2,95,0,1
221917,-90.9090909090909,4,1,1,95,0,1
222169,-90.9090909090909,4,1,0,95,0,1
222252,-90.9090909090909,4,1,1,95,0,1
222336,-90.9090909090909,4,1,0,95,0,1
222588,-90.9090909090909,4,1,2,95,0,1
222797,-90.9090909090909,4,1,0,95,0,1
223258,-90.9090909090909,4,1,1,95,0,1
223342,-90.9090909090909,4,1,0,95,0,1
223887,-90.9090909090909,4,1,2,95,0,1
224012,-90.9090909090909,4,1,0,95,0,1
224515,-90.9090909090909,4,1,2,95,0,1
224599,-90.9090909090909,4,1,1,95,0,1
224725,-90.9090909090909,4,1,0,95,0,1
225269,-90.9090909090909,4,1,2,95,0,1
225479,-90.9090909090909,4,1,0,95,0,1
225940,-90.9090909090909,4,1,1,95,0,1
226065,-90.9090909090909,4,1,0,95,0,1
226526,-90.9090909090909,4,1,2,95,0,1
226694,-90.9090909090909,4,1,0,95,0,1
226819,-90.9090909090909,4,1,2,95,0,1
226945,-90.9090909090909,4,1,0,95,0,1
227029,-90.9090909090909,4,1,1,95,0,1
227113,-90.9090909090909,4,1,2,95,0,1
227280,-90.9090909090909,4,1,1,95,0,1
227406,-90.9090909090909,4,1,2,95,0,1
227532,-90.9090909090909,4,1,1,95,0,1
227616,-90.9090909090909,4,1,0,95,0,1
227783,-90.9090909090909,4,1,1,95,0,1
227909,-90.9090909090909,4,1,2,30,0,1
227993,-90.9090909090909,4,1,2,30,0,0
228412,-90.9090909090909,4,1,0,95,0,0
228495,-90.9090909090909,4,1,0,95,0,1
228621,-90.9090909090909,4,1,1,95,0,1
228705,-90.9090909090909,4,1,0,95,0,1
229250,-90.9090909090909,4,1,2,95,0,1
229375,-90.9090909090909,4,1,0,95,0,1
229878,-90.9090909090909,4,1,2,95,0,1
229962,-90.9090909090909,4,1,1,95,0,1
230046,-90.9090909090909,4,1,0,95,0,1
230590,-90.9090909090909,4,1,2,95,0,1
230842,-90.9090909090909,4,1,0,95,0,1
231303,-90.9090909090909,4,1,1,95,0,1
231387,-90.9090909090909,4,1,0,95,0,1
231889,-90.9090909090909,4,1,1,95,0,1
231973,-90.9090909090909,4,1,2,95,0,1
232266,-90.9090909090909,4,1,1,95,0,1
232434,-90.9090909090909,4,1,2,95,0,1
232644,-90.9090909090909,4,1,1,95,0,1
232895,-90.9090909090909,4,1,0,95,0,1
232979,-90.9090909090909,4,1,1,95,0,1
233063,-90.9090909090909,4,1,0,95,0,1
233314,-90.9090909090909,4,1,2,95,0,1
233523,-90.9090909090909,4,1,0,95,0,1
233942,-90.9090909090909,4,1,1,95,0,1
234068,-90.9090909090909,4,1,0,95,0,1
234613,-90.9090909090909,4,1,2,95,0,1
234738,-90.9090909090909,4,1,0,95,0,1
235241,-90.9090909090909,4,1,2,95,0,1
235325,-90.9090909090909,4,1,1,95,0,1
235451,-90.9090909090909,4,1,0,95,0,1
235995,-90.9090909090909,4,1,2,95,0,1
236205,-90.9090909090909,4,1,0,95,0,1
236373,-83.3333333333333,4,1,0,95,0,1
236540,-80,4,1,0,95,0,1
236624,-76.9230769230769,4,1,1,95,0,1
236833,-72.463768115942,4,1,0,95,0,1
237043,-71.4285714285714,4,1,0,95,0,1
237211,-68.9655172413793,4,1,0,95,0,1
237294,-66.6666666666667,4,1,2,100,0,1
237546,-71.4285714285714,4,1,2,100,0,1
237797,-76.9230769230769,4,1,2,100,0,1
238049,-83.3333333333333,4,1,2,100,0,1
238258,-90.9090909090909,4,1,1,100,0,1
238551,-100,4,1,2,90,0,1
238719,-100,4,1,2,90,0,0
238803,-100,4,1,0,90,0,0
239222,-100,4,1,1,90,0,0
239473,-100,4,1,0,90,0,0
239976,-100,4,1,2,90,0,0
240144,-100,4,1,0,90,0,0
240604,-100,4,1,2,90,0,0
240688,-100,4,1,1,90,0,0
240814,-100,4,1,0,90,0,0
241359,-100,4,1,2,90,0,0
241484,-100,4,1,0,90,0,0
241987,-100,4,1,1,90,0,0
242113,-100,4,1,0,90,0,0
242657,-100,4,1,2,90,0,0
242825,-100,4,1,0,90,0,0
243286,-100,4,1,2,90,0,0
243370,-100,4,1,1,90,0,0
243495,-100,4,1,0,90,0,0
244040,-100,4,1,2,90,0,0
244166,-100,4,1,0,90,0,0
244585,-100,4,1,1,90,0,0
244836,-100,4,1,0,90,0,0
245339,-100,4,1,2,90,0,0
245507,-100,4,1,0,90,0,0
245968,-100,4,1,2,90,0,0
246051,-100,4,1,1,90,0,0
246177,-100,4,1,0,90,0,0
246596,-100,4,1,2,90,0,0
246847,-100,4,1,0,90,0,0
247057,-100,4,1,1,90,0,0
247183,-100,4,1,0,90,0,0
247350,-100,4,1,2,90,0,0
247476,-100,4,1,0,90,0,0
247685,-100,4,1,1,90,0,0
247853,-100,4,1,0,90,0,0
248063,-100,4,1,2,90,0,0
248188,-100,4,1,0,90,0,0
248398,-100,4,1,1,90,0,0
248523,-100,4,1,0,90,0,0
248691,-100,4,1,2,90,0,0
248817,-100,4,1,1,90,0,0
248901,-100,4,1,2,90,0,0
249026,-100,4,1,1,90,0,0
249403,-100,4,1,2,90,0,0
249529,-100,4,1,0,90,0,0
249697,-100,4,1,1,90,0,0
249864,-100,4,1,0,90,0,0
250241,-100,4,1,2,90,0,0
250367,-100,4,1,1,90,0,0
250535,-100,4,1,0,90,0,0
250702,-100,4,1,2,90,0,0
250870,-100,4,1,0,90,0,0
251079,-100,4,1,1,90,0,0
251205,-100,4,1,0,90,0,0
251456,-100,4,1,2,90,0,0
251708,-100,4,1,1,90,0,0
251959,-100,4,1,2,90,0,0
252294,-100,4,1,1,90,0,0
252546,-100,4,1,0,90,0,0
252881,-100,4,1,2,90,0,0
253007,-100,4,1,0,90,0,0
253090,-100,4,1,1,90,0,0
253216,-100,4,1,0,90,0,0
253426,-100,4,1,2,90,0,0
253551,-100,4,1,0,90,0,0
253719,-100,4,1,1,90,0,0
253887,-100,4,1,0,90,0,0
254222,-100,4,1,2,90,0,0
254389,-100,4,1,1,90,0,0
254515,-100,4,1,0,90,0,0
254766,-100,4,1,2,90,0,0
254976,-100,4,1,1,90,0,0
255227,-100,4,1,0,90,0,0
255604,-100,4,1,2,90,0,0
255730,-100,4,1,1,90,0,0
255898,-100,4,1,0,90,0,0
256065,-100,4,1,2,90,0,0
256317,-100,4,1,1,90,0,0
256568,-100,4,1,0,90,0,0
256903,-100,4,1,2,90,0,0
257029,-100,4,1,0,90,0,0
257113,-100,4,1,1,90,0,0
257197,-100,4,1,0,90,0,0
257406,-100,4,1,2,90,0,0
257574,-100,4,1,0,90,0,0
257741,-100,4,1,1,90,0,0
257867,-100,4,1,0,90,0,0
257993,-100,4,1,2,90,0,0
258118,-100,4,1,1,90,0,0
258292,-100,4,1,2,90,0,0
258412,-100,4,1,1,90,0,0
258537,-100,4,1,2,90,0,0
258621,-100,4,1,1,90,0,0
258831,-100,4,1,2,90,0,0
258956,-100,4,1,0,90,0,0
259082,-100,4,1,2,90,0,0
259208,-100,4,1,0,90,0,0
259292,-100,4,1,2,90,0,0
259375,-100,4,1,0,90,0,0
259459,-100,4,1,1,90,0,0
259543,-100,4,1,0,90,0,0
259794,-100,4,1,1,90,0,0
260130,-100,4,1,2,80,0,0
260199,-100,4,1,0,80,0,0
260381,-100,4,1,2,80,0,0
260465,-100,4,1,0,80,0,0
260549,-100,4,1,2,80,0,0
260702,-100,4,1,0,80,0,0
260814,-100,4,1,1,80,0,0
260926,-100,4,1,0,80,0,0
261470,-100,4,1,2,80,0,0
261554,-100,4,1,0,80,0,0
261973,-100,4,1,2,80,0,0
262057,-100,4,1,0,80,0,0
262141,-100,4,1,1,80,0,0
262225,-100,4,1,0,80,0,0
262476,-100,4,1,1,80,0,0
262602,-100,4,1,2,80,0,0
262769,-100,4,1,0,80,0,0
263104,-100,4,1,2,80,0,0
263230,-100,4,1,0,80,0,0
263482,-100,4,1,1,80,0,0
263607,-100,4,1,0,80,0,0
263942,-100,4,1,2,80,0,0
264445,-100,4,1,1,80,0,0
264613,-100,4,1,2,80,0,0
264822,-100,4,1,1,80,0,0
264948,-100,4,1,2,80,0,0
265116,-100,4,1,1,80,0,0
265241,-100,4,1,0,80,0,0
265493,-100,4,1,2,80,0,0
265702,-100,4,1,0,80,0,0
266121,-100,4,1,1,80,0,0
266289,-100,4,1,0,80,0,0
266498,-100,4,1,2,80,0,0
266624,-100,4,1,0,80,0,0
267001,-100,4,1,2,80,0,0
267085,-100,4,1,0,80,0,0
267420,-100,4,1,2,80,0,0
267504,-100,4,1,1,80,0,0
267671,-100,4,1,2,80,0,0
267839,-100,4,1,0,80,0,0
267965,-100,4,1,1,80,0,0
268132,-100,4,1,0,80,0,0
268384,-100,4,1,1,80,0,0
268635,-100,4,1,0,80,0,0
268845,-100,4,1,2,80,0,0
268928,-100,4,1,0,80,0,0
269012,-100,4,1,1,80,0,0
269138,-100,4,1,0,80,0,0
269515,-100,4,1,2,80,0,0
269641,-100,4,1,0,80,0,0
269808,-100,4,1,1,80,0,0
269976,-100,4,1,0,80,0,0
270185,-100,4,1,2,80,0,0
270269,-100,4,1,0,80,0,0
270353,-100,4,1,1,80,0,0
270479,-100,4,1,0,80,0,0
270856,-100,4,1,2,80,0,0
271065,-100,4,1,0,80,0,0
271401,-100,4,1,1,80,0,0
271652,-100,4,1,0,80,0,0
271987,-100,4,1,2,80,0,0
272113,-100,4,1,0,80,0,0
272699,-100,4,1,2,80,0,0
272783,-100,4,1,0,80,0,0
272867,-100,4,1,1,80,0,0
273468,-100,4,1,0,5,0,0
274166,-100,4,1,1,80,0,0
274333,-100,4,1,0,80,0,0
274669,-100,4,1,1,80,0,0
275116,-100,4,1,0,80,0,0
275381,-100,4,1,2,80,0,0
275549,-100,4,1,1,80,0,0
275632,-100,4,1,0,80,0,0
275716,-100,4,1,2,80,0,0
275800,-100,4,1,0,80,0,0
275884,-100,4,1,1,80,0,0
275968,-100,4,1,0,80,0,0
276177,-100,4,1,2,80,0,0
276428,-100,4,1,0,80,0,0
276847,-100,4,1,1,80,0,0
277015,-100,4,1,0,80,0,0
277476,-100,4,1,2,80,0,0
277560,-100,4,1,0,80,0,0
277727,-100,4,1,2,80,0,0
277811,-100,4,1,0,80,0,0
277979,-100,4,1,2,80,0,0
278063,-100,4,1,0,80,0,0
278230,-100,4,1,1,80,0,0
278356,-100,4,1,2,80,0,0
278523,-100,4,1,1,80,0,0
278649,-100,4,1,0,80,0,0
278901,-100,4,1,2,80,0,0
279026,-100,4,1,0,80,0,0
280241,-90.9090909090909,4,1,2,100,0,0
280325,-88.4955752212389,4,1,0,100,0,0
280451,-86.2068965517241,4,1,0,100,0,0
280493,-83.3333333333333,4,1,2,100,0,0
280576,-81.3008130081301,4,1,0,100,0,0
280702,-79.3650793650794,4,1,0,100,0,0
280744,-76.9230769230769,4,1,2,100,0,0
280828,-75.187969924812,4,1,0,100,0,0
280912,-73.5294117647059,4,1,1,100,0,0
281121,-90.9090909090909,4,1,0,95,0,0
281582,-90.9090909090909,4,1,2,95,0,0
281624,-90.9090909090909,4,1,2,95,0,1
281792,-90.9090909090909,4,1,1,95,0,1
282043,-90.9090909090909,4,1,0,95,0,1
282420,-90.9090909090909,4,1,2,95,0,1
282546,-90.9090909090909,4,1,1,95,0,1
282713,-90.9090909090909,4,1,0,95,0,1
282923,-90.9090909090909,4,1,2,95,0,1
283007,-90.9090909090909,4,1,0,95,0,1
283216,-90.9090909090909,4,1,1,95,0,1
283384,-90.9090909090909,4,1,0,95,0,1
283719,-90.9090909090909,4,1,2,95,0,1
283887,-90.9090909090909,4,1,1,95,0,1
284012,-90.9090909090909,4,1,0,95,0,1
284264,-90.9090909090909,4,1,2,95,0,1
284473,-90.9090909090909,4,1,1,95,0,1
284725,-90.9090909090909,4,1,0,95,0,1
285102,-90.9090909090909,4,1,2,95,0,1
285227,-90.9090909090909,4,1,1,95,0,1
285353,-90.9090909090909,4,1,0,95,0,1
285604,-90.9090909090909,4,1,2,95,0,1
285688,-90.9090909090909,4,1,0,95,0,1
285856,-90.9090909090909,4,1,1,95,0,1
286065,-90.9090909090909,4,1,0,95,0,1
286401,-90.9090909090909,4,1,2,95,0,1
286526,-90.9090909090909,4,1,0,95,0,1
286610,-90.9090909090909,4,1,1,95,0,1
286694,-90.9090909090909,4,1,0,95,0,1
286945,-90.9090909090909,4,1,2,95,0,1
287155,-90.9090909090909,4,1,1,95,0,1
287406,-90.9090909090909,4,1,0,95,0,1
287783,-90.9090909090909,4,1,2,95,0,1
287909,-90.9090909090909,4,1,1,95,0,1
288076,-90.9090909090909,4,1,0,95,0,1
288286,-90.9090909090909,4,1,2,95,0,1
288370,-90.9090909090909,4,1,0,95,0,1
288579,-90.9090909090909,4,1,1,95,0,1
288747,-90.9090909090909,4,1,0,95,0,1
289082,-90.9090909090909,4,1,2,95,0,1
289250,-90.9090909090909,4,1,1,95,0,1
289375,-90.9090909090909,4,1,0,95,0,1
289627,-90.9090909090909,4,1,2,95,0,1
289836,-90.9090909090909,4,1,1,95,0,1
290088,-90.9090909090909,4,1,0,95,0,1
290213,-90.9090909090909,4,1,2,95,0,1
290297,-90.9090909090909,4,1,0,95,0,1
290423,-90.9090909090909,4,1,1,95,0,1
290590,-90.9090909090909,4,1,1,95,0,1
290758,-90.9090909090909,4,1,0,95,0,1
290968,-90.9090909090909,4,1,2,95,0,1
291051,-90.9090909090909,4,1,0,95,0,1
291219,-90.9090909090909,4,1,1,95,0,1
291303,-90.9090909090909,4,1,0,95,0,1
291470,-90.9090909090909,4,1,2,95,0,1
291554,-90.9090909090909,4,1,0,95,0,1
291638,-90.9090909090909,4,1,1,95,0,1
291764,-90.9090909090909,4,1,2,95,0,1
291973,-90.9090909090909,4,1,1,95,0,1
292057,-90.9090909090909,4,1,0,95,0,1
292141,-90.9090909090909,4,1,1,95,0,1
292266,-90.9090909090909,4,1,2,30,0,1
292350,-90.9090909090909,4,1,2,30,0,0
292476,-90.9090909090909,4,1,0,30,0,0
292644,-90.9090909090909,4,1,1,95,0,0
292685,-90.9090909090909,4,1,1,95,0,1
292769,-90.9090909090909,4,1,0,95,0,1
293146,-90.9090909090909,4,1,2,95,0,1
293272,-90.9090909090909,4,1,1,95,0,1
293440,-90.9090909090909,4,1,0,95,0,1
293649,-90.9090909090909,4,1,2,95,0,1
293733,-90.9090909090909,4,1,0,95,0,1
293942,-90.9090909090909,4,1,1,95,0,1
294110,-90.9090909090909,4,1,0,95,0,1
294487,-90.9090909090909,4,1,2,95,0,1
294571,-90.9090909090909,4,1,0,95,0,1
294655,-90.9090909090909,4,1,1,95,0,1
294738,-90.9090909090909,4,1,0,95,0,1
294990,-90.9090909090909,4,1,2,95,0,1
295199,-90.9090909090909,4,1,1,95,0,1
295451,-90.9090909090909,4,1,0,95,0,1
295828,-90.9090909090909,4,1,2,95,0,1
295912,-90.9090909090909,4,1,0,95,0,1
295995,-90.9090909090909,4,1,1,95,0,1
296079,-90.9090909090909,4,1,0,95,0,1
296331,-90.9090909090909,4,1,2,95,0,1
296414,-90.9090909090909,4,1,0,95,0,1
296582,-90.9090909090909,4,1,1,95,0,1
296792,-90.9090909090909,4,1,0,95,0,1
297127,-90.9090909090909,4,1,2,95,0,1
297252,-90.9090909090909,4,1,0,95,0,1
297336,-90.9090909090909,4,1,1,95,0,1
297420,-90.9090909090909,4,1,0,95,0,1
297671,-90.9090909090909,4,1,2,95,0,1
297839,-90.9090909090909,4,1,0,95,0,1
298007,-90.9090909090909,4,1,1,95,0,1
298132,-90.9090909090909,4,1,0,95,0,1
298509,-90.9090909090909,4,1,2,95,0,1
298635,-90.9090909090909,4,1,1,95,0,1
298803,-90.9090909090909,4,1,0,95,0,1
299012,-90.9090909090909,4,1,2,95,0,1
299096,-90.9090909090909,4,1,0,95,0,1
299306,-90.9090909090909,4,1,1,95,0,1
299473,-90.9090909090909,4,1,0,95,0,1
299850,-90.9090909090909,4,1,2,95,0,1
299934,-90.9090909090909,4,1,0,95,0,1
300018,-90.9090909090909,4,1,1,95,0,1
300102,-90.9090909090909,4,1,0,95,0,1
300353,-90.9090909090909,4,1,2,95,0,1
300563,-90.9090909090909,4,1,1,95,0,1
300814,-90.9090909090909,4,1,0,95,0,1
301149,-90.9090909090909,4,1,2,95,0,1
301317,-90.9090909090909,4,1,1,95,0,1
301484,-90.9090909090909,4,1,2,95,0,1
301819,-90.9090909090909,4,1,0,95,0,1
302029,-90.9090909090909,4,1,1,95,0,1
302113,-90.9090909090909,4,1,0,95,0,1
302197,-90.9090909090909,4,1,2,95,0,1
302322,-90.9090909090909,4,1,0,95,0,1
302532,-90.9090909090909,4,1,1,95,0,1
302616,-90.9090909090909,4,1,0,95,0,1
303035,-90.9090909090909,4,1,2,70,0,1
303076,-90.9090909090909,4,1,2,70,0,0
303160,-90.9090909090909,4,1,0,70,0,0
304375,-90.9090909090909,4,1,0,80,0,0
305716,-90.9090909090909,4,1,0,70,0,0
307015,-90.9090909090909,4,1,0,5,0,0

[HitObjects]
256,192,2741,5,4,0:0:0:0:
256,192,3076,1,0,0:0:0:0:
256,192,3412,1,8,0:0:0:0:
256,192,3495,1,8,0:0:0:0:
256,192,3579,1,0,0:0:0:0:
256,192,3747,1,8,0:0:0:0:
256,192,3914,1,4,0:0:0:0:
256,192,4250,1,0,0:0:0:0:
256,192,4417,1,8,0:0:0:0:
256,192,4585,1,4,0:0:0:0:
256,192,4920,1,8,0:0:0:0:
256,192,5088,1,0,0:0:0:0:
256,192,5423,5,12,0:0:0:0:
256,192,5758,1,8,0:0:0:0:
256,192,5926,1,0,0:0:0:0:
256,192,6093,1,8,0:0:0:0:
256,192,6261,1,8,0:0:0:0:
256,192,6345,1,8,0:0:0:0:
256,192,6428,1,8,0:0:0:0:
256,192,6596,1,4,0:0:0:0:
256,192,6931,1,8,0:0:0:0:
256,192,7099,1,8,0:0:0:0:
256,192,7266,1,4,0:0:0:0:
256,192,7602,1,0,0:0:0:0:
256,192,7769,1,8,0:0:0:0:
256,192,7937,1,0,0:0:0:0:
256,192,8104,5,4,0:0:0:0:
256,192,8440,1,0,0:0:0:0:
256,192,8775,1,8,0:0:0:0:
256,192,8942,1,0,0:0:0:0:
256,192,9026,1,0,0:0:0:0:
256,192,9110,1,8,0:0:0:0:
256,192,9278,1,4,0:0:0:0:
256,192,9613,1,0,0:0:0:0:
256,192,9780,1,8,0:0:0:0:
256,192,9948,1,4,0:0:0:0:
256,192,10283,1,0,0:0:0:0:
256,192,10451,1,8,0:0:0:0:
256,192,10786,5,4,0:0:0:0:
256,192,10954,1,8,0:0:0:0:
256,192,11121,1,8,0:0:0:0:
256,192,11289,1,8,0:0:0:0:
256,192,11456,1,0,0:0:0:0:
256,192,11624,1,8,0:0:0:0:
256,192,11792,1,0,0:0:0:0:
256,192,11875,1,8,0:0:0:0:
256,192,11959,1,8,0:0:0:0:
256,192,12043,1,8,0:0:0:0:
256,192,12127,1,0,0:0:0:0:
256,192,12211,1,8,0:0:0:0:
256,192,12294,1,8,0:0:0:0:
256,192,12378,1,0,0:0:0:0:
256,192,12462,1,8,0:0:0:0:
256,192,12546,1,8,0:0:0:0:
256,192,12630,1,0,0:0:0:0:
256,192,12713,1,8,0:0:0:0:
256,192,12797,1,8,0:0:0:0:
256,192,12881,1,0,0:0:0:0:
256,192,13132,1,8,0:0:0:0:
256,192,13300,1,8,0:0:0:0:
256,192,13468,5,4,0:0:0:0:
256,192,13635,1,0,0:0:0:0:
256,192,13803,1,8,0:0:0:0:
256,192,14138,1,8,0:0:0:0:
256,192,14222,1,0,0:0:0:0:
256,192,14306,1,0,0:0:0:0:
256,192,14473,1,8,0:0:0:0:
256,192,14641,1,8,0:0:0:0:
256,192,14808,1,0,0:0:0:0:
256,192,14976,1,8,0:0:0:0:
256,192,15144,1,0,0:0:0:0:
256,192,15311,1,0,0:0:0:0:
256,192,15395,1,0,0:0:0:0:
256,192,15479,1,8,0:0:0:0:
256,192,15646,1,0,0:0:0:0:
256,192,15814,1,8,0:0:0:0:
256,192,16149,5,12,0:0:0:0:
256,192,16484,1,0,0:0:0:0:
256,192,16652,1,8,0:0:0:0:
256,192,16819,1,8,0:0:0:0:
256,192,16903,1,8,0:0:0:0:
256,192,16987,1,0,0:0:0:0:
256,192,17071,1,0,0:0:0:0:
256,192,17155,1,8,0:0:0:0:
256,192,17322,1,8,0:0:0:0:
256,192,17490,1,0,0:0:0:0:
256,192,17657,1,8,0:0:0:0:
256,192,17993,1,8,0:0:0:0:
256,192,18076,1,0,0:0:0:0:
256,192,18160,1,8,0:0:0:0:
256,192,18328,1,0,0:0:0:0:
256,192,18495,1,8,0:0:0:0:
256,192,18579,1,8,0:0:0:0:
256,192,18663,1,8,0:0:0:0:
256,192,18831,5,4,0:0:0:0:
256,192,19166,1,8,0:0:0:0:
256,192,19333,1,0,0:0:0:0:
256,192,19501,1,8,0:0:0:0:
256,192,19669,1,0,0:0:0:0:
256,192,19752,1,0,0:0:0:0:
256,192,19836,1,8,0:0:0:0:
256,192,19920,1,0,0:0:0:0:
256,192,20004,1,8,0:0:0:0:
256,192,20171,1,0,0:0:0:0:
256,192,20339,1,0,0:0:0:0:
256,192,20507,1,8,0:0:0:0:
256,192,20674,1,0,0:0:0:0:
256,192,20758,1,0,0:0:0:0:
256,192,20842,1,8,0:0:0:0:
256,192,21009,1,0,0:0:0:0:
256,192,21177,1,8,0:0:0:0:
256,192,21345,1,8,0:0:0:0:
256,192,21512,5,4,0:0:0:0:
256,192,21680,1,8,0:0:0:0:
256,192,21764,1,0,0:0:0:0:
256,192,21931,1,8,0:0:0:0:
256,192,22015,1,0,0:0:0:0:
256,192,22099,1,0,0:0:0:0:
256,192,22183,1,8,0:0:0:0:
256,192,22350,1,0,0:0:0:0:
256,192,22518,1,8,0:0:0:0:
256,192,22602,1,0,0:0:0:0:
256,192,22685,1,8,0:0:0:0:
256,192,22769,1,8,0:0:0:0:
256,192,22937,1,0,0:0:0:0:
256,192,23021,1,8,0:0:0:0:
256,192,23188,1,0,0:0:0:0:
256,192,23272,1,8,0:0:0:0:
256,192,23356,1,0,0:0:0:0:
256,192,23440,1,0,0:0:0:0:
256,192,23523,1,8,0:0:0:0:
256,192,23691,1,0,0:0:0:0:
256,192,23775,1,0,0:0:0:0:
256,192,23859,1,8,0:0:0:0:
256,192,23970,1,8,0:0:0:0:
256,192,24082,1,8,0:0:0:0:
256,192,24194,5,4,0:0:0:0:
256,192,24529,1,8,0:0:0:0:
256,192,24697,1,8,0:0:0:0:
256,192,25032,1,8,0:0:0:0:
256,192,25199,1,8,0:0:0:0:
256,192,25367,1,0,0:0:0:0:
256,192,25702,1,0,0:0:0:0:
256,192,25870,1,8,0:0:0:0:
256,192,26037,1,8,0:0:0:0:
256,192,26205,1,0,0:0:0:0:
256,192,26373,1,8,0:0:0:0:
256,192,26540,1,0,0:0:0:0:
256,192,26708,1,0,0:0:0:0:
256,192,29557,5,8,0:0:0:0:
256,192,29892,1,8,0:0:0:0:
256,192,30060,1,8,0:0:0:0:
256,192,30395,1,0,0:0:0:0:
256,192,30563,1,8,0:0:0:0:
256,192,30730,1,0,0:0:0:0:
256,192,31065,1,0,0:0:0:0:
256,192,31233,1,8,0:0:0:0:
256,192,31401,1,8,0:0:0:0:
256,192,31568,1,0,0:0:0:0:
256,192,31736,1,8,0:0:0:0:
256,192,31903,1,0,0:0:0:0:
256,192,32071,1,0,0:0:0:0:
256,192,34920,5,4,0:0:0:0:
256,192,35255,1,0,0:0:0:0:
256,192,35423,1,8,0:0:0:0:
256,192,35590,1,0,0:0:0:0:
256,192,35926,1,0,0:0:0:0:
256,192,36261,5,0,0:0:0:0:
256,192,36428,1,8,0:0:0:0:
256,192,36596,1,0,0:0:0:0:
256,192,36931,1,8,0:0:0:0:
256,192,37015,1,0,0:0:0:0:
256,192,37099,1,8,0:0:0:0:
256,192,37266,1,8,0:0:0:0:
256,192,37602,5,0,0:0:0:0:
256,192,37769,1,8,0:0:0:0:
256,192,37825,1,8,0:0:0:0:
256,192,37881,1,8,0:0:0:0:
256,192,37937,1,0,0:0:0:0:
256,192,38272,1,0,0:0:0:0:
256,192,38523,1,8,0:0:0:0:
256,192,38607,1,0,0:0:0:0:
256,192,38775,1,8,0:0:0:0:
256,192,38942,1,0,0:0:0:0:
256,192,39278,1,0,0:0:0:0:
256,192,39613,1,8,0:0:0:0:
256,192,39780,1,0,0:0:0:0:
256,192,39948,1,8,0:0:0:0:
256,192,40060,1,8,0:0:0:0:
256,192,40171,1,8,0:0:0:0:
256,192,40283,5,0,0:0:0:0:
256,192,40451,1,8,0:0:0:0:
256,192,40618,1,0,0:0:0:0:
256,192,40786,1,0,0:0:0:0:
256,192,40954,1,8,0:0:0:0:
256,192,41121,1,0,0:0:0:0:
256,192,41289,1,8,0:0:0:0:
256,192,41456,1,8,0:0:0:0:
256,192,41624,1,0,0:0:0:0:
256,192,41792,1,0,0:0:0:0:
256,192,41959,1,8,0:0:0:0:
256,192,42127,1,0,0:0:0:0:
256,192,42294,1,8,0:0:0:0:
256,192,42378,1,0,0:0:0:0:
256,192,42462,1,8,0:0:0:0:
256,192,42630,5,0,0:0:0:0:
256,192,42741,1,8,0:0:0:0:
256,192,42853,1,8,0:0:0:0:
256,192,42965,1,0,0:0:0:0:
256,192,43049,1,0,0:0:0:0:
256,192,43132,1,8,0:0:0:0:
256,192,43188,1,8,0:0:0:0:
256,192,43244,1,8,0:0:0:0:
256,192,43300,1,0,0:0:0:0:
256,192,43384,1,8,0:0:0:0:
256,192,43468,1,0,0:0:0:0:
256,192,43551,1,0,0:0:0:0:
256,192,43635,1,8,0:0:0:0:
256,192,43691,1,0,0:0:0:0:
256,192,43747,1,0,0:0:0:0:
256,192,43803,1,8,0:0:0:0:
256,192,43887,1,8,0:0:0:0:
256,192,43970,1,0,0:0:0:0:
256,192,44026,1,0,0:0:0:0:
256,192,44082,1,0,0:0:0:0:
256,192,44138,1,8,0:0:0:0:
256,192,44222,1,8,0:0:0:0:
256,192,44306,1,0,0:0:0:0:
256,192,45144,1,0,0:0:0:0:
256,192,45311,1,12,0:0:0:0:
256,192,45646,5,4,0:0:0:0:
256,192,45982,1,0,0:0:0:0:
256,192,46149,1,0,0:0:0:0:
256,192,46233,1,0,0:0:0:0:
256,192,46317,1,8,0:0:0:0:
256,192,46401,1,0,0:0:0:0:
256,192,46484,1,8,0:0:0:0:
256,192,46652,1,0,0:0:0:0:
256,192,46819,1,8,0:0:0:0:
256,192,46987,1,0,0:0:0:0:
256,192,47071,1,0,0:0:0:0:
256,192,47155,1,8,0:0:0:0:
256,192,47322,1,0,0:0:0:0:
256,192,47490,1,8,0:0:0:0:
256,192,47574,1,0,0:0:0:0:
256,192,47657,1,8,0:0:0:0:
256,192,47825,1,0,0:0:0:0:
256,192,47993,1,8,0:0:0:0:
256,192,48076,1,8,0:0:0:0:
256,192,48160,1,0,0:0:0:0:
256,192,48244,1,8,0:0:0:0:
256,192,48328,5,0,0:0:0:0:
256,192,48663,1,0,0:0:0:0:
256,192,48831,1,8,0:0:0:0:
256,192,48914,1,0,0:0:0:0:
256,192,48998,1,8,0:0:0:0:
256,192,49082,1,0,0:0:0:0:
256,192,49166,1,0,0:0:0:0:
256,192,49333,1,8,0:0:0:0:
256,192,49501,1,0,0:0:0:0:
256,192,49585,1,8,0:0:0:0:
256,192,49669,1,0,0:0:0:0:
256,192,49836,1,0,0:0:0:0:
256,192,50004,1,8,0:0:0:0:
256,192,50171,1,0,0:0:0:0:
256,192,50255,1,0,0:0:0:0:
256,192,50339,1,8,0:0:0:0:
256,192,50507,1,8,0:0:0:0:
256,192,50590,1,0,0:0:0:0:
256,192,50674,1,8,0:0:0:0:
256,192,50758,1,0,0:0:0:0:
256,192,50842,1,8,0:0:0:0:
256,192,50926,1,8,0:0:0:0:
256,192,51009,5,0,0:0:0:0:
256,192,51345,1,0,0:0:0:0:
256,192,51512,1,0,0:0:0:0:
256,192,51596,1,0,0:0:0:0:
256,192,51680,1,8,0:0:0:0:
256,192,51764,1,0,0:0:0:0:
256,192,51847,1,8,0:0:0:0:
256,192,52015,1,0,0:0:0:0:
256,192,52183,1,8,0:0:0:0:
256,192,52350,1,0,0:0:0:0:
256,192,52434,1,0,0:0:0:0:
256,192,52518,1,8,0:0:0:0:
256,192,52685,1,0,0:0:0:0:
256,192,52853,1,8,0:0:0:0:
256,192,52937,1,0,0:0:0:0:
256,192,53021,1,8,0:0:0:0:
256,192,53188,1,8,0:0:0:0:
256,192,53356,1,8,0:0:0:0:
256,192,53440,1,8,0:0:0:0:
256,192,53523,1,8,0:0:0:0:
256,192,53607,1,8,0:0:0:0:
256,192,53691,5,0,0:0:0:0:
256,192,54026,1,0,0:0:0:0:
256,192,54194,1,0,0:0:0:0:
256,192,54361,1,8,0:0:0:0:
256,192,54529,1,0,0:0:0:0:
256,192,54697,1,8,0:0:0:0:
256,192,54864,1,8,0:0:0:0:
256,192,54948,1,0,0:0:0:0:
256,192,55032,1,0,0:0:0:0:
256,192,55116,1,8,0:0:0:0:
256,192,55283,1,0,0:0:0:0:
256,192,55367,1,8,0:0:0:0:
256,192,55451,1,8,0:0:0:0:
256,192,55535,1,0,0:0:0:0:
256,192,55618,1,0,0:0:0:0:
256,192,55702,1,8,0:0:0:0:
256,192,55870,1,0,0:0:0:0:
256,192,55954,1,8,0:0:0:0:
256,192,56037,1,0,0:0:0:0:
256,192,56121,1,0,0:0:0:0:
256,192,56205,1,8,0:0:0:0:
256,192,56373,5,0,0:0:0:0:
256,192,56428,1,8,0:0:0:0:
256,192,56484,1,8,0:0:0:0:
256,192,56540,1,8,0:0:0:0:
256,192,56624,1,0,0:0:0:0:
256,192,56792,1,0,0:0:0:0:
256,192,56875,1,0,0:0:0:0:
256,192,56959,1,0,0:0:0:0:
256,192,57043,1,8,0:0:0:0:
256,192,57127,1,0,0:0:0:0:
256,192,57211,1,8,0:0:0:0:
256,192,57378,1,0,0:0:0:0:
256,192,57546,1,8,0:0:0:0:
256,192,57713,1,0,0:0:0:0:
256,192,57797,1,0,0:0:0:0:
256,192,57881,1,8,0:0:0:0:
256,192,58049,1,0,0:0:0:0:
256,192,58216,1,8,0:0:0:0:
256,192,58300,1,0,0:0:0:0:
256,192,58384,1,8,0:0:0:0:
256,192,58495,1,0,0:0:0:0:
256,192,58607,1,0,0:0:0:0:
256,192,58719,1,8,0:0:0:0:
256,192,58831,1,8,0:0:0:0:
256,192,58942,1,8,0:0:0:0:
256,192,59054,5,0,0:0:0:0:
256,192,59389,1,0,0:0:0:0:
256,192,59557,1,8,0:0:0:0:
256,192,59641,1,0,0:0:0:0:
256,192,59725,1,8,0:0:0:0:
256,192,59808,1,0,0:0:0:0:
256,192,59892,1,0,0:0:0:0:
256,192,60060,1,8,0:0:0:0:
256,192,60227,1,0,0:0:0:0:
256,192,60311,1,8,0:0:0:0:
256,192,60395,1,0,0:0:0:0:
256,192,60563,1,0,0:0:0:0:
256,192,60730,1,8,0:0:0:0:
256,192,60898,1,0,0:0:0:0:
256,192,60982,1,0,0:0:0:0:
256,192,61065,1,8,0:0:0:0:
256,192,61233,1,8,0:0:0:0:
256,192,61317,1,0,0:0:0:0:
256,192,61401,1,8,0:0:0:0:
256,192,61484,1,0,0:0:0:0:
256,192,61568,1,8,0:0:0:0:
256,192,61652,1,8,0:0:0:0:
256,192,61736,1,0,0:0:0:0:
256,192,61987,1,0,0:0:0:0:
256,192,62071,1,0,0:0:0:0:
256,192,62155,1,0,0:0:0:0:
256,192,62238,1,0,0:0:0:0:
256,192,62322,1,0,0:0:0:0:
256,192,62406,1,8,0:0:0:0:
256,192,62490,1,0,0:0:0:0:
256,192,62574,1,8,0:0:0:0:
256,192,62741,1,0,0:0:0:0:
256,192,62909,1,8,0:0:0:0:
256,192,63076,1,0,0:0:0:0:
256,192,63160,1,0,0:0:0:0:
256,192,63244,1,8,0:0:0:0:
256,192,63412,1,0,0:0:0:0:
256,192,63579,1,8,0:0:0:0:
256,192,63663,1,0,0:0:0:0:
256,192,63747,1,8,0:0:0:0:
256,192,63914,1,8,0:0:0:0:
256,192,64082,1,8,0:0:0:0:
256,192,64166,1,8,0:0:0:0:
256,192,64250,1,8,0:0:0:0:
256,192,64333,1,8,0:0:0:0:
256,192,64417,5,0,0:0:0:0:
256,192,64752,1,0,0:0:0:0:
256,192,64920,1,0,0:0:0:0:
256,192,65088,1,8,0:0:0:0:
256,192,65339,1,8,0:0:0:0:
256,192,65423,1,0,0:0:0:0:
256,192,65590,1,8,0:0:0:0:
256,192,65758,1,8,0:0:0:0:
256,192,65926,1,0,0:0:0:0:
256,192,66009,1,0,0:0:0:0:
256,192,66093,1,8,0:0:0:0:
256,192,66177,1,0,0:0:0:0:
256,192,66261,1,8,0:0:0:0:
256,192,66428,1,0,0:0:0:0:
256,192,66512,1,0,0:0:0:0:
256,192,66596,1,8,0:0:0:0:
256,192,66680,1,0,0:0:0:0:
256,192,66764,1,8,0:0:0:0:
256,192,67099,5,4,0:0:0:0:
256,192,67434,1,8,0:0:0:0:
256,192,67518,1,0,0:0:0:0:
256,192,67602,1,0,0:0:0:0:
256,192,67685,1,0,0:0:0:0:
256,192,67769,1,8,0:0:0:0:
256,192,67853,1,8,0:0:0:0:
256,192,67937,1,0,0:0:0:0:
256,192,68104,1,8,0:0:0:0:
256,192,68272,1,8,0:0:0:0:
256,192,68440,1,0,0:0:0:0:
256,192,68607,1,8,0:0:0:0:
256,192,68691,1,8,0:0:0:0:
256,192,68775,1,0,0:0:0:0:
256,192,68942,1,0,0:0:0:0:
256,192,69026,1,0,0:0:0:0:
256,192,69110,1,8,0:0:0:0:
256,192,69278,1,8,0:0:0:0:
256,192,69445,1,8,0:0:0:0:
256,192,69529,1,0,0:0:0:0:
256,192,69613,1,8,0:0:0:0:
256,192,69697,1,8,0:0:0:0:
256,192,69780,5,0,0:0:0:0:
256,192,70116,1,8,0:0:0:0:
256,192,70199,1,0,0:0:0:0:
256,192,70283,1,0,0:0:0:0:
256,192,70367,1,0,0:0:0:0:
256,192,70451,1,8,0:0:0:0:
256,192,70535,1,8,0:0:0:0:
256,192,70702,1,0,0:0:0:0:
256,192,70786,1,8,0:0:0:0:
256,192,70954,1,0,0:0:0:0:
256,192,71037,1,8,0:0:0:0:
256,192,71121,1,0,0:0:0:0:
256,192,71289,1,0,0:0:0:0:
256,192,71456,1,8,0:0:0:0:
256,192,71624,1,8,0:0:0:0:
256,192,71708,1,8,0:0:0:0:
256,192,71792,1,0,0:0:0:0:
256,192,71959,1,8,0:0:0:0:
256,192,72043,1,0,0:0:0:0:
256,192,72127,1,8,0:0:0:0:
256,192,72211,1,0,0:0:0:0:
256,192,72294,1,8,0:0:0:0:
256,192,72378,1,8,0:0:0:0:
256,192,72462,5,0,0:0:0:0:
256,192,72797,1,8,0:0:0:0:
256,192,72881,1,0,0:0:0:0:
256,192,72965,1,0,0:0:0:0:
256,192,73049,1,0,0:0:0:0:
256,192,73132,1,8,0:0:0:0:
256,192,73216,1,8,0:0:0:0:
256,192,73300,1,0,0:0:0:0:
256,192,73468,1,8,0:0:0:0:
256,192,73635,1,8,0:0:0:0:
256,192,73803,1,0,0:0:0:0:
256,192,73970,1,8,0:0:0:0:
256,192,74054,1,8,0:0:0:0:
256,192,74138,1,0,0:0:0:0:
256,192,74306,1,0,0:0:0:0:
256,192,74389,1,0,0:0:0:0:
256,192,74473,1,8,0:0:0:0:
256,192,74641,1,8,0:0:0:0:
256,192,74808,1,8,0:0:0:0:
256,192,74892,1,8,0:0:0:0:
256,192,74976,1,8,0:0:0:0:
256,192,75060,1,8,0:0:0:0:
256,192,75144,5,0,0:0:0:0:
256,192,75395,1,8,0:0:0:0:
256,192,75479,1,0,0:0:0:0:
256,192,75646,1,0,0:0:0:0:
256,192,75730,1,8,0:0:0:0:
256,192,75814,1,0,0:0:0:0:
256,192,75898,1,0,0:0:0:0:
256,192,75982,1,8,0:0:0:0:
256,192,76149,1,8,0:0:0:0:
256,192,76317,1,8,0:0:0:0:
256,192,76401,1,0,0:0:0:0:
256,192,76484,1,0,0:0:0:0:
256,192,76568,1,8,0:0:0:0:
256,192,76652,1,0,0:0:0:0:
256,192,76708,1,0,0:0:0:0:
256,192,76764,1,0,0:0:0:0:
256,192,76819,1,8,0:0:0:0:
256,192,76987,1,0,0:0:0:0:
256,192,77071,1,8,0:0:0:0:
256,192,77155,1,8,0:0:0:0:
256,192,77238,1,0,0:0:0:0:
256,192,77406,1,0,0:0:0:0:
256,192,77490,1,8,0:0:0:0:
256,192,77657,1,8,0:0:0:0:
256,192,77713,1,8,0:0:0:0:
256,192,77769,1,8,0:0:0:0:
256,192,77825,5,0,0:0:0:0:
256,192,77909,1,0,0:0:0:0:
256,192,77993,1,8,0:0:0:0:
256,192,78160,1,8,0:0:0:0:
256,192,78244,1,0,0:0:0:0:
256,192,78328,1,8,0:0:0:0:
256,192,78495,1,8,0:0:0:0:
256,192,78663,1,0,0:0:0:0:
256,192,78747,1,8,0:0:0:0:
256,192,78831,1,8,0:0:0:0:
256,192,78914,1,8,0:0:0:0:
256,192,78998,1,0,0:0:0:0:
256,192,79082,1,8,0:0:0:0:
256,192,79166,1,0,0:0:0:0:
256,192,79250,1,0,0:0:0:0:
256,192,79333,1,8,0:0:0:0:
256,192,79501,1,8,0:0:0:0:
256,192,79585,1,8,0:0:0:0:
256,192,79669,1,0,0:0:0:0:
256,192,79836,1,8,0:0:0:0:
256,192,80004,1,0,0:0:0:0:
256,192,80171,1,8,0:0:0:0:
256,192,80255,1,0,0:0:0:0:
256,192,80339,1,8,0:0:0:0:
256,192,80423,1,8,0:0:0:0:
256,192,80507,5,0,0:0:0:0:
256,192,80590,1,0,0:0:0:0:
256,192,80674,1,8,0:0:0:0:
256,192,80842,1,8,0:0:0:0:
256,192,80926,1,0,0:0:0:0:
256,192,81009,1,8,0:0:0:0:
256,192,81177,1,8,0:0:0:0:
256,192,81345,1,0,0:0:0:0:
256,192,81428,1,8,0:0:0:0:
256,192,81512,1,8,0:0:0:0:
256,192,81596,1,8,0:0:0:0:
256,192,81680,1,0,0:0:0:0:
256,192,81764,1,8,0:0:0:0:
256,192,81847,1,0,0:0:0:0:
256,192,81931,1,0,0:0:0:0:
256,192,82015,1,8,0:0:0:0:
256,192,82183,1,8,0:0:0:0:
256,192,82266,1,8,0:0:0:0:
256,192,82350,1,0,0:0:0:0:
256,192,82518,1,8,0:0:0:0:
256,192,82685,1,0,0:0:0:0:
256,192,82769,1,0,0:0:0:0:
256,192,82853,1,8,0:0:0:0:
256,192,82937,1,0,0:0:0:0:
256,192,83021,1,8,0:0:0:0:
256,192,83104,1,8,0:0:0:0:
256,192,83188,5,0,0:0:0:0:
256,192,83523,1,12,0:0:0:0:
256,192,83691,1,8,0:0:0:0:
256,192,83859,1,0,0:0:0:0:
256,192,84194,1,12,0:0:0:0:
256,192,84529,1,0,0:0:0:0:
256,192,84864,1,12,0:0:0:0:
256,192,85199,1,0,0:0:0:0:
256,192,85367,1,0,0:0:0:0:
256,192,85535,5,12,0:0:0:0:
256,192,85702,1,8,0:0:0:0:
256,192,85786,1,8,0:0:0:0:
256,192,85870,1,8,0:0:0:0:
256,192,86037,1,0,0:0:0:0:
256,192,86205,1,12,0:0:0:0:
256,192,86373,1,8,0:0:0:0:
256,192,86540,1,8,0:0:0:0:
256,192,86624,1,0,0:0:0:0:
256,192,86708,1,0,0:0:0:0:
256,192,86792,1,0,0:0:0:0:
256,192,86875,1,8,0:0:0:0:
256,192,86959,1,8,0:0:0:0:
256,192,87043,1,8,0:0:0:0:
256,192,87211,1,4,0:0:0:0:
256,192,87462,1,4,0:0:0:0:
256,192,87713,1,4,0:0:0:0:
256,192,87965,1,4,0:0:0:0:
256,192,88216,1,12,0:0:0:0:
256,192,88551,5,0,0:0:0:0:
256,192,88887,1,0,0:0:0:0:
256,192,89222,1,8,0:0:0:0:
256,192,89389,1,0,0:0:0:0:
256,192,89473,1,0,0:0:0:0:
256,192,89557,1,8,0:0:0:0:
256,192,89725,1,0,0:0:0:0:
256,192,89892,1,0,0:0:0:0:
256,192,90060,1,8,0:0:0:0:
256,192,90395,5,0,0:0:0:0:
256,192,90479,1,0,0:0:0:0:
256,192,90563,1,8,0:0:0:0:
256,192,90730,1,0,0:0:0:0:
256,192,90898,1,8,0:0:0:0:
256,192,90982,1,8,0:0:0:0:
256,192,91065,1,8,0:0:0:0:
256,192,91149,1,8,0:0:0:0:
256,192,91233,1,0,0:0:0:0:
256,192,91401,1,8,0:0:0:0:
256,192,91736,1,0,0:0:0:0:
256,192,91903,1,8,0:0:0:0:
256,192,91987,1,0,0:0:0:0:
256,192,92071,1,0,0:0:0:0:
256,192,92238,1,8,0:0:0:0:
256,192,92406,1,8,0:0:0:0:
256,192,92574,1,0,0:0:0:0:
256,192,92741,1,8,0:0:0:0:
256,192,93076,1,0,0:0:0:0:
256,192,93160,1,0,0:0:0:0:
256,192,93244,1,8,0:0:0:0:
256,192,93412,1,8,0:0:0:0:
256,192,93579,1,8,0:0:0:0:
256,192,93663,1,0,0:0:0:0:
256,192,93747,1,8,0:0:0:0:
256,192,93831,1,8,0:0:0:0:
256,192,93914,1,0,0:0:0:0:
256,192,94082,1,8,0:0:0:0:
256,192,94250,1,0,0:0:0:0:
256,192,94585,1,8,0:0:0:0:
256,192,94752,1,0,0:0:0:0:
256,192,94836,1,0,0:0:0:0:
256,192,94920,1,8,0:0:0:0:
256,192,95088,1,0,0:0:0:0:
256,192,95255,1,0,0:0:0:0:
256,192,95423,1,8,0:0:0:0:
256,192,95590,1,0,0:0:0:0:
256,192,95674,1,0,0:0:0:0:
256,192,95758,1,8,0:0:0:0:
256,192,95842,1,0,0:0:0:0:
256,192,95926,1,8,0:0:0:0:
256,192,96093,1,0,0:0:0:0:
256,192,96261,1,8,0:0:0:0:
256,192,96596,1,0,0:0:0:0:
256,192,96764,5,0,0:0:0:0:
256,192,96847,1,0,0:0:0:0:
256,192,96931,1,8,0:0:0:0:
256,192,97099,1,0,0:0:0:0:
256,192,97266,1,0,0:0:0:0:
256,192,97350,1,0,0:0:0:0:
256,192,97434,1,0,0:0:0:0:
256,192,97602,1,8,0:0:0:0:
256,192,97769,1,8,0:0:0:0:
256,192,97853,1,8,0:0:0:0:
256,192,97937,1,0,0:0:0:0:
256,192,98104,1,0,0:0:0:0:
256,192,98188,1,0,0:0:0:0:
256,192,98272,1,8,0:0:0:0:
256,192,98440,1,0,0:0:0:0:
256,192,98607,1,0,0:0:0:0:
256,192,98691,1,8,0:0:0:0:
256,192,98775,1,0,0:0:0:0:
256,192,98942,1,8,0:0:0:0:
256,192,99194,1,8,0:0:0:0:
256,192,99278,1,0,0:0:0:0:
256,192,99613,1,8,0:0:0:0:
256,192,99780,1,0,0:0:0:0:
256,192,99948,1,8,0:0:0:0:
256,192,100032,1,8,0:0:0:0:
256,192,100116,1,0,0:0:0:0:
256,192,100283,1,8,0:0:0:0:
256,192,100451,1,8,0:0:0:0:
256,192,100618,1,0,0:0:0:0:
256,192,100786,5,0,0:0:0:0:
256,192,100870,1,0,0:0:0:0:
256,192,100954,1,8,0:0:0:0:
256,192,101121,1,0,0:0:0:0:
256,192,101456,1,0,0:0:0:0:
256,192,101624,1,8,0:0:0:0:
256,192,101959,1,0,0:0:0:0:
256,192,102294,1,8,0:0:0:0:
256,192,102462,1,0,0:0:0:0:
256,192,102546,1,0,0:0:0:0:
256,192,102630,1,0,0:0:0:0:
256,192,102797,1,0,0:0:0:0:
256,192,102965,1,8,0:0:0:0:
256,192,103132,1,8,0:0:0:0:
256,192,103216,1,8,0:0:0:0:
256,192,103300,1,0,0:0:0:0:
256,192,103468,1,0,0:0:0:0:
256,192,103635,1,8,0:0:0:0:
256,192,103803,1,0,0:0:0:0:
256,192,103887,1,8,0:0:0:0:
256,192,103970,1,0,0:0:0:0:
256,192,104138,1,0,0:0:0:0:
256,192,104306,1,8,0:0:0:0:
256,192,104389,1,0,0:0:0:0:
256,192,104473,1,8,0:0:0:0:
256,192,104557,1,8,0:0:0:0:
256,192,104641,1,0,0:0:0:0:
256,192,104976,1,8,0:0:0:0:
256,192,105144,1,0,0:0:0:0:
256,192,105227,1,0,0:0:0:0:
256,192,105311,1,8,0:0:0:0:
256,192,105479,1,0,0:0:0:0:
256,192,105646,1,8,0:0:0:0:
256,192,105814,1,0,0:0:0:0:
256,192,105982,1,0,0:0:0:0:
256,192,106317,1,8,0:0:0:0:
256,192,106484,1,0,0:0:0:0:
256,192,106819,1,0,0:0:0:0:
256,192,106987,1,8,0:0:0:0:
256,192,107322,1,0,0:0:0:0:
256,192,107490,1,0,0:0:0:0:
256,192,107657,1,8,0:0:0:0:
256,192,107741,1,0,0:0:0:0:
256,192,107909,1,0,0:0:0:0:
256,192,107993,1,8,0:0:0:0:
256,192,108076,1,0,0:0:0:0:
256,192,108160,1,0,0:0:0:0:
256,192,108328,1,8,0:0:0:0:
256,192,108412,1,0,0:0:0:0:
256,192,108495,1,8,0:0:0:0:
256,192,108579,1,8,0:0:0:0:
256,192,108747,1,0,0:0:0:0:
256,192,108831,1,8,0:0:0:0:
256,192,108998,1,0,0:0:0:0:
256,192,109082,1,8,0:0:0:0:
256,192,109166,1,0,0:0:0:0:
256,192,109250,1,0,0:0:0:0:
256,192,109333,1,8,0:0:0:0:
256,192,109417,1,8,0:0:0:0:
256,192,109501,1,8,0:0:0:0:
256,192,109585,1,8,0:0:0:0:
256,192,109669,1,8,0:0:0:0:
256,192,109780,1,8,0:0:0:0:
256,192,109892,1,8,0:0:0:0:
256,192,110004,1,4,0:0:0:0:
256,192,110339,1,0,0:0:0:0:
256,192,110507,1,0,0:0:0:0:
256,192,110674,1,8,0:0:0:0:
256,192,110842,1,0,0:0:0:0:
256,192,111009,1,8,0:0:0:0:
256,192,111177,1,0,0:0:0:0:
256,192,111261,1,8,0:0:0:0:
256,192,111345,1,0,0:0:0:0:
256,192,111428,1,0,0:0:0:0:
256,192,111512,1,8,0:0:0:0:
256,192,111596,1,0,0:0:0:0:
256,192,111680,1,8,0:0:0:0:
256,192,111764,1,8,0:0:0:0:
256,192,111847,1,8,0:0:0:0:
256,192,111931,1,0,0:0:0:0:
256,192,112015,1,8,0:0:0:0:
256,192,112183,1,0,0:0:0:0:
256,192,112350,1,8,0:0:0:0:
256,192,112434,1,0,0:0:0:0:
256,192,112518,1,0,0:0:0:0:
256,192,112602,1,0,0:0:0:0:
256,192,112685,1,8,0:0:0:0:
256,192,112853,1,8,0:0:0:0:
256,192,113021,1,0,0:0:0:0:
256,192,113104,1,8,0:0:0:0:
256,192,113188,1,8,0:0:0:0:
256,192,113272,1,0,0:0:0:0:
256,192,113356,1,8,0:0:0:0:
256,192,113523,1,8,0:0:0:0:
256,192,113607,1,0,0:0:0:0:
256,192,113691,1,8,0:0:0:0:
256,192,113859,1,0,0:0:0:0:
256,192,114026,1,8,0:0:0:0:
256,192,114194,1,0,0:0:0:0:
256,192,114250,1,0,0:0:0:0:
256,192,114306,1,0,0:0:0:0:
256,192,114361,1,8,0:0:0:0:
256,192,114445,1,8,0:0:0:0:
256,192,114529,1,0,0:0:0:0:
256,192,114613,1,0,0:0:0:0:
256,192,114697,1,8,0:0:0:0:
256,192,114948,1,8,0:0:0:0:
256,192,115032,1,0,0:0:0:0:
256,192,115199,1,8,0:0:0:0:
256,192,115367,1,0,0:0:0:0:
256,192,115702,1,0,0:0:0:0:
256,192,115870,1,0,0:0:0:0:
256,192,116037,1,8,0:0:0:0:
256,192,116205,1,8,0:0:0:0:
256,192,116373,1,0,0:0:0:0:
256,192,116540,1,0,0:0:0:0:
256,192,116624,1,8,0:0:0:0:
256,192,116708,1,0,0:0:0:0:
256,192,116792,1,0,0:0:0:0:
256,192,116875,1,8,0:0:0:0:
256,192,116959,1,0,0:0:0:0:
256,192,117043,1,8,0:0:0:0:
256,192,117127,1,8,0:0:0:0:
256,192,117211,1,0,0:0:0:0:
256,192,117294,1,0,0:0:0:0:
256,192,117378,1,8,0:0:0:0:
256,192,117546,1,0,0:0:0:0:
256,192,117713,1,8,0:0:0:0:
256,192,117881,1,8,0:0:0:0:
256,192,118049,1,0,0:0:0:0:
256,192,118216,1,0,0:0:0:0:
256,192,118300,1,8,0:0:0:0:
256,192,118384,1,8,0:0:0:0:
256,192,118468,1,8,0:0:0:0:
256,192,118551,1,0,0:0:0:0:
256,192,118635,1,0,0:0:0:0:
256,192,118719,1,8,0:0:0:0:
256,192,118942,1,8,0:0:0:0:
256,192,119054,1,0,0:0:0:0:
256,192,119166,1,8,0:0:0:0:
256,192,119389,1,4,0:0:0:0:
256,192,119725,1,8,0:0:0:0:
256,192,119892,1,4,0:0:0:0:
256,192,120227,1,8,0:0:0:0:
256,192,120395,5,4,0:0:0:0:
256,192,120730,12,0,121233,0:0:0:0:
256,192,121401,5,8,0:0:0:0:
256,192,121568,1,0,0:0:0:0:
256,192,121736,1,8,0:0:0:0:
256,192,121903,1,0,0:0:0:0:
256,192,121987,1,8,0:0:0:0:
256,192,122071,1,0,0:0:0:0:
256,192,122155,5,0,0:0:0:0:
256,192,122238,1,8,0:0:0:0:
256,192,122322,1,0,0:0:0:0:
256,192,122406,1,8,0:0:0:0:
256,192,122490,1,8,0:0:0:0:
256,192,122574,1,8,0:0:0:0:
256,192,122657,1,0,0:0:0:0:
256,192,122741,1,8,0:0:0:0:
256,192,122909,1,0,0:0:0:0:
256,192,123076,1,8,0:0:0:0:
256,192,123160,1,0,0:0:0:0:
256,192,123244,1,0,0:0:0:0:
256,192,123328,1,8,0:0:0:0:
256,192,123412,1,0,0:0:0:0:
256,192,123747,1,0,0:0:0:0:
256,192,123831,1,0,0:0:0:0:
256,192,123914,1,8,0:0:0:0:
256,192,123998,1,0,0:0:0:0:
256,192,124082,1,8,0:0:0:0:
256,192,124250,1,8,0:0:0:0:
256,192,124333,1,8,0:0:0:0:
256,192,124417,1,0,0:0:0:0:
256,192,124585,1,8,0:0:0:0:
256,192,124920,1,8,0:0:0:0:
256,192,124976,1,8,0:0:0:0:
256,192,125032,1,8,0:0:0:0:
256,192,125088,1,0,0:0:0:0:
256,192,125171,1,8,0:0:0:0:
256,192,125255,1,0,0:0:0:0:
256,192,125339,1,0,0:0:0:0:
256,192,125423,1,8,0:0:0:0:
256,192,125507,1,0,0:0:0:0:
256,192,125590,1,0,0:0:0:0:
256,192,125674,1,8,0:0:0:0:
256,192,125758,1,8,0:0:0:0:
256,192,125842,1,0,0:0:0:0:
256,192,125926,1,8,0:0:0:0:
256,192,126093,1,0,0:0:0:0:
256,192,126428,1,0,0:0:0:0:
256,192,126596,1,0,0:0:0:0:
256,192,126764,1,8,0:0:0:0:
256,192,126931,1,0,0:0:0:0:
256,192,127099,1,8,0:0:0:0:
256,192,127266,1,0,0:0:0:0:
256,192,127350,1,8,0:0:0:0:
256,192,127434,1,0,0:0:0:0:
256,192,127518,1,0,0:0:0:0:
256,192,127602,1,8,0:0:0:0:
256,192,127685,1,0,0:0:0:0:
256,192,127769,1,0,0:0:0:0:
256,192,127853,1,8,0:0:0:0:
256,192,127937,1,8,0:0:0:0:
256,192,128021,1,0,0:0:0:0:
256,192,128104,1,8,0:0:0:0:
256,192,128272,1,0,0:0:0:0:
256,192,128440,1,8,0:0:0:0:
256,192,128523,1,0,0:0:0:0:
256,192,128607,1,8,0:0:0:0:
256,192,128691,1,8,0:0:0:0:
256,192,128775,1,0,0:0:0:0:
256,192,128942,1,0,0:0:0:0:
256,192,129110,1,8,0:0:0:0:
256,192,129166,1,8,0:0:0:0:
256,192,129222,1,8,0:0:0:0:
256,192,129278,1,0,0:0:0:0:
256,192,129361,1,8,0:0:0:0:
256,192,129445,1,0,0:0:0:0:
256,192,129557,1,0,0:0:0:0:
256,192,129669,1,8,0:0:0:0:
256,192,129780,1,0,0:0:0:0:
256,192,129948,1,8,0:0:0:0:
256,192,130116,1,4,0:0:0:0:
256,192,130367,1,4,0:0:0:0:
256,192,130618,1,4,0:0:0:0:
256,192,130786,1,12,0:0:0:0:
256,192,131121,1,8,0:0:0:0:
256,192,131205,1,8,0:0:0:0:
256,192,131289,1,8,0:0:0:0:
256,192,131373,1,8,0:0:0:0:
256,192,131456,1,0,0:0:0:0:
256,192,131792,1,0,0:0:0:0:
256,192,131959,1,8,0:0:0:0:
256,192,132043,1,0,0:0:0:0:
256,192,132127,1,8,0:0:0:0:
256,192,132211,1,8,0:0:0:0:
256,192,132294,1,8,0:0:0:0:
256,192,132462,1,0,0:0:0:0:
256,192,132546,1,0,0:0:0:0:
256,192,132630,1,8,0:0:0:0:
256,192,132713,1,8,0:0:0:0:
256,192,132797,1,0,0:0:0:0:
256,192,133049,1,0,0:0:0:0:
256,192,133132,1,8,0:0:0:0:
256,192,133300,1,0,0:0:0:0:
256,192,133384,1,0,0:0:0:0:
256,192,133468,1,8,0:0:0:0:
256,192,133635,1,0,0:0:0:0:
256,192,133803,1,8,0:0:0:0:
256,192,133887,1,0,0:0:0:0:
256,192,133970,1,8,0:0:0:0:
256,192,134054,1,8,0:0:0:0:
256,192,134138,1,0,0:0:0:0:
256,192,134473,1,0,0:0:0:0:
256,192,134557,1,0,0:0:0:0:
256,192,134641,1,8,0:0:0:0:
256,192,134725,1,0,0:0:0:0:
256,192,134808,1,8,0:0:0:0:
256,192,134892,1,8,0:0:0:0:
256,192,134976,1,8,0:0:0:0:
256,192,135144,1,0,0:0:0:0:
256,192,135227,1,0,0:0:0:0:
256,192,135311,1,0,0:0:0:0:
256,192,135395,1,8,0:0:0:0:
256,192,135479,1,0,0:0:0:0:
256,192,135646,1,0,0:0:0:0:
256,192,135814,1,8,0:0:0:0:
256,192,135982,1,0,0:0:0:0:
256,192,136065,1,0,0:0:0:0:
256,192,136149,1,8,0:0:0:0:
256,192,136317,1,8,0:0:0:0:
256,192,136401,1,0,0:0:0:0:
256,192,136484,1,8,0:0:0:0:
256,192,136568,1,0,0:0:0:0:
256,192,136652,1,0,0:0:0:0:
256,192,136736,1,8,0:0:0:0:
256,192,136819,1,0,0:0:0:0:
256,192,137155,1,0,0:0:0:0:
256,192,137322,1,8,0:0:0:0:
256,192,137406,1,0,0:0:0:0:
256,192,137490,1,8,0:0:0:0:
256,192,137574,1,8,0:0:0:0:
256,192,137657,1,8,0:0:0:0:
256,192,137825,1,0,0:0:0:0:
256,192,137909,1,0,0:0:0:0:
256,192,137993,1,8,0:0:0:0:
256,192,138076,1,8,0:0:0:0:
256,192,138160,1,0,0:0:0:0:
256,192,138412,1,0,0:0:0:0:
256,192,138495,1,8,0:0:0:0:
256,192,138663,1,0,0:0:0:0:
256,192,138747,1,0,0:0:0:0:
256,192,138831,1,8,0:0:0:0:
256,192,138998,1,0,0:0:0:0:
256,192,139166,1,8,0:0:0:0:
256,192,139250,1,0,0:0:0:0:
256,192,139333,1,8,0:0:0:0:
256,192,139417,1,8,0:0:0:0:
256,192,139501,1,0,0:0:0:0:
256,192,139836,1,8,0:0:0:0:
256,192,140060,1,0,0:0:0:0:
256,192,140171,1,8,0:0:0:0:
256,192,140283,1,0,0:0:0:0:
256,192,140507,1,8,0:0:0:0:
256,192,140730,1,0,0:0:0:0:
256,192,140842,1,0,0:0:0:0:
256,192,140954,1,8,0:0:0:0:
256,192,141065,1,0,0:0:0:0:
256,192,141177,1,8,0:0:0:0:
256,192,141289,1,0,0:0:0:0:
256,192,141401,1,0,0:0:0:0:
256,192,141512,1,8,0:0:0:0:
256,192,141624,1,0,0:0:0:0:
256,192,141736,1,0,0:0:0:0:
256,192,141847,1,8,0:0:0:0:
256,192,142183,1,4,0:0:0:0:
256,192,142853,1,8,0:0:0:0:
256,192,143021,1,8,0:0:0:0:
256,192,143188,1,0,0:0:0:0:
256,192,143272,1,0,0:0:0:0:
256,192,143356,1,8,0:0:0:0:
256,192,143440,1,8,0:0:0:0:
256,192,143523,1,0,0:0:0:0:
256,192,143775,1,0,0:0:0:0:
256,192,143859,1,8,0:0:0:0:
256,192,144026,1,0,0:0:0:0:
256,192,144110,1,0,0:0:0:0:
256,192,144194,1,8,0:0:0:0:
256,192,144361,1,0,0:0:0:0:
256,192,144445,1,8,0:0:0:0:
256,192,144529,1,0,0:0:0:0:
256,192,144613,1,0,0:0:0:0:
256,192,144697,1,8,0:0:0:0:
256,192,144864,1,0,0:0:0:0:
256,192,145535,1,8,0:0:0:0:
256,192,145702,1,0,0:0:0:0:
256,192,145870,1,0,0:0:0:0:
256,192,145954,1,0,0:0:0:0:
256,192,146037,1,0,0:0:0:0:
256,192,146121,1,8,0:0:0:0:
256,192,146205,1,0,0:0:0:0:
256,192,146373,1,0,0:0:0:0:
256,192,146540,1,8,0:0:0:0:
256,192,146708,1,0,0:0:0:0:
256,192,146792,1,0,0:0:0:0:
256,192,146875,1,8,0:0:0:0:
256,192,147043,1,8,0:0:0:0:
256,192,147127,1,0,0:0:0:0:
256,192,147211,1,8,0:0:0:0:
256,192,147294,1,0,0:0:0:0:
256,192,147378,1,0,0:0:0:0:
256,192,147462,1,8,0:0:0:0:
256,192,147546,1,0,0:0:0:0:
256,192,147713,5,0,0:0:0:0:
256,192,147881,1,8,0:0:0:0:
256,192,148049,1,0,0:0:0:0:
256,192,148132,1,8,0:0:0:0:
256,192,148300,1,0,0:0:0:0:
256,192,148384,1,8,0:0:0:0:
256,192,148468,1,0,0:0:0:0:
256,192,148551,1,0,0:0:0:0:
256,192,148635,1,8,0:0:0:0:
256,192,148803,1,8,0:0:0:0:
256,192,148887,1,0,0:0:0:0:
256,192,148970,1,0,0:0:0:0:
256,192,149054,1,0,0:0:0:0:
256,192,149222,1,8,0:0:0:0:
256,192,149389,1,0,0:0:0:0:
256,192,149473,1,8,0:0:0:0:
256,192,149641,1,0,0:0:0:0:
256,192,149725,1,8,0:0:0:0:
256,192,149808,1,8,0:0:0:0:
256,192,149892,1,0,0:0:0:0:
256,192,149976,1,8,0:0:0:0:
256,192,150144,1,8,0:0:0:0:
256,192,150227,5,0,0:0:0:0:
256,192,150311,1,0,0:0:0:0:
256,192,150395,1,0,0:0:0:0:
256,192,150479,1,0,0:0:0:0:
256,192,150563,1,8,0:0:0:0:
256,192,150730,1,0,0:0:0:0:
256,192,150814,1,8,0:0:0:0:
256,192,150982,1,0,0:0:0:0:
256,192,151065,1,8,0:0:0:0:
256,192,151149,1,8,0:0:0:0:
256,192,151233,1,0,0:0:0:0:
256,192,151317,1,8,0:0:0:0:
256,192,151401,1,8,0:0:0:0:
256,192,151484,1,8,0:0:0:0:
256,192,151568,1,0,0:0:0:0:
256,192,151736,1,0,0:0:0:0:
256,192,151819,1,8,0:0:0:0:
256,192,151903,1,8,0:0:0:0:
256,192,151987,1,0,0:0:0:0:
256,192,152071,1,8,0:0:0:0:
256,192,152155,1,0,0:0:0:0:
256,192,152238,1,8,0:0:0:0:
256,192,152350,1,0,0:0:0:0:
256,192,152462,1,0,0:0:0:0:
256,192,152574,1,8,0:0:0:0:
256,192,152685,1,8,0:0:0:0:
256,192,152797,1,8,0:0:0:0:
256,192,152909,1,4,0:0:0:0:
256,192,154250,1,8,0:0:0:0:
256,192,155590,1,8,0:0:0:0:
256,192,156931,1,8,0:0:0:0:
256,192,157602,1,8,0:0:0:0:
256,192,158272,1,8,0:0:0:0:
256,192,159613,1,8,0:0:0:0:
256,192,160283,1,8,0:0:0:0:
256,192,160954,1,8,0:0:0:0:
256,192,161456,2,0,L|224:192,16,26.2500010013581
256,192,163132,1,0,0:0:0:0:
256,192,163216,1,0,0:0:0:0:
256,192,163300,1,8,0:0:0:0:
256,192,163468,1,0,0:0:0:0:
256,192,163635,5,4,0:0:0:0:
256,192,163970,1,0,0:0:0:0:
256,192,164306,1,8,0:0:0:0:
256,192,164389,1,0,0:0:0:0:
256,192,164473,1,0,0:0:0:0:
256,192,164641,1,8,0:0:0:0:
256,192,164808,1,4,0:0:0:0:
256,192,165144,1,0,0:0:0:0:
256,192,165311,1,8,0:0:0:0:
256,192,165479,1,4,0:0:0:0:
256,192,165814,1,0,0:0:0:0:
256,192,165982,1,8,0:0:0:0:
256,192,166317,1,12,0:0:0:0:
256,192,166652,1,8,0:0:0:0:
256,192,166819,1,0,0:0:0:0:
256,192,166987,1,8,0:0:0:0:
256,192,167155,1,8,0:0:0:0:
256,192,167238,1,8,0:0:0:0:
256,192,167322,1,8,0:0:0:0:
256,192,167490,1,4,0:0:0:0:
256,192,167657,1,0,0:0:0:0:
256,192,167825,1,8,0:0:0:0:
256,192,167993,1,8,0:0:0:0:
256,192,168160,1,4,0:0:0:0:
256,192,168495,1,0,0:0:0:0:
256,192,168663,1,8,0:0:0:0:
256,192,168831,1,8,0:0:0:0:
256,192,168998,1,4,0:0:0:0:
256,192,169333,1,8,0:0:0:0:
256,192,169501,1,0,0:0:0:0:
256,192,169669,1,8,0:0:0:0:
256,192,169836,1,0,0:0:0:0:
256,192,169920,1,8,0:0:0:0:
256,192,170004,1,8,0:0:0:0:
256,192,170171,1,4,0:0:0:0:
256,192,170339,1,0,0:0:0:0:
256,192,170507,1,0,0:0:0:0:
256,192,170674,1,8,0:0:0:0:
256,192,170842,1,4,0:0:0:0:
256,192,171177,1,8,0:0:0:0:
256,192,171345,1,0,0:0:0:0:
256,192,171680,1,4,0:0:0:0:
256,192,171847,1,0,0:0:0:0:
256,192,172015,1,8,0:0:0:0:
256,192,172183,1,0,0:0:0:0:
256,192,172350,1,8,0:0:0:0:
256,192,172518,1,8,0:0:0:0:
256,192,172685,1,0,0:0:0:0:
256,192,172769,1,0,0:0:0:0:
256,192,172853,1,8,0:0:0:0:
256,192,172937,1,8,0:0:0:0:
256,192,173021,1,0,0:0:0:0:
256,192,173104,1,8,0:0:0:0:
256,192,173188,1,0,0:0:0:0:
256,192,173272,1,0,0:0:0:0:
256,192,173356,1,8,0:0:0:0:
256,192,173440,1,0,0:0:0:0:
256,192,173523,1,0,0:0:0:0:
256,192,173607,1,8,0:0:0:0:
256,192,173691,1,0,0:0:0:0:
256,192,173775,1,0,0:0:0:0:
256,192,173859,1,8,0:0:0:0:
256,192,173942,1,0,0:0:0:0:
256,192,174026,1,8,0:0:0:0:
256,192,174361,5,4,0:0:0:0:
256,192,174697,1,0,0:0:0:0:
256,192,174864,1,8,0:0:0:0:
256,192,175032,1,0,0:0:0:0:
256,192,175367,1,0,0:0:0:0:
256,192,175702,1,0,0:0:0:0:
256,192,175870,1,8,0:0:0:0:
256,192,176037,1,0,0:0:0:0:
256,192,176373,1,0,0:0:0:0:
256,192,176540,1,8,0:0:0:0:
256,192,176708,1,0,0:0:0:0:
256,192,176875,1,8,0:0:0:0:
256,192,177043,1,0,0:0:0:0:
256,192,177378,1,0,0:0:0:0:
256,192,177713,1,0,0:0:0:0:
256,192,178049,1,0,0:0:0:0:
256,192,178384,1,0,0:0:0:0:
256,192,178719,1,0,0:0:0:0:
256,192,179054,1,0,0:0:0:0:
256,192,179389,1,8,0:0:0:0:
256,192,179725,1,0,0:0:0:0:
256,192,180060,1,0,0:0:0:0:
256,192,180227,1,8,0:0:0:0:
256,192,180395,1,0,0:0:0:0:
256,192,180730,1,0,0:0:0:0:
256,192,181065,1,0,0:0:0:0:
256,192,181233,1,8,0:0:0:0:
256,192,181401,1,0,0:0:0:0:
256,192,181736,1,0,0:0:0:0:
256,192,181903,1,8,0:0:0:0:
256,192,182071,1,0,0:0:0:0:
256,192,182238,1,8,0:0:0:0:
256,192,182406,1,0,0:0:0:0:
256,192,182574,1,8,0:0:0:0:
256,192,182909,1,8,0:0:0:0:
256,192,183244,1,8,0:0:0:0:
256,192,183579,1,8,0:0:0:0:
256,192,183747,1,0,0:0:0:0:
256,192,184082,1,0,0:0:0:0:
256,192,184417,1,0,0:0:0:0:
256,192,184585,1,0,0:0:0:0:
256,192,184752,1,8,0:0:0:0:
256,192,185088,1,4,0:0:0:0:
256,192,185423,1,0,0:0:0:0:
256,192,185590,1,8,0:0:0:0:
256,192,185758,1,0,0:0:0:0:
256,192,186093,1,0,0:0:0:0:
256,192,186428,1,0,0:0:0:0:
256,192,186596,1,8,0:0:0:0:
256,192,186764,1,0,0:0:0:0:
256,192,187099,1,0,0:0:0:0:
256,192,187266,1,8,0:0:0:0:
256,192,187434,1,0,0:0:0:0:
256,192,187602,1,8,0:0:0:0:
256,192,187769,1,0,0:0:0:0:
256,192,188104,1,0,0:0:0:0:
256,192,188440,1,0,0:0:0:0:
256,192,188775,1,0,0:0:0:0:
256,192,189110,1,0,0:0:0:0:
256,192,189445,1,0,0:0:0:0:
256,192,189780,1,0,0:0:0:0:
256,192,190116,1,8,0:0:0:0:
256,192,190451,1,0,0:0:0:0:
256,192,190786,1,0,0:0:0:0:
256,192,190954,1,8,0:0:0:0:
256,192,191121,1,0,0:0:0:0:
256,192,191456,1,0,0:0:0:0:
256,192,191792,1,0,0:0:0:0:
256,192,191959,1,8,0:0:0:0:
256,192,192127,1,0,0:0:0:0:
256,192,192462,1,0,0:0:0:0:
256,192,192630,1,8,0:0:0:0:
256,192,192797,1,0,0:0:0:0:
256,192,192965,1,8,0:0:0:0:
256,192,193132,1,0,0:0:0:0:
256,192,193300,1,8,0:0:0:0:
256,192,193635,1,8,0:0:0:0:
256,192,193970,1,8,0:0:0:0:
256,192,194306,1,8,0:0:0:0:
256,192,194473,1,0,0:0:0:0:
256,192,194808,1,0,0:0:0:0:
256,192,195144,1,0,0:0:0:0:
256,192,195311,1,0,0:0:0:0:
256,192,195479,1,8,0:0:0:0:
256,192,195814,1,4,0:0:0:0:
256,192,196149,1,0,0:0:0:0:
256,192,196317,1,8,0:0:0:0:
256,192,196484,1,0,0:0:0:0:
256,192,196819,1,0,0:0:0:0:
256,192,197155,1,0,0:0:0:0:
256,192,197322,1,8,0:0:0:0:
256,192,197490,1,0,0:0:0:0:
256,192,197825,1,0,0:0:0:0:
256,192,197993,1,8,0:0:0:0:
256,192,198160,1,0,0:0:0:0:
256,192,198328,1,8,0:0:0:0:
256,192,198495,1,0,0:0:0:0:
256,192,198831,1,0,0:0:0:0:
256,192,199166,1,0,0:0:0:0:
256,192,199501,1,0,0:0:0:0:
256,192,199836,1,0,0:0:0:0:
256,192,200171,1,0,0:0:0:0:
256,192,200507,1,0,0:0:0:0:
256,192,200842,1,8,0:0:0:0:
256,192,201177,1,0,0:0:0:0:
256,192,201512,1,0,0:0:0:0:
256,192,201680,1,8,0:0:0:0:
256,192,201847,1,0,0:0:0:0:
256,192,202183,1,0,0:0:0:0:
256,192,202518,1,0,0:0:0:0:
256,192,202685,1,8,0:0:0:0:
256,192,202853,1,0,0:0:0:0:
256,192,203188,1,0,0:0:0:0:
256,192,203356,1,8,0:0:0:0:
256,192,203523,1,0,0:0:0:0:
256,192,203691,1,8,0:0:0:0:
256,192,203859,1,0,0:0:0:0:
256,192,204026,1,8,0:0:0:0:
256,192,204361,1,8,0:0:0:0:
256,192,204697,1,8,0:0:0:0:
256,192,205032,1,8,0:0:0:0:
256,192,205199,1,0,0:0:0:0:
256,192,205535,1,0,0:0:0:0:
256,192,205870,1,0,0:0:0:0:
256,192,206037,1,0,0:0:0:0:
256,192,206205,1,8,0:0:0:0:
256,192,206373,1,8,0:0:0:0:
256,192,206540,1,4,0:0:0:0:
256,192,206875,1,8,0:0:0:0:
256,192,207043,1,8,0:0:0:0:
256,192,207211,1,0,0:0:0:0:
256,192,207378,1,0,0:0:0:0:
256,192,207546,1,8,0:0:0:0:
256,192,207713,1,0,0:0:0:0:
256,192,208049,1,0,0:0:0:0:
256,192,208216,1,8,0:0:0:0:
256,192,208384,1,8,0:0:0:0:
256,192,208551,1,0,0:0:0:0:
256,192,208719,1,8,0:0:0:0:
256,192,208887,1,0,0:0:0:0:
256,192,209054,1,8,0:0:0:0:
256,192,209389,1,8,0:0:0:0:
256,192,209445,1,8,0:0:0:0:
256,192,209501,1,8,0:0:0:0:
256,192,209557,1,0,0:0:0:0:
256,192,209725,1,8,0:0:0:0:
256,192,209892,1,0,0:0:0:0:
256,192,210144,1,8,0:0:0:0:
256,192,210227,1,0,0:0:0:0:
256,192,210395,1,8,0:0:0:0:
256,192,210563,1,0,0:0:0:0:
256,192,210646,1,0,0:0:0:0:
256,192,210730,1,8,0:0:0:0:
256,192,210814,1,0,0:0:0:0:
256,192,210898,1,8,0:0:0:0:
256,192,210982,1,0,0:0:0:0:
256,192,211065,1,8,0:0:0:0:
256,192,211149,1,8,0:0:0:0:
256,192,211233,1,0,0:0:0:0:
256,192,211289,1,0,0:0:0:0:
256,192,211345,1,0,0:0:0:0:
256,192,211401,1,8,0:0:0:0:
256,192,211484,1,8,0:0:0:0:
256,192,211568,1,0,0:0:0:0:
256,192,211624,1,0,0:0:0:0:
256,192,211680,1,0,0:0:0:0:
256,192,211736,1,8,0:0:0:0:
256,192,211819,1,0,0:0:0:0:
256,192,211903,1,8,0:0:0:0:
256,192,212071,1,0,0:0:0:0:
256,192,212238,1,8,0:0:0:0:
256,192,212406,1,0,0:0:0:0:
256,192,212574,1,8,0:0:0:0:
256,192,212741,1,8,0:0:0:0:
256,192,212909,1,8,0:0:0:0:
256,192,213076,1,0,0:0:0:0:
256,192,213244,1,8,0:0:0:0:
256,192,213328,1,0,0:0:0:0:
256,192,213412,1,8,0:0:0:0:
256,192,213495,1,0,0:0:0:0:
256,192,213579,1,8,0:0:0:0:
256,192,213663,1,8,0:0:0:0:
256,192,213747,1,0,0:0:0:0:
256,192,213831,1,0,0:0:0:0:
256,192,213914,1,8,0:0:0:0:
256,192,213998,1,0,0:0:0:0:
256,192,214082,1,8,0:0:0:0:
256,192,214166,1,0,0:0:0:0:
256,192,214250,1,8,0:0:0:0:
256,192,214333,1,8,0:0:0:0:
256,192,214417,1,0,0:0:0:0:
256,192,214501,1,0,0:0:0:0:
256,192,214585,1,8,0:0:0:0:
256,192,214641,1,0,0:0:0:0:
256,192,214697,1,0,0:0:0:0:
256,192,214752,1,8,0:0:0:0:
256,192,214836,1,0,0:0:0:0:
256,192,214920,1,8,0:0:0:0:
256,192,214976,1,8,0:0:0:0:
256,192,215032,1,8,0:0:0:0:
256,192,215088,1,0,0:0:0:0:
256,192,215171,1,0,0:0:0:0:
256,192,215255,1,8,0:0:0:0:
256,192,215311,1,0,0:0:0:0:
256,192,215367,1,0,0:0:0:0:
256,192,215423,1,8,0:0:0:0:
256,192,215507,1,0,0:0:0:0:
256,192,215590,1,8,0:0:0:0:
256,192,215646,1,8,0:0:0:0:
256,192,215702,1,8,0:0:0:0:
256,192,215758,1,0,0:0:0:0:
256,192,215842,1,8,0:0:0:0:
256,192,215926,1,0,0:0:0:0:
256,192,216764,1,0,0:0:0:0:
256,192,216931,1,12,0:0:0:0:
256,192,217266,1,4,0:0:0:0:
256,192,217602,1,8,0:0:0:0:
256,192,217769,1,0,0:0:0:0:
256,192,217853,1,0,0:0:0:0:
256,192,217937,1,8,0:0:0:0:
256,192,218021,1,0,0:0:0:0:
256,192,218188,1,8,0:0:0:0:
256,192,218272,1,8,0:0:0:0:
256,192,218356,1,0,0:0:0:0:
256,192,218440,1,8,0:0:0:0:
256,192,218607,1,0,0:0:0:0:
256,192,218691,1,0,0:0:0:0:
256,192,218775,1,8,0:0:0:0:
256,192,218942,1,0,0:0:0:0:
256,192,219110,1,8,0:0:0:0:
256,192,219194,1,0,0:0:0:0:
256,192,219278,1,8,0:0:0:0:
256,192,219445,1,0,0:0:0:0:
256,192,219613,1,8,0:0:0:0:
256,192,219697,1,8,0:0:0:0:
256,192,219780,1,0,0:0:0:0:
256,192,219864,1,8,0:0:0:0:
256,192,219948,1,0,0:0:0:0:
256,192,220283,1,8,0:0:0:0:
256,192,220451,1,0,0:0:0:0:
256,192,220535,1,0,0:0:0:0:
256,192,220618,1,8,0:0:0:0:
256,192,220702,1,0,0:0:0:0:
256,192,220870,1,8,0:0:0:0:
256,192,220954,1,8,0:0:0:0:
256,192,221037,1,0,0:0:0:0:
256,192,221121,1,0,0:0:0:0:
256,192,221205,1,8,0:0:0:0:
256,192,221289,1,0,0:0:0:0:
256,192,221456,1,0,0:0:0:0:
256,192,221624,1,8,0:0:0:0:
256,192,221792,1,0,0:0:0:0:
256,192,221875,1,0,0:0:0:0:
256,192,221959,1,8,0:0:0:0:
256,192,222127,1,8,0:0:0:0:
256,192,222211,1,0,0:0:0:0:
256,192,222294,1,8,0:0:0:0:
256,192,222378,1,0,0:0:0:0:
256,192,222462,1,8,0:0:0:0:
256,192,222546,1,8,0:0:0:0:
256,192,222630,1,0,0:0:0:0:
256,192,222965,1,8,0:0:0:0:
256,192,223132,1,0,0:0:0:0:
256,192,223216,1,0,0:0:0:0:
256,192,223300,1,8,0:0:0:0:
256,192,223384,1,0,0:0:0:0:
256,192,223551,1,8,0:0:0:0:
256,192,223635,1,8,0:0:0:0:
256,192,223719,1,0,0:0:0:0:
256,192,223803,1,8,0:0:0:0:
256,192,223970,1,0,0:0:0:0:
256,192,224054,1,0,0:0:0:0:
256,192,224138,1,8,0:0:0:0:
256,192,224306,1,0,0:0:0:0:
256,192,224473,1,8,0:0:0:0:
256,192,224557,1,0,0:0:0:0:
256,192,224641,1,8,0:0:0:0:
256,192,224808,1,8,0:0:0:0:
256,192,224976,1,8,0:0:0:0:
256,192,225060,1,8,0:0:0:0:
256,192,225144,1,8,0:0:0:0:
256,192,225227,1,8,0:0:0:0:
256,192,225311,1,0,0:0:0:0:
256,192,225646,1,0,0:0:0:0:
256,192,225814,1,0,0:0:0:0:
256,192,225898,1,0,0:0:0:0:
256,192,225982,1,8,0:0:0:0:
256,192,226149,1,0,0:0:0:0:
256,192,226317,1,8,0:0:0:0:
256,192,226484,1,8,0:0:0:0:
256,192,226568,1,0,0:0:0:0:
256,192,226652,1,0,0:0:0:0:
256,192,226736,1,8,0:0:0:0:
256,192,226903,1,0,0:0:0:0:
256,192,226987,1,8,0:0:0:0:
256,192,227071,1,8,0:0:0:0:
256,192,227155,1,0,0:0:0:0:
256,192,227238,1,0,0:0:0:0:
256,192,227322,1,8,0:0:0:0:
256,192,227490,1,0,0:0:0:0:
256,192,227574,1,8,0:0:0:0:
256,192,227657,1,0,0:0:0:0:
256,192,227741,1,0,0:0:0:0:
256,192,227825,1,8,0:0:0:0:
256,192,227993,1,0,0:0:0:0:
256,192,228328,1,0,0:0:0:0:
256,192,228495,1,0,0:0:0:0:
256,192,228579,1,0,0:0:0:0:
256,192,228663,1,8,0:0:0:0:
256,192,228747,1,0,0:0:0:0:
256,192,228914,1,8,0:0:0:0:
256,192,228998,1,8,0:0:0:0:
256,192,229082,1,0,0:0:0:0:
256,192,229166,1,8,0:0:0:0:
256,192,229333,1,0,0:0:0:0:
256,192,229417,1,0,0:0:0:0:
256,192,229501,1,8,0:0:0:0:
256,192,229669,1,0,0:0:0:0:
256,192,229836,1,8,0:0:0:0:
256,192,229920,1,0,0:0:0:0:
256,192,230004,1,8,0:0:0:0:
256,192,230088,1,8,0:0:0:0:
256,192,230171,1,0,0:0:0:0:
256,192,230234,1,0,0:0:0:0:
256,192,230297,1,0,0:0:0:0:
256,192,230360,1,8,0:0:0:0:
256,192,230507,1,8,0:0:0:0:
256,192,230674,1,0,0:0:0:0:
256,192,231009,1,8,0:0:0:0:
256,192,231177,1,0,0:0:0:0:
256,192,231261,1,0,0:0:0:0:
256,192,231345,1,8,0:0:0:0:
256,192,231428,1,0,0:0:0:0:
256,192,231596,1,8,0:0:0:0:
256,192,231680,1,8,0:0:0:0:
256,192,231764,1,0,0:0:0:0:
256,192,231847,1,0,0:0:0:0:
256,192,231931,1,8,0:0:0:0:
256,192,232015,1,0,0:0:0:0:
256,192,232183,1,0,0:0:0:0:
256,192,232350,1,8,0:0:0:0:
256,192,232518,1,0,0:0:0:0:
256,192,232602,1,0,0:0:0:0:
256,192,232685,1,8,0:0:0:0:
256,192,232853,1,8,0:0:0:0:
256,192,232937,1,0,0:0:0:0:
256,192,233021,1,8,0:0:0:0:
256,192,233104,1,0,0:0:0:0:
256,192,233188,1,8,0:0:0:0:
256,192,233272,1,8,0:0:0:0:
256,192,233356,1,0,0:0:0:0:
256,192,233859,1,0,0:0:0:0:
256,192,234026,1,8,0:0:0:0:
256,192,234110,1,0,0:0:0:0:
256,192,234278,1,8,0:0:0:0:
256,192,234361,1,8,0:0:0:0:
256,192,234445,1,0,0:0:0:0:
256,192,234529,1,8,0:0:0:0:
256,192,234697,1,0,0:0:0:0:
256,192,234780,1,0,0:0:0:0:
256,192,234864,1,8,0:0:0:0:
256,192,235032,1,0,0:0:0:0:
256,192,235199,1,8,0:0:0:0:
256,192,235283,1,0,0:0:0:0:
256,192,235367,1,8,0:0:0:0:
256,192,235535,1,8,0:0:0:0:
256,192,235702,1,8,0:0:0:0:
256,192,235786,1,8,0:0:0:0:
256,192,235870,1,8,0:0:0:0:
256,192,235954,1,8,0:0:0:0:
256,192,236037,1,0,0:0:0:0:
256,192,236373,1,0,0:0:0:0:
256,192,236540,1,0,0:0:0:0:
256,192,236708,1,8,0:0:0:0:
256,192,236959,1,8,0:0:0:0:
256,192,237043,1,8,0:0:0:0:
256,192,237211,1,8,0:0:0:0:
256,192,237378,1,4,0:0:0:0:
256,192,237630,1,4,0:0:0:0:
256,192,237881,1,4,0:0:0:0:
256,192,238132,1,4,0:0:0:0:
256,192,238384,1,12,0:0:0:0:
256,192,238719,1,0,0:0:0:0:
256,192,238887,1,8,0:0:0:0:
256,192,239054,1,0,0:0:0:0:
256,192,239389,1,8,0:0:0:0:
256,192,239557,1,0,0:0:0:0:
256,192,239641,1,0,0:0:0:0:
256,192,239725,1,8,0:0:0:0:
256,192,239892,1,8,0:0:0:0:
256,192,240060,1,0,0:0:0:0:
256,192,240227,1,8,0:0:0:0:
256,192,240563,5,0,0:0:0:0:
256,192,240646,1,0,0:0:0:0:
256,192,240730,1,8,0:0:0:0:
256,192,240898,1,0,0:0:0:0:
256,192,241065,1,8,0:0:0:0:
256,192,241149,1,8,0:0:0:0:
256,192,241233,1,8,0:0:0:0:
256,192,241317,1,8,0:0:0:0:
256,192,241401,1,0,0:0:0:0:
256,192,241568,1,8,0:0:0:0:
256,192,241903,1,0,0:0:0:0:
256,192,242071,1,8,0:0:0:0:
256,192,242155,1,0,0:0:0:0:
256,192,242238,1,0,0:0:0:0:
256,192,242406,1,8,0:0:0:0:
256,192,242574,1,0,0:0:0:0:
256,192,242741,1,0,0:0:0:0:
256,192,242909,1,8,0:0:0:0:
256,192,243244,1,0,0:0:0:0:
256,192,243328,1,0,0:0:0:0:
256,192,243412,1,8,0:0:0:0:
256,192,243579,1,8,0:0:0:0:
256,192,243747,1,0,0:0:0:0:
256,192,243831,1,0,0:0:0:0:
256,192,243914,1,8,0:0:0:0:
256,192,243998,1,8,0:0:0:0:
256,192,244082,1,0,0:0:0:0:
256,192,244250,1,8,0:0:0:0:
256,192,244417,1,0,0:0:0:0:
256,192,244752,1,8,0:0:0:0:
256,192,244920,1,0,0:0:0:0:
256,192,245004,1,0,0:0:0:0:
256,192,245088,1,8,0:0:0:0:
256,192,245255,1,8,0:0:0:0:
256,192,245423,1,0,0:0:0:0:
256,192,245590,1,8,0:0:0:0:
256,192,245758,1,0,0:0:0:0:
256,192,245842,1,8,0:0:0:0:
256,192,245926,1,8,0:0:0:0:
256,192,246009,1,0,0:0:0:0:
256,192,246093,1,8,0:0:0:0:
256,192,246261,1,0,0:0:0:0:
256,192,246428,1,8,0:0:0:0:
256,192,246764,1,0,0:0:0:0:
256,192,246931,5,0,0:0:0:0:
256,192,247015,1,0,0:0:0:0:
256,192,247099,1,8,0:0:0:0:
256,192,247266,1,0,0:0:0:0:
256,192,247434,1,0,0:0:0:0:
256,192,247518,1,0,0:0:0:0:
256,192,247602,1,0,0:0:0:0:
256,192,247769,1,8,0:0:0:0:
256,192,247937,1,8,0:0:0:0:
256,192,248021,1,8,0:0:0:0:
256,192,248104,1,0,0:0:0:0:
256,192,248272,1,0,0:0:0:0:
256,192,248356,1,0,0:0:0:0:
256,192,248440,1,8,0:0:0:0:
256,192,248607,1,0,0:0:0:0:
256,192,248775,1,0,0:0:0:0:
256,192,248859,1,8,0:0:0:0:
256,192,248942,1,0,0:0:0:0:
256,192,249110,1,8,0:0:0:0:
256,192,249361,1,8,0:0:0:0:
256,192,249445,1,0,0:0:0:0:
256,192,249613,1,0,0:0:0:0:
256,192,249780,1,8,0:0:0:0:
256,192,249948,1,0,0:0:0:0:
256,192,250116,1,8,0:0:0:0:
256,192,250199,1,8,0:0:0:0:
256,192,250283,1,0,0:0:0:0:
256,192,250451,1,8,0:0:0:0:
256,192,250618,1,8,0:0:0:0:
256,192,250786,1,0,0:0:0:0:
256,192,250954,1,8,0:0:0:0:
256,192,251037,1,8,0:0:0:0:
256,192,251121,1,8,0:0:0:0:
256,192,251289,1,0,0:0:0:0:
256,192,251624,1,0,0:0:0:0:
256,192,251792,1,8,0:0:0:0:
256,192,252127,1,0,0:0:0:0:
256,192,252462,1,8,0:0:0:0:
256,192,252630,1,0,0:0:0:0:
256,192,252713,1,0,0:0:0:0:
256,192,252797,1,8,0:0:0:0:
256,192,252965,1,0,0:0:0:0:
256,192,253132,1,8,0:0:0:0:
256,192,253300,1,8,0:0:0:0:
256,192,253384,1,8,0:0:0:0:
256,192,253468,1,0,0:0:0:0:
256,192,253635,1,0,0:0:0:0:
256,192,253803,1,8,0:0:0:0:
256,192,253970,1,8,0:0:0:0:
256,192,254054,1,0,0:0:0:0:
256,192,254138,1,8,0:0:0:0:
256,192,254306,1,0,0:0:0:0:
256,192,254473,1,8,0:0:0:0:
256,192,254557,1,0,0:0:0:0:
256,192,254641,1,8,0:0:0:0:
256,192,254725,1,8,0:0:0:0:
256,192,254808,1,0,0:0:0:0:
256,192,255144,1,8,0:0:0:0:
256,192,255311,1,0,0:0:0:0:
256,192,255479,1,8,0:0:0:0:
256,192,255563,1,8,0:0:0:0:
256,192,255646,1,0,0:0:0:0:
256,192,255814,1,8,0:0:0:0:
256,192,255982,1,8,0:0:0:0:
256,192,256149,1,0,0:0:0:0:
256,192,256484,1,8,0:0:0:0:
256,192,256652,1,0,0:0:0:0:
256,192,256819,1,8,0:0:0:0:
256,192,256987,1,0,0:0:0:0:
256,192,257071,1,0,0:0:0:0:
256,192,257155,1,8,0:0:0:0:
256,192,257238,1,0,0:0:0:0:
256,192,257322,1,8,0:0:0:0:
256,192,257490,1,0,0:0:0:0:
256,192,257657,1,0,0:0:0:0:
256,192,257825,1,8,0:0:0:0:
256,192,257909,1,0,0:0:0:0:
256,192,258076,1,0,0:0:0:0:
256,192,258160,1,8,0:0:0:0:
256,192,258244,1,0,0:0:0:0:
256,192,258328,1,0,0:0:0:0:
256,192,258495,1,8,0:0:0:0:
256,192,258579,1,0,0:0:0:0:
256,192,258663,1,8,0:0:0:0:
256,192,258747,1,8,0:0:0:0:
256,192,258914,1,0,0:0:0:0:
256,192,258998,1,8,0:0:0:0:
256,192,259166,1,0,0:0:0:0:
256,192,259250,1,8,0:0:0:0:
256,192,259333,1,0,0:0:0:0:
256,192,259417,1,0,0:0:0:0:
256,192,259501,1,8,0:0:0:0:
256,192,259585,1,0,0:0:0:0:
256,192,259669,1,0,0:0:0:0:
256,192,259752,1,0,0:0:0:0:
256,192,259836,1,8,0:0:0:0:
256,192,259920,1,8,0:0:0:0:
256,192,260004,1,8,0:0:0:0:
256,192,260088,1,8,0:0:0:0:
256,192,260171,1,0,0:0:0:0:
256,192,260227,1,0,0:0:0:0:
256,192,260283,1,0,0:0:0:0:
256,192,260339,1,8,0:0:0:0:
256,192,260423,1,0,0:0:0:0:
256,192,260507,1,8,0:0:0:0:
256,192,260590,1,0,0:0:0:0:
256,192,260674,1,0,0:0:0:0:
256,192,260730,1,0,0:0:0:0:
256,192,260786,1,0,0:0:0:0:
256,192,260842,1,8,0:0:0:0:
256,192,261009,1,0,0:0:0:0:
256,192,261177,1,8,0:0:0:0:
256,192,261345,1,0,0:0:0:0:
256,192,261428,1,8,0:0:0:0:
256,192,261512,1,0,0:0:0:0:
256,192,261596,1,0,0:0:0:0:
256,192,261680,1,8,0:0:0:0:
256,192,261764,1,0,0:0:0:0:
256,192,261847,1,8,0:0:0:0:
256,192,261931,1,8,0:0:0:0:
256,192,262015,1,0,0:0:0:0:
256,192,262099,1,0,0:0:0:0:
256,192,262183,1,8,0:0:0:0:
256,192,262266,1,0,0:0:0:0:
256,192,262434,1,0,0:0:0:0:
256,192,262518,1,8,0:0:0:0:
256,192,262685,1,0,0:0:0:0:
256,192,262853,1,8,0:0:0:0:
256,192,263021,1,8,0:0:0:0:
256,192,263188,1,0,0:0:0:0:
256,192,263272,1,8,0:0:0:0:
256,192,263356,1,8,0:0:0:0:
256,192,263440,1,0,0:0:0:0:
256,192,263523,1,8,0:0:0:0:
256,192,263691,1,8,0:0:0:0:
256,192,263775,1,0,0:0:0:0:
256,192,263859,1,8,0:0:0:0:
256,192,264026,1,0,0:0:0:0:
256,192,264361,1,0,0:0:0:0:
256,192,264529,1,8,0:0:0:0:
256,192,264697,1,0,0:0:0:0:
256,192,264780,1,0,0:0:0:0:
256,192,264864,1,8,0:0:0:0:
256,192,265032,1,0,0:0:0:0:
256,192,265199,1,8,0:0:0:0:
256,192,265283,1,0,0:0:0:0:
256,192,265367,1,0,0:0:0:0:
256,192,265451,1,8,0:0:0:0:
256,192,265535,1,0,0:0:0:0:
256,192,265870,1,0,0:0:0:0:
256,192,266037,1,0,0:0:0:0:
256,192,266205,1,8,0:0:0:0:
256,192,266373,1,8,0:0:0:0:
256,192,266456,1,8,0:0:0:0:
256,192,266540,1,0,0:0:0:0:
256,192,266708,1,8,0:0:0:0:
256,192,266792,1,0,0:0:0:0:
256,192,266875,1,8,0:0:0:0:
256,192,266959,1,8,0:0:0:0:
256,192,267043,1,0,0:0:0:0:
256,192,267127,1,0,0:0:0:0:
256,192,267211,1,8,0:0:0:0:
256,192,267294,1,8,0:0:0:0:
256,192,267378,1,8,0:0:0:0:
256,192,267462,1,0,0:0:0:0:
256,192,267546,1,8,0:0:0:0:
256,192,267797,1,0,0:0:0:0:
256,192,267881,1,0,0:0:0:0:
256,192,268049,1,8,0:0:0:0:
256,192,268216,1,12,0:0:0:0:
256,192,268551,1,8,0:0:0:0:
256,192,268719,1,8,0:0:0:0:
256,192,268803,1,8,0:0:0:0:
256,192,268887,1,0,0:0:0:0:
256,192,268970,1,0,0:0:0:0:
256,192,269054,1,8,0:0:0:0:
256,192,269222,1,0,0:0:0:0:
256,192,269306,1,8,0:0:0:0:
256,192,269389,1,0,0:0:0:0:
256,192,269473,1,8,0:0:0:0:
256,192,269557,1,0,0:0:0:0:
256,192,269725,1,0,0:0:0:0:
256,192,269892,1,8,0:0:0:0:
256,192,270060,1,8,0:0:0:0:
256,192,270144,1,8,0:0:0:0:
256,192,270227,1,0,0:0:0:0:
256,192,270311,1,0,0:0:0:0:
256,192,270395,1,8,0:0:0:0:
256,192,270563,1,8,0:0:0:0:
256,192,270646,1,8,0:0:0:0:
256,192,270730,1,8,0:0:0:0:
256,192,270814,1,8,0:0:0:0:
256,192,270898,1,0,0:0:0:0:
256,192,271233,1,0,0:0:0:0:
256,192,271568,1,8,0:0:0:0:
256,192,271736,1,0,0:0:0:0:
256,192,271903,1,8,0:0:0:0:
256,192,272071,1,0,0:0:0:0:
256,192,272155,1,8,0:0:0:0:
256,192,272238,1,0,0:0:0:0:
256,192,272322,1,0,0:0:0:0:
256,192,272406,1,8,0:0:0:0:
256,192,272490,1,0,0:0:0:0:
256,192,272574,1,8,0:0:0:0:
256,192,272657,1,8,0:0:0:0:
256,192,272741,1,0,0:0:0:0:
256,192,272825,1,0,0:0:0:0:
256,192,272909,1,8,0:0:0:0:
256,192,273132,1,8,0:0:0:0:
256,192,273356,1,8,0:0:0:0:
256,192,273579,12,0,274082,0:0:0:0:
256,192,274250,5,8,0:0:0:0:
256,192,274417,1,8,0:0:0:0:
256,192,274501,1,8,0:0:0:0:
256,192,274585,1,0,0:0:0:0:
256,192,274752,1,8,0:0:0:0:
256,192,275088,1,8,0:0:0:0:
256,192,275144,1,8,0:0:0:0:
256,192,275199,1,8,0:0:0:0:
256,192,275255,1,0,0:0:0:0:
256,192,275339,1,8,0:0:0:0:
256,192,275423,1,0,0:0:0:0:
256,192,275507,1,0,0:0:0:0:
256,192,275590,1,8,0:0:0:0:
256,192,275674,1,8,0:0:0:0:
256,192,275758,1,0,0:0:0:0:
256,192,275842,1,0,0:0:0:0:
256,192,275926,1,8,0:0:0:0:
256,192,276009,1,0,0:0:0:0:
256,192,276093,1,8,0:0:0:0:
256,192,276261,1,0,0:0:0:0:
256,192,276596,1,0,0:0:0:0:
256,192,276764,1,0,0:0:0:0:
256,192,276931,1,8,0:0:0:0:
256,192,277099,1,0,0:0:0:0:
256,192,277266,1,8,0:0:0:0:
256,192,277434,1,8,0:0:0:0:
256,192,277518,1,0,0:0:0:0:
256,192,277602,1,8,0:0:0:0:
256,192,277685,1,8,0:0:0:0:
256,192,277769,1,0,0:0:0:0:
256,192,277853,1,8,0:0:0:0:
256,192,277937,1,0,0:0:0:0:
256,192,278021,1,0,0:0:0:0:
256,192,278104,1,8,0:0:0:0:
256,192,278188,1,0,0:0:0:0:
256,192,278272,1,8,0:0:0:0:
256,192,278440,1,0,0:0:0:0:
256,192,278607,1,8,0:0:0:0:
256,192,278691,1,0,0:0:0:0:
256,192,278775,1,8,0:0:0:0:
256,192,278859,1,8,0:0:0:0:
256,192,278942,1,0,0:0:0:0:
256,192,279110,1,0,0:0:0:0:
256,192,279278,1,8,0:0:0:0:
256,192,279333,1,8,0:0:0:0:
256,192,279389,1,8,0:0:0:0:
256,192,279445,1,0,0:0:0:0:
256,192,279529,1,8,0:0:0:0:
256,192,279613,1,0,0:0:0:0:
256,192,279725,1,0,0:0:0:0:
256,192,279836,1,8,0:0:0:0:
256,192,279948,1,0,0:0:0:0:
256,192,280116,1,8,0:0:0:0:
256,192,280283,1,0,0:0:0:0:
256,192,280367,1,8,0:0:0:0:
256,192,280451,1,8,0:0:0:0:
256,192,280535,1,0,0:0:0:0:
256,192,280618,1,8,0:0:0:0:
256,192,280702,1,8,0:0:0:0:
256,192,280786,1,0,0:0:0:0:
256,192,280870,1,0,0:0:0:0:
256,192,280954,1,8,0:0:0:0:
256,192,281289,1,0,0:0:0:0:
256,192,281373,1,0,0:0:0:0:
256,192,281456,1,0,0:0:0:0:
256,192,281540,1,8,0:0:0:0:
256,192,281624,1,0,0:0:0:0:
256,192,281959,1,8,0:0:0:0:
256,192,282127,1,8,0:0:0:0:
256,192,282211,1,0,0:0:0:0:
256,192,282294,1,8,0:0:0:0:
256,192,282378,1,8,0:0:0:0:
256,192,282462,1,0,0:0:0:0:
256,192,282630,1,8,0:0:0:0:
256,192,282797,1,8,0:0:0:0:
256,192,282881,1,8,0:0:0:0:
256,192,282965,1,0,0:0:0:0:
256,192,283049,1,0,0:0:0:0:
256,192,283132,1,0,0:0:0:0:
256,192,283300,1,8,0:0:0:0:
256,192,283468,1,8,0:0:0:0:
256,192,283551,1,0,0:0:0:0:
256,192,283635,1,8,0:0:0:0:
256,192,283803,1,0,0:0:0:0:
256,192,283970,1,8,0:0:0:0:
256,192,284054,1,8,0:0:0:0:
256,192,284138,1,0,0:0:0:0:
256,192,284222,1,8,0:0:0:0:
256,192,284306,1,0,0:0:0:0:
256,192,284641,1,8,0:0:0:0:
256,192,284808,1,8,0:0:0:0:
256,192,284892,1,8,0:0:0:0:
256,192,284976,1,0,0:0:0:0:
256,192,285060,1,0,0:0:0:0:
256,192,285144,1,0,0:0:0:0:
256,192,285311,1,8,0:0:0:0:
256,192,285395,1,0,0:0:0:0:
256,192,285479,1,8,0:0:0:0:
256,192,285563,1,8,0:0:0:0:
256,192,285646,1,0,0:0:0:0:
256,192,285730,1,8,0:0:0:0:
256,192,285982,1,8,0:0:0:0:
256,192,286149,1,8,0:0:0:0:
256,192,286233,1,0,0:0:0:0:
256,192,286317,1,8,0:0:0:0:
256,192,286484,1,0,0:0:0:0:
256,192,286568,1,0,0:0:0:0:
256,192,286652,1,8,0:0:0:0:
256,192,286736,1,0,0:0:0:0:
256,192,286819,1,8,0:0:0:0:
256,192,286903,1,8,0:0:0:0:
256,192,286987,1,0,0:0:0:0:
256,192,287322,1,8,0:0:0:0:
256,192,287490,1,8,0:0:0:0:
256,192,287574,1,0,0:0:0:0:
256,192,287657,1,8,0:0:0:0:
256,192,287741,1,8,0:0:0:0:
256,192,287825,1,0,0:0:0:0:
256,192,287993,1,8,0:0:0:0:
256,192,288160,1,8,0:0:0:0:
256,192,288244,1,8,0:0:0:0:
256,192,288328,1,0,0:0:0:0:
256,192,288412,1,0,0:0:0:0:
256,192,288495,1,0,0:0:0:0:
256,192,288663,1,8,0:0:0:0:
256,192,288831,1,8,0:0:0:0:
256,192,288914,1,0,0:0:0:0:
256,192,288998,1,8,0:0:0:0:
256,192,289166,1,0,0:0:0:0:
256,192,289333,1,8,0:0:0:0:
256,192,289417,1,8,0:0:0:0:
256,192,289501,1,8,0:0:0:0:
256,192,289585,1,8,0:0:0:0:
256,192,289669,1,0,0:0:0:0:
256,192,290004,1,8,0:0:0:0:
256,192,290171,1,8,0:0:0:0:
256,192,290255,1,0,0:0:0:0:
256,192,290339,1,8,0:0:0:0:
256,192,290507,1,0,0:0:0:0:
256,192,290674,1,8,0:0:0:0:
256,192,290842,1,8,0:0:0:0:
256,192,290926,1,8,0:0:0:0:
256,192,291009,1,0,0:0:0:0:
256,192,291093,1,0,0:0:0:0:
256,192,291261,1,8,0:0:0:0:
256,192,291345,1,0,0:0:0:0:
256,192,291428,1,8,0:0:0:0:
256,192,291512,1,0,0:0:0:0:
256,192,291596,1,0,0:0:0:0:
256,192,291680,1,8,0:0:0:0:
256,192,291847,1,0,0:0:0:0:
256,192,291931,1,0,0:0:0:0:
256,192,292015,1,8,0:0:0:0:
256,192,292099,1,0,0:0:0:0:
256,192,292183,1,8,0:0:0:0:
256,192,292350,1,0,0:0:0:0:
256,192,292602,1,0,0:0:0:0:
256,192,292685,1,8,0:0:0:0:
256,192,292853,1,8,0:0:0:0:
256,192,292937,1,0,0:0:0:0:
256,192,293021,1,8,0:0:0:0:
256,192,293104,1,8,0:0:0:0:
256,192,293188,1,0,0:0:0:0:
256,192,293356,1,8,0:0:0:0:
256,192,293523,1,8,0:0:0:0:
256,192,293607,1,8,0:0:0:0:
256,192,293691,1,0,0:0:0:0:
256,192,293775,1,0,0:0:0:0:
256,192,293859,1,0,0:0:0:0:
256,192,294026,1,8,0:0:0:0:
256,192,294194,1,8,0:0:0:0:
256,192,294278,1,0,0:0:0:0:
256,192,294361,1,8,0:0:0:0:
256,192,294445,1,8,0:0:0:0:
256,192,294529,1,0,0:0:0:0:
256,192,294613,1,0,0:0:0:0:
256,192,294697,1,8,0:0:0:0:
256,192,294780,1,8,0:0:0:0:
256,192,294864,1,0,0:0:0:0:
256,192,294948,1,8,0:0:0:0:
256,192,295032,1,0,0:0:0:0:
256,192,295367,1,8,0:0:0:0:
256,192,295535,1,8,0:0:0:0:
256,192,295618,1,8,0:0:0:0:
256,192,295702,1,0,0:0:0:0:
256,192,295786,1,8,0:0:0:0:
256,192,295870,1,0,0:0:0:0:
256,192,295954,1,0,0:0:0:0:
256,192,296037,1,8,0:0:0:0:
256,192,296121,1,0,0:0:0:0:
256,192,296205,1,8,0:0:0:0:
256,192,296289,1,8,0:0:0:0:
256,192,296373,1,0,0:0:0:0:
256,192,296456,1,8,0:0:0:0:
256,192,296708,1,8,0:0:0:0:
256,192,296875,1,8,0:0:0:0:
256,192,296959,1,0,0:0:0:0:
256,192,297043,1,8,0:0:0:0:
256,192,297211,1,0,0:0:0:0:
256,192,297294,1,0,0:0:0:0:
256,192,297378,1,8,0:0:0:0:
256,192,297462,1,0,0:0:0:0:
256,192,297546,1,8,0:0:0:0:
256,192,297630,1,8,0:0:0:0:
256,192,297713,1,0,0:0:0:0:
256,192,297965,1,0,0:0:0:0:
256,192,298049,1,8,0:0:0:0:
256,192,298216,1,8,0:0:0:0:
256,192,298300,1,0,0:0:0:0:
256,192,298384,1,8,0:0:0:0:
256,192,298468,1,8,0:0:0:0:
256,192,298551,1,0,0:0:0:0:
256,192,298719,1,8,0:0:0:0:
256,192,298887,1,8,0:0:0:0:
256,192,298970,1,8,0:0:0:0:
256,192,299054,1,0,0:0:0:0:
256,192,299138,1,0,0:0:0:0:
256,192,299222,1,0,0:0:0:0:
256,192,299389,1,8,0:0:0:0:
256,192,299557,1,8,0:0:0:0:
256,192,299641,1,0,0:0:0:0:
256,192,299725,1,8,0:0:0:0:
256,192,299808,1,8,0:0:0:0:
256,192,299892,1,0,0:0:0:0:
256,192,299976,1,0,0:0:0:0:
256,192,300060,1,8,0:0:0:0:
256,192,300144,1,8,0:0:0:0:
256,192,300227,1,8,0:0:0:0:
256,192,300311,1,8,0:0:0:0:
256,192,300395,1,0,0:0:0:0:
256,192,300730,1,8,0:0:0:0:
256,192,300898,1,8,0:0:0:0:
256,192,301065,1,0,0:0:0:0:
256,192,301233,1,0,0:0:0:0:
256,192,301401,1,8,0:0:0:0:
256,192,301568,1,0,0:0:0:0:
256,192,301652,1,0,0:0:0:0:
256,192,301736,1,0,0:0:0:0:
256,192,301903,1,0,0:0:0:0:
256,192,301987,1,0,0:0:0:0:
256,192,302071,1,8,0:0:0:0:
256,192,302155,1,8,0:0:0:0:
256,192,302238,1,0,0:0:0:0:
256,192,302406,1,0,0:0:0:0:
256,192,302490,1,0,0:0:0:0:
256,192,302574,1,8,0:0:0:0:
256,192,302657,1,0,0:0:0:0:
256,192,302741,1,8,0:0:0:0:
256,192,302825,1,0,0:0:0:0:
256,192,302909,1,8,0:0:0:0:
256,192,302993,1,8,0:0:0:0:
256,192,303076,1,0,0:0:0:0:
256,192,303244,1,8,0:0:0:0:
256,192,303328,1,0,0:0:0:0:
256,192,303412,1,8,0:0:0:0:
256,192,303579,1,8,0:0:0:0:
256,192,303747,1,0,0:0:0:0:
256,192,303914,1,8,0:0:0:0:
256,192,303998,1,0,0:0:0:0:
256,192,304082,1,8,0:0:0:0:
256,192,304166,1,0,0:0:0:0:
256,192,304250,1,8,0:0:0:0:
256,192,304333,1,8,0:0:0:0:
256,192,304417,1,0,0:0:0:0:
256,192,304501,1,0,0:0:0:0:
256,192,304585,1,8,0:0:0:0:
256,192,304669,1,8,0:0:0:0:
256,192,304752,1,0,0:0:0:0:
256,192,304836,1,0,0:0:0:0:
256,192,304920,1,8,0:0:0:0:
256,192,305004,1,0,0:0:0:0:
256,192,305088,1,8,0:0:0:0:
256,192,305144,1,8,0:0:0:0:
256,192,305199,1,8,0:0:0:0:
256,192,305255,1,8,0:0:0:0:
256,192,305311,1,8,0:0:0:0:
256,192,305367,1,8,0:0:0:0:
256,192,305423,1,0,0:0:0:0:
256,192,305507,1,0,0:0:0:0:
256,192,305590,1,0,0:0:0:0:
256,192,305674,1,0,0:0:0:0:
256,192,305758,12,0,307099,0:0:0:0:
