osu file format v14

[General]
AudioFilename: thanks lach.mp3
AudioLeadIn: 0
PreviewTime: 44283
Countdown: 0
SampleSet: Soft
StackLeniency: 0.7
Mode: 0
LetterboxInBreaks: 1
WidescreenStoryboard: 1

[Editor]
Bookmarks: 2719,24172,45624,67077,88529,109982,131434,152887,174339,195792,217244,238697,260149,281602
DistanceSpacing: 0.5
BeatDivisor: 4
GridSize: 4
TimelineZoom: 2.1

[Metadata]
Title:Bassdrop Freaks (Long Ver.)
TitleUnicode:ベィスドロップ・フリークス(Long Ver.)
Artist:Camellia feat. Nanahira
ArtistUnicode:かめりあ feat. ななひら
Creator:RLC
Version:Extra
Source:
Tags:meltical sugar wave
BeatmapID:809470
BeatmapSetID:368845

[Difficulty]
HPDrainRate:7
CircleSize:4
OverallDifficulty:8
ApproachRate:9.2
SliderMultiplier:1.92
SliderTickRate:2

[Events]
//Background and Video events
0,0,"oops i dropped le DANK REDDIT BASS.jpg",0,0
//Break Periods
2,24324,28917
2,153039,160313
//Storyboard Layer 0 (Background)
//Storyboard Layer 1 (Fail)
//Storyboard Layer 2 (Pass)
//Storyboard Layer 3 (Foreground)
//Storyboard Sound Samples

[TimingPoints]
2671.60874457354,335.195530726257,4,2,1,70,1,0
3341,-100,4,2,1,70,0,0
3844,-100,4,2,1,70,0,0
5017,-66.6666666666667,4,2,1,70,0,0
5353,-100,4,2,1,70,0,0
6191,-100,4,2,1,70,0,0
6442,-100,4,2,1,70,0,0
10381,-133.333333333333,4,2,1,70,0,0
10716,-133.333333333333,4,1,1,70,0,0
12057,-80,4,1,1,70,0,0
13062,-100,4,1,1,70,0,0
13397,-100,4,2,1,70,0,0
14235,-66.6666666666667,4,2,1,70,0,0
14738,-100,4,2,1,70,0,0
15744,-100,4,2,1,70,0,0
16079,-100,4,2,1,70,0,0
16749,-66.6666666666667,4,2,1,70,0,0
17085,-100,4,2,1,70,0,0
18760,-100,4,2,1,70,0,0
19598,-66.6666666666667,4,2,1,70,0,0
20101,-100,4,2,1,70,0,0
23453,-100,4,2,1,70,0,0
24124,-100,4,1,1,70,0,0
34850,-133.333333333333,4,1,1,50,0,0
40213,-133.333333333333,4,1,1,70,0,0
42392,-100,4,1,1,70,0,0
45576,-66.6666666666667,4,1,1,70,0,1
46917,-100,4,1,1,70,0,1
47587,-66.6666666666667,4,2,1,70,0,1
47923,-100,4,1,1,70,0,1
48258,-66.6666666666667,4,1,1,70,0,1
49263,-100,4,1,1,70,0,1
49598,-66.6666666666667,4,1,1,70,0,1
50604,-66.6666666666667,4,2,1,70,0,1
50939,-66.6666666666667,4,1,1,70,0,1
52280,-100,4,1,1,70,0,1
52950,-66.6666666666667,4,1,1,70,0,1
53621,-133.333333333333,4,1,1,70,0,1
53956,-66.6666666666667,4,1,1,70,0,1
55632,-100,4,1,1,70,0,1
56302,-100,4,2,1,70,0,1
56638,-100,4,1,1,70,0,1
56805,-66.6666666666667,4,1,1,70,0,1
57643,-100,4,1,1,70,0,1
58314,-66.6666666666667,4,1,1,70,0,1
58984,-66.6666666666667,4,1,1,70,0,1
59990,-100,4,1,1,70,0,1
60325,-66.6666666666667,4,1,1,70,0,1
61330,-66.6666666666667,4,2,1,70,0,1
61666,-100,4,1,1,70,0,1
62336,-66.6666666666667,4,1,1,70,0,1
63006,-100,4,1,1,70,0,1
63677,-66.6666666666667,4,1,1,70,0,1
64347,-133.333333333333,4,1,1,70,0,1
65688,-100,4,1,1,70,0,0
67029,-133.333333333333,4,2,1,70,0,0
67364,-66.6666666666667,4,2,1,70,0,0
67699,-100,4,2,1,70,0,0
69710,-66.6666666666667,4,2,1,70,0,0
70381,-100,4,2,1,70,0,0
71721,-66.6666666666667,4,2,1,70,0,0
72057,-66.6666666666667,4,2,1,70,0,0
72392,-133.333333333333,4,2,1,70,0,0
72727,-66.6666666666667,4,2,1,70,0,0
73062,-100,4,2,1,70,0,0
74403,-66.6666666666667,4,2,1,70,0,0
74738,-100,4,2,1,70,0,0
76582,-100,4,2,1,70,0,0
76833,-100,4,2,1,70,0,0
77755,-66.6666666666667,4,2,1,70,0,0
78090,-100,4,2,1,70,0,0
80436,-66.6666666666667,4,2,1,70,0,0
80772,-100,4,2,1,70,0,0
82783,-100,4,2,1,70,0,0
83118,-100,4,1,1,70,0,0
87140,-66.6666666666667,4,1,1,70,0,0
87895,-66.6666666666667,4,1,1,70,0,0
88481,-100,4,2,1,70,0,0
91163,-66.6666666666667,4,2,1,70,0,0
91498,-100,4,2,1,70,0,0
96191,-133.333333333333,4,2,1,70,0,0
96526,-100,4,1,1,70,0,0
99207,-100,4,1,1,70,0,0
100045,-66.6666666666667,4,1,1,70,0,0
101554,-100,4,2,1,70,0,0
101889,-100,4,1,1,70,0,0
102559,-66.6666666666667,4,1,1,70,0,0
103062,-100,4,1,1,70,0,0
105241,-66.6666666666667,4,1,1,70,0,0
105911,-100,4,1,1,70,0,0
109263,-100,4,2,1,70,0,0
109934,-100,4,2,1,70,0,0
112950,-66.6666666666667,4,2,1,70,0,0
113453,-100,4,2,1,70,0,0
113788,-66.6666666666667,4,2,1,70,0,0
114626,-100,4,2,1,70,0,0
115967,-66.6666666666667,4,2,1,70,0,0
116470,-100,4,2,1,70,0,0
118649,-100,4,2,1,70,0,0
119319,-66.6666666666667,4,2,1,70,0,0
120660,-100,4,2,1,70,0,0
121330,-100,4,2,1,70,0,0
123006,-100,4,2,1,70,0,0
123341,-100,4,2,1,70,0,0
123677,-66.6666666666667,4,2,1,70,0,0
125185,-100,4,2,1,70,0,0
126861,-66.6666666666667,4,2,1,70,0,0
127364,-100,4,2,1,70,0,0
128369,-100,4,1,1,70,0,0
130716,-133.333333333333,4,1,1,70,0,0
131051,-100,4,1,1,70,0,0
131386,-66.6666666666667,4,2,1,70,0,0
131721,-100,4,2,1,70,0,0
133062,-66.6666666666667,4,2,1,70,0,0
134068,-100,4,2,1,70,0,0
135409,-66.6666666666667,4,2,1,70,0,0
136749,-66.6666666666667,4,2,1,70,0,0
137085,-100,4,2,1,70,0,0
138425,-66.6666666666667,4,2,1,70,0,0
139431,-100,4,2,1,70,0,0
142112,-66.6666666666667,4,2,1,70,0,0
142615,-100,4,2,1,70,0,0
142783,-66.6666666666667,4,2,1,70,0,0
143118,-100,4,2,1,70,0,0
143788,-66.6666666666667,4,2,1,70,0,0
145464,-100,4,2,1,70,0,0
146135,-66.6666666666667,4,2,1,70,0,0
147811,-100,4,2,1,70,0,0
149152,-80,4,2,1,70,0,0
150492,-66.6666666666667,4,2,1,70,0,0
152168,-100,4,1,1,70,0,0
152839,-100,4,2,1,70,0,0
165911,-66.6666666666667,4,1,1,70,0,0
166247,-100,4,1,1,70,0,0
167085,-100,4,2,1,70,0,0
167336,-100,4,2,1,70,0,0
171274,-133.333333333333,4,2,1,70,0,0
171610,-100,4,1,1,70,0,0
173956,-66.6666666666667,4,1,1,70,0,0
174291,-100,4,1,1,50,0,0
185017,-100,4,1,1,70,0,0
195744,-66.6666666666667,4,1,1,70,0,1
197085,-100,4,1,1,70,0,1
197755,-66.6666666666667,4,2,1,70,0,1
198090,-100,4,1,1,70,0,1
198425,-66.6666666666667,4,1,1,70,0,1
200772,-66.6666666666667,4,2,1,70,0,1
201107,-66.6666666666667,4,1,1,70,0,1
202448,-100,4,1,1,70,0,1
203118,-66.6666666666667,4,1,1,70,0,1
203453,-100,4,1,1,70,0,1
204459,-66.6666666666667,4,1,1,70,0,1
205632,-100,4,1,1,70,0,1
206470,-133.333333333333,4,1,1,70,0,1
206973,-66.6666666666667,4,1,1,70,0,1
207811,-100,4,1,1,70,0,1
209152,-66.6666666666667,4,1,1,70,0,1
211498,-66.6666666666667,4,2,1,70,0,1
211833,-100,4,1,1,70,0,1
212504,-66.6666666666667,4,1,1,70,0,1
213174,-100,4,1,1,70,0,1
213844,-66.6666666666667,4,1,1,70,0,1
214179,-100,4,1,1,70,0,1
215520,-66.6666666666667,4,1,1,70,0,1
216861,-100,4,1,1,70,0,0
217196,-100,4,2,1,70,0,0
219878,-66.6666666666667,4,2,1,70,0,0
220213,-100,4,2,1,70,0,0
222559,-100,4,2,1,70,0,0
225241,-100,4,1,1,70,0,0
227923,-66.6666666666667,4,1,1,70,0,0
230269,-100,4,2,1,70,0,0
230604,-100,4,1,1,70,0,0
231274,-66.6666666666667,4,1,1,70,0,0
231777,-100,4,1,1,70,0,0
233956,-66.6666666666667,4,1,1,70,0,0
234626,-100,4,1,1,70,0,0
237978,-100,4,2,1,70,0,0
238314,-100,4,1,1,70,0,0
239319,-66.6666666666667,4,2,1,70,0,0
239822,-100,4,2,1,70,0,0
241666,-66.6666666666667,4,2,1,70,0,0
242168,-100,4,2,1,70,0,0
242504,-66.6666666666667,4,2,1,70,0,0
242839,-100,4,2,1,70,0,0
245185,-66.6666666666667,4,2,1,70,0,0
246693,-100,4,2,1,70,0,0
247029,-100,4,2,3,70,0,0
249375,-100,4,2,1,70,0,0
250213,-66.6666666666667,4,2,1,70,0,0
251051,-100,4,2,1,70,0,0
251386,-66.6666666666667,4,2,1,70,0,0
252057,-100,4,2,1,70,0,0
252895,-66.6666666666667,4,2,1,70,0,0
254068,-100,4,2,1,70,0,0
257252,-100,4,1,1,70,0,0
260101,-66.6666666666667,4,1,1,70,0,1
264124,-100,4,1,1,70,0,1
264794,-66.6666666666667,4,1,1,70,0,1
265129,-66.6666666666667,4,2,1,70,0,1
265464,-66.6666666666667,4,1,1,70,0,1
267811,-100,4,1,1,70,0,1
269487,-66.6666666666667,4,1,1,70,0,1
270828,-66.6666666666667,4,1,1,70,0,0
271163,-66.6666666666667,4,1,1,70,0,1
274850,-100,4,1,1,70,0,1
275520,-66.6666666666667,4,1,1,70,0,1
275855,-66.6666666666667,4,2,1,70,0,1
276191,-66.6666666666667,4,1,1,70,0,1
278537,-100,4,1,1,70,0,1
279207,-66.6666666666667,4,1,1,70,0,1
281051,-100,4,2,1,70,0,1
281554,-133.333333333333,4,1,1,70,0,0
282895,-100,4,1,1,70,0,0
284319,-100,4,2,1,5,0,0

[Colours]
Combo1 : 17,254,176
Combo2 : 173,255,95
Combo3 : 255,88,100
Combo4 : 255,94,55

[HitObjects]
354,304,2336,5,0,2:0:0:0:
451,320,2504,1,0,2:0:0:0:
494,187,2671,6,0,B|424:182|424:182|378:203|378:203|300:198,1,192,4|0,3:1|2:0,0:0:0:0:
306,198,3341,1,8,0:0:0:0:
301,184,3425,1,0,0:0:0:0:
297,170,3509,2,0,L|302:116,1,48
316,36,3677,1,0,0:0:0:0:
171,241,3844,6,0,B|110:267|35:251|35:251|72:247|98:221,1,192,0|0,3:0|0:0,0:0:0:0:
217,317,4347,1,8,0:0:0:0:
148,156,4515,6,0,B|155:90|207:33|207:33|192:67|201:102,1,192,0|0,3:0|0:0,0:0:0:0:
291,79,5017,6,0,P|375:84|300:56,1,216.000008239746,0|0,0:0|2:0,0:0:0:0:
291,79,5353,6,0,B|297:143|297:143|278:205|278:205|287:269,1,192,4|0,3:1|2:0,0:0:0:0:
312,359,5855,1,0,0:0:0:0:
376,211,6023,1,8,0:0:0:0:
212,316,6191,2,0,L|177:321,3,32
435,120,6526,6,0,P|475:166|461:269,1,144,0|0,3:0|0:0,0:0:0:0:
474,245,6861,1,8,0:0:0:0:
283,143,7029,1,8,0:0:0:0:
382,306,7196,2,0,L|391:363,2,48,0|0|2,3:0|0:0|0:2,0:0:0:0:
354,266,7448,1,2,0:2:0:0:
310,247,7531,1,2,0:2:0:0:
262,252,7615,1,2,0:2:0:0:
227,286,7699,2,0,L|217:353,1,48,2|2,0:2|0:2,0:0:0:0:
371,50,7867,2,0,L|381:117,1,48,2|2,0:2|0:2,0:0:0:0:
407,189,8034,6,0,B|353:183|353:183|317:165|317:165|278:175|278:175|221:169,1,192,4|0,3:1|2:0,0:0:0:0:
208,168,8705,5,8,0:0:0:0:
181,352,8872,1,0,2:0:0:0:
227,363,8956,1,0,2:0:0:0:
270,343,9040,1,0,2:0:0:0:
208,168,9207,6,0,B|187:117|192:43|192:43|174:75|142:103,1,192,0|0,3:0|0:0,0:0:0:0:
300,109,9710,1,8,0:0:0:0:
25,187,9878,2,0,B|79:194|141:235|141:235|122:204|114:162,1,192,0|0,3:0|0:0,0:0:0:0:
117,175,10381,6,0,L|104:293,1,108.000004119873
92,312,10716,5,4,0:1:0:0:
212,242,10883,1,0,0:0:0:0:
199,143,11051,5,0,0:0:0:0:
313,331,11219,1,0,0:0:0:0:
199,331,11386,5,0,0:0:0:0:
313,143,11554,1,0,0:0:0:0:
420,312,11721,5,0,0:0:0:0:
300,242,11888,1,0,0:0:0:0:
300,242,11973,1,0,0:0:0:0:
300,242,12057,2,0,L|434:228,1,120,0|0,3:0|0:0,0:0:0:0:
496,266,12308,6,0,B|517:210|517:210|506:144,1,120,0|0,3:0|0:0,0:0:0:0:
313,143,12559,6,0,B|303:83|303:83|324:27,1,120,0|0,3:0|0:0,0:0:0:0:
421,33,12811,6,0,L|410:180,1,120,0|0,3:0|0:0,0:0:0:0:
240,181,13062,6,0,L|186:172,1,48
229,188,13230,2,0,L|175:179,1,48
28,327,13397,6,0,B|57:288|57:288|149:272|149:272|198:303,1,192,4|0,3:1|0:0,0:0:0:0:
355,316,13900,2,0,L|423:309,1,48
418,308,14068,1,8,0:0:0:0:
272,282,14235,6,0,P|267:318|277:363,1,72.0000027465821,0|0,1:1|0:0,0:0:0:0:
500,336,14403,2,0,P|505:300|495:255,1,72.0000027465821,0|0,1:1|0:0,0:0:0:0:
377,48,14571,1,0,0:0:0:0:
254,188,14738,5,0,3:0:0:0:
70,161,14906,2,0,B|183:137|145:215|266:185,1,192
225,57,15325,1,0,3:0:0:0:
225,57,15409,2,0,L|222:104,1,48,8|0,0:0|0:0,0:0:0:0:
108,246,15576,1,0,0:0:0:0:
342,180,15744,2,0,L|377:182,4,32
242,362,16079,6,0,B|217:328|217:328|229:221,1,144,4|0,3:1|0:0,0:0:0:0:
100,150,16414,2,0,L|109:264,1,96
228,226,16749,6,0,B|272:216|301:188|301:188|318:260|318:260|358:238|358:238|364:287|397:343,1,288.000010986329,8|0,0:0|0:0,0:0:0:0:
495,151,17252,2,0,L|374:157,1,96,0|0,0:0|3:0,0:0:0:0:
287,323,17587,2,0,L|408:317,1,96
447,65,17923,1,0,0:0:0:0:
447,65,18006,1,0,3:0:0:0:
447,65,18090,2,0,L|313:69,1,96,8|0,0:0|0:0,0:0:0:0:
181,177,18425,5,2,0:2:0:0:
179,196,18509,1,2,0:2:0:0:
177,215,18593,1,2,0:2:0:0:
175,234,18677,1,2,0:2:0:0:
109,298,18760,6,0,B|84:154|84:154|165:178|165:178|176:235,1,288,4|0,3:1|0:0,0:0:0:0:
198,328,19431,1,8,0:0:0:0:
249,176,19598,2,0,P|287:164|327:169,1,72.0000027465821,0|0,1:0|0:0,0:0:0:0:
109,298,19766,2,0,P|71:310|31:305,1,72.0000027465821,0|0,1:0|0:0,0:0:0:0:
175,234,19934,1,0,0:0:0:0:
232,48,20101,6,0,B|292:42|292:42|357:60|357:60|435:51,1,192,0|0,3:0|0:0,0:0:0:0:
235,131,20520,1,0,0:0:0:0:
235,131,20604,2,0,L|303:123,1,48,0|0,0:0|3:0,0:0:0:0:
420,52,20772,1,8,0:0:0:0:
480,192,20939,1,0,0:0:0:0:
300,136,21107,6,0,L|134:153,1,144
78,163,21442,5,4,3:1:0:0:
206,286,21610,1,0,0:0:0:0:
206,286,21693,1,0,0:0:0:0:
206,286,21777,2,0,L|157:295,1,48,0|8,0:0|0:0,0:0:0:0:
77,314,21945,1,0,3:0:0:0:
288,351,22112,2,0,L|346:356,2,48,8|0|0,0:0|0:0|0:0,0:0:0:0:
374,248,22448,1,0,0:0:0:0:
386,260,22531,2,0,L|380:191,1,48,0|0,3:0|3:0,0:0:0:0:
303,113,22700,1,0,3:0:0:0:
467,69,22867,6,0,L|457:196,1,96,4|0,3:1|0:0,0:0:0:0:
459,164,23118,1,0,3:0:0:0:
386,260,23286,1,0,3:0:0:0:
303,113,23453,2,0,L|306:65,4,32,8|0|0|0|0,0:0|0:0|0:0|0:0|0:0,0:0:0:0:
209,248,23788,2,0,L|200:304,2,48
64,45,24124,5,4,3:1:0:0:
256,192,29487,12,0,34682,2:0:0:0:
85,266,34850,6,0,L|251:253,1,144.000005493164
405,289,35353,1,0,0:0:0:0:
405,289,35520,2,0,P|413:245|413:198,1,72.0000027465821
322,240,35855,1,0,0:0:0:0:
475,130,36023,6,0,P|426:145|319:102,1,144.000005493164
267,27,36526,1,0,0:0:0:0:
322,240,36693,1,0,0:0:0:0:
339,120,36861,6,0,L|347:55,1,36.0000013732911,0|0,0:0|2:0,0:0:0:0:
451,233,37029,2,0,L|459:168,1,36.0000013732911,0|0,0:0|2:0,0:0:0:0:
224,225,37196,2,0,L|238:112,1,108.000004119873,0|0,0:0|2:0,0:0:0:0:
240,100,37531,5,0,0:0:0:0:
53,162,37699,1,0,0:0:0:0:
53,162,37783,1,0,0:0:0:0:
53,162,37867,2,0,P|108:152|136:164,1,72.0000027465821
119,361,38202,2,0,L|99:227,1,108.000004119873
96,233,38537,1,0,0:0:0:0:
22,323,38705,1,0,0:0:0:0:
201,148,38872,5,0,0:0:0:0:
276,289,39040,2,0,L|205:284,1,72.0000027465821
338,97,39375,1,0,0:0:0:0:
96,233,39543,6,0,L|80:103,1,108.000004119873
224,81,39878,2,0,L|214:18,2,48.0000018310548
241,173,40213,5,0,0:0:0:0:
336,204,40381,1,0,0:0:0:0:
431,171,40548,1,0,0:0:0:0:
488,88,40716,5,0,0:0:0:0:
488,88,40800,1,0,0:0:0:0:
488,88,40883,1,0,0:0:0:0:
431,171,41051,1,0,0:0:0:0:
412,270,41219,1,0,0:0:0:0:
442,365,41386,5,0,0:0:0:0:
442,365,41470,1,0,0:0:0:0:
442,365,41554,1,0,0:0:0:0:
412,270,41721,1,0,0:0:0:0:
336,204,41889,1,0,0:0:0:0:
241,173,42057,1,0,0:0:0:0:
121,253,42224,5,0,0:0:0:0:
121,253,42308,1,0,0:0:0:0:
121,253,42392,2,0,L|115:325,1,48
267,268,42559,2,0,L|203:264,1,48
58,155,42727,2,0,L|122:159,1,48
311,110,42895,5,0,0:0:0:0:
333,67,42978,1,0,0:0:0:0:
378,52,43062,1,0,0:0:0:0:
423,68,43146,1,0,0:0:0:0:
447,109,43230,1,0,0:0:0:0:
437,156,43314,1,0,0:0:0:0:
403,189,43397,1,0,0:0:0:0:
382,232,43481,1,0,0:0:0:0:
394,278,43565,6,0,L|430:287,6,24
485,232,43900,2,0,L|521:223,6,24
394,278,44235,6,0,B|273:229|273:229|326:279,1,192,0|0,3:0|2:0,0:0:0:0:
129,358,44738,2,0,B|259:333|259:333|206:283,1,192,0|0,2:0|3:0,0:0:0:0:
234,38,45241,5,0,0:0:0:0:
232,57,45325,1,0,0:0:0:0:
296,106,45409,5,0,0:0:0:0:
298,125,45493,1,0,0:0:0:0:
231,175,45576,6,2,B|174:147|85:151|85:151|120:144|155:121,1,216.000008239746,4|2,3:1|0:1,0:1:0:0:
162,50,45911,1,4,0:2:0:0:
52,246,46079,1,2,0:1:0:0:
52,246,46163,1,0,0:0:0:0:
52,246,46247,2,0,P|99:233|147:242,1,72.0000027465821,8|0,0:0|0:0,0:0:0:0:
308,197,46414,1,2,0:1:0:0:
299,367,46582,2,2,L|307:204,1,144.000005493164,4|2,0:2|0:1,0:1:0:0:
452,284,46917,6,0,B|471:251|471:251|488:374,1,144,0|0,3:0|0:0,0:0:0:0:
389,97,47252,2,0,B|369:129|369:129|352:6,1,144,4|0,0:2|3:0,0:0:0:0:
421,195,47587,2,2,L|440:162,6,36.0000013732911,8|0|0|0|0|0|0,0:1|0:1|0:1|0:1|0:1|0:1|0:1,0:1:0:0:
251,215,47923,5,4,0:2:0:0:
236,216,48006,1,0,0:0:0:0:
221,218,48090,1,0,0:0:0:0:
206,220,48174,1,0,0:0:0:0:
136,175,48258,6,0,B|168:171|198:154|198:154|242:190|242:190|279:171|279:171|313:189|336:190,1,216.000008239746,0|0,3:0|0:0,0:0:0:0:
327,189,48593,1,4,0:2:0:0:
225,367,48760,2,0,L|230:287,1,72.0000027465821
130,85,48928,2,0,B|72:51|72:51|96:230,1,216.000008239746,8|0,0:0|0:0,0:0:0:0:
56,276,49263,2,0,P|115:282|159:252,1,96,4|0,0:2|0:0,0:0:0:0:
216,52,49515,1,8,0:0:0:0:
216,52,49598,6,0,L|295:61,1,72.0000027465821,0|0,3:0|0:0,0:0:0:0:
503,120,49766,2,0,L|424:129,1,72.0000027465821,0|0,3:0|0:0,0:0:0:0:
327,189,49934,2,0,B|299:221|299:221|314:333,1,144.000005493164,12|0,0:2|3:0,0:0:0:0:
398,332,50185,1,0,3:0:0:0:
398,332,50269,6,0,L|475:326,1,72.0000027465821,10|2,0:2|0:2,0:0:0:0:
327,189,50436,2,0,L|250:183,1,72.0000027465821,10|2,0:2|0:2,0:0:0:0:
446,240,50604,2,2,L|506:234,4,48.0000018310548,10|2|2|2|2,0:0|0:0|0:0|0:0|0:0,0:0:0:0:
323,289,50939,6,2,B|275:292|244:282|244:282|190:327|190:327|151:323|100:344,1,216.000008239746,4|2,3:1|0:1,0:1:0:0:
52,356,51274,1,4,0:2:0:0:
12,97,51442,1,2,0:1:0:0:
12,97,51526,1,0,0:0:0:0:
12,97,51610,2,0,P|59:113|92:111,1,72.0000027465821,8|0,0:0|0:0,0:0:0:0:
206,114,51777,1,2,0:1:0:0:
124,334,51945,2,2,L|131:173,1,144.000005493164,4|2,0:2|0:1,0:1:0:0:
274,125,52280,6,0,B|338:160|338:160|281:204,1,144,0|0,3:0|0:0,0:0:0:0:
65,181,52615,6,0,B|137:157|136:196|208:170,1,144,4|0,0:2|3:0,0:0:0:0:
302,54,52950,6,0,L|388:96,1,72.0000027465821,10|0,0:1|0:0,0:0:0:0:
323,264,53118,2,0,L|390:215,1,72.0000027465821,2|0,0:1|0:0,0:0:0:0:
495,142,53286,1,4,0:2:0:0:
495,142,53369,1,0,0:0:0:0:
495,142,53453,1,0,0:0:0:0:
495,142,53537,1,0,0:0:0:0:
415,150,53621,6,0,L|284:165,1,108.000004119873,0|0,3:0|0:0,0:0:0:0:
103,242,53956,5,0,0:0:0:0:
103,242,54068,2,0,B|94:301|94:301|104:335,1,96.0000036621095
403,340,54291,1,8,0:0:0:0:
403,340,54403,2,0,B|413:306|413:306|404:245,1,96.0000036621095
183,287,54626,2,0,B|254:266|254:266|328:293,1,144.000005493164
415,150,54878,1,0,3:0:0:0:
429,145,54962,6,0,L|357:117,1,72.0000027465821,0|0,3:0|0:0,0:0:0:0:
196,145,55129,1,0,0:0:0:0:
180,148,55213,2,0,L|337:209,1,144.000005493164,0|8,3:0|0:0,0:0:0:0:
491,231,55464,5,0,3:0:0:0:
491,231,55548,1,0,3:0:0:0:
491,231,55632,2,0,L|495:182,1,48,10|2,0:2|0:2,0:0:0:0:
457,23,55800,2,0,L|453:72,1,48,2|10,3:2|0:2,0:0:0:0:
382,273,55967,2,0,L|386:224,1,48,2|2,0:2|0:2,0:0:0:0:
348,0,56135,2,0,L|344:49,1,48,10|2,0:2|0:2,0:0:0:0:
415,150,56302,6,0,L|461:152,4,32,0|0|0|0|0,3:0|0:0|0:0|0:0|0:0,0:0:0:0:
157,208,56638,1,0,2:0:0:0:
157,208,56805,2,0,L|151:131,1,72.0000027465821,0|0,2:0|2:0,0:0:0:0:
247,168,56973,2,0,L|328:160,1,72.0000027465821,12|0,0:1|0:0,0:0:0:0:
60,260,57140,2,2,B|29:211|29:211|58:97,1,144.000005493164,0|4,0:1|0:2,0:1:0:0:
161,345,57476,1,2,0:1:0:0:
295,193,57643,6,0,B|218:171|233:229|148:205,1,144,0|0,3:0|0:0,0:0:0:0:
267,277,57978,2,0,B|343:298|328:240|413:264,1,144,4|0,0:2|3:0,0:0:0:0:
486,209,58314,6,2,P|446:174|392:170,1,96.0000036621095,8|0,0:1|0:1,0:1:0:0:
412,358,58537,2,2,P|462:340|492:296,1,96.0000036621095,0|4,0:1|0:2,0:1:0:0:
326,219,58760,2,2,P|315:271|339:319,1,96.0000036621095,0|0,0:1|0:1,0:1:0:0:
405,262,58984,6,0,B|414:94|414:94|433:144,1,216.000008239746,0|0,3:0|0:0,0:0:0:0:
486,209,59319,1,4,0:2:0:0:
267,277,59487,2,0,P|226:298|184:299,1,72.0000027465821
9,241,59654,6,0,B|49:196|49:196|150:187|150:187|201:227,1,216.000008239746,8|0,0:0|0:0,0:0:0:0:
267,277,59990,2,0,B|278:228|278:228|268:175,1,96,4|0,0:2|0:0,0:0:0:0:
78,299,60241,1,8,0:0:0:0:
78,299,60325,6,0,L|159:290,1,72.0000027465821,0|0,3:0|0:0,0:0:0:0:
412,146,60492,2,0,L|331:137,1,72.0000027465821,0|0,3:0|0:0,0:0:0:0:
205,88,60660,2,0,B|175:129|175:129|196:239,1,144.000005493164,12|0,0:2|3:0,0:0:0:0:
360,332,60911,1,0,3:0:0:0:
360,332,60995,6,0,L|373:240,1,72.0000027465821,10|2,0:2|0:2,0:0:0:0:
113,212,61163,2,0,L|97:133,1,72.0000027465821,10|2,0:2|0:2,0:0:0:0:
400,76,61330,2,2,L|409:26,4,48.0000018310548,10|2|2|2|2,0:0|0:0|0:0|0:0|0:0,0:0:0:0:
349,155,61666,6,0,L|186:166,1,144,0|0,3:1|2:0,0:0:0:0:
178,155,62001,5,2,2:0:0:0:
225,151,62085,1,2,2:0:0:0:
272,147,62168,1,2,2:0:0:0:
319,143,62252,1,2,2:0:0:0:
368,141,62336,6,0,L|446:136,1,72.0000027465821,12|0,0:1|0:0,0:0:0:0:
332,360,62504,2,2,B|302:318|302:318|321:215,1,144.000005493164,0|4,0:1|0:2,0:1:0:0:
470,334,62839,1,2,0:1:0:0:
318,227,63006,6,0,P|246:220|180:264,1,144,0|0,3:0|0:0,0:0:0:0:
55,284,63341,2,0,P|127:291|193:247,1,144,4|0,0:2|3:0,0:0:0:0:
264,308,63677,6,0,P|227:340|190:342,1,72.0000027465821,10|0,0:1|0:0,0:0:0:0:
118,196,63844,2,0,P|155:164|192:162,1,72.0000027465821,2|0,0:1|0:0,0:0:0:0:
186,255,64012,5,4,0:2:0:0:
186,255,64096,1,0,0:0:0:0:
186,255,64179,1,0,0:0:0:0:
186,255,64263,1,0,0:0:0:0:
192,170,64347,6,0,L|197:43,1,108.000004119873,0|0,3:0|2:0,0:0:0:0:
311,40,64682,1,0,2:0:0:0:
311,40,64766,1,0,2:0:0:0:
311,40,64850,2,0,L|316:97,1,36.0000013732911,0|0,2:0|2:0,0:0:0:0:
331,158,65017,5,8,0:0:0:0:
92,283,65185,1,0,0:0:0:0:
92,283,65269,1,8,0:0:0:0:
395,346,65436,1,0,0:0:0:0:
395,346,65520,1,8,0:0:0:0:
475,236,65688,5,8,0:0:0:0:
351,271,65855,1,0,3:0:0:0:
327,277,65939,1,0,3:0:0:0:
301,283,66023,2,0,L|319:218,1,48,8|0,0:0|0:0,0:0:0:0:
353,101,66191,5,8,0:0:0:0:
439,198,66358,1,0,3:0:0:0:
457,216,66442,1,0,3:0:0:0:
475,236,66526,2,0,L|409:252,1,48,8|0,0:0|0:0,0:0:0:0:
223,340,66693,2,0,B|202:296|202:296|222:182,1,144,8|0,0:0|2:0,0:0:0:0:
249,120,67029,6,0,L|151:130,1,72.0000027465821,4|0,3:1|2:0,0:0:0:0:
30,193,67364,6,2,B|89:229|179:218|179:218|146:232|109:266,1,216.000008239746,0|0,0:1|0:1,0:1:0:0:
304,314,67699,2,0,P|252:293|199:302,1,96,8|0,0:0|0:0,0:0:0:0:
80,325,67950,1,0,0:0:0:0:
80,325,68034,2,0,P|117:335|135:334,1,48,2|0,0:2|0:0,0:0:0:0:
257,209,68202,2,0,P|256:175|246:144,1,48,2|0,0:2|0:0,0:0:0:0:
214,53,68369,5,4,3:2:0:0:
419,113,68537,1,0,0:0:0:0:
419,113,68621,1,0,0:0:0:0:
419,113,68705,2,0,P|390:118|358:141,1,48
257,209,68872,2,0,P|286:203|318:181,1,48,4|0,0:2|3:0,0:0:0:0:
445,40,69040,2,2,P|392:38|298:93,1,144,8|2,0:1|2:1,0:1:0:0:
238,124,69375,2,0,P|184:129|232:93,1,144,4|0,2:2|2:1,0:1:0:0:
311,77,69710,6,0,B|320:119|336:149|336:149|311:208|311:208|337:247|339:310,1,216.000008239746,4|0,3:1|0:0,0:0:0:0:
118,294,70045,2,2,B|197:311|248:271|248:271|249:316|274:361,1,216.000008239746,0|0,0:1|0:1,0:1:0:0:
427,288,70381,2,0,P|382:270|335:277,1,96,8|0,0:0|0:0,0:0:0:0:
151,218,70632,1,0,3:0:0:0:
151,218,70716,2,0,P|186:217|209:207,1,48,2|0,0:2|0:0,0:0:0:0:
423,194,70883,2,0,P|391:186|351:188,1,48,2|8,3:2|0:2,0:2:0:0:
229,118,71051,5,4,3:2:0:0:
229,118,71135,1,0,0:0:0:0:
229,118,71219,1,0,0:0:0:0:
298,305,71386,2,0,L|284:191,1,96,8|4,0:0|0:2,0:0:0:0:
286,209,71638,1,0,0:0:0:0:
286,209,71721,6,0,P|242:223|199:221,1,72.0000027465821,2|2,3:2|0:2,0:0:0:0:
324,32,71889,2,0,P|359:34|393:46,1,72.0000027465821,2|2,0:2|0:2,0:0:0:0:
414,151,72057,2,2,L|467:159,4,48.0000018310548,14|2|2|2|2,0:2|0:0|0:0|0:0|0:0,0:0:0:0:
300,127,72392,6,0,L|229:118,1,72.0000027465821,4|0,3:1|2:0,0:0:0:0:
28,198,72727,6,2,B|87:180|138:103|138:103|136:139|148:176,1,216.000008239746,0|0,0:1|0:1,0:1:0:0:
296,262,73062,2,0,P|241:235|202:239,1,96,8|0,0:0|0:0,0:0:0:0:
84,273,73314,1,0,0:0:0:0:
84,273,73397,2,0,P|111:257|129:236,1,48,2|0,0:2|0:0,0:0:0:0:
216,95,73565,2,0,P|215:132|222:161,1,48,2|0,0:2|0:0,0:0:0:0:
230,317,73733,5,4,3:2:0:0:
385,200,73900,1,0,0:0:0:0:
385,200,73984,1,0,0:0:0:0:
385,200,74068,2,0,P|425:198|374:221,1,144,0|0,0:0|3:0,0:0:0:0:
378,329,74403,6,0,B|416:335|416:335|453:319,1,72.0000027465821,10|0,0:1|0:0,0:0:0:0:
285,228,74571,2,0,B|247:234|247:234|210:218,1,72.0000027465821,2|0,0:1|0:0,0:0:0:0:
346,118,74738,5,4,0:2:0:0:
348,98,74822,1,0,0:0:0:0:
350,78,74906,1,0,0:0:0:0:
353,59,74990,1,0,0:0:0:0:
272,58,75073,6,0,L|167:72,1,96,0|0,3:0|0:0,0:0:0:0:
151,60,75325,2,0,L|159:126,1,48,8|0,0:0|0:0,0:0:0:0:
239,294,75576,2,0,B|254:248|254:248|243:195,1,96,0|0,3:0|0:0,0:0:0:0:
72,177,75828,2,0,B|57:223|57:223|68:276,1,96,0|0,3:0|0:0,0:0:0:0:
70,288,76079,2,0,L|135:273,1,48,10|0,0:2|0:0,0:0:0:0:
235,183,76247,2,0,L|300:198,1,48,2|0,0:2|3:0,0:0:0:0:
435,267,76414,5,0,3:0:0:0:
338,303,76582,2,0,L|314:330,4,24,0|0|8|0|0,0:0|0:0|0:0|0:0|0:0,0:0:0:0:
354,197,76917,1,0,3:0:0:0:
419,368,77085,5,0,0:0:0:0:
419,368,77168,1,0,3:0:0:0:
261,238,77336,1,0,3:0:0:0:
261,238,77420,1,10,0:2:0:0:
448,166,77587,1,10,0:2:0:0:
364,70,77755,6,0,B|210:57|210:57|243:75|262:124,1,216.000008239746,4|0,3:1|0:1,0:1:0:0:
179,335,78090,2,0,L|173:390,2,48,8|2|2,0:0|0:2|0:2,0:0:0:0:
174,136,78425,6,0,B|163:186|163:186|178:231,1,96,2|0,0:2|3:0,0:0:0:0:
226,263,78677,2,0,B|176:252|176:252|131:267,1,96,2|0,0:2|0:0,0:0:0:0:
100,281,78928,1,2,0:2:0:0:
398,191,79096,5,4,3:2:0:0:
174,136,79263,1,2,0:2:0:0:
323,292,79431,2,0,L|315:227,2,48,8|2|6,0:0|0:2|0:2,0:0:0:0:
467,61,79766,1,2,0:1:0:0:
467,61,79850,1,0,0:0:0:0:
467,61,79934,2,0,L|464:126,1,48,2|0,3:1|0:0,0:0:0:0:
372,171,80101,2,0,P|324:156|273:165,1,96,12|0,0:2|0:0,0:0:0:0:
27,238,80436,6,0,B|64:241|91:224|91:224|131:254|131:254|171:236|171:236|239:250,1,216.000008239746,4|0,3:1|0:0,0:0:0:0:
279,162,80772,2,0,L|271:99,2,48,8|2|2,0:0|0:2|0:2,0:0:0:0:
321,337,81107,2,0,P|309:290|322:232,1,96,2|0,0:2|3:0,0:0:0:0:
439,206,81358,2,0,P|473:260|471:315,1,96,2|0,0:2|0:0,0:0:0:0:
475,308,81610,2,0,L|411:294,1,48,2|0,0:2|0:0,0:0:0:0:
232,323,81777,5,4,3:2:0:0:
367,86,81945,1,2,0:2:0:0:
133,241,82112,2,0,L|192:235,2,48,8|2|4,0:0|0:2|0:2,0:0:0:0:
329,265,82448,5,2,0:2:0:0:
334,246,82531,1,2,0:2:0:0:
294,183,82615,5,2,3:2:0:0:
299,164,82698,1,2,0:2:0:0:
264,99,82783,6,2,L|280:51,4,32,14|2|2|2|2,0:2|0:0|0:0|0:0|0:0,0:0:0:0:
208,164,83118,5,4,3:1:0:0:
71,49,83453,1,4,3:2:0:0:
50,285,83788,2,0,B|120:256|120:256|199:277,1,144,0|0,3:0|0:0,0:0:0:0:
173,353,84124,2,0,P|116:369|70:351,1,96,4|0,3:2|0:0,0:0:0:0:
304,164,84459,5,0,3:0:0:0:
441,49,84794,1,4,3:2:0:0:
462,285,85129,2,0,B|392:256|392:256|313:277,1,144,0|0,3:0|0:0,0:0:0:0:
339,353,85465,2,0,P|396:369|442:351,1,96,4|0,3:2|0:0,0:0:0:0:
462,285,85716,1,0,0:0:0:0:
462,285,85800,5,0,0:0:0:0:
324,149,85967,1,0,0:0:0:0:
444,76,86135,5,0,0:0:0:0:
339,353,86302,1,0,0:0:0:0:
245,195,86470,5,0,0:0:0:0:
211,160,86554,1,0,0:0:0:0:
163,155,86638,1,0,0:0:0:0:
124,183,86721,1,0,0:0:0:0:
109,228,86805,1,0,0:0:0:0:
120,274,86889,1,0,0:0:0:0:
158,302,86973,1,0,0:0:0:0:
206,300,87057,1,0,0:0:0:0:
243,270,87140,6,0,B|347:257|347:257|309:290,1,144.000005493164,0|0,3:0|0:0,0:0:0:0:
429,357,87392,2,0,B|404:274|451:301|419:198,1,144.000005493164,0|0,3:0|0:0,0:0:0:0:
348,167,87643,2,0,P|436:165|472:108,1,144.000005493164,0|0,3:0|0:0,0:0:0:0:
432,26,87895,2,0,P|344:28|308:85,1,144.000005493164,0|0,3:0|0:0,0:0:0:0:
312,67,88146,5,8,0:0:0:0:
393,97,88314,1,0,0:0:0:0:
233,143,88481,6,0,B|165:135|165:135|114:156|114:156|45:149,1,192,4|0,3:1|2:0,0:0:0:0:
33,147,89152,1,8,0:0:0:0:
150,355,89319,2,0,B|146:304|178:222|178:222|146:244|117:248,1,192
40,319,89822,5,0,3:0:0:0:
290,226,89990,2,0,B|312:270|312:270|300:333,1,96
369,136,90325,1,0,0:0:0:0:
369,136,90409,1,0,3:0:0:0:
369,136,90492,2,0,B|347:92|347:92|359:29,1,96,8|0,0:0|0:0,0:0:0:0:
151,192,90828,5,0,0:0:0:0:
169,194,90911,1,0,0:0:0:0:
209,252,90995,5,0,0:0:0:0:
227,250,91078,1,0,0:0:0:0:
290,226,91163,6,0,B|265:219|265:219|243:226|243:226|216:217|216:217|194:233|194:233|167:215|167:215|143:228|143:228|120:220|120:220|73:228,1,216.000008239746,4|0,3:1|0:0,0:0:0:0:
22,273,91498,2,0,B|5:230|5:230|19:177,1,96
74,123,91749,1,0,0:0:0:0:
74,123,91833,2,0,L|129:136,1,48,8|0,0:0|0:0,0:0:0:0:
156,303,92001,2,0,L|211:290,1,48
284,165,92168,2,0,L|339:178,1,48
421,241,92336,5,0,0:0:0:0:
338,357,92504,2,0,P|316:316|342:241,1,96,0|0,3:0|0:0,0:0:0:0:
357,64,92839,1,0,0:0:0:0:
494,181,93006,1,0,0:0:0:0:
494,181,93090,1,0,3:0:0:0:
494,181,93174,2,0,B|428:201|428:201|359:157,1,144,8|0,0:0|0:0,0:0:0:0:
211,90,93509,5,2,0:2:0:0:
208,109,93593,1,2,0:2:0:0:
205,128,93677,1,2,0:2:0:0:
202,146,93760,1,2,0:2:0:0:
270,200,93844,6,0,B|294:84|294:84|172:115|172:115|209:153,1,288,4|0,3:1|0:0,0:0:0:0:
209,335,94515,1,8,0:0:0:0:
26,244,94682,2,0,L|183:232,1,144
169,233,95017,1,0,0:0:0:0:
106,329,95185,5,0,3:0:0:0:
93,151,95353,1,0,0:0:0:0:
265,225,95520,2,0,L|169:232,1,96
84,241,95772,1,0,3:0:0:0:
84,241,95855,1,8,0:0:0:0:
364,216,96023,1,0,0:0:0:0:
353,324,96191,6,0,L|366:206,1,108.000004119873
370,184,96526,5,4,3:1:0:0:
270,78,96693,1,0,0:0:0:0:
289,81,96777,1,0,0:0:0:0:
308,84,96861,1,8,0:0:0:0:
472,188,97029,1,0,0:0:0:0:
265,173,97196,5,0,3:0:0:0:
478,82,97364,1,0,0:0:0:0:
459,85,97448,1,0,0:0:0:0:
440,88,97531,2,0,L|437:142,1,48,8|0,0:0|0:0,0:0:0:0:
343,249,97699,2,0,L|346:202,1,48
308,84,97867,5,0,3:0:0:0:
113,133,98034,1,0,0:0:0:0:
113,133,98118,1,0,0:0:0:0:
113,133,98202,1,8,0:0:0:0:
25,79,98369,5,0,0:0:0:0:
207,165,98537,1,0,3:0:0:0:
216,117,98621,1,8,0:0:0:0:
199,71,98705,1,0,3:0:0:0:
128,224,98872,5,8,0:0:0:0:
128,224,99040,2,0,L|106:281,1,48,0|8,0:0|0:0,0:0:0:0:
24,297,99207,6,0,B|81:297|81:297|118:283|118:283|155:296|155:296|217:296,1,192,4|8,3:1|0:0,0:0:0:0:
339,192,99710,1,0,0:0:0:0:
339,192,99794,1,0,0:0:0:0:
339,192,99878,1,0,0:0:0:0:
496,146,100045,6,0,B|474:132|474:132|426:142,1,72.0000027465821,0|0,3:0|0:0,0:0:0:0:
368,273,100213,2,0,B|346:287|346:287|298:277,1,72.0000027465821,8|0,0:0|0:0,0:0:0:0:
237,197,100381,1,0,0:0:0:0:
105,357,100548,6,0,L|253:345,1,144.000005493164,0|0,3:0|0:0,0:0:0:0:
14,128,100883,2,0,L|162:140,1,144.000005493164,8|0,0:0|0:0,0:0:0:0:
157,139,101135,1,0,0:0:0:0:
157,139,101219,2,0,P|161:188|156:212,1,72.0000027465821
248,345,101386,2,0,P|244:296|249:272,1,72.0000027465821,0|0,3:0|0:0,0:0:0:0:
383,177,101554,2,0,L|382:128,4,32,8|0|0|0|0,0:0|0:0|0:0|0:0|0:0,0:0:0:0:
461,283,101889,6,0,B|396:310|396:310|325:290,1,144,4|0,3:1|0:0,0:0:0:0:
405,54,102224,2,0,P|459:77|490:123,1,96,8|0,0:0|0:0,0:0:0:0:
365,216,102559,6,0,P|421:158|343:178,1,216.000008239746,0|0,0:0|2:0,0:0:0:0:
325,290,102895,1,8,0:0:0:0:
250,136,103062,6,0,L|244:22,1,96,0|0,0:0|3:0,0:0:0:0:
141,265,103397,2,0,L|135:379,1,96,0|8,0:0|0:0,0:0:0:0:
38,151,103733,1,0,0:0:0:0:
38,151,103816,1,0,0:0:0:0:
38,151,103900,2,0,L|150:159,1,96,0|0,0:0|3:0,0:0:0:0:
382,335,104235,5,10,0:2:0:0:
401,332,104319,1,2,0:2:0:0:
421,328,104403,1,2,0:2:0:0:
441,325,104487,1,2,0:2:0:0:
489,267,104571,6,0,B|449:240|449:240|351:253|351:253|324:290,1,192,4|8,3:1|0:0,0:0:0:0:
127,335,105073,1,0,0:0:0:0:
113,288,105157,1,0,0:0:0:0:
131,242,105241,1,0,0:0:0:0:
216,371,105409,6,0,L|220:299,1,72.0000027465821,0|0,3:0|0:0,0:0:0:0:
273,144,105576,2,0,L|277:215,1,72.0000027465821,8|0,0:0|0:0,0:0:0:0:
324,289,105744,1,0,0:0:0:0:
148,220,105911,6,0,B|101:196|101:196|85:101,1,144,0|0,3:0|0:0,0:0:0:0:
107,70,106247,1,8,0:0:0:0:
148,220,106414,6,0,B|150:272|150:272|76:333,1,144
38,322,106749,1,0,3:0:0:0:
148,220,106917,6,0,B|191:191|191:191|282:225,1,144,8|0,0:0|0:0,0:0:0:0:
324,289,107252,5,4,3:1:0:0:
483,212,107420,1,0,0:0:0:0:
317,140,107587,1,8,0:0:0:0:
424,276,107755,1,0,0:0:0:0:
409,262,107839,2,0,P|394:212|414:155,1,96,0|0,3:0|0:0,0:0:0:0:
417,150,108090,1,0,3:0:0:0:
119,138,108258,5,8,0:0:0:0:
110,124,108341,2,0,L|186:132,1,48,0|0,3:0|3:0,0:0:0:0:
232,187,108509,1,0,3:0:0:0:
323,52,108677,2,0,L|208:65,1,96,4|0,3:1|0:0,0:0:0:0:
208,74,108928,5,0,3:0:0:0:
340,170,109096,1,0,3:0:0:0:
143,244,109263,6,0,L|101:250,4,32,8|0|0|0|0,0:0|0:0|0:0|0:0|0:0,0:0:0:0:
369,302,109598,2,0,L|423:309,2,48
255,355,109934,6,0,B|216:306|287:222|257:187|257:187|219:228|292:299,1,288,4|2,3:1|0:2,0:0:0:0:
369,302,110604,1,8,0:0:0:0:
475,103,110772,2,0,P|412:100|360:128,1,96,2|2,0:2|0:2,0:0:0:0:
188,207,111107,2,0,L|135:200,2,48,0|2|0,0:0|0:2|3:0,0:0:0:0:
312,218,111442,1,2,0:2:0:0:
64,125,111610,5,2,0:2:0:0:
64,125,111693,1,2,0:2:0:0:
64,125,111777,2,0,L|68:184,1,48,2|0,0:2|3:0,0:0:0:0:
188,207,111945,1,8,0:0:0:0:
77,361,112112,2,0,L|71:243,1,96,0|2,0:0|0:2,0:0:0:0:
188,207,112364,1,0,0:0:0:0:
235,203,112448,1,0,0:0:0:0:
282,199,112531,1,0,0:0:0:0:
330,195,112615,6,0,B|381:233|381:233|371:327,1,144,2|0,0:2|0:0,0:0:0:0:
449,349,112950,6,0,L|458:275,1,72.0000027465821,2|2,3:1|0:2,0:0:0:0:
330,195,113118,2,2,L|321:121,1,72.0000027465821,2|2,0:1|0:2,0:2:0:0:
411,31,113286,1,8,0:0:0:0:
444,143,113453,5,0,0:0:0:0:
444,143,113537,1,0,0:0:0:0:
444,143,113621,2,0,L|438:209,1,48
166,255,113788,6,0,B|296:223|246:325|391:273,1,216.000008239746,4|0,3:1|0:0,0:0:0:0:
371,279,114124,1,0,3:0:0:0:
198,345,114291,1,8,0:0:0:0:
330,195,114459,5,0,3:0:0:0:
330,195,114543,1,0,3:0:0:0:
330,195,114626,2,2,L|340:125,2,48,10|2|2,0:2|0:2|0:2,0:2:0:0:
170,77,114878,2,2,L|180:147,2,48,10|2|2,0:2|0:2|0:2,0:2:0:0:
345,65,115129,2,2,L|352:10,1,48,10|2,0:2|0:2,0:2:0:0:
248,194,115297,6,0,P|186:221|100:191,1,144,4|0,3:1|0:0,0:0:0:0:
39,149,115632,2,0,L|33:270,1,96,2|2,0:2|0:2,0:0:0:0:
349,374,115967,6,0,B|321:313|334:232|334:232|312:268|280:287,1,216.000008239746,8|0,0:0|0:0,0:0:0:0:
206,290,116302,5,2,3:2:0:0:
430,265,116470,2,0,L|499:259,2,48,0|2|0,0:0|0:2|0:0,0:0:0:0:
281,120,116805,1,2,0:2:0:0:
322,95,116889,1,0,0:0:0:0:
370,94,116973,1,2,0:2:0:0:
413,115,117057,1,2,0:2:0:0:
435,156,117140,1,0,3:0:0:0:
337,280,117308,2,0,L|345:157,1,96,10|0,0:2|0:0,0:0:0:0:
154,101,117643,1,2,0:2:0:0:
206,290,117811,1,2,0:2:0:0:
38,211,117978,6,0,L|197:197,1,144,4|0,3:1|0:0,0:0:0:0:
281,120,118314,2,2,L|276:178,1,48,2|2,0:1|0:2,0:2:0:0:
296,130,118481,2,2,L|291:188,1,48,2|2,0:1|0:2,0:2:0:0:
310,273,118649,6,0,B|344:265|344:265|367:233,1,64,8|0,0:0|0:0,0:0:0:0:
462,350,118872,2,0,B|438:324|438:324|398:320,1,64
449,178,119096,2,0,B|438:211|438:211|455:247,1,64
309,273,119319,6,2,B|245:294|169:265|169:265|202:293|217:335,1,216.000008239746,4|0,3:1|0:1,0:1:0:0:
127,345,119654,1,8,0:0:0:0:
94,72,119822,2,2,B|84:226|84:226|100:192|133:177,1,216.000008239746,4|0,3:1|0:1,0:1:0:0:
192,142,120157,1,8,0:0:0:0:
6,235,120325,2,2,B|52:235|88:217|88:217|140:255|140:255|172:246|206:256,1,216.000008239746,4|0,3:1|0:1,0:1:0:0:
205,256,120660,5,0,3:0:0:0:
375,79,120828,2,0,P|447:105|380:143,1,192,0|0,2:0|0:0,0:0:0:0:
295,114,121330,2,0,B|287:179|287:179|311:236|311:236|302:312,1,192,10|2,0:2|0:2,0:0:0:0:
214,347,121833,6,0,L|157:348,2,48,0|2|0,0:0|0:2|3:0,0:0:0:0:
411,336,122168,1,2,0:2:0:0:
180,133,122336,1,2,0:2:0:0:
180,133,122420,1,2,0:2:0:0:
180,133,122504,2,0,L|191:191,1,48,2|0,0:2|3:0,0:0:0:0:
205,256,122671,1,8,0:0:0:0:
79,186,122839,1,2,0:2:0:0:
310,64,123006,2,0,L|351:56,4,32,2|0|0|0|0,0:2|0:0|0:0|0:0|0:0,0:0:0:0:
289,68,123341,6,0,B|259:112|259:112|278:209,1,144,2|0,0:2|0:0,0:0:0:0:
205,256,123677,2,0,P|163:266|120:255,1,72.0000027465821,0|0,3:0|0:0,0:0:0:0:
342,134,123844,2,0,P|384:124|427:135,1,72.0000027465821
276,201,124012,1,10,0:1:0:0:
326,369,124179,2,2,B|377:329|423:315|423:315|370:307|323:278,1,216.000008239746,0|2,0:1|0:1,0:1:0:0:
276,201,124515,6,2,B|293:45|293:45|324:139,1,216.000008239746,4|0,3:1|0:1,0:1:0:0:
325,279,124850,1,10,0:2:0:0:
198,102,125017,1,0,0:0:0:0:
57,218,125185,5,2,3:2:0:0:
57,218,125269,1,2,3:2:0:0:
57,218,125353,2,2,L|105:214,1,48,10|2,0:2|0:2,0:2:0:0:
174,166,125520,2,2,L|222:170,1,48,2|2,3:2|0:2,0:2:0:0:
329,229,125688,5,10,0:2:0:0:
375,242,125772,1,2,0:2:0:0:
421,233,125855,1,2,0:2:0:0:
457,201,125939,1,2,0:2:0:0:
433,124,126023,6,0,B|480:77|480:77|498:172|498:172|460:212|460:212|473:287,1,288,4|2,3:1|0:2,0:0:0:0:
404,347,126693,1,8,0:0:0:0:
259,165,126861,6,0,L|254:85,1,72.0000027465821,2|0,1:2|0:0,0:0:0:0:
353,198,127029,2,0,L|358:118,1,72.0000027465821,2|0,1:2|0:0,0:0:0:0:
287,266,127196,1,2,0:2:0:0:
104,245,127364,6,0,B|211:215|183:300|293:264,1,192,0|2,3:0|0:2,0:0:0:0:
269,354,127783,1,2,0:2:0:0:
269,354,127867,2,0,P|231:354|203:346,1,48,2|0,0:2|3:0,0:0:0:0:
136,330,128034,1,8,0:0:0:0:
259,166,128202,1,2,0:2:0:0:
180,99,128369,5,2,0:2:0:0:
160,98,128453,1,0,0:0:0:0:
140,97,128537,1,2,0:2:0:0:
120,96,128621,1,0,0:0:0:0:
72,94,128705,5,4,0:1:0:0:
268,68,128872,1,0,0:0:0:0:
99,178,129040,1,0,0:0:0:0:
244,199,129207,1,0,0:0:0:0:
80,284,129375,2,0,L|26:290,1,48
260,277,129543,2,0,L|317:285,1,48
170,350,129710,5,0,0:0:0:0:
170,350,129794,1,0,0:0:0:0:
170,350,129878,2,0,L|175:278,1,48
326,203,130045,6,0,L|387:210,2,48,0|0|0,3:0|0:0|0:0,0:0:0:0:
487,86,130297,2,0,L|426:93,2,48,0|0|0,3:0|0:0|0:0,0:0:0:0:
264,121,130548,1,0,3:0:0:0:
264,121,130632,1,0,0:0:0:0:
264,121,130716,2,0,L|177:116,1,72.0000027465821,8|0,0:0|2:0,0:0:0:0:
331,189,131051,5,0,0:0:0:0:
350,222,131135,1,0,0:0:0:0:
353,260,131219,1,0,0:0:0:0:
338,295,131302,1,0,0:0:0:0:
268,248,131386,6,2,B|302:255|334:238|334:238|372:265|372:265|404:249|404:249|430:257|430:257|487:249,1,216.000008239746,4|0,3:1|0:1,0:1:0:0:
181,293,131721,2,0,B|167:250|167:250|181:202,1,96,4|0,0:2|0:0,0:0:0:0:
162,107,131973,1,0,0:0:0:0:
162,107,132057,2,0,L|103:109,1,48,8|0,0:0|0:0,0:0:0:0:
92,196,132224,2,0,L|33:198,1,48
276,134,132392,1,4,0:2:0:0:
276,134,132476,1,0,0:0:0:0:
276,134,132559,2,0,L|349:132,1,48
447,115,132727,1,0,3:0:0:0:
447,115,133062,6,2,B|454:84|454:84|444:45,1,72.0000027465821,4|2,0:2|0:1,0:1:0:0:
188,105,133230,2,2,B|180:135|180:135|190:174,1,72.0000027465821,0|0,0:1|3:1,0:1:0:0:
309,215,133397,2,2,B|452:198|452:198|400:255,1,216.000008239746,8|0,0:1|0:1,0:1:0:0:
219,258,133733,2,2,L|126:267,1,72.0000027465821,4|0,0:2|0:1,0:1:0:0:
276,134,133900,2,2,L|369:125,1,72.0000027465821,0|0,0:1|0:1,0:1:0:0:
301,306,134068,6,0,L|308:347,8,24,0|0|0|0|0|0|0|0|4,3:0|0:0|0:0|0:0|0:0|0:0|0:0|0:0|0:0,0:0:0:0:
447,206,134571,1,0,0:0:0:0:
447,206,134654,1,0,0:0:0:0:
447,206,134738,2,0,L|389:205,1,48,8|0,0:0|0:0,0:0:0:0:
178,149,134906,2,0,L|236:148,1,48
291,81,135073,2,0,B|321:122|321:122|306:233,1,144,4|8,0:2|0:0,0:0:0:0:
322,243,135409,6,0,L|330:156,1,72.0000027465821,0|0,3:0|0:0,0:0:0:0:
348,23,135576,1,0,3:0:0:0:
107,106,135744,1,12,0:2:0:0:
190,243,135911,5,0,3:0:0:0:
190,243,135995,1,0,3:0:0:0:
190,243,136079,2,0,L|182:156,1,72.0000027465821,8|0,0:0|0:0,0:0:0:0:
164,23,136246,1,8,0:0:0:0:
405,106,136414,1,12,0:2:0:0:
266,312,136582,2,0,P|236:333|197:338,1,72.0000027465821
104,305,136749,6,2,B|154:291|189:240|189:240|222:292|269:313,1,216.000008239746,0|0,3:1|0:1,0:1:0:0:
97,215,137085,2,0,B|84:168|84:168|99:122,1,96,4|0,0:2|0:0,0:0:0:0:
176,75,137336,1,0,0:0:0:0:
176,75,137420,6,0,L|234:83,1,48,8|0,0:0|0:0,0:0:0:0:
348,148,137587,2,0,L|290:156,1,48
190,243,137755,2,0,L|297:254,1,96,4|0,0:2|0:0,0:0:0:0:
470,271,138090,5,0,3:0:0:0:
470,271,138425,2,2,B|481:233|481:233|475:178,1,72.0000027465821,4|0,0:2|0:1,0:1:0:0:
237,168,138593,2,2,B|225:205|225:205|232:261,1,72.0000027465821,0|0,0:1|3:1,0:1:0:0:
368,260,138760,6,2,P|366:178|332:255,1,216.000008239746,8|0,0:1|0:1,0:1:0:0:
256,340,139096,6,2,L|328:331,1,72.0000027465821,4|0,0:2|0:1,0:1:0:0:
324,99,139263,2,2,L|246:89,1,72.0000027465821,0|0,0:1|0:1,0:1:0:0:
104,72,139431,6,0,P|60:120|76:196,1,128,4|0,3:3|0:0,0:0:0:0:
80,260,139766,2,0,L|152:244,1,64,2|0,0:1|0:0,0:0:0:0:
224,226,139990,1,2,0:1:0:0:
193,83,140101,2,0,L|205:151,1,64,8|2,0:0|0:1,0:0:0:0:
224,226,140325,1,0,0:0:0:0:
311,259,140436,2,2,P|355:211|339:135,1,128,0|0,0:1|3:1,0:1:0:0:
466,77,140772,6,0,B|434:118|434:118|451:220,1,128,0|0,3:0|3:0,0:0:0:0:
471,288,141107,1,2,0:1:0:0:
311,259,141219,1,0,3:0:0:0:
390,273,141330,1,2,3:1:0:0:
232,249,141442,2,0,L|221:180,1,64,8|2,0:0|0:1,0:0:0:0:
203,99,141666,1,0,3:0:0:0:
306,176,141777,2,2,B|338:135|338:135|321:33,1,128,0|0,0:1|0:1,0:1:0:0:
121,206,142112,6,2,L|115:381,1,144.000005493164,4|0,3:1|0:1,0:1:0:0:
116,349,142615,6,0,L|118:285,1,48
58,132,142783,2,0,P|137:111|205:152,1,144.000005493164,8|0,0:0|0:0,0:0:0:0:
273,256,143034,1,0,0:0:0:0:
273,256,143118,2,0,P|249:252|228:240,1,48,4|0,0:2|0:0,0:0:0:0:
79,208,143286,2,0,P|117:193|147:197,1,48
283,100,143453,1,0,3:0:0:0:
283,100,143788,6,2,B|271:136|271:136|286:184,1,72.0000027465821,4|0,0:2|0:1,0:1:0:0:
483,278,143956,2,2,B|495:242|495:242|480:194,1,72.0000027465821,0|0,0:1|3:1,0:1:0:0:
501,119,144124,6,2,B|420:104|439:153|351:133,1,144.000005493164,8|0,0:1|0:1,0:1:0:0:
228,240,144375,2,2,P|305:256|369:202,1,144.000005493164,8|0,0:1|0:1,0:1:0:0:
361,135,144626,2,2,L|357:42,1,72.0000027465821,8|0,0:1|0:1,0:1:0:0:
426,305,144794,6,0,L|421:353,6,36.0000013732911,0|0|0|0|0|0|0,3:0|0:0|0:0|0:0|0:0|0:0|0:0,0:0:0:0:
446,286,145464,6,0,B|393:290|357:265|357:265|319:314|319:314|266:296|266:296|236:327|170:346,1,288,8|0,0:1|0:1,0:1:0:0:
116,347,146051,1,8,0:0:0:0:
116,347,146135,6,0,L|125:262,1,72.0000027465821,0|0,3:0|0:0,0:0:0:0:
61,76,146302,2,0,L|70:161,1,72.0000027465821,0|0,3:0|0:0,0:0:0:0:
16,219,146470,2,0,B|52:184|52:184|163:197,1,144.000005493164,12|0,0:2|3:0,0:0:0:0:
203,104,146721,1,0,3:0:0:0:
203,104,146805,6,2,L|288:91,1,72.0000027465821,10|2,0:2|0:2,0:2:0:0:
279,296,146973,2,2,L|207:285,1,72.0000027465821,10|2,0:2|0:2,0:2:0:0:
258,193,147140,5,14,0:2:0:0:
312,173,147224,1,2,0:2:0:0:
368,184,147308,1,2,0:2:0:0:
412,221,147392,1,2,0:2:0:0:
418,299,147476,6,2,B|419:251|419:251|409:217|409:217|431:171|431:171|420:134|420:134|422:76,1,216.000008239746,4|0,3:1|0:1,0:1:0:0:
491,39,147811,2,0,B|507:88|507:88|489:151,1,96,8|0,0:0|3:0,0:0:0:0:
354,140,148062,2,0,B|338:91|338:91|356:28,1,96,8|0,0:0|0:0,0:0:0:0:
422,90,148314,1,8,0:0:0:0:
301,223,148481,1,0,3:0:0:0:
301,223,148565,2,0,L|176:209,1,96,8|0,0:0|0:0,0:0:0:0:
53,198,148816,6,0,L|15:202,4,24,0|0|0|0|0,3:0|0:0|0:0|0:0|0:0,0:0:0:0:
119,361,149152,2,0,B|145:326|145:326|128:240,1,120,8|0,0:0|3:0,0:0:0:0:
216,102,149403,2,0,B|190:137|190:137|207:223,1,120,8|0,0:0|0:0,0:0:0:0:
222,296,149654,1,8,0:0:0:0:
292,150,149822,1,0,3:0:0:0:
292,150,149906,2,0,B|332:144|332:144|367:164|367:164|416:154,1,120,8|0,0:0|0:0,0:0:0:0:
399,64,150157,6,0,L|403:21,4,30,0|0|0|0|0,3:0|0:0|0:0|0:0|0:0,0:0:0:0:
485,180,150492,2,0,L|491:266,1,72.0000027465821,8|0,0:0|0:0,0:0:0:0:
340,369,150660,1,0,3:0:0:0:
340,369,150744,2,0,B|310:326|310:326|319:222,1,144.000005493164,8|0,0:0|0:0,0:0:0:0:
292,150,150995,2,0,L|199:161,1,72.0000027465821,8|0,0:0|0:0,0:0:0:0:
55,89,151163,1,0,3:0:0:0:
55,89,151247,2,0,L|217:73,1,144.000005493164,8|0,0:0|0:0,0:0:0:0:
286,62,151498,5,0,3:0:0:0:
29,176,151666,1,0,3:0:0:0:
29,176,151749,1,8,0:0:0:0:
231,333,151917,1,0,3:0:0:0:
231,333,152001,1,8,0:0:0:0:
146,88,152168,6,0,L|125:26,2,64
109,276,152504,2,0,L|69:328,2,64
177,192,152839,5,4,1:1:0:0:
256,192,160883,12,0,163062,1:0:0:0:
161,318,163230,5,8,0:0:0:0:
249,301,163397,1,0,3:0:0:0:
167,159,163565,6,0,B|19:146|19:146|68:179,1,192,4|0,3:1|2:0,0:0:0:0:
55,170,164235,1,8,2:0:0:0:
59,188,164319,1,0,2:0:0:0:
63,206,164403,2,0,L|56:268,1,48,0|0,2:0|2:0,0:0:0:0:
41,337,164571,1,0,2:0:0:0:
316,264,164738,6,0,B|365:270|408:245|408:245|459:259|485:311,1,192,0|0,3:0|0:0,0:0:0:0:
277,357,165241,1,8,0:0:0:0:
247,190,165409,2,0,B|217:229|217:279|217:279|179:316|121:312,1,192,0|0,3:0|0:0,0:0:0:0:
316,264,165911,6,0,P|400:259|325:287,1,216.000008239746,0|0,0:0|2:0,0:0:0:0:
316,264,166247,6,0,B|321:191|321:191|304:148|304:148|310:75,1,192,4|0,3:1|2:0,0:0:0:0:
399,37,166749,1,0,0:0:0:0:
213,101,166917,1,8,0:0:0:0:
403,140,167085,2,0,L|451:142,3,32
54,115,167420,6,0,B|118:79|118:79|187:93,1,144,0|0,3:0|0:0,0:0:0:0:
213,101,167755,1,8,0:0:0:0:
34,133,167923,1,8,0:0:0:0:
143,211,168090,2,0,L|136:163,2,48,0|0|2,3:0|0:0|0:2,0:0:0:0:
149,258,168341,1,2,0:2:0:0:
141,305,168425,1,2,0:2:0:0:
109,341,168509,1,2,0:2:0:0:
62,352,168593,2,2,L|5:344,1,48,2|2,0:2|0:2,0:2:0:0:
6,248,168760,2,2,L|63:256,1,48,2|2,0:2|0:2,0:2:0:0:
305,260,168928,6,0,B|290:115|290:115|224:158|224:158|231:233,1,288,4|0,3:1|2:0,0:0:0:0:
249,346,169598,1,8,0:0:0:0:
449,274,169766,1,0,2:2:0:0:
472,316,169850,1,0,2:2:0:0:
458,362,169934,1,0,2:2:0:0:
158,278,170101,6,0,B|285:253|285:253|339:313,1,192,0|0,3:0|0:0,0:0:0:0:
107,195,170604,1,8,0:0:0:0:
308,43,170772,2,0,B|266:165|266:165|187:182,1,192,0|0,3:0|0:0,0:0:0:0:
358,202,171274,6,0,L|393:79,1,108.000004119873
395,75,171610,5,4,0:1:0:0:
483,184,171777,1,0,0:0:0:0:
376,281,171945,1,0,0:0:0:0:
494,186,172112,1,0,0:0:0:0:
313,178,172280,1,0,0:0:0:0:
313,178,172364,2,0,L|198:172,1,96
133,203,172615,1,0,0:0:0:0:
113,205,172699,1,0,0:0:0:0:
93,207,172783,1,0,0:0:0:0:
73,209,172867,1,0,0:0:0:0:
54,211,172950,6,0,L|50:156,1,48
128,128,173118,2,0,L|124:73,1,48
201,253,173286,6,0,L|197:308,1,48
275,336,173454,2,0,L|271:391,1,48
312,136,173621,6,0,L|308:81,1,48
386,53,173789,2,0,L|382:-2,1,48
466,126,173956,6,0,B|452:188|452:188|468:234|468:234|454:281|454:281|469:348,1,216.000008239746,8|0,0:0|0:0,0:0:0:0:
465,334,174291,6,0,L|298:327,1,144,4|2,0:1|0:2,0:0:0:0:
321,327,174626,1,0,0:0:0:0:
255,145,174794,1,2,0:2:0:0:
123,238,174962,2,0,L|233:244,1,96,0|2,0:0|0:2,0:0:0:0:
346,244,175297,1,0,0:0:0:0:
322,70,175464,6,0,P|263:42|160:106,1,192,2|2,0:2|0:2,0:0:0:0:
255,145,175967,1,0,0:0:0:0:
397,135,176135,2,0,P|416:87|408:30,1,96,2|0,0:2|0:0,0:0:0:0:
321,208,176470,1,2,0:2:0:0:
420,231,176638,2,0,P|468:203|492:153,1,96,0|2,0:0|0:2,0:0:0:0:
284,333,176973,5,0,0:0:0:0:
152,163,177140,2,0,L|156:229,1,48
163,294,177308,1,0,0:0:0:0:
252,92,177476,2,0,L|256:158,1,48
263,223,177644,1,0,0:0:0:0:
355,38,177811,2,0,L|362:146,1,96
454,338,178146,2,0,L|449:266,1,48
444,205,178314,5,0,0:0:0:0:
301,214,178481,2,0,L|371:212,1,48
444,205,178649,1,0,0:0:0:0:
437,70,178816,2,0,L|440:136,1,48
444,205,178984,1,0,0:0:0:0:
212,129,179152,2,0,L|330:125,1,96
29,241,179487,2,0,L|97:243,1,48
158,238,179654,6,0,L|169:382,1,144,0|2,0:0|0:2,0:0:0:0:
168,381,179990,1,0,0:0:0:0:
273,217,180157,1,2,0:2:0:0:
86,161,180325,2,0,L|76:49,1,96,0|2,0:0|0:2,0:0:0:0:
177,105,180660,1,0,0:0:0:0:
57,290,180828,1,2,0:2:0:0:
57,290,180911,1,0,0:0:0:0:
57,290,180995,1,0,0:0:0:0:
364,178,181163,5,2,0:2:0:0:
357,279,181330,1,0,0:0:0:0:
273,217,181498,1,2,0:2:0:0:
448,231,181666,2,0,L|457:331,1,96,0|2,0:0|0:2,0:0:0:0:
199,267,182001,2,0,L|190:367,1,96,0|2,0:0|0:2,0:0:0:0:
364,178,182336,5,0,0:0:0:0:
181,122,182504,2,0,L|246:115,1,48
308,109,182671,1,0,0:0:0:0:
503,67,182839,2,0,L|438:60,1,48,2|0,0:2|0:0,0:0:0:0:
376,54,183006,1,0,0:0:0:0:
199,267,183174,2,0,L|311:255,1,96,2|0,0:2|0:0,0:0:0:0:
494,331,183509,2,0,L|424:320,1,48,2|0,0:2|0:0,0:0:0:0:
360,366,183677,6,0,P|351:314|370:254,1,96,0|2,0:0|0:2,0:0:0:0:
486,128,184012,2,0,P|495:180|476:240,1,96,0|2,0:0|0:2,0:0:0:0:
485,221,184263,1,0,0:0:0:0:
485,221,184347,2,0,L|418:230,1,48
360,272,184515,2,0,L|292:263,1,48,2|2,0:2|0:2,0:0:0:0:
246,212,184682,2,0,L|178:220,1,48
120,262,184850,2,0,L|52:253,1,48,2|0,0:2|0:0,0:0:0:0:
6,202,185017,6,0,L|11:89,1,96,4|2,0:1|0:2,0:0:0:0:
202,58,185353,1,0,0:0:0:0:
120,262,185520,1,2,0:2:0:0:
312,266,185688,6,0,L|307:153,1,96,0|2,0:0|0:2,0:0:0:0:
116,122,186024,1,0,0:0:0:0:
198,326,186191,1,2,0:2:0:0:
307,170,186358,6,0,L|412:158,1,96,0|2,0:0|0:2,0:0:0:0:
120,262,186693,2,0,L|15:250,1,96,0|2,0:0|0:2,0:0:0:0:
294,350,187029,1,0,0:0:0:0:
171,176,187196,1,2,0:2:0:0:
198,326,187364,1,0,0:0:0:0:
307,170,187531,1,2,0:2:0:0:
482,261,187699,5,0,0:0:0:0:
376,312,187867,1,2,0:2:0:0:
376,312,187950,1,2,0:2:0:0:
376,312,188034,2,0,B|362:264|362:264|374:209,1,96,0|2,0:0|0:2,0:0:0:0:
373,100,188369,1,0,0:0:0:0:
468,48,188537,1,2,0:2:0:0:
468,48,188621,1,2,0:2:0:0:
468,48,188705,2,0,B|482:96|482:96|470:151,1,96,0|2,0:0|0:2,0:0:0:0:
307,170,189040,5,0,0:0:0:0:
268,141,189124,1,0,0:0:0:0:
220,137,189207,1,2,0:2:0:0:
180,165,189291,1,2,0:2:0:0:
160,208,189375,1,0,0:0:0:0:
163,255,189459,1,0,0:0:0:0:
194,291,189543,1,2,0:2:0:0:
239,305,189626,1,0,0:0:0:0:
285,291,189710,6,0,L|350:284,3,48,0|0|2|2,0:0|0:0|0:2|0:2,0:0:0:0:
405,230,190045,2,0,L|470:237,3,48,0|0|2|0,0:0|0:0|0:2|0:0,0:0:0:0:
409,316,190381,6,0,L|470:322,1,48,8|0,0:0|0:0,0:0:0:0:
393,145,190548,1,2,0:2:0:0:
393,145,190632,1,2,0:2:0:0:
393,145,190716,2,0,L|454:151,1,48,8|0,0:0|0:0,0:0:0:0:
282,238,190883,2,0,L|343:244,1,48,2|0,0:2|0:0,0:0:0:0:
233,141,191051,6,0,L|299:129,1,48,8|0,0:0|0:0,0:0:0:0:
195,342,191219,2,0,L|261:330,1,48,2|2,0:2|0:2,0:0:0:0:
127,32,191386,6,0,L|187:42,1,48,8|0,0:0|0:0,0:0:0:0:
101,238,191554,2,0,L|161:248,1,48,2|0,0:2|0:0,0:0:0:0:
433,225,191721,6,0,L|430:279,1,48,8|0,0:0|0:0,0:0:0:0:
233,141,191889,2,0,L|230:87,1,48,2|0,0:2|0:2,0:0:0:0:
217,255,192057,2,0,L|280:247,1,48,8|0,0:0|0:0,0:0:0:0:
434,92,192224,2,0,L|371:84,1,48,2|0,0:2|0:0,0:0:0:0:
130,301,192392,6,0,L|133:234,1,48,8|0,0:0|0:0,0:0:0:0:
331,154,192559,2,0,L|331:223,1,48,2|2,0:2|0:2,0:0:0:0:
114,153,192727,2,0,L|61:149,1,48,8|0,0:0|0:0,0:0:0:0:
303,328,192895,2,0,L|356:324,1,48,2|0,0:2|0:0,0:0:0:0:
450,308,193062,5,8,0:0:0:0:
452,288,193146,1,0,0:0:0:0:
454,268,193230,1,2,0:2:0:0:
456,248,193314,1,2,0:2:0:0:
458,229,193397,1,8,0:0:0:0:
460,209,193481,1,0,0:0:0:0:
462,189,193565,1,2,0:2:0:0:
464,169,193649,1,0,0:0:0:0:
466,149,193733,6,0,L|470:108,4,32,8|0|0|2|0,0:0|0:0|0:0|0:2|0:0,0:0:0:0:
372,60,194068,2,0,L|368:19,4,32,8|0|0|2|0,0:0|0:0|0:0|0:2|0:0,0:0:0:0:
282,99,194403,6,0,B|213:121|146:68|146:68|149:98|173:124,1,192,0|0,3:0|2:0,0:0:0:0:
272,194,194906,1,0,2:0:0:0:
272,194,194990,1,0,2:0:0:0:
272,194,195073,2,0,L|331:187,1,48,0|0,2:0|2:0,0:0:0:0:
396,136,195241,1,0,3:0:0:0:
195,258,195409,2,0,L|130:269,1,48
40,193,195576,2,0,L|111:202,1,48
315,324,195744,6,2,B|285:325|256:312|256:312|220:348|220:348|173:339|173:339|145:358|105:359,1,216.000008239746,4|2,3:1|0:1,0:1:0:0:
46,322,196079,1,4,0:2:0:0:
272,194,196247,6,0,P|307:195|344:168,1,72.0000027465821,0|0,0:0|2:2,0:0:0:0:
402,58,196414,1,8,0:0:0:0:
386,42,196498,2,0,P|325:40|292:118,1,144.000005493164,0|0,2:2|2:2,0:0:0:0:
337,176,196749,1,4,0:2:0:0:
200,301,196917,1,0,0:2:0:0:
40,195,197085,6,0,B|82:203|82:203|138:190|138:190|192:200,1,144,0|0,3:0|0:0,0:0:0:0:
270,278,197420,2,0,B|228:270|228:270|172:283|172:283|118:273,1,144,4|0,0:2|3:0,0:0:0:0:
81,116,197755,2,2,L|78:81,6,36.0000013732911,8|0|0|0|0|0|0,0:1|0:1|0:1|0:1|0:1|0:1|0:1,0:1:0:0:
181,197,198090,5,4,0:2:0:0:
200,194,198174,1,0,0:0:0:0:
219,191,198258,1,0,0:0:0:0:
237,188,198341,1,0,0:0:0:0:
312,150,198425,6,2,B|354:135|354:135|341:264|341:264|301:233,1,216.000008239746,0|2,3:1|0:1,0:1:0:0:
237,188,198760,1,4,0:2:0:0:
330,346,198928,6,0,P|371:343|403:322,1,72.0000027465821,0|0,0:0|2:0,0:0:0:0:
485,234,199096,1,8,0:0:0:0:
468,220,199179,2,0,P|403:218|334:272,1,144.000005493164,0|0,2:0|2:0,0:0:0:0:
494,310,199431,2,0,P|459:310|417:294,1,72.0000027465821,4|0,0:2|2:0,0:0:0:0:
320,162,199598,2,0,P|355:142|391:142,1,72.0000027465821,0|8,0:0|2:0,0:0:0:0:
486,62,199766,6,0,L|479:134,1,72.0000027465821,0|0,3:0|0:0,0:0:0:0:
329,345,199934,2,0,L|322:274,1,72.0000027465821,0|0,3:0|0:0,0:0:0:0:
236,56,200101,2,0,B|206:95|206:95|222:211,1,144.000005493164,12|0,0:2|3:0,0:0:0:0:
162,248,200353,1,0,3:0:0:0:
162,248,200436,6,2,L|73:239,1,72.0000027465821,10|2,0:2|0:2,0:2:0:0:
45,55,200604,2,2,L|134:64,1,72.0000027465821,10|2,0:2|0:2,0:2:0:0:
340,138,200772,2,2,L|293:136,4,48.0000018310548,14|2|2|2|2,0:2|0:0|0:0|0:0|0:0,0:0:0:0:
493,216,201107,6,2,B|452:221|452:221|426:240|426:240|367:217|367:217|331:237|331:237|286:240,1,216.000008239746,4|2,3:1|0:1,0:1:0:0:
293,239,201442,1,4,0:2:0:0:
139,279,201610,6,0,P|89:280|53:248,1,72.0000027465821,0|0,0:0|2:0,0:0:0:0:
3,189,201777,1,8,0:0:0:0:
21,177,201861,2,0,B|96:150|84:216|158:188,1,144.000005493164,0|0,2:0|0:0,0:0:0:0:
194,109,202112,1,4,0:2:0:0:
259,332,202280,1,0,0:0:0:0:
282,181,202448,6,0,B|293:72|293:72|318:117,1,144,0|0,3:0|0:0,0:0:0:0:
422,82,202783,2,0,B|411:191|411:191|386:146,1,144,4|0,0:2|3:0,0:0:0:0:
395,277,203118,2,0,B|431:282|431:282|463:266,1,72.0000027465821,10|0,0:1|0:0,0:0:0:0:
236,340,203286,2,0,B|200:345|200:345|168:329,1,72.0000027465821,2|0,0:1|0:0,0:0:0:0:
282,181,203453,5,4,0:2:0:0:
297,135,203537,1,0,0:0:0:0:
281,89,203621,1,0,0:0:0:0:
242,60,203705,1,0,0:0:0:0:
171,97,203788,6,0,L|1:108,1,144,0|0,3:0|0:0,0:0:0:0:
27,106,204124,1,0,0:0:0:0:
2,300,204291,1,0,0:0:0:0:
2,300,204375,1,0,0:0:0:0:
2,300,204459,2,0,P|40:306|73:287,1,72.0000027465821,8|0,0:0|0:0,0:0:0:0:
100,200,204626,2,0,P|138:194|171:213,1,72.0000027465821
173,302,204794,2,0,B|221:328|251:376|251:376|255:313|278:254,1,216.000008239746,0|0,0:0|3:0,0:0:0:0:
265,177,205129,6,0,L|365:191,1,72.0000027465821,0|0,3:0|0:0,0:0:0:0:
487,285,205297,1,0,0:0:0:0:
501,298,205381,2,0,L|347:272,1,144.000005493164,0|8,3:0|0:0,0:0:0:0:
442,201,205632,5,0,3:0:0:0:
442,201,205716,1,0,3:0:0:0:
442,201,205800,2,2,L|447:138,1,48,10|2,0:2|0:2,0:2:0:0:
356,29,205967,2,2,L|361:92,1,48,2|10,3:2|0:2,0:2:0:0:
287,227,206135,2,2,L|292:164,1,48,2|2,0:2|0:2,0:2:0:0:
199,18,206302,2,2,L|204:81,1,48,10|2,0:2|0:2,0:2:0:0:
193,151,206470,6,0,B|167:153|150:147|150:147|121:180|121:180|87:169|44:181,1,144.000005493164,4|0,3:3|3:0,0:0:0:0:
238,275,206973,6,0,P|280:274|330:245,1,72.0000027465821,0|0,0:0|2:0,0:0:0:0:
407,213,207140,1,12,0:1:0:0:
392,226,207224,2,0,P|339:237|257:192,1,144.000005493164,0|0,2:0|2:0,0:0:0:0:
193,151,207476,1,4,0:2:0:0:
369,323,207643,1,0,0:0:0:0:
336,151,207811,6,0,B|345:69|345:69|402:38,1,144,0|0,3:0|0:0,0:0:0:0:
487,233,208146,2,0,B|478:151|478:151|421:120,1,144,4|0,0:2|3:0,0:0:0:0:
242,133,208481,6,0,P|167:144|271:198,1,288,8|0,0:0|2:0,0:0:0:0:
452,175,209152,6,2,B|424:178|391:164|391:164|365:188|365:188|315:174|315:174|298:205|238:225,1,216.000008239746,0|2,3:1|0:1,0:1:0:0:
264,214,209487,1,4,0:2:0:0:
144,335,209654,2,0,P|134:300|132:264,1,72.0000027465821,0|0,0:0|2:0,0:0:0:0:
146,179,209822,1,8,0:0:0:0:
151,162,209906,2,0,P|101:119|119:172,1,144.000005493164,0|0,2:0|2:0,0:0:0:0:
225,85,210157,2,0,P|234:119|236:155,1,72.0000027465821,4|0,0:2|2:0,0:0:0:0:
20,196,210325,2,0,P|10:161|8:125,1,72.0000027465821,0|8,0:0|2:0,0:0:0:0:
223,238,210492,5,0,3:0:0:0:
39,308,210660,1,0,3:0:0:0:
234,329,210828,2,0,B|306:345|306:345|374:305,1,144.000005493164,12|0,0:2|3:0,0:0:0:0:
366,309,211079,1,0,3:0:0:0:
366,309,211163,2,2,L|361:231,1,72.0000027465821,10|2,0:2|0:2,0:2:0:0:
511,144,211330,2,2,L|505:215,1,72.0000027465821,10|2,0:2|0:2,0:2:0:0:
344,111,211498,2,2,L|338:49,4,48.0000018310548,10|2|2|2|2,0:0|0:0|0:0|0:0|0:0,0:0:0:0:
223,238,211833,6,2,B|202:299|214:350|214:350|189:310|143:285,1,192,0|0,3:1|2:1,0:1:0:0:
295,339,212336,1,0,2:0:0:0:
295,339,212420,1,0,2:0:0:0:
295,339,212504,2,0,P|291:300|307:249,1,72.0000027465821,12|0,0:1|2:0,0:0:0:0:
149,123,212671,2,0,P|153:162|137:213,1,72.0000027465821,0|0,0:0|2:0,0:0:0:0:
75,156,212839,1,4,0:2:0:0:
344,111,213006,1,0,0:0:0:0:
265,54,213174,6,0,B|241:122|241:122|272:186,1,144,0|0,3:0|0:0,0:0:0:0:
427,175,213509,2,0,B|450:106|450:106|419:42,1,144,4|0,0:2|3:0,0:0:0:0:
265,54,213844,2,0,P|220:70|187:55,1,72.0000027465821,10|0,0:1|0:0,0:0:0:0:
75,156,214012,2,0,P|120:172|153:157,1,72.0000027465821,2|0,0:1|0:0,0:0:0:0:
239,220,214179,5,4,0:2:0:0:
266,259,214263,1,0,0:0:0:0:
266,307,214347,1,0,0:0:0:0:
242,348,214431,1,0,0:0:0:0:
161,344,214515,6,0,L|7:333,1,144,0|0,3:0|0:0,0:0:0:0:
17,333,214850,2,0,P|13:285|32:223,1,96
320,185,215185,2,0,P|363:159|333:210,1,144,8|0,0:0|2:0,0:0:0:0:
336,297,215520,6,0,P|375:296|410:280,1,72.0000027465821
260,117,215688,2,0,P|241:151|237:189,1,72.0000027465821
462,163,215855,6,0,L|312:186,1,144.000005493164,0|0,3:0|0:0,0:0:0:0:
146,234,216107,2,0,B|114:192|114:192|133:77,1,144.000005493164,0|0,3:0|0:0,0:0:0:0:
229,97,216358,2,0,L|237:252,1,144.000005493164,0|0,3:0|0:0,0:0:0:0:
124,325,216610,2,0,B|202:297|185:356|276:323,1,144.000005493164,0|0,3:0|0:0,0:0:0:0:
263,327,216861,1,8,0:0:0:0:
385,364,217029,1,0,0:0:0:0:
492,225,217196,6,0,B|423:180|354:193|354:193|381:200|413:232,1,192,4|0,3:1|2:0,0:0:0:0:
394,215,217867,1,8,0:0:0:0:
216,70,218034,2,0,B|262:90|289:134|289:134|328:103|398:108,1,192
191,168,218537,5,0,3:0:0:0:
456,57,218705,2,0,B|471:103|471:103|462:158,1,96
113,225,219040,1,0,0:0:0:0:
113,225,219124,1,0,3:0:0:0:
113,225,219207,2,0,B|98:179|98:179|107:124,1,96,8|0,0:0|0:0,0:0:0:0:
209,88,219543,5,0,0:0:0:0:
227,93,219626,1,0,0:0:0:0:
279,148,219710,5,0,0:0:0:0:
297,143,219793,1,0,0:0:0:0:
356,103,219878,6,0,B|328:55|328:55|304:231,1,216.000008239746,4|0,3:1|0:0,0:0:0:0:
267,298,220213,6,0,P|323:300|367:276,1,96
442,265,220464,1,0,0:0:0:0:
442,265,220548,2,0,L|452:337,1,48,8|0,0:0|0:0,0:0:0:0:
236,159,220716,2,0,L|226:231,1,48
416,56,220883,2,0,L|426:128,1,48
358,283,221051,5,0,0:0:0:0:
54,169,221219,2,0,P|109:148|166:161,1,96,0|0,3:0|0:0,0:0:0:0:
336,176,221554,1,0,0:0:0:0:
140,367,221721,1,0,0:0:0:0:
140,367,221805,1,0,3:0:0:0:
140,367,221889,2,0,B|103:332|103:332|121:222,1,144,8|0,0:0|0:0,0:0:0:0:
276,325,222224,5,2,0:2:0:0:
295,324,222308,1,2,0:2:0:0:
312,316,222392,1,2,0:2:0:0:
328,306,222476,1,2,0:2:0:0:
367,241,222559,6,0,B|328:224|292:186|292:186|270:252|270:252|233:223|233:223|227:260|202:298,1,288,4|0,3:1|0:0,0:0:0:0:
46,223,223230,1,8,0:0:0:0:
136,87,223397,2,0,L|146:252,1,144
144,230,223733,1,0,0:0:0:0:
227,88,223900,5,0,3:0:0:0:
43,104,224068,1,0,0:0:0:0:
148,326,224235,2,0,L|144:230,1,96
139,152,224487,1,0,3:0:0:0:
139,152,224571,1,8,0:0:0:0:
272,341,224738,1,0,0:0:0:0:
383,204,224906,6,0,B|339:198|339:198|291:228|291:228|248:223,1,144
221,200,225241,5,4,3:1:0:0:
360,280,225409,1,0,0:0:0:0:
378,285,225492,1,0,0:0:0:0:
396,290,225576,1,8,0:0:0:0:
467,202,225744,1,0,0:0:0:0:
272,341,225911,5,0,3:0:0:0:
328,191,226079,1,0,0:0:0:0:
343,180,226163,1,0,0:0:0:0:
358,169,226247,2,0,L|361:110,1,48,8|0,0:0|0:0,0:0:0:0:
476,45,226414,2,0,L|473:104,1,48
467,202,226582,5,0,3:0:0:0:
268,109,226749,1,0,0:0:0:0:
268,109,226833,1,0,0:0:0:0:
268,109,226917,1,8,0:0:0:0:
221,200,227085,1,0,0:0:0:0:
354,44,227252,1,0,3:0:0:0:
377,85,227336,1,8,0:0:0:0:
370,132,227420,1,0,3:0:0:0:
180,112,227587,2,0,B|131:99|131:99|79:129,1,96,8|0,0:0|0:0,0:0:0:0:
70,222,227839,1,8,0:0:0:0:
70,222,227923,6,0,L|59:379,1,144.000005493164,4|0,3:1|0:0,0:0:0:0:
268,109,228258,2,0,L|279:266,1,144.000005493164,8|0,0:0|0:0,0:0:0:0:
278,252,228509,1,0,0:0:0:0:
278,252,228593,2,0,P|236:252|201:257,1,72.0000027465821
20,124,228760,2,0,P|62:124|97:119,1,72.0000027465821,0|0,3:0|0:0,0:0:0:0:
268,109,228928,1,8,0:0:0:0:
248,343,229096,1,0,0:0:0:0:
130,279,229263,6,0,B|98:264|98:264|223:254,1,144.000005493164,0|0,3:0|0:0,0:0:0:0:
432,363,229598,1,8,0:0:0:0:
485,274,229766,2,0,B|431:285|382:253|382:253|373:312|323:359,1,216.000008239746
334,347,230101,1,0,3:0:0:0:
458,181,230269,2,0,L|462:136,4,32,8|0|0|0|0,0:0|0:0|0:0|0:0|0:0,0:0:0:0:
91,109,230604,6,0,B|75:179|75:179|96:248,1,144,4|0,3:1|0:0,0:0:0:0:
351,219,230939,2,0,B|362:173|362:173|345:120,1,96,8|0,0:0|0:0,0:0:0:0:
181,174,231274,6,0,P|262:163|189:201,1,216.000008239746,0|0,0:0|2:0,0:0:0:0:
92,110,231610,1,8,0:0:0:0:
181,174,231777,6,0,B|193:125|193:125|172:51,1,96,0|0,0:0|3:0,0:0:0:0:
122,267,232112,2,0,B|110:316|110:316|131:390,1,96,0|8,0:0|0:0,0:0:0:0:
35,201,232448,1,0,0:0:0:0:
35,201,232531,1,0,0:0:0:0:
35,201,232615,1,0,0:0:0:0:
200,319,232783,1,0,3:0:0:0:
273,220,232950,5,10,0:2:0:0:
276,201,233034,1,2,0:2:0:0:
279,182,233118,1,2,0:2:0:0:
282,163,233202,1,2,0:2:0:0:
365,126,233286,6,0,B|417:148|417:148|274:164,1,192,4|8,3:1|0:0,0:0:0:0:
147,118,233788,1,0,0:0:0:0:
356,238,233956,2,0,L|442:228,1,72.0000027465821,0|0,1:0|0:0,0:0:0:0:
384,48,234124,2,0,L|451:72,1,72.0000027465821,0|0,1:0|0:0,0:0:0:0:
505,160,234291,1,8,1:0:0:0:
505,160,234459,1,0,0:0:0:0:
375,142,234626,6,0,L|209:123,1,144,0|0,3:0|0:0,0:0:0:0:
231,125,234962,1,8,0:0:0:0:
260,359,235129,2,0,B|234:292|234:292|276:206,1,144
265,228,235464,1,0,3:0:0:0:
129,294,235632,1,8,0:0:0:0:
129,294,235716,1,0,0:0:0:0:
129,294,235800,2,0,L|54:298,1,48
21,359,235967,5,4,3:1:0:0:
98,209,236135,1,0,0:0:0:0:
191,354,236302,1,8,0:0:0:0:
27,147,236470,1,0,0:0:0:0:
50,132,236554,2,0,B|95:120|95:120|147:134,1,96,0|0,3:0|0:0,0:0:0:0:
167,146,236805,1,0,3:0:0:0:
372,223,236973,5,0,0:0:0:0:
382,235,237057,2,0,L|385:168,1,48,0|0,3:0|3:0,0:0:0:0:
447,78,237224,1,0,3:0:0:0:
265,43,237392,2,0,L|277:159,1,96,0|0,3:0|0:0,0:0:0:0:
277,161,237643,5,0,3:0:0:0:
482,207,237811,1,0,0:0:0:0:
240,250,237978,2,0,L|199:253,4,32,8|0|0|0|0,0:0|0:0|0:0|0:0|0:0,0:0:0:0:
364,336,238314,6,0,L|372:272,1,48
373,355,238481,2,0,L|381:291,1,48
396,132,238649,5,2,3:2:0:0:
26,209,238816,1,2,2:0:0:0:
26,209,238900,2,0,L|147:200,1,96,2|2,3:2|3:2,0:0:0:0:
151,181,239152,2,0,L|145:243,1,48,2|0,3:2|0:0,0:0:0:0:
223,364,239319,6,0,B|232:223|232:223|251:266|291:289,1,216.000008239746,12|0,0:1|0:0,0:0:0:0:
361,278,239654,1,2,0:2:0:0:
140,303,239822,2,0,L|93:308,2,48,0|2|0,0:0|0:2|3:0,0:0:0:0:
321,203,240157,1,2,0:2:0:0:
208,78,240325,1,2,0:2:0:0:
208,78,240409,1,2,0:2:0:0:
208,78,240492,2,0,L|215:149,1,48,2|0,3:2|0:0,0:0:0:0:
229,220,240660,5,8,0:0:0:0:
229,220,240744,2,0,L|117:214,1,96,0|0,3:0|0:0,0:0:0:0:
64,276,240995,1,10,0:2:0:0:
74,139,241163,1,0,3:0:0:0:
229,220,241330,6,0,L|387:229,1,144,2|0,2:2|2:0,0:0:0:0:
372,228,241666,6,0,B|366:191|366:191|373:152,1,72.0000027465821,2|2,3:1|0:2,0:0:0:0:
365,78,241833,2,0,B|371:40|371:40|364:1,1,72.0000027465821,2|2,0:1|0:2,0:0:0:0:
274,43,242001,1,8,0:0:0:0:
511,201,242168,1,0,0:0:0:0:
511,201,242252,1,2,0:2:0:0:
511,201,242336,2,0,L|436:191,1,48
276,230,242504,6,0,B|302:275|315:351|315:351|329:305|364:267,1,216.000008239746,4|0,3:1|0:0,0:0:0:0:
409,212,242839,1,2,3:2:0:0:
226,352,243006,2,0,P|214:299|197:253,1,96,10|0,0:2|3:0,0:0:0:0:
214,170,243258,1,0,3:0:0:0:
214,170,243341,2,0,L|160:180,1,48,10|0,0:2|0:0,0:0:0:0:
135,330,243509,2,0,L|81:320,1,48,0|0,3:0|0:0,0:0:0:0:
9,247,243677,1,10,0:2:0:0:
424,121,244012,6,0,B|353:140|353:140|281:110,1,144,4|0,3:1|0:0,0:0:0:0:
214,170,244347,2,0,L|313:213,1,96,2|2,0:2|0:2,0:0:0:0:
406,244,244682,1,8,0:0:0:0:
361,58,244850,2,0,L|360:0,2,48,2|0|2,0:2|0:0|3:2,0:0:0:0:
273,375,245185,6,0,B|305:321|308:233|308:233|314:279|334:317,1,216.000008239746,4|0,0:1|0:0,0:0:0:0:
385,347,245520,1,2,3:2:0:0:
218,286,245688,2,0,P|226:237|224:201,1,72.0000027465821,2|2,0:2|0:2,0:0:0:0:
372,99,245855,2,0,P|372:134|379:170,1,72.0000027465821,2|0,0:2|3:0,0:0:0:0:
459,132,246023,1,8,0:0:0:0:
313,248,246191,1,0,0:0:0:0:
313,248,246274,1,0,3:0:0:0:
313,248,246358,1,2,0:2:0:0:
289,60,246526,1,10,0:2:0:0:
303,223,246693,6,0,B|293:170|293:170|304:137|304:137|297:79,1,144,4|0,3:2|2:1,0:1:0:0:
207,48,247029,5,12,0:0:0:0:
36,161,247196,1,0,0:0:0:0:
64,186,247280,1,0,0:0:0:0:
100,198,247364,1,0,3:0:0:0:
138,193,247448,1,0,0:0:0:0:
171,174,247531,1,8,0:0:0:0:
115,56,247699,2,0,L|109:114,2,48
252,125,248034,5,0,1:0:0:0:
277,320,248202,1,0,1:0:0:0:
398,234,248369,2,0,L|287:221,1,96,12|0,0:0|0:0,0:0:0:0:
263,224,248621,1,0,0:0:0:0:
226,237,248705,1,0,3:0:0:0:
201,265,248788,1,0,0:0:0:0:
186,300,248872,1,8,0:0:0:0:
89,345,249040,2,0,L|83:284,1,48,2|0,0:1|0:0,0:0:0:0:
138,193,249207,2,0,L|144:132,1,48,2|0,0:1|0:0,0:0:0:0:
79,83,249375,6,0,P|134:113|230:85,1,144,4|0,3:1|0:0,0:0:0:0:
286,51,249710,2,0,B|299:99|299:99|286:150,1,96,2|0,0:2|0:0,0:0:0:0:
152,278,250045,1,8,0:0:0:0:
254,240,250213,2,0,P|294:248|328:237,1,72.0000027465821,2|0,0:2|0:0,0:0:0:0:
106,173,250381,2,0,P|66:165|32:176,1,72.0000027465821,2|0,0:2|0:0,0:0:0:0:
192,171,250548,6,0,B|212:96|184:29|184:29|178:60|158:110,1,216.000008239746,4|0,3:1|0:0,0:0:0:0:
106,173,250883,1,2,0:2:0:0:
334,67,251051,1,2,0:2:0:0:
334,67,251135,1,2,0:2:0:0:
334,67,251219,2,0,L|337:116,1,48,2|0,3:2|0:0,0:0:0:0:
399,302,251386,6,0,B|443:276|443:276|459:230,1,96.0000036621095,8|0,0:0|0:0,0:0:0:0:
272,190,251610,2,0,B|272:241|272:241|304:277,1,96.0000036621095,0|0,3:0|0:0,0:0:0:0:
426,132,251833,2,0,B|381:106|381:106|333:116,1,96.0000036621095,0|0,3:0|3:0,3:0:0:0:
117,193,252057,6,0,B|108:191|141:190|167:205|167:205|201:184|201:184|243:209|243:209|283:172|328:174|375:224,1,288,0|0,3:0|2:0,0:0:0:0:
470,322,252727,5,10,0:1:0:0:
299,268,252895,2,2,B|257:299|200:313|200:313|257:327|293:363,1,216.000008239746,0|2,0:1|0:1,0:1:0:0:
378,319,253230,2,2,B|380:276|380:276|399:241|399:241|372:194|372:194|389:161|389:161|392:119,1,216.000008239746,4|0,3:1|0:1,0:1:0:0:
397,39,253565,1,10,0:2:0:0:
481,202,253733,1,2,0:2:0:0:
306,125,253900,5,0,3:0:0:0:
306,125,253984,1,0,3:0:0:0:
306,125,254068,2,2,L|245:115,1,48,10|2,0:2|0:2,0:2:0:0:
134,212,254235,2,2,L|181:204,1,48,2|2,3:2|0:2,0:2:0:0:
177,92,254403,5,10,0:2:0:0:
131,77,254487,1,2,0:2:0:0:
83,83,254571,1,2,0:2:0:0:
45,111,254654,1,2,0:2:0:0:
17,189,254738,6,0,B|35:326|35:326|76:269,1,192,4|2,3:1|0:2,0:0:0:0:
216,157,255241,2,0,P|232:201|223:255,1,96,2|8,0:2|0:0,0:0:0:0:
134,212,255576,1,2,1:2:0:0:
328,192,255744,1,2,1:2:0:0:
280,340,255911,5,0,0:0:0:0:
280,340,255995,2,0,L|171:330,1,96,2|0,3:2|0:0,0:0:0:0:
158,327,256247,1,2,3:2:0:0:
328,192,256414,2,0,L|324:134,2,48,2|2|2,0:2|3:2|0:2,0:0:0:0:
434,348,256749,5,8,0:0:0:0:
444,118,256917,1,2,3:2:0:0:
240,218,257085,1,10,0:2:0:0:
434,348,257252,5,2,0:2:0:0:
434,348,257336,1,0,0:0:0:0:
434,348,257420,1,4,0:1:0:0:
255,365,257587,1,0,0:0:0:0:
458,249,257755,1,0,0:0:0:0:
240,218,257923,1,0,0:0:0:0:
444,118,258090,2,0,L|503:108,1,48
258,105,258258,2,0,L|199:95,1,48
346,182,258425,5,0,0:0:0:0:
346,182,258509,1,0,0:0:0:0:
346,182,258593,2,0,L|345:254,1,48
30,300,258760,6,0,L|36:245,2,48,0|0|0,3:0|0:0|0:0,0:0:0:0:
165,152,259012,2,0,L|171:207,2,48,0|0|0,3:0|0:0|0:0,0:0:0:0:
41,165,259263,2,0,L|47:100,1,48,0|0,3:0|0:0,0:0:0:0:
54,36,259431,1,8,0:0:0:0:
436,111,259766,5,0,0:0:0:0:
454,116,259850,1,0,0:0:0:0:
444,185,259934,5,0,0:0:0:0:
462,190,260018,1,0,0:0:0:0:
471,266,260101,6,2,B|446:270|417:255|417:255|387:277|387:277|361:264|361:264|345:273|345:273|320:266|320:266|293:281|259:274,1,216.000008239746,4|2,3:1|0:2,0:1:0:0:
201,349,260436,2,0,B|190:315|173:285|173:285|189:250|192:210,1,144.000005493164,12|2,0:2|0:2,0:0:0:0:
191,213,260688,1,2,0:2:0:0:
191,213,260772,2,2,L|109:210,1,72.0000027465821,0|0,0:1|0:0,0:0:0:0:
28,347,260939,2,0,L|110:350,1,72.0000027465821,2|0,3:1|0:0,0:0:0:0:
272,275,261107,1,12,0:2:0:0:
41,165,261274,1,2,0:1:0:0:
241,33,261442,6,0,B|279:75|279:75|262:174,1,144.000005493164,0|2,3:1|0:2,0:1:0:0:
166,101,261777,1,12,0:2:0:0:
359,219,261945,1,2,0:2:0:0:
158,370,262112,2,2,B|120:328|120:328|137:229,1,144.000005493164,0|2,0:1|3:2,0:1:0:0:
134,241,262364,1,2,0:2:0:0:
134,241,262448,6,0,L|120:163,1,72.0000027465821,12|0,0:2|0:0,0:0:0:0:
17,123,262615,2,0,L|31:201,1,72.0000027465821,2|0,0:2|0:0,0:0:0:0:
231,229,262783,6,2,B|282:229|282:229|329:253|329:253|391:205|391:205|434:228|434:228|496:228,1,288.000010986329,4|12,3:1|0:2,0:1:0:0:
506,78,263286,2,0,L|486:159,1,72.0000027465821,2|2,0:2|0:2,0:0:0:0:
320,151,263453,2,2,B|270:112|270:112|427:66|427:66|411:128,1,288.000010986329,0|12,0:1|0:2,0:1:0:0:
470,302,263956,5,2,0:2:0:0:
470,302,264040,1,2,0:2:0:0:
470,302,264124,2,2,B|391:286|415:340|321:324,1,144,0|2,3:1|0:2,0:1:0:0:
242,291,264459,2,0,L|238:358,1,48,12|0,0:2|0:0,0:0:0:0:
252,306,264626,2,0,L|248:373,1,48,2|0,0:2|0:0,0:0:0:0:
353,239,264794,6,2,L|345:158,1,72.0000027465821,2|2,0:2|0:2,0:2:0:0:
161,158,264962,2,2,L|169:77,1,72.0000027465821,2|2,3:2|0:2,0:2:0:0:
357,70,265129,2,2,L|352:15,4,48.0000018310548,10|2|2|2|2,0:0|0:0|0:0|0:0|0:0,0:0:0:0:
231,251,265464,6,2,B|177:228|85:240|85:240|130:225|155:200,1,216.000008239746,4|2,3:1|0:2,0:1:0:0:
168,86,265800,1,12,0:2:0:0:
114,317,265967,1,2,0:2:0:0:
114,317,266051,1,2,0:2:0:0:
114,317,266135,2,2,P|160:315|195:324,1,72.0000027465821,0|0,0:1|0:1,0:1:0:0:
275,183,266302,2,0,P|235:169|194:169,1,72.0000027465821,2|0,3:1|0:0,0:0:0:0:
88,224,266470,1,12,0:2:0:0:
296,346,266638,1,2,0:1:0:0:
487,122,266805,6,0,B|506:194|506:194|473:259,1,144.000005493164,0|2,3:1|0:2,0:1:0:0:
275,183,267140,2,0,B|256:111|256:111|289:46,1,144.000005493164,12|2,0:2|0:2,0:1:0:0:
410,104,267392,1,2,0:2:0:0:
410,104,267476,6,0,B|380:122|380:122|339:111,1,72.0000027465821,2|0,0:1|0:0,0:0:0:0:
140,232,267643,2,0,B|170:250|170:250|211:239,1,72.0000027465821,2|0,3:1|0:0,0:0:0:0:
450,333,267811,5,14,0:2:0:0:
419,295,267895,1,2,0:2:0:0:
372,284,267978,1,2,0:2:0:0:
326,300,268062,1,2,0:2:0:0:
254,339,268146,6,0,L|91:351,1,144,4|2,3:1|0:2,0:0:0:0:
110,349,268481,1,8,0:0:0:0:
97,129,268649,5,2,0:2:0:0:
84,116,268733,2,0,L|93:181,1,48,0|0,3:0|2:0,0:0:0:0:
195,254,268900,1,0,0:0:0:0:
182,267,268984,2,0,L|191:202,1,48,2|0,3:2|2:0,0:0:0:0:
22,255,269152,6,0,L|98:253,1,48,8|0,0:0|0:0,0:0:0:0:
186,135,269319,2,0,L|262:133,1,48,2|0,0:2|0:0,0:0:0:0:
361,313,269487,6,0,L|443:330,2,72.0000027465821,0|0|2,3:0|2:0|0:2,0:0:0:0:
343,225,269738,2,0,L|497:259,1,144.000005493164,8|0,0:0|0:0,0:0:0:0:
393,150,269990,2,0,L|476:167,1,72.0000027465821,2|0,3:2|0:0,0:0:0:0:
511,262,270157,1,8,0:0:0:0:
267,175,270325,5,2,3:2:0:0:
267,175,270409,1,2,3:2:0:0:
267,175,270492,2,2,P|251:220|260:260,1,72.0000027465821,10|2,0:2|0:2,0:2:0:0:
191,363,270660,2,2,P|192:327|177:294,1,72.0000027465821,10|2,0:2|0:2,0:2:0:0:
96,254,270828,1,0,3:0:0:0:
403,176,271163,6,0,B|333:198|333:198|249:169,1,144.000005493164,12|2,0:1|0:2,0:0:0:0:
266,174,271414,1,2,0:2:0:0:
266,174,271498,2,2,L|256:261,1,72.0000027465821,0|0,0:1|0:1,0:1:0:0:
419,332,271666,2,0,L|411:260,1,72.0000027465821,2|0,3:1|0:0,0:0:0:0:
180,209,271833,1,12,0:2:0:0:
491,207,272001,1,2,0:1:0:0:
335,107,272168,6,0,B|328:157|328:157|341:202|341:202|333:268,1,144.000005493164,0|2,3:0|0:2,0:0:0:0:
188,114,272504,1,12,0:2:0:0:
335,248,272671,1,2,0:2:0:0:
165,331,272839,2,2,B|133:292|133:292|147:177,1,144.000005493164,0|2,0:1|3:2,0:1:0:0:
144,199,273090,1,2,0:2:0:0:
144,199,273174,2,0,L|66:208,1,72.0000027465821,12|0,0:2|0:0,0:0:0:0:
257,353,273341,2,0,L|335:344,1,72.0000027465821,2|0,0:2|0:0,0:0:0:0:
493,302,273509,6,2,B|464:281|451:233|451:233|410:265|410:265|372:213|372:213|341:245|290:252,1,288.000010986329,4|12,3:1|0:2,0:1:0:0:
300,92,274012,2,0,P|289:134|302:178,1,72.0000027465821,2|2,0:2|0:2,0:0:0:0:
452,68,274179,5,0,0:0:0:0:
452,68,274263,1,0,0:0:0:0:
452,68,274347,1,0,3:0:0:0:
452,68,274431,1,0,0:0:0:0:
394,130,274515,2,2,B|332:130|332:130|292:106|292:106|246:129|246:129|190:129,1,216.000008239746,12|0,0:2|0:1,0:1:0:0:
34,59,274850,6,0,P|4:125|61:205,1,144,4|2,3:3|0:2,0:0:0:0:
110,157,275185,1,12,0:2:0:0:
110,157,275269,1,0,0:0:0:0:
110,157,275353,2,0,L|104:101,1,48,2|0,0:2|0:0,0:0:0:0:
52,268,275520,6,2,L|136:259,1,72.0000027465821,2|2,0:2|0:2,0:2:0:0:
333,358,275688,2,2,L|249:349,1,72.0000027465821,2|2,3:2|0:2,0:2:0:0:
192,196,275855,2,2,L|249:188,4,48.0000018310548,10|2|2|2|2,0:0|0:0|0:0|0:0|0:0,0:0:0:0:
355,242,276191,6,2,B|421:216|496:226|496:226|450:215|420:187,1,216.000008239746,4|2,3:1|0:2,0:1:0:0:
402,62,276526,1,12,0:2:0:0:
403,312,276693,1,2,0:2:0:0:
403,312,276777,1,2,0:2:0:0:
403,312,276861,2,2,P|442:303|483:305,1,72.0000027465821,0|0,0:1|0:1,0:1:0:0:
356,158,277029,2,0,P|320:158|285:149,1,72.0000027465821,2|0,3:1|0:0,0:0:0:0:
473,142,277196,1,12,0:2:0:0:
312,333,277364,1,2,0:1:0:0:
202,117,277531,6,0,B|195:68|193:3|193:3|226:42,1,144.000005493164,0|2,3:0|0:2,0:0:0:0:
73,134,277867,2,0,B|80:183|82:248|82:248|49:209,1,144.000005493164,12|2,0:2|0:2,0:0:0:0:
48,328,278118,1,2,0:2:0:0:
48,328,278202,6,0,P|93:331|128:319,1,72.0000027465821,2|0,0:1|0:0,0:0:0:0:
202,117,278369,2,0,P|247:114|282:126,1,72.0000027465821,2|0,3:1|0:0,0:0:0:0:
296,254,278537,5,14,0:2:0:0:
342,265,278621,1,2,0:2:0:0:
389,258,278705,1,2,0:2:0:0:
426,228,278788,1,2,0:2:0:0:
475,161,278872,6,0,P|507:212|474:283,1,128,4|2,3:1|0:2,0:0:0:0:
401,348,279207,1,8,0:0:0:0:
401,348,279319,2,0,B|379:307|379:307|393:243,1,96.0000036621095,2|2,0:2|0:2,0:0:0:0:
375,73,279543,1,0,0:0:0:0:
375,73,279655,2,0,B|397:114|397:114|383:178,1,96.0000036621095,2|2,0:2|0:2,0:0:0:0:
282,207,279878,6,0,B|212:185|212:185|142:207,1,144.000005493164,8|2,0:0|3:2,0:0:0:0:
144,206,280129,1,2,3:2:0:0:
145,207,280213,6,0,L|130:44,1,144.000005493164,4|2,3:1|0:2,0:0:0:0:
32,237,280548,1,8,0:0:0:0:
268,350,280716,2,0,L|283:186,1,144.000005493164,0|2,3:0|0:2,0:0:0:0:
478,182,281051,5,10,0:2:0:0:
485,229,281135,1,2,0:0:0:0:
458,269,281219,1,2,0:0:0:0:
412,282,281302,1,2,0:0:0:0:
368,261,281386,1,2,0:0:0:0:
358,213,281470,1,2,0:0:0:0:
384,172,281554,6,0,L|391:84,1,72.0000027465821,4|0,0:1|0:0,0:0:0:0:
265,14,281889,2,0,L|258:102,1,72.0000027465821
214,184,282224,5,0,0:0:0:0:
361,275,282392,1,0,0:0:0:0:
259,85,282559,1,0,0:0:0:0:
197,275,282727,1,0,0:0:0:0:
429,219,282895,5,0,0:0:0:0:
400,181,282978,1,0,0:0:0:0:
352,174,283062,1,0,0:0:0:0:
309,195,283146,1,0,0:0:0:0:
278,232,283230,1,0,0:0:0:0:
244,266,283314,1,0,0:0:0:0:
197,275,283397,1,0,0:0:0:0:
156,248,283481,1,0,0:0:0:0:
132,205,283565,6,0,L|98:203,6,24
210,136,283900,6,0,L|216:215,1,48
65,320,284068,2,0,L|59:241,1,48
128,63,284235,5,4,3:3:0:0:
256,192,284319,12,0,285409,0:0:0:0:
