osu file format v14

[General]
AudioFilename: aaaa.mp3
AudioLeadIn: 0
PreviewTime: 215926
Countdown: 0
SampleSet: Normal
StackLeniency: 0.7
Mode: 1
LetterboxInBreaks: 0
WidescreenStoryboard: 0

[Editor]
Bookmarks: 2741,13468,24194,34920,45646,56373,67099,77825,88551,89641,99278,110004,119389,131456,142183,152909,292350
DistanceSpacing: 2.8
BeatDivisor: 4
GridSize: 4
TimelineZoom: 2.999999

[Metadata]
Title:Bassdrop Freaks (Long Ver.)
TitleUnicode:ベィスドロップ・フリークス(Long Ver.)
Artist:Camellia feat. Nanahira
ArtistUnicode:かめりあ feat. ななひら
Creator:Kin
Version:Drumstep Freaks
Source:beatmania IIDX 22 PENDUAL
Tags:A-STYLE A STYLE DRUMSTEP Meltical sugar wave EXIT TUNES
BeatmapID:1379208
BeatmapSetID:650931

[Difficulty]
HPDrainRate:4
CircleSize:5
OverallDifficulty:6.5
ApproachRate:5
SliderMultiplier:1.4
SliderTickRate:1

[Events]
//Background and Video events
0,0,"Bassdrop!.png",0,39
//Break Periods
//Storyboard Layer 0 (Background)
//Storyboard Layer 1 (Fail)
//Storyboard Layer 2 (Pass)
//Storyboard Layer 3 (Foreground)
//Storyboard Sound Samples

[TimingPoints]
1401,335.195530726257,4,1,0,80,1,0
2322,-111.111111111111,4,1,0,80,0,0
2490,-100,4,1,0,80,0,0
2657,-71.4285714285714,4,1,0,100,0,0
3328,-100,4,1,0,100,0,0
3495,-104.166666666667,4,1,0,100,0,0
3663,-108.695652173913,4,1,0,100,0,0
3831,-83.3333333333333,4,1,0,100,0,0
4166,-100,4,1,0,100,0,0
4333,-96.1538461538461,4,1,0,100,0,0
4501,-83.3333333333333,4,1,0,100,0,0
5004,-62.5,4,1,0,100,0,0
5339,-83.3333333333333,4,1,0,100,0,0
6009,-102.040816326531,4,1,0,100,0,0
6177,-104.166666666667,4,1,0,100,0,0
6261,-106.382978723404,4,1,0,100,0,0
6345,-108.695652173913,4,1,0,100,0,0
6428,-111.111111111111,4,1,0,100,0,0
6596,-83.3333333333333,4,1,0,100,0,0
6931,-80,4,1,0,100,0,0
7099,-76.9230769230769,4,1,0,100,0,0
7266,-71.4285714285714,4,1,0,100,0,0
7602,-83.3333333333333,4,1,0,100,0,0
7685,-84.7457627118644,4,1,0,100,0,0
7769,-86.2068965517241,4,1,0,100,0,0
7853,-87.719298245614,4,1,0,100,0,0
7937,-89.2857142857143,4,1,0,100,0,0
8104,-83.3333333333333,4,1,0,100,0,0
8775,-100,4,1,0,100,0,0
8942,-96.1538461538461,4,1,0,100,0,0
9026,-94.3396226415094,4,1,0,100,0,0
9110,-92.5925925925926,4,1,0,100,0,0
9278,-83.3333333333333,4,1,0,100,0,0
9613,-92.5925925925926,4,1,0,100,0,0
9780,-89.2857142857143,4,1,0,100,0,0
9948,-83.3333333333333,4,1,0,100,0,0
10367,-62.5,4,1,0,100,0,0
10702,-83.3333333333333,4,1,0,100,0,0
11037,-86.0215053763441,4,1,0,100,0,0
11121,-86.9565217391304,4,1,0,100,0,0
11289,-88.8888888888889,4,1,0,100,0,0
11456,-90.9090909090909,4,1,0,100,0,0
11624,-93.0232558139535,4,1,0,100,0,0
11792,-95.2380952380952,4,1,0,100,0,0
11959,-98.7654320987654,4,1,0,100,0,0
12127,-100,4,1,0,100,0,0
12378,-83.3333333333333,4,1,0,100,0,0
12630,-71.4285714285714,4,1,0,100,0,0
12881,-62.5,4,1,0,100,0,0
13132,-70.0000210000063,4,1,0,100,0,0
13300,-76.0872873360319,4,1,0,100,0,0
13468,-83.3333333333333,4,1,0,100,0,0
13719,-100,4,1,0,100,0,0
16233,-98.4251968503937,4,1,0,100,0,0
16317,-96.8992248062015,4,1,0,100,0,0
16401,-95.4198473282443,4,1,0,100,0,0
16484,-93.984962406015,4,1,0,100,0,0
16652,-96.8992248062015,4,1,0,100,0,0
16819,-100,4,1,0,100,0,0
18370,-98.4251968503937,4,1,0,100,0,0
18454,-96.8992248062015,4,1,0,100,0,0
18538,-95.4198473282443,4,1,0,100,0,0
18621,-93.984962406015,4,1,0,100,0,0
18705,-92.5925925925926,4,1,0,100,0,0
18789,-91.2408759124088,4,1,0,100,0,0
18998,-95.4198473282443,4,1,0,100,0,0
19166,-100,4,1,0,100,0,0
21847,-90.9090909090909,4,1,0,100,0,0
21931,-88.8888888888889,4,1,0,100,0,0
22015,-86.9565217391304,4,1,0,100,0,0
22099,-85.1063829787234,4,1,0,100,0,0
22183,-83.3333333333333,4,1,0,100,0,0
22350,-80,4,1,0,100,0,0
22518,-76.9230769230769,4,1,0,100,0,0
22602,-75.4716981132076,4,1,0,100,0,0
22685,-74.0740740740741,4,1,0,100,0,0
22769,-72.7272727272727,4,1,0,100,0,0
22937,-70.1754385964912,4,1,0,100,0,0
23188,-66.6666666666667,4,1,0,100,0,0
23356,-70.5915572497529,4,1,0,100,0,0
23523,-75.0018750468762,4,1,0,100,0,0
23691,-80,4,1,0,100,0,0
23859,-85.7191839533688,4,1,0,100,0,0
24026,-92.3105326317733,4,1,0,100,0,0
24194,-100,4,1,0,100,0,0
24529,-107.665805340224,4,1,0,50,0,0
24697,-112.007168458781,4,1,0,70,0,0
24864,-113.636363636364,4,1,0,65,0,0
25032,-116.672500291681,4,1,0,60,0,0
25199,-121.743364986608,4,1,0,55,0,0
25367,-127.275041364388,4,1,0,50,0,0
25702,-133.333333333333,4,1,0,50,0,0
34920,-100,4,1,0,100,0,0
40451,-97.9623824451411,4,1,0,100,0,0
40535,-96.9743987587277,4,1,0,100,0,0
40618,-96.0061443932412,4,1,0,100,0,0
40702,-95.0570342205323,4,1,0,100,0,0
40786,-94.1265060240964,4,1,0,100,0,0
40954,-92.3190546528804,4,1,0,100,0,0
41121,-90.5797101449275,4,1,0,100,0,0
41205,-89.7343862167983,4,1,0,100,0,0
41289,-88.9046941678521,4,1,0,100,0,0
41373,-88.0902043692741,4,1,0,100,0,0
41456,-87.2905027932961,4,1,0,100,0,0
41624,-85.7338820301783,4,1,0,100,0,0
41792,-84.2318059299191,4,1,0,100,0,0
41875,-83.500334001336,4,1,0,100,0,0
41959,-82.7814569536424,4,1,0,100,0,0
42043,-82.0748522652659,4,1,0,100,0,0
42127,-81.3802083333333,4,1,0,100,0,0
42294,-80.0256081946223,4,1,0,100,0,0
42462,-78.7153652392947,4,1,0,100,0,0
42630,-77.4473358116481,4,1,0,100,0,0
42797,-76.219512195122,4,1,0,100,0,0
42965,-75.0300120048019,4,1,0,100,0,0
43049,-74.4490768314473,4,1,0,100,0,0
43132,-73.8770685579196,4,1,0,100,0,0
43188,-73.4710670937785,4,1,0,100,0,0
43244,-73.0977053168347,4,1,0,100,0,0
43300,-72.7285421709179,4,1,0,100,0,0
43384,-72.212593876372,4,1,0,100,0,0
43468,-71.6743119266055,4,1,0,100,0,0
43551,-71.1439954467843,4,1,0,100,0,0
43635,-70.5895640388525,4,1,0,100,0,0
43691,-70.2451414947885,4,1,0,100,0,0
43747,-69.9040636630289,4,1,0,100,0,0
43803,-69.5664272422129,4,1,0,100,0,0
43859,-69.2317491262953,4,1,0,100,0,0
43914,-68.9004182255386,4,1,0,100,0,0
43970,-68.572243601524,4,1,0,100,0,0
44026,-68.2471803677431,4,1,0,100,0,0
44082,-67.9251844848011,4,1,0,100,0,0
44138,-67.606212740526,4,1,0,100,0,0
44194,-67.2902227306372,4,1,0,100,0,0
44250,-66.9771728399527,4,1,0,100,0,0
44306,-66.7022411953042,4,1,0,100,0,0
45646,-83.3333333333333,4,1,0,100,0,1
56428,-84.3881856540084,4,1,0,100,0,1
56484,-85.4700854700855,4,1,0,100,0,1
56540,-86.5800865800866,4,1,0,100,0,1
56875,-83.3333333333333,4,1,0,100,0,1
67099,-100,4,1,0,100,0,0
71624,-90.9090909090909,4,1,0,100,0,0
71792,-83.3333333333333,4,1,0,100,0,0
72127,-71.4285714285714,4,1,0,100,0,0
72462,-62.5,4,1,0,100,0,0
72797,-71.4285714285714,4,1,0,100,0,0
72853,-72.5794745246044,4,1,0,100,0,0
72909,-73.7680731779286,4,1,0,100,0,0
72965,-75.0018750468762,4,1,0,100,0,0
73132,-78.9515237644086,4,1,0,100,0,0
73300,-83.3333333333333,4,1,0,100,0,0
73468,-88.2378893496868,4,1,0,100,0,0
73635,-93.7558597412338,4,1,0,100,0,0
73803,-100,4,1,0,100,0,0
75479,-96.0002457606291,4,1,0,100,0,0
75563,-95.0498060983956,4,1,0,100,0,0
75646,-94.118001385417,4,1,0,100,0,0
75730,-93.2042888885575,4,1,0,100,0,0
75814,-92.3081467477994,4,1,0,100,0,0
75898,-91.4290729823432,4,1,0,100,0,0
75982,-90.5665845529633,4,1,0,100,0,0
76065,-89.7202164769383,4,1,0,100,0,0
76149,-88.8895209921493,4,1,0,100,0,0
76317,-87.2734381545508,4,1,0,100,0,0
76401,-86.4872344841901,4,1,0,100,0,0
76484,-85.7150693949202,4,1,0,100,0,0
76652,-84.2113772939179,4,1,0,100,0,0
76736,-83.4791435707703,4,1,0,100,0,0
76819,-82.7595338983051,4,1,0,100,0,0
76987,-81.3569029705032,4,1,0,100,0,0
77155,-80,4,1,0,100,0,0
77406,-83.7696335078534,4,1,0,100,0,0
77657,-87.9120879120879,4,1,0,100,0,0
77713,-88.8888888888889,4,1,0,100,0,0
77769,-89.8876404494382,4,1,0,100,0,0
77825,-90.9090909090909,4,1,0,100,0,0
83523,-100,4,1,0,100,0,0
86037,-96.969696969697,4,1,0,100,0,0
86121,-95.5223880597015,4,1,0,100,0,0
86205,-94.1176470588235,4,1,0,100,0,0
86289,-92.7536231884058,4,1,0,100,0,0
86373,-91.4285714285714,4,1,0,100,0,0
86456,-90.1408450704225,4,1,0,100,0,0
86540,-88.8888888888889,4,1,0,100,0,0
86624,-87.6712328767123,4,1,0,100,0,0
86708,-86.4864864864865,4,1,0,100,0,0
86792,-85.3333333333333,4,1,0,100,0,0
86875,-84.2105263157895,4,1,0,100,0,0
86959,-83.1168831168831,4,1,0,100,0,0
87043,-82.051282051282,4,1,0,100,0,0
87127,-81.0126582278481,4,1,0,100,0,0
87211,-80,4,1,0,100,0,0
87462,-71.4285714285714,4,1,0,100,0,0
87713,-64.5161290322581,4,1,0,100,0,0
87965,-58.8235294117647,4,1,0,100,0,0
88216,-64.5161290322581,4,1,0,100,0,0
88384,-68.5682940208447,4,1,0,100,0,0
88551,-73.1635937957273,4,1,0,100,0,0
88887,-84.5022815616022,4,1,0,100,0,0
89222,-100,4,1,0,100,0,0
98021,-99.3788819875776,4,1,0,100,0,0
98104,-98.7654320987654,4,1,0,100,0,0
98188,-98.159509202454,4,1,0,100,0,0
98272,-97.5609756097561,4,1,0,100,0,0
98440,-96.3855421686747,4,1,0,100,0,0
98607,-95.2380952380952,4,1,0,100,0,0
98691,-94.6745562130178,4,1,0,100,0,0
98775,-94.1176470588235,4,1,0,100,0,0
98859,-93.5672514619883,4,1,0,100,0,0
98942,-93.0232558139535,4,1,0,100,0,0
99110,-91.9540229885057,4,1,0,100,0,0
99194,-91.6380297823597,4,1,0,100,0,0
99278,-90.9090909090909,4,1,0,100,0,0
107822,-86.9565217391304,4,1,0,100,0,0
107906,-85.1063829787234,4,1,0,100,0,0
107990,-83.3333333333333,4,1,0,100,0,0
108157,-80,4,1,0,100,0,0
108244,-78.4313725490196,4,1,0,100,0,0
108325,-76.9230769230769,4,1,0,100,0,0
108409,-75.4716981132076,4,1,0,100,0,0
108492,-74.0740740740741,4,1,0,100,0,0
108576,-72.7272727272727,4,1,0,100,0,0
108744,-70.1754385964912,4,1,0,100,0,0
108995,-66.6666666666667,4,1,0,100,0,0
109163,-70.5915572497529,4,1,0,100,0,0
109330,-75.0018750468762,4,1,0,100,0,0
109498,-80,4,1,0,100,0,0
109666,-85.7191839533688,4,1,0,100,0,0
109833,-92.3105326317733,4,1,0,100,0,0
110001,-100,4,1,0,100,0,0
118887,-103.092783505155,4,1,0,85,0,0
119054,-106.382978723404,4,1,0,70,0,0
119222,-109.89010989011,4,1,0,55,0,0
119389,-100,4,1,0,100,0,0
120730,-114.942528735632,4,1,0,100,0,0
121401,-100,4,1,0,100,0,0
130367,-106.382978723404,4,1,0,100,0,0
130618,-113.636363636364,4,1,0,100,0,0
130786,-71.4285714285714,4,1,0,100,0,0
131456,-90.9090909090909,4,1,0,100,0,0
135646,-88.2378893496868,4,1,0,100,0,0
135814,-85.7147755130029,4,1,0,100,0,0
135982,-83.3333333333333,4,1,0,100,0,0
136065,-82.1922311903079,4,1,0,100,0,0
136149,-81.0813002197303,4,1,0,100,0,0
136233,-80,4,1,0,100,0,0
136317,-78.9477839357049,4,1,0,100,0,0
136484,-76.9230769230769,4,1,0,100,0,0
136819,-90.9090909090909,4,1,0,100,0,0
140060,-87.8662043732767,4,1,0,100,0,0
140171,-86.4198917850115,4,1,0,100,0,0
140283,-85.0204219053417,4,1,0,100,0,0
140507,-82.3531930803553,4,1,0,100,0,0
140618,-81.0813659615561,4,1,0,100,0,0
140730,-79.8482244948801,4,1,0,100,0,0
140842,-78.6520300482216,4,1,0,100,0,0
140954,-77.4911466364968,4,1,0,100,0,0
141065,-76.3640334566103,4,1,0,100,0,0
141177,-75.2703711732543,4,1,0,100,0,0
141289,-74.2053901311283,4,1,0,100,0,0
141401,-73.1711957197777,4,1,0,100,0,0
141512,-72.1654320364002,4,1,0,100,0,0
141624,-71.1869426062394,4,1,0,100,0,0
141736,-70.2346328379216,4,1,0,100,0,0
141847,-69.3074659388459,4,1,0,100,0,0
142183,-62.5,4,1,0,100,0,0
142518,-74.0740740740741,4,1,0,100,0,0
142853,-90.9090909090909,4,1,0,100,0,0
144110,-86.4864864864865,4,1,0,100,0,0
144194,-85.1063829787234,4,1,0,100,0,0
144445,-71.4285714285714,4,1,0,100,0,0
144697,-78.6348981678069,4,1,0,100,0,0
144864,-84.3383655224762,4,1,0,100,0,0
144920,-86.4229539365655,4,1,0,100,0,0
144976,-88.6132033673017,4,1,0,100,0,0
145032,-90.9090909090909,4,1,0,100,0,0
146205,-88.2378893496868,4,1,0,100,0,0
146373,-85.7147755130029,4,1,0,100,0,0
146541,-83.3333333333333,4,1,0,100,0,0
146624,-82.1922311903079,4,1,0,100,0,0
146708,-81.0813002197303,4,1,0,100,0,0
146792,-80,4,1,0,100,0,0
146876,-78.9477839357049,4,1,0,100,0,0
147043,-76.9230769230769,4,1,0,100,0,0
147211,-81.0813002197303,4,1,0,100,0,0
147378,-85.7147755130029,4,1,0,100,0,0
147546,-90.9090909090909,4,1,0,100,0,0
147881,-85.7147755130029,4,1,0,100,0,0
148049,-83.3333333333333,4,1,0,100,0,0
148132,-82.1922311903079,4,1,0,100,0,0
148300,-80,4,1,0,100,0,0
148384,-78.9477839357049,4,1,0,100,0,0
148551,-76.9230769230769,4,1,0,100,0,0
148635,-75.9497516443121,4,1,0,100,0,0
148887,-78.947409972321,4,1,0,100,0,0
149222,-69.7676041107072,4,1,0,100,0,0
149389,-68.1821281005823,4,1,0,100,0,0
149473,-67.4157318520389,4,1,0,100,0,0
149641,-65.9340949160857,4,1,0,100,0,0
149725,-65.2175330815937,4,1,0,100,0,0
149892,-63.8300588513143,4,1,0,100,0,0
149976,-63.1580277011109,4,1,0,100,0,0
150227,-65.2174054820447,4,1,0,100,0,0
150563,-58.8235294117647,4,1,0,100,0,0
150730,-57.6924186392666,4,1,0,100,0,0
150814,-57.1428571428571,4,1,0,100,0,0
150982,-56.0748711679835,4,1,0,100,0,0
151065,-55.5555555555556,4,1,0,100,0,0
151233,-54.5455537191886,4,1,0,100,0,0
151317,-54.054054054054,4,1,0,100,0,0
151568,-55.5555555555556,4,1,0,100,0,0
151736,-51.7242271107364,4,1,0,100,0,0
151819,-51.2820512820513,4,1,0,100,0,0
151987,-50.4202528071476,4,1,0,100,0,0
152071,-50,4,1,0,100,0,0
152322,-51.9480519480519,4,1,0,100,0,0
152406,-54.054054054054,4,1,0,100,0,0
152490,-56.3380281690141,4,1,0,100,0,0
152574,-58.8235294117647,4,1,0,100,0,0
152657,-61.5384615384615,4,1,0,100,0,0
152741,-64.5161290322581,4,1,0,100,0,0
152909,-71.4285714285714,4,1,0,100,0,0
153076,-133.333333333333,4,1,0,50,0,0
157518,-129.032258064516,4,1,0,50,0,0
157602,-125,4,1,0,50,0,0
157685,-121.212121212121,4,1,0,50,0,0
157769,-117.647058823529,4,1,0,50,0,0
157853,-114.285714285714,4,1,0,50,0,0
157937,-111.111111111111,4,1,0,50,0,0
158021,-108.108108108108,4,1,0,50,0,0
158104,-105.263157894737,4,1,0,50,0,0
158188,-102.564102564103,4,1,0,50,0,0
158272,-100,4,1,0,50,0,0
158356,-101.26582278481,4,1,0,50,0,0
158440,-102.564102564103,4,1,0,50,0,0
158523,-103.896103896104,4,1,0,50,0,0
158607,-105.263157894737,4,1,0,50,0,0
159613,-133.333333333333,4,1,0,50,0,0
163090,-114.285714285714,4,1,0,50,0,0
163174,-106.666666666667,4,1,0,50,0,0
163258,-100,4,1,0,80,0,0
163426,-90.9090909090909,4,1,0,80,0,0
163593,-71.4285714285714,4,1,0,100,0,0
164222,-100,4,1,0,100,0,0
164389,-104.166666666667,4,1,0,100,0,0
164557,-108.695652173913,4,1,0,100,0,0
164725,-83.3333333333333,4,1,0,100,0,0
165060,-100,4,1,0,100,0,0
165227,-96.1538461538461,4,1,0,100,0,0
165395,-83.3333333333333,4,1,0,100,0,0
165982,-62.5,4,1,0,100,0,0
166317,-83.3333333333333,4,1,0,100,0,0
166861,-102.040816326531,4,1,0,100,0,0
167029,-104.166666666667,4,1,0,100,0,0
167113,-106.382978723404,4,1,0,100,0,0
167197,-108.695652173913,4,1,0,100,0,0
167280,-111.111111111111,4,1,0,100,0,0
167448,-83.3333333333333,4,1,0,100,0,0
167825,-80,4,1,0,100,0,0
167993,-76.9230769230769,4,1,0,100,0,0
168160,-71.4285714285714,4,1,0,100,0,0
168454,-83.3333333333333,4,1,0,100,0,0
168537,-84.7457627118644,4,1,0,100,0,0
168621,-86.2068965517241,4,1,0,100,0,0
168705,-87.719298245614,4,1,0,100,0,0
168789,-89.2857142857143,4,1,0,100,0,0
168956,-83.3333333333333,4,1,0,100,0,0
169669,-98.0392156862745,4,1,0,100,0,0
169752,-96.1538461538461,4,1,0,100,0,0
169836,-94.3396226415094,4,1,0,100,0,0
169920,-92.5925925925926,4,1,0,100,0,0
170171,-83.3333333333333,4,1,0,100,0,0
170674,-96.1538461538461,4,1,0,100,0,0
170842,-83.3333333333333,4,1,0,100,0,0
171345,-62.5,4,1,0,100,0,0
171680,-83.3333333333333,4,1,0,100,0,0
171931,-86.0215053763441,4,1,0,100,0,0
172015,-86.9565217391304,4,1,0,100,0,0
172183,-88.8888888888889,4,1,0,100,0,0
172350,-90.9090909090909,4,1,0,100,0,0
172518,-93.0232558139535,4,1,0,100,0,0
172685,-95.2380952380952,4,1,0,100,0,0
172769,-96.3855421686747,4,1,0,100,0,0
172853,-97.5609756097561,4,1,0,100,0,0
173104,-93.7505859411621,4,1,0,100,0,0
173356,-78.9477839357049,4,1,0,100,0,0
173523,-71.4285714285714,4,1,0,100,0,0
173691,-65.2188091045458,4,1,0,100,0,0
173859,-60.00024000096,4,1,0,100,0,0
174026,-55.5555555555556,4,1,0,100,0,0
174361,-64.9350649350649,4,1,0,100,0,0
174697,-72.463768115942,4,1,0,100,0,0
174864,-76.9230769230769,4,1,0,100,0,0
175032,-81.9672131147541,4,1,0,100,0,0
175199,-86.2068965517241,4,1,0,100,0,0
175367,-92.5925925925926,4,1,0,100,0,0
175535,-100,4,1,0,100,0,0
206037,-97.5609756097561,4,1,0,100,0,0
206205,-95.2380952380952,4,1,0,100,0,0
206373,-93.0232558139535,4,1,0,100,0,0
206540,-90.9090909090909,4,1,0,100,0,0
212071,-90.0563392458322,4,1,0,100,0,0
212155,-89.2194369896648,4,1,0,100,0,0
212238,-88.3981026231253,4,1,0,100,0,0
212322,-87.5914454690697,4,1,0,100,0,0
212406,-86.7995278105687,4,1,0,100,0,0
212490,-86.021801365338,4,1,0,100,0,0
212574,-85.2578880598033,4,1,0,100,0,0
212657,-83.7992572033841,4,1,0,100,0,0
212741,-83.7700545510595,4,1,0,100,0,0
212825,-83.0454424661175,4,1,0,100,0,0
212909,-82.3332586845121,4,1,0,100,0,0
212993,-81.6331861759097,4,1,0,100,0,0
213076,-80.9449186017899,4,1,0,100,0,0
213160,-80.2681598684886,4,1,0,100,0,0
213244,-79.6026237024772,4,1,0,100,0,0
213328,-78.9480332465958,4,1,0,100,0,0
213412,-78.3041206760465,4,1,0,100,0,0
213495,-77.6706268330268,4,1,0,100,0,0
213579,-77.0473008789556,4,1,0,100,0,0
213663,-76.4338999633117,4,1,0,100,0,0
213747,-75.8301889081666,4,1,0,100,0,0
213831,-75.2359399075501,4,1,0,100,0,0
213914,-74.6509322408418,4,1,0,100,0,0
213998,-74.0749519994311,4,1,0,100,0,0
214082,-73.5077918259336,4,1,0,100,0,0
214166,-72.9492506652972,4,1,0,100,0,0
214250,-72.39913352717,4,1,0,100,0,0
214333,-71.857251258939,4,1,0,100,0,0
214417,-71.3234203288866,4,1,0,100,0,0
214501,-70.7974626189397,4,1,0,100,0,0
214585,-70.2792052265239,4,1,0,100,0,0
214641,-69.9378951491076,4,1,0,100,0,0
214697,-69.5998841857927,4,1,0,100,0,0
214752,-69.3126541340146,4,1,0,100,0,0
214836,-68.7689802385458,4,1,0,100,0,0
214920,-68.2798929371279,4,1,0,100,0,0
214976,-67.9576813926432,4,1,0,100,0,0
215032,-67.6384965856087,4,1,0,100,0,0
215088,-67.3222960673008,4,1,0,100,0,0
215171,-66.8534999144275,4,1,0,100,0,0
215255,-66.3911874993361,4,1,0,100,0,0
215311,-66.0865151787508,4,1,0,100,0,0
215367,-65.7846263959498,4,1,0,100,0,0
215423,-65.4854831780891,4,1,0,100,0,0
215479,-65.1890482398957,4,1,0,100,0,0
215535,-64.8952849681753,4,1,0,100,0,0
215590,-64.6041574067374,4,1,0,100,0,0
215646,-64.3156302417239,4,1,0,100,0,0
215702,-64.0296687873293,4,1,0,100,0,0
215758,-63.7462389719007,4,1,0,100,0,0
215814,-63.4653073244042,4,1,0,100,0,0
215870,-62.6754913758524,4,1,0,100,0,0
215926,-62.5,4,1,0,100,0,0
217266,-83.3333333333333,4,1,0,100,0,1
227993,-88.2352941176471,4,1,0,100,0,0
228328,-100,4,1,0,100,0,0
228663,-83.3333333333333,4,1,0,100,0,1
237378,-76.3895254682678,4,1,0,100,0,1
237630,-67.9024920214572,4,1,0,100,0,1
237881,-61.1127407841987,4,1,0,100,0,1
238132,-55.5555555555556,4,1,0,100,0,1
238384,-65.2175330815937,4,1,0,100,0,1
238719,-78.9477839357049,4,1,0,100,0,0
239054,-100,4,1,0,100,0,0
247099,-98.7654320987654,4,1,0,100,0,0
247266,-98.159509202454,4,1,0,100,0,0
247350,-97.8593272171254,4,1,0,100,0,0
247434,-97.5609756097561,4,1,0,100,0,0
247518,-97.2644376899696,4,1,0,100,0,0
247602,-96.969696969697,4,1,0,100,0,0
247769,-96.3855421686747,4,1,0,100,0,0
247937,-95.8083832335329,4,1,0,100,0,0
248021,-95.5223880597015,4,1,0,100,0,0
248104,-95.2380952380952,4,1,0,100,0,0
248272,-94.6745562130178,4,1,0,100,0,0
248440,-94.1176470588235,4,1,0,100,0,0
248607,-93.5672514619883,4,1,0,100,0,0
248691,-93.2944606413994,4,1,0,100,0,0
248775,-93.0232558139535,4,1,0,100,0,0
248859,-92.7536231884058,4,1,0,100,0,0
248942,-92.485549132948,4,1,0,100,0,0
249026,-92.2190201729107,4,1,0,100,0,0
249110,-91.9540229885057,4,1,0,100,0,0
249194,-91.6905444126074,4,1,0,100,0,0
249278,-91.4285714285714,4,1,0,100,0,0
249361,-91.0125142207053,4,1,0,100,0,0
249445,-90.9090909090909,4,1,0,100,0,0
258914,-84.9681199613905,4,1,0,100,0,0
259166,-77.3826105797505,4,1,0,100,0,0
259333,-73.0357758444396,4,1,0,100,0,0
259501,-69.1513196837848,4,1,0,100,0,0
259669,-65.6591920242466,4,1,0,100,0,0
259836,-62.5,4,1,0,100,0,0
259920,-63.7450199203187,4,1,0,100,0,0
260004,-65.0406504065041,4,1,0,100,0,0
260088,-66.3900414937759,4,1,0,100,0,0
260171,-67.7966101694915,4,1,0,100,0,0
260227,-68.7679114621392,4,1,0,100,0,0
260283,-69.7674580854554,4,1,0,100,0,0
260339,-70.7964601769911,4,1,0,100,0,0
260423,-72.3981900452489,4,1,0,100,0,0
260507,-74.0740740740741,4,1,0,100,0,0
260590,-75.8293838862559,4,1,0,100,0,0
260674,-77.6699029126214,4,1,0,100,0,0
260758,-79.6019900497512,4,1,0,100,0,0
260842,-81.6326530612245,4,1,0,100,0,0
261177,-90.9090909090909,4,1,0,100,0,0
262685,-95.2380952380952,4,1,0,85,0,0
262853,-100,4,1,0,70,0,0
263021,-105.263157894737,4,1,0,55,0,0
263188,-100,4,1,0,100,0,0
263272,-97.5609756097561,4,1,0,100,0,0
263356,-95.2380952380952,4,1,0,100,0,0
263440,-93.0232558139535,4,1,0,100,0,0
263523,-90.9090909090908,4,1,0,100,0,0
268216,-71.4285714285714,4,1,0,100,0,0
268551,-90.9090909090909,4,1,0,100,0,0
273132,-98.0392156862745,4,1,0,100,0,0
273356,-106.382978723404,4,1,0,100,0,0
273579,-116.279069767442,4,1,0,100,0,0
274250,-90.9090909090909,4,1,0,100,0,0
279110,-87.5912920241121,4,1,0,100,0,0
279278,-84.5071374728309,4,1,0,100,0,0
279361,-83.0450976402736,4,1,0,100,0,0
279445,-81.5662015761853,4,1,0,100,0,0
279529,-80.2677088625985,4,1,0,100,0,0
279613,-78.9475346263887,4,1,0,100,0,0
279697,-77.6700838914576,4,1,0,100,0,0
279780,-76.4333157536707,4,1,0,100,0,0
279864,-75.2353172635711,4,1,0,100,0,0
279948,-74.0742935534624,4,1,0,100,0,0
280032,-72.9485588647454,4,1,0,100,0,0
280116,-71.856528381173,4,1,0,100,0,0
280283,-69.7677014612147,4,1,0,100,0,0
280535,-66.8526507410282,4,1,0,100,0,0
280786,-64.1714249778288,4,1,0,100,0,0
280954,-62.5,4,1,0,100,0,0
281624,-83.3333333333333,4,1,0,100,0,1
292099,-85.1063829787234,4,1,0,100,0,1
292183,-86.9565217391304,4,1,0,100,0,1
292266,-88.8888888888889,4,1,0,100,0,1
292350,-90.9090909090909,4,1,0,100,0,0
292685,-83.3333333333333,4,1,0,100,0,1
303076,-83.3333333333333,4,1,0,100,0,0
303244,-84.6560846560847,4,1,0,60,0,0
303328,-85.3333333333333,4,1,0,60,0,0
303579,-87.431693989071,4,1,0,60,0,0
303747,-88.8888888888889,4,1,0,60,0,0
303914,-90.3954802259887,4,1,0,60,0,0
304082,-91.9540229885057,4,1,0,60,0,0
304417,-95.2380952380952,4,1,0,60,0,0
304585,-96.969696969697,4,1,0,60,0,0
304752,-98.7654320987654,4,1,0,60,0,0
304920,-100.62893081761,4,1,0,60,0,0
305004,-101.587301587302,4,1,0,60,0,0
305088,-102.564102564103,4,1,0,60,0,0
305171,-103.559870550162,4,1,0,60,0,0
305255,-104.575163398693,4,1,0,60,0,0
305339,-105.610561056106,4,1,0,60,0,0
305423,-106.666666666667,4,1,0,60,0,0
305507,-107.744107744108,4,1,0,60,0,0
305590,-108.843537414966,4,1,0,60,0,0
305758,-111.111111111111,4,1,0,60,0,0

[HitObjects]
256,192,2406,5,8,0:0:0:0:
256,192,2574,1,8,0:0:0:0:
256,192,2741,1,4,0:0:0:0:
256,192,3412,1,8,0:0:0:0:
256,192,3579,1,0,0:0:0:0:
256,192,3747,1,0,0:0:0:0:
256,192,3914,1,4,0:0:0:0:
256,192,4250,1,0,0:0:0:0:
256,192,4417,1,8,0:0:0:0:
256,192,4585,1,4,0:0:0:0:
256,192,5088,12,0,5255,0:0:0:0:
256,192,5423,5,4,0:0:0:0:
256,192,6093,1,8,0:0:0:0:
256,192,6177,1,8,0:0:0:0:
256,192,6261,1,0,0:0:0:0:
256,192,6345,1,0,0:0:0:0:
256,192,6428,1,0,0:0:0:0:
256,192,6596,1,4,0:0:0:0:
256,192,6931,1,8,0:0:0:0:
256,192,7099,1,8,0:0:0:0:
256,192,7266,1,4,0:0:0:0:
256,192,7602,1,0,0:0:0:0:
256,192,7685,1,0,0:0:0:0:
256,192,7769,1,8,0:0:0:0:
256,192,7853,1,0,0:0:0:0:
256,192,7937,1,8,0:0:0:0:
256,192,8104,1,4,0:0:0:0:
256,192,8775,1,8,0:0:0:0:
256,192,8942,1,0,0:0:0:0:
256,192,9026,1,0,0:0:0:0:
256,192,9110,1,8,0:0:0:0:
256,192,9278,1,4,0:0:0:0:
256,192,9613,1,0,0:0:0:0:
256,192,9780,1,8,0:0:0:0:
256,192,9948,1,4,0:0:0:0:
256,192,10451,12,0,10618,0:0:0:0:
256,192,10786,5,4,0:0:0:0:
256,192,11037,1,8,0:0:0:0:
256,192,11121,1,8,0:0:0:0:
256,192,11289,1,0,0:0:0:0:
256,192,11456,1,8,0:0:0:0:
256,192,11624,1,0,0:0:0:0:
256,192,11792,1,0,0:0:0:0:
256,192,11959,1,8,0:0:0:0:
256,192,12043,1,8,0:0:0:0:
256,192,12127,1,0,0:0:0:0:
256,192,12378,1,14,0:0:0:0:
256,192,12630,1,4,0:0:0:0:
256,192,12881,1,14,0:0:0:0:
256,192,13132,1,0,0:0:0:0:
256,192,13300,1,0,0:0:0:0:
256,192,13468,1,4,0:0:0:0:
256,192,13803,1,0,0:0:0:0:
256,192,13970,1,0,0:0:0:0:
256,192,14138,1,8,0:0:0:0:
256,192,14306,1,0,0:0:0:0:
256,192,14389,1,0,0:0:0:0:
256,192,14473,1,8,0:0:0:0:
256,192,14557,1,0,0:0:0:0:
256,192,14641,1,8,0:0:0:0:
256,192,14808,1,0,0:0:0:0:
256,192,14976,1,8,0:0:0:0:
256,192,15311,1,0,0:0:0:0:
256,192,15479,1,8,0:0:0:0:
256,192,15646,1,0,0:0:0:0:
256,192,15814,1,8,0:0:0:0:
256,192,15982,1,8,0:0:0:0:
256,192,16149,1,0,0:0:0:0:
256,192,16233,1,0,0:0:0:0:
256,192,16317,1,8,0:0:0:0:
256,192,16401,1,8,0:0:0:0:
256,192,16485,1,0,0:0:0:0:
256,192,16652,1,0,0:0:0:0:
256,192,16819,1,8,0:0:0:0:
256,192,16987,1,0,0:0:0:0:
256,192,17071,1,0,0:0:0:0:
256,192,17155,1,8,0:0:0:0:
256,192,17322,1,8,0:0:0:0:
256,192,17490,1,0,0:0:0:0:
256,192,17825,1,8,0:0:0:0:
256,192,17993,1,0,0:0:0:0:
256,192,18076,1,0,0:0:0:0:
256,192,18160,1,8,0:0:0:0:
256,192,18328,1,0,0:0:0:0:
256,192,18412,1,0,0:0:0:0:
256,192,18495,1,8,0:0:0:0:
256,192,18579,1,0,0:0:0:0:
256,192,18663,1,8,0:0:0:0:
256,192,18747,1,8,0:0:0:0:
256,192,18831,1,0,0:0:0:0:
256,192,18998,1,8,0:0:0:0:
256,192,19166,1,0,0:0:0:0:
256,192,19333,1,0,0:0:0:0:
256,192,19501,1,8,0:0:0:0:
244,260,19669,1,0,0:0:0:0:
244,260,19752,1,0,0:0:0:0:
244,260,19836,1,8,0:0:0:0:
244,260,20004,1,8,0:0:0:0:
244,260,20171,1,0,0:0:0:0:
244,260,20507,1,0,0:0:0:0:
244,260,20674,1,0,0:0:0:0:
244,260,20758,1,0,0:0:0:0:
244,260,20842,1,8,0:0:0:0:
244,260,21009,1,0,0:0:0:0:
244,260,21177,1,8,0:0:0:0:
244,260,21345,1,8,0:0:0:0:
244,260,21512,1,0,0:0:0:0:
244,260,21847,1,0,0:0:0:0:
244,260,21931,1,8,0:0:0:0:
244,260,22015,1,0,0:0:0:0:
244,260,22099,1,0,0:0:0:0:
244,260,22183,1,8,0:0:0:0:
244,260,22350,1,0,0:0:0:0:
244,260,22518,1,8,0:0:0:0:
244,260,22602,1,0,0:0:0:0:
244,260,22685,1,0,0:0:0:0:
244,260,22769,1,8,0:0:0:0:
244,260,22937,1,4,0:0:0:0:
244,260,23188,1,14,0:0:0:0:
244,260,23356,1,4,0:0:0:0:
244,260,23523,1,0,0:0:0:0:
244,260,23691,1,14,0:0:0:0:
244,260,23859,1,14,0:0:0:0:
244,260,24026,1,8,0:0:0:0:
244,260,24194,1,4,0:0:0:0:
244,260,24529,1,8,0:0:0:0:
244,260,24697,1,8,0:0:0:0:
244,260,24864,1,0,0:0:0:0:
244,260,25032,1,8,0:0:0:0:
244,260,25199,1,8,0:0:0:0:
244,260,25367,1,0,0:0:0:0:
244,260,25702,1,0,0:0:0:0:
244,260,25870,1,0,0:0:0:0:
244,260,26037,1,8,0:0:0:0:
244,260,26205,1,8,0:0:0:0:
244,260,26373,1,0,0:0:0:0:
244,260,26540,1,0,0:0:0:0:
244,260,26708,1,8,0:0:0:0:
244,260,29557,1,8,0:0:0:0:
244,260,29892,1,8,0:0:0:0:
244,260,30060,1,8,0:0:0:0:
244,260,30227,1,0,0:0:0:0:
244,260,30395,1,0,0:0:0:0:
244,260,30563,1,0,0:0:0:0:
244,260,30730,1,8,0:0:0:0:
244,260,31065,1,0,0:0:0:0:
244,260,31233,1,8,0:0:0:0:
244,260,31401,1,0,0:0:0:0:
244,260,31568,1,0,0:0:0:0:
244,260,31736,1,8,0:0:0:0:
244,260,31903,1,0,0:0:0:0:
244,260,32071,1,8,0:0:0:0:
256,192,34920,1,4,0:0:0:0:
256,192,35088,1,0,0:0:0:0:
256,192,35171,1,0,0:0:0:0:
256,192,35255,1,8,0:0:0:0:
256,192,35423,1,8,0:0:0:0:
256,192,35590,1,0,0:0:0:0:
256,192,35758,1,8,0:0:0:0:
256,192,35842,1,8,0:0:0:0:
256,192,35926,1,0,0:0:0:0:
256,192,36093,1,8,0:0:0:0:
256,192,36261,1,0,0:0:0:0:
256,192,36428,1,0,0:0:0:0:
256,192,36596,1,8,0:0:0:0:
256,192,36764,1,0,0:0:0:0:
256,192,36931,1,8,0:0:0:0:
256,192,36973,1,8,0:0:0:0:
256,192,37099,1,8,0:0:0:0:
256,192,37141,1,8,0:0:0:0:
256,192,37266,1,0,0:0:0:0:
256,192,37434,1,8,0:0:0:0:
256,192,37602,1,0,0:0:0:0:
256,192,37769,1,8,0:0:0:0:
256,192,37825,1,8,0:0:0:0:
256,192,37881,1,8,0:0:0:0:
256,192,37937,1,0,0:0:0:0:
256,192,38104,1,0,0:0:0:0:
256,192,38272,1,8,0:0:0:0:
256,192,38440,1,0,0:0:0:0:
256,192,38523,1,8,0:0:0:0:
256,192,38607,1,0,0:0:0:0:
256,192,38775,1,8,0:0:0:0:
256,192,38942,1,0,0:0:0:0:
256,192,39110,1,8,0:0:0:0:
256,192,39278,1,0,0:0:0:0:
256,192,39613,1,0,0:0:0:0:
256,192,39780,1,0,0:0:0:0:
256,192,39948,1,8,0:0:0:0:
256,192,40283,1,0,0:0:0:0:
256,192,40451,1,0,0:0:0:0:
256,192,40535,1,0,0:0:0:0:
256,192,40618,1,8,0:0:0:0:
256,192,40702,1,0,0:0:0:0:
256,192,40786,1,8,0:0:0:0:
256,192,40954,1,0,0:0:0:0:
256,192,41121,1,8,0:0:0:0:
256,192,41205,1,8,0:0:0:0:
256,192,41289,1,0,0:0:0:0:
256,192,41373,1,0,0:0:0:0:
256,192,41456,1,8,0:0:0:0:
256,192,41624,1,0,0:0:0:0:
256,192,41792,1,0,0:0:0:0:
256,192,41875,1,0,0:0:0:0:
256,192,41959,1,8,0:0:0:0:
256,192,42043,1,0,0:0:0:0:
256,192,42127,1,8,0:0:0:0:
256,192,42294,1,0,0:0:0:0:
256,192,42462,1,8,0:0:0:0:
256,192,42630,1,0,0:0:0:0:
256,192,42797,1,0,0:0:0:0:
256,192,42965,1,0,0:0:0:0:
256,192,43049,1,0,0:0:0:0:
256,192,43132,1,8,0:0:0:0:
256,192,43188,1,8,0:0:0:0:
256,192,43244,1,8,0:0:0:0:
256,192,43300,1,0,0:0:0:0:
256,192,43384,1,0,0:0:0:0:
256,192,43468,1,0,0:0:0:0:
256,192,43551,1,0,0:0:0:0:
256,192,43635,1,8,0:0:0:0:
256,192,43691,1,0,0:0:0:0:
256,192,43747,1,0,0:0:0:0:
256,192,43803,1,8,0:0:0:0:
256,192,43859,1,0,0:0:0:0:
256,192,43914,1,0,0:0:0:0:
256,192,43970,1,8,0:0:0:0:
256,192,44026,1,0,0:0:0:0:
256,192,44082,1,0,0:0:0:0:
256,192,44138,1,8,0:0:0:0:
256,192,44194,1,8,0:0:0:0:
256,192,44250,1,8,0:0:0:0:
256,192,44306,1,0,0:0:0:0:
256,192,45144,1,4,0:0:0:0:
256,192,45311,1,14,0:0:0:0:
256,192,45646,1,4,0:0:0:0:
256,192,45814,1,8,0:0:0:0:
256,192,45898,1,8,0:0:0:0:
256,192,45982,1,0,0:0:0:0:
256,192,46065,1,8,0:0:0:0:
256,192,46149,1,0,0:0:0:0:
256,192,46233,1,0,0:0:0:0:
256,192,46317,1,8,0:0:0:0:
256,192,46484,1,8,0:0:0:0:
256,192,46540,1,8,0:0:0:0:
256,192,46596,1,8,0:0:0:0:
256,192,46652,1,0,0:0:0:0:
256,192,46819,1,0,0:0:0:0:
256,192,46875,1,0,0:0:0:0:
256,192,46931,1,0,0:0:0:0:
256,192,46987,1,8,0:0:0:0:
256,192,47155,1,8,0:0:0:0:
256,192,47238,1,8,0:0:0:0:
256,192,47322,1,0,0:0:0:0:
256,192,47406,1,0,0:0:0:0:
256,192,47490,1,8,0:0:0:0:
256,192,47574,1,0,0:0:0:0:
256,192,47657,1,8,0:0:0:0:
256,192,47713,1,8,0:0:0:0:
256,192,47769,1,8,0:0:0:0:
256,192,47825,1,0,0:0:0:0:
256,192,47909,1,0,0:0:0:0:
256,192,47993,1,8,0:0:0:0:
256,192,48076,1,0,0:0:0:0:
256,192,48160,1,8,0:0:0:0:
256,192,48328,1,0,0:0:0:0:
256,192,48495,1,8,0:0:0:0:
256,192,48579,1,8,0:0:0:0:
256,192,48663,1,0,0:0:0:0:
256,192,48747,1,0,0:0:0:0:
256,192,48831,1,8,0:0:0:0:
256,192,48914,1,0,0:0:0:0:
256,192,48998,1,8,0:0:0:0:
256,192,49166,1,0,0:0:0:0:
256,192,49333,1,8,0:0:0:0:
256,192,49417,1,0,0:0:0:0:
256,192,49501,1,0,0:0:0:0:
256,192,49585,1,8,0:0:0:0:
256,192,49669,1,0,0:0:0:0:
256,192,49836,1,0,0:0:0:0:
256,192,50004,1,8,0:0:0:0:
256,192,50088,1,8,0:0:0:0:
256,192,50171,1,0,0:0:0:0:
256,192,50255,1,0,0:0:0:0:
256,192,50339,1,8,0:0:0:0:
256,192,50423,1,0,0:0:0:0:
256,192,50507,1,8,0:0:0:0:
256,192,50590,1,0,0:0:0:0:
256,192,50674,1,8,0:0:0:0:
256,192,50758,1,8,0:0:0:0:
256,192,50842,1,8,0:0:0:0:
256,192,50926,1,8,0:0:0:0:
256,192,51009,1,0,0:0:0:0:
256,192,51065,1,0,0:0:0:0:
256,192,51121,1,0,0:0:0:0:
256,192,51177,1,8,0:0:0:0:
256,192,51261,1,0,0:0:0:0:
256,192,51345,1,8,0:0:0:0:
256,192,51428,1,8,0:0:0:0:
256,192,51512,1,0,0:0:0:0:
256,192,51596,1,0,0:0:0:0:
256,192,51680,1,8,0:0:0:0:
256,192,51847,1,8,0:0:0:0:
256,192,51903,1,8,0:0:0:0:
256,192,51959,1,8,0:0:0:0:
256,192,52015,1,0,0:0:0:0:
256,192,52183,1,0,0:0:0:0:
256,192,52238,1,0,0:0:0:0:
256,192,52294,1,0,0:0:0:0:
256,192,52350,1,8,0:0:0:0:
256,192,52518,1,0,0:0:0:0:
256,192,52602,1,8,0:0:0:0:
256,192,52685,1,0,0:0:0:0:
256,192,52769,1,0,0:0:0:0:
256,192,52853,1,8,0:0:0:0:
256,192,52937,1,0,0:0:0:0:
256,192,53021,1,8,0:0:0:0:
256,192,53063,1,8,0:0:0:0:
256,192,53188,1,8,0:0:0:0:
256,192,53230,1,8,0:0:0:0:
256,192,53356,1,8,0:0:0:0:
256,192,53398,1,8,0:0:0:0:
256,192,53523,1,0,0:0:0:0:
256,192,53691,1,4,0:0:0:0:
256,192,54026,1,8,0:0:0:0:
256,192,54110,1,0,0:0:0:0:
256,192,54194,1,8,0:0:0:0:
256,192,54278,1,0,0:0:0:0:
256,192,54361,1,0,0:0:0:0:
256,192,54529,1,8,0:0:0:0:
256,192,54697,1,0,0:0:0:0:
256,192,54864,1,8,0:0:0:0:
256,192,54948,1,0,0:0:0:0:
256,192,55032,1,0,0:0:0:0:
256,192,55116,1,8,0:0:0:0:
256,192,55199,1,8,0:0:0:0:
256,192,55283,1,0,0:0:0:0:
256,192,55367,1,0,0:0:0:0:
256,192,55451,1,8,0:0:0:0:
256,192,55535,1,0,0:0:0:0:
256,192,55618,1,0,0:0:0:0:
256,192,55702,1,8,0:0:0:0:
256,192,55786,1,8,0:0:0:0:
256,192,55870,1,0,0:0:0:0:
256,192,55954,1,8,0:0:0:0:
256,192,56037,1,0,0:0:0:0:
256,192,56121,1,0,0:0:0:0:
256,192,56205,1,8,0:0:0:0:
256,192,56373,1,0,0:0:0:0:
256,192,56428,1,0,0:0:0:0:
256,192,56484,1,0,0:0:0:0:
256,192,56540,1,0,0:0:0:0:
256,192,56875,1,8,0:0:0:0:
256,192,56959,1,8,0:0:0:0:
256,192,57043,1,0,0:0:0:0:
256,192,57211,1,8,0:0:0:0:
256,192,57266,1,8,0:0:0:0:
256,192,57322,1,8,0:0:0:0:
256,192,57378,1,0,0:0:0:0:
256,192,57546,1,0,0:0:0:0:
256,192,57602,1,0,0:0:0:0:
256,192,57657,1,0,0:0:0:0:
256,192,57713,1,8,0:0:0:0:
256,192,57881,1,8,0:0:0:0:
256,192,57965,1,8,0:0:0:0:
256,192,58049,1,0,0:0:0:0:
256,192,58132,1,0,0:0:0:0:
256,192,58216,1,8,0:0:0:0:
256,192,58300,1,0,0:0:0:0:
256,192,58384,1,8,0:0:0:0:
256,192,58495,1,0,0:0:0:0:
256,192,58607,1,0,0:0:0:0:
256,192,58719,1,8,0:0:0:0:
256,192,58831,1,8,0:0:0:0:
256,192,58942,1,8,0:0:0:0:
256,192,59054,1,0,0:0:0:0:
256,192,59110,1,0,0:0:0:0:
256,192,59166,1,0,0:0:0:0:
256,192,59222,1,8,0:0:0:0:
256,192,59306,1,8,0:0:0:0:
256,192,59389,1,0,0:0:0:0:
256,192,59557,1,0,0:0:0:0:
256,192,59641,1,0,0:0:0:0:
256,192,59725,1,8,0:0:0:0:
256,192,59780,1,8,0:0:0:0:
256,192,59836,1,8,0:0:0:0:
256,192,59892,1,0,0:0:0:0:
256,192,60060,1,0,0:0:0:0:
256,192,60227,1,0,0:0:0:0:
256,192,60311,1,8,0:0:0:0:
256,192,60395,1,0,0:0:0:0:
256,192,60563,1,0,0:0:0:0:
256,192,60730,1,8,0:0:0:0:
256,192,60898,1,0,0:0:0:0:
256,192,60982,1,0,0:0:0:0:
256,192,61065,1,8,0:0:0:0:
256,192,61149,1,0,0:0:0:0:
256,192,61233,1,8,0:0:0:0:
256,192,61317,1,8,0:0:0:0:
256,192,61401,1,0,0:0:0:0:
256,192,61484,1,0,0:0:0:0:
256,192,61568,1,8,0:0:0:0:
256,192,61736,1,4,0:0:0:0:
256,192,62071,1,8,0:0:0:0:
256,192,62155,1,8,0:0:0:0:
256,192,62238,1,0,0:0:0:0:
256,192,62322,1,0,0:0:0:0:
256,192,62406,1,8,0:0:0:0:
256,192,62574,1,14,0:0:0:0:
256,192,62741,1,0,0:0:0:0:
256,192,62909,1,8,0:0:0:0:
256,192,62965,1,8,0:0:0:0:
256,192,63021,1,8,0:0:0:0:
256,192,63076,1,0,0:0:0:0:
256,192,63244,1,8,0:0:0:0:
256,192,63328,1,8,0:0:0:0:
256,192,63412,1,0,0:0:0:0:
256,192,63495,1,0,0:0:0:0:
256,192,63579,1,8,0:0:0:0:
256,192,63663,1,0,0:0:0:0:
256,192,63747,1,8,0:0:0:0:
256,192,63789,1,8,0:0:0:0:
256,192,63914,1,8,0:0:0:0:
256,192,63956,1,8,0:0:0:0:
256,192,64082,1,8,0:0:0:0:
256,192,64124,1,8,0:0:0:0:
256,192,64250,1,8,0:0:0:0:
256,192,64417,1,4,0:0:0:0:
256,192,64752,1,0,0:0:0:0:
256,192,64836,1,0,0:0:0:0:
256,192,64920,1,8,0:0:0:0:
256,192,65004,1,0,0:0:0:0:
256,192,65088,1,8,0:0:0:0:
256,192,65255,1,0,0:0:0:0:
256,192,65339,1,8,0:0:0:0:
256,192,65506,1,0,0:0:0:0:
256,192,65590,1,8,0:0:0:0:
256,192,65758,1,8,0:0:0:0:
256,192,65842,1,8,0:0:0:0:
256,192,65926,1,0,0:0:0:0:
256,192,65982,1,0,0:0:0:0:
256,192,66037,1,0,0:0:0:0:
256,192,66093,1,8,0:0:0:0:
256,192,66177,1,0,0:0:0:0:
256,192,66261,1,8,0:0:0:0:
256,192,66345,1,8,0:0:0:0:
256,192,66428,1,0,0:0:0:0:
256,192,66484,1,0,0:0:0:0:
256,192,66540,1,0,0:0:0:0:
256,192,66596,1,8,0:0:0:0:
256,192,66680,1,0,0:0:0:0:
256,192,66764,1,8,0:0:0:0:
256,192,67099,1,4,0:0:0:0:
256,192,67434,1,0,0:0:0:0:
256,192,67602,1,0,0:0:0:0:
256,192,67769,1,8,0:0:0:0:
256,192,68104,1,8,0:0:0:0:
256,192,68272,1,8,0:0:0:0:
256,192,68440,1,0,0:0:0:0:
256,192,68607,1,0,0:0:0:0:
256,192,68691,1,0,0:0:0:0:
256,192,68859,1,8,0:0:0:0:
256,192,69026,1,0,0:0:0:0:
256,192,69110,1,8,0:0:0:0:
256,192,69278,1,0,0:0:0:0:
256,192,69445,1,8,0:0:0:0:
256,192,69529,1,8,0:0:0:0:
256,192,69613,1,0,0:0:0:0:
256,192,69780,1,0,0:0:0:0:
256,192,69836,1,0,0:0:0:0:
256,192,69892,1,0,0:0:0:0:
256,192,69948,1,8,0:0:0:0:
256,192,70116,1,0,0:0:0:0:
256,192,70199,1,0,0:0:0:0:
256,192,70283,1,8,0:0:0:0:
256,192,70367,1,0,0:0:0:0:
256,192,70451,1,8,0:0:0:0:
256,192,70618,1,8,0:0:0:0:
256,192,70702,1,0,0:0:0:0:
256,192,70786,1,0,0:0:0:0:
256,192,70954,1,0,0:0:0:0:
256,192,71037,1,0,0:0:0:0:
256,192,71121,1,8,0:0:0:0:
256,192,71205,1,0,0:0:0:0:
256,192,71289,1,0,0:0:0:0:
256,192,71456,1,8,0:0:0:0:
256,192,71624,1,8,0:0:0:0:
256,192,71792,1,4,0:0:0:0:
256,192,72127,1,14,0:0:0:0:
256,192,72462,1,4,0:0:0:0:
256,192,72797,1,0,0:0:0:0:
256,192,72853,1,0,0:0:0:0:
256,192,72909,1,0,0:0:0:0:
256,192,72965,1,0,0:0:0:0:
256,192,73132,1,8,0:0:0:0:
256,192,73300,1,0,0:0:0:0:
256,192,73468,1,8,0:0:0:0:
256,192,73635,1,8,0:0:0:0:
256,192,73803,1,0,0:0:0:0:
256,192,73970,1,8,0:0:0:0:
256,192,74054,1,8,0:0:0:0:
256,192,74222,1,0,0:0:0:0:
256,192,74389,1,0,0:0:0:0:
256,192,74473,1,8,0:0:0:0:
256,192,74515,1,8,0:0:0:0:
256,192,74641,1,8,0:0:0:0:
256,192,74683,1,8,0:0:0:0:
256,192,74808,1,8,0:0:0:0:
256,192,74850,1,8,0:0:0:0:
256,192,74976,1,8,0:0:0:0:
256,192,75144,1,4,0:0:0:0:
256,192,75479,1,8,0:0:0:0:
256,192,75563,1,0,0:0:0:0:
256,192,75646,1,8,0:0:0:0:
256,192,75730,1,8,0:0:0:0:
256,192,75814,1,0,0:0:0:0:
256,192,75898,1,0,0:0:0:0:
256,192,75982,1,8,0:0:0:0:
256,192,76065,1,0,0:0:0:0:
256,192,76149,1,8,0:0:0:0:
256,192,76317,1,8,0:0:0:0:
256,192,76401,1,0,0:0:0:0:
256,192,76484,1,0,0:0:0:0:
256,192,76652,1,0,0:0:0:0:
256,192,76736,1,8,0:0:0:0:
256,192,76819,1,8,0:0:0:0:
256,192,76987,1,8,0:0:0:0:
256,192,77155,1,4,0:0:0:0:
256,192,77406,1,14,0:0:0:0:
256,192,77657,1,8,0:0:0:0:
256,192,77713,1,8,0:0:0:0:
256,192,77769,1,8,0:0:0:0:
256,192,77825,1,0,0:0:0:0:
256,192,77993,1,8,0:0:0:0:
256,192,78160,1,0,0:0:0:0:
256,192,78244,1,8,0:0:0:0:
256,192,78328,1,8,0:0:0:0:
256,192,78495,1,8,0:0:0:0:
256,192,78663,1,0,0:0:0:0:
256,192,78747,1,8,0:0:0:0:
256,192,78831,1,0,0:0:0:0:
256,192,78998,1,8,0:0:0:0:
256,192,79166,1,14,0:0:0:0:
256,192,79333,1,0,0:0:0:0:
256,192,79417,1,8,0:0:0:0:
256,192,79501,1,0,0:0:0:0:
256,192,79669,1,14,0:0:0:0:
256,192,79836,1,0,0:0:0:0:
256,192,79920,1,0,0:0:0:0:
256,192,80004,1,0,0:0:0:0:
256,192,80171,1,14,0:0:0:0:
256,192,80507,1,0,0:0:0:0:
256,192,80674,1,8,0:0:0:0:
256,192,80758,1,8,0:0:0:0:
256,192,80842,1,0,0:0:0:0:
256,192,80926,1,8,0:0:0:0:
256,192,81009,1,0,0:0:0:0:
256,192,81177,1,8,0:0:0:0:
256,192,81345,1,0,0:0:0:0:
256,192,81428,1,8,0:0:0:0:
256,192,81512,1,8,0:0:0:0:
256,192,81680,1,0,0:0:0:0:
256,192,81847,1,14,0:0:0:0:
256,192,82015,1,0,0:0:0:0:
256,192,82099,1,8,0:0:0:0:
256,192,82183,1,0,0:0:0:0:
256,192,82350,1,14,0:0:0:0:
256,192,82518,1,0,0:0:0:0:
256,192,82602,1,0,0:0:0:0:
256,192,82685,1,8,0:0:0:0:
256,192,82853,1,14,0:0:0:0:
256,192,83021,1,0,0:0:0:0:
256,192,83188,1,4,0:0:0:0:
256,192,83523,1,8,0:0:0:0:
256,192,83691,1,0,0:0:0:0:
256,192,83859,1,0,0:0:0:0:
256,192,84026,1,0,0:0:0:0:
256,192,84194,1,8,0:0:0:0:
256,192,84361,1,8,0:0:0:0:
256,192,84529,1,0,0:0:0:0:
256,192,84864,1,8,0:0:0:0:
256,192,85032,1,0,0:0:0:0:
256,192,85116,1,0,0:0:0:0:
256,192,85199,1,8,0:0:0:0:
256,192,85367,1,0,0:0:0:0:
256,192,85535,1,8,0:0:0:0:
256,192,85702,1,8,0:0:0:0:
256,192,85870,1,0,0:0:0:0:
256,192,86037,1,0,0:0:0:0:
256,192,86121,1,0,0:0:0:0:
256,192,86205,1,8,0:0:0:0:
256,192,86289,1,0,0:0:0:0:
256,192,86373,1,8,0:0:0:0:
256,192,86456,1,0,0:0:0:0:
140,108,86540,1,8,0:0:0:0:
256,192,86624,1,8,0:0:0:0:
256,192,86708,1,0,0:0:0:0:
256,192,86792,1,0,0:0:0:0:
256,192,86875,1,8,0:0:0:0:
256,192,86959,1,0,0:0:0:0:
256,192,87043,1,0,0:0:0:0:
256,192,87127,1,0,0:0:0:0:
256,192,87211,1,8,0:0:0:0:
256,192,87462,1,14,0:0:0:0:
256,192,87713,1,4,0:0:0:0:
256,192,87965,1,14,0:0:0:0:
256,192,88216,1,10,0:0:0:0:
256,192,88384,1,8,0:0:0:0:
256,192,88551,1,4,0:0:0:0:
256,192,88887,1,0,0:0:0:0:
256,192,89222,1,8,0:0:0:0:
256,192,89389,1,0,0:0:0:0:
256,192,89445,1,0,0:0:0:0:
256,192,89501,1,0,0:0:0:0:
256,192,89557,1,0,0:0:0:0:
256,192,89725,1,8,0:0:0:0:
256,192,89892,1,0,0:0:0:0:
256,192,90227,1,8,0:0:0:0:
256,192,90395,1,0,0:0:0:0:
256,192,90479,1,0,0:0:0:0:
256,192,90563,1,8,0:0:0:0:
256,192,90730,1,0,0:0:0:0:
256,192,90898,1,8,0:0:0:0:
256,192,90982,1,8,0:0:0:0:
256,192,91065,1,0,0:0:0:0:
256,192,91149,1,8,0:0:0:0:
256,192,91233,1,0,0:0:0:0:
256,192,91568,1,0,0:0:0:0:
256,192,91736,1,0,0:0:0:0:
256,192,91903,1,8,0:0:0:0:
256,192,92071,1,0,0:0:0:0:
256,192,92127,1,0,0:0:0:0:
256,192,92183,1,0,0:0:0:0:
256,192,92238,1,0,0:0:0:0:
256,192,92406,1,8,0:0:0:0:
256,192,92574,1,0,0:0:0:0:
256,192,92909,1,0,0:0:0:0:
256,192,93076,1,8,0:0:0:0:
256,192,93160,1,0,0:0:0:0:
256,192,93244,1,8,0:0:0:0:
256,192,93328,1,8,0:0:0:0:
256,192,93412,1,0,0:0:0:0:
256,192,93495,1,0,0:0:0:0:
256,192,93579,1,8,0:0:0:0:
256,192,93663,1,0,0:0:0:0:
256,192,93747,1,8,0:0:0:0:
256,192,93914,1,0,0:0:0:0:
256,192,94082,1,8,0:0:0:0:
256,192,94166,1,8,0:0:0:0:
256,192,94250,1,0,0:0:0:0:
256,192,94417,1,0,0:0:0:0:
256,192,94585,1,8,0:0:0:0:
256,192,94920,1,0,0:0:0:0:
256,192,95088,1,8,0:0:0:0:
256,192,95255,1,0,0:0:0:0:
256,192,95423,1,8,0:0:0:0:
256,192,95507,1,8,0:0:0:0:
256,192,95590,1,0,0:0:0:0:
256,192,95758,1,8,0:0:0:0:
256,192,95842,1,0,0:0:0:0:
256,192,95926,1,8,0:0:0:0:
256,192,96093,1,0,0:0:0:0:
256,192,96261,1,8,0:0:0:0:
256,192,96345,1,8,0:0:0:0:
256,192,96428,1,8,0:0:0:0:
256,192,96596,1,0,0:0:0:0:
256,192,96931,1,8,0:0:0:0:
256,192,97099,1,8,0:0:0:0:
256,192,97183,1,8,0:0:0:0:
256,192,97266,1,0,0:0:0:0:
256,192,97434,1,0,0:0:0:0:
256,192,97518,1,0,0:0:0:0:
256,192,97602,1,8,0:0:0:0:
256,192,97769,1,8,0:0:0:0:
256,192,97937,1,0,0:0:0:0:
256,192,98021,1,0,0:0:0:0:
256,192,98104,1,8,0:0:0:0:
256,192,98188,1,0,0:0:0:0:
256,192,98272,1,8,0:0:0:0:
256,192,98440,1,8,0:0:0:0:
256,192,98607,1,0,0:0:0:0:
256,192,98691,1,8,0:0:0:0:
256,192,98775,1,0,0:0:0:0:
256,192,98859,1,0,0:0:0:0:
256,192,98942,1,8,0:0:0:0:
256,192,99110,1,8,0:0:0:0:
256,192,99194,1,8,0:0:0:0:
256,192,99278,1,0,0:0:0:0:
256,192,99613,1,8,0:0:0:0:
256,192,99780,1,0,0:0:0:0:
256,192,99864,1,8,0:0:0:0:
256,192,99948,1,0,0:0:0:0:
256,192,100116,1,0,0:0:0:0:
256,192,100283,1,8,0:0:0:0:
256,192,100367,1,8,0:0:0:0:
256,192,100451,1,0,0:0:0:0:
256,192,100535,1,8,0:0:0:0:
256,192,100618,1,0,0:0:0:0:
256,192,100786,1,0,0:0:0:0:
256,192,100954,1,8,0:0:0:0:
256,192,101121,1,0,0:0:0:0:
256,192,101205,1,0,0:0:0:0:
256,192,101289,1,8,0:0:0:0:
256,192,101456,1,0,0:0:0:0:
256,192,101624,1,8,0:0:0:0:
256,192,101680,1,0,0:0:0:0:
256,192,101736,1,0,0:0:0:0:
256,192,101792,1,8,0:0:0:0:
256,192,101959,1,0,0:0:0:0:
256,192,102127,1,0,0:0:0:0:
256,192,102294,1,8,0:0:0:0:
256,192,102350,1,8,0:0:0:0:
256,192,102406,1,8,0:0:0:0:
256,192,102462,1,0,0:0:0:0:
256,192,102630,1,8,0:0:0:0:
256,192,102797,1,0,0:0:0:0:
256,192,102965,1,8,0:0:0:0:
256,192,103132,1,0,0:0:0:0:
256,192,103216,1,0,0:0:0:0:
256,192,103300,1,0,0:0:0:0:
256,192,103468,1,8,0:0:0:0:
256,192,103635,1,8,0:0:0:0:
256,192,103803,1,0,0:0:0:0:
256,192,103887,1,0,0:0:0:0:
256,192,103970,1,8,0:0:0:0:
256,192,104054,1,8,0:0:0:0:
256,192,104138,1,0,0:0:0:0:
256,192,104222,1,0,0:0:0:0:
256,192,104306,1,8,0:0:0:0:
256,192,104389,1,8,0:0:0:0:
256,192,104473,1,8,0:0:0:0:
256,192,104557,1,8,0:0:0:0:
256,192,104641,1,0,0:0:0:0:
280,196,104976,1,8,0:0:0:0:
280,196,105144,1,0,0:0:0:0:
280,196,105227,1,8,0:0:0:0:
280,196,105311,1,0,0:0:0:0:
256,192,105479,1,0,0:0:0:0:
256,192,105646,1,8,0:0:0:0:
256,172,105814,1,8,0:0:0:0:
256,192,105982,1,0,0:0:0:0:
256,192,106149,1,0,0:0:0:0:
256,192,106233,1,0,0:0:0:0:
256,192,106317,1,8,0:0:0:0:
256,192,106484,1,8,0:0:0:0:
256,192,106568,1,8,0:0:0:0:
256,192,106652,1,0,0:0:0:0:
256,192,106819,1,0,0:0:0:0:
256,192,106987,1,8,0:0:0:0:
256,192,107155,1,0,0:0:0:0:
256,192,107322,1,4,0:0:0:0:
256,192,107657,1,8,0:0:0:0:
256,192,107825,1,8,0:0:0:0:
256,192,107909,1,0,0:0:0:0:
256,192,107993,1,8,0:0:0:0:
256,192,108160,1,0,0:0:0:0:
256,192,108244,1,0,0:0:0:0:
256,192,108328,1,8,0:0:0:0:
256,192,108412,1,8,0:0:0:0:
256,192,108495,1,0,0:0:0:0:
256,192,108579,1,8,0:0:0:0:
256,192,108747,1,4,0:0:0:0:
256,192,108998,1,4,0:0:0:0:
256,192,109166,1,14,0:0:0:0:
256,192,109333,1,0,0:0:0:0:
256,192,109501,1,4,0:0:0:0:
256,192,109669,1,12,0:0:0:0:
256,192,109836,1,8,0:0:0:0:
256,192,110004,1,4,0:0:0:0:
256,192,110339,1,0,0:0:0:0:
256,192,110507,1,8,0:0:0:0:
256,192,110674,1,8,0:0:0:0:
256,192,110842,1,0,0:0:0:0:
256,192,111009,1,8,0:0:0:0:
256,192,111177,1,0,0:0:0:0:
256,192,111261,1,8,0:0:0:0:
256,192,111428,1,0,0:0:0:0:
256,192,111512,1,8,0:0:0:0:
256,192,111680,1,0,0:0:0:0:
256,192,111764,1,0,0:0:0:0:
256,192,111847,1,8,0:0:0:0:
256,192,111931,1,0,0:0:0:0:
256,192,112015,1,8,0:0:0:0:
256,192,112183,1,0,0:0:0:0:
256,192,112350,1,8,0:0:0:0:
256,192,112518,1,8,0:0:0:0:
256,192,112685,1,0,0:0:0:0:
256,192,112741,1,0,0:0:0:0:
256,192,112797,1,0,0:0:0:0:
256,192,112853,1,0,0:0:0:0:
256,192,113021,1,8,0:0:0:0:
256,192,113104,1,8,0:0:0:0:
256,192,113188,1,0,0:0:0:0:
256,192,113272,1,8,0:0:0:0:
256,192,113356,1,0,0:0:0:0:
256,192,113607,1,0,0:0:0:0:
256,192,113859,1,8,0:0:0:0:
256,192,114026,1,0,0:0:0:0:
256,192,114194,1,8,0:0:0:0:
256,192,114278,1,8,0:0:0:0:
256,192,114361,1,8,0:0:0:0:
256,192,114445,1,8,0:0:0:0:
256,192,114529,1,0,0:0:0:0:
256,192,114613,1,0,0:0:0:0:
256,192,114697,1,8,0:0:0:0:
256,192,114948,1,8,0:0:0:0:
256,192,115116,1,0,0:0:0:0:
256,192,115199,1,8,0:0:0:0:
256,192,115367,1,4,0:0:0:0:
256,192,115702,1,0,0:0:0:0:
256,192,115870,1,8,0:0:0:0:
256,192,116037,1,0,0:0:0:0:
256,192,116205,1,8,0:0:0:0:
256,192,116261,1,8,0:0:0:0:
256,192,116317,1,8,0:0:0:0:
256,192,116373,1,0,0:0:0:0:
256,192,116540,1,0,0:0:0:0:
256,192,116624,1,8,0:0:0:0:
256,192,116875,1,8,0:0:0:0:
256,192,116959,1,8,0:0:0:0:
256,192,117043,1,0,0:0:0:0:
256,192,117127,1,0,0:0:0:0:
256,192,117211,1,8,0:0:0:0:
256,192,117294,1,0,0:0:0:0:
256,192,117378,1,8,0:0:0:0:
256,192,117546,1,0,0:0:0:0:
256,192,117713,1,8,0:0:0:0:
256,192,117881,1,8,0:0:0:0:
256,192,118049,1,0,0:0:0:0:
256,192,118132,1,0,0:0:0:0:
256,192,118216,1,8,0:0:0:0:
256,192,118300,1,0,0:0:0:0:
256,192,118384,1,8,0:0:0:0:
256,192,118468,1,8,0:0:0:0:
256,192,118551,1,0,0:0:0:0:
256,192,118635,1,0,0:0:0:0:
256,192,118719,1,8,0:0:0:0:
256,192,118887,1,8,0:0:0:0:
256,192,119054,1,8,0:0:0:0:
256,192,119222,1,8,0:0:0:0:
256,192,119389,1,4,0:0:0:0:
256,192,119725,1,8,0:0:0:0:
256,192,119892,1,0,0:0:0:0:
256,192,120227,1,8,0:0:0:0:
256,192,120395,1,0,0:0:0:0:
256,192,120730,1,0,0:0:0:0:
256,192,121401,1,8,0:0:0:0:
256,192,121568,1,0,0:0:0:0:
256,192,121652,1,0,0:0:0:0:
256,192,121736,1,8,0:0:0:0:
256,192,121903,1,0,0:0:0:0:
256,192,121987,1,8,0:0:0:0:
256,192,122238,1,8,0:0:0:0:
256,192,122406,1,0,0:0:0:0:
256,192,122490,1,0,0:0:0:0:
256,192,122574,1,8,0:0:0:0:
256,192,122657,1,0,0:0:0:0:
256,192,122741,1,8,0:0:0:0:
256,192,122909,1,0,0:0:0:0:
256,192,123076,1,8,0:0:0:0:
256,192,123244,1,0,0:0:0:0:
256,192,123300,1,0,0:0:0:0:
256,192,123356,1,0,0:0:0:0:
256,192,123412,1,8,0:0:0:0:
256,192,123579,1,8,0:0:0:0:
256,192,123747,1,0,0:0:0:0:
256,192,124082,1,0,0:0:0:0:
256,192,124250,1,8,0:0:0:0:
256,192,124292,1,8,0:0:0:0:
256,192,124417,1,0,0:0:0:0:
256,192,124585,1,8,0:0:0:0:
256,192,124920,1,8,0:0:0:0:
256,192,125004,1,8,0:0:0:0:
256,192,125088,1,8,0:0:0:0:
256,192,125171,1,8,0:0:0:0:
256,192,125255,1,0,0:0:0:0:
256,192,125339,1,0,0:0:0:0:
256,192,125423,1,8,0:0:0:0:
256,192,125674,1,8,0:0:0:0:
256,192,125842,1,0,0:0:0:0:
256,192,125926,1,8,0:0:0:0:
256,192,126093,1,4,0:0:0:0:
256,192,126428,1,0,0:0:0:0:
256,192,126596,1,8,0:0:0:0:
256,192,126764,1,0,0:0:0:0:
256,192,126847,1,0,0:0:0:0:
256,192,126931,1,0,0:0:0:0:
256,192,127099,1,8,0:0:0:0:
256,192,127266,1,0,0:0:0:0:
256,192,127350,1,8,0:0:0:0:
256,192,127518,1,0,0:0:0:0:
256,192,127602,1,8,0:0:0:0:
256,192,127685,1,0,0:0:0:0:
256,192,127769,1,8,0:0:0:0:
256,192,127853,1,8,0:0:0:0:
256,192,127937,1,0,0:0:0:0:
256,192,128021,1,0,0:0:0:0:
256,192,128104,1,8,0:0:0:0:
256,192,128272,1,0,0:0:0:0:
256,192,128440,1,8,0:0:0:0:
256,192,128607,1,8,0:0:0:0:
256,192,128775,1,4,0:0:0:0:
256,192,128942,1,8,0:0:0:0:
256,192,129026,1,8,0:0:0:0:
256,192,129110,1,0,0:0:0:0:
256,192,129194,1,0,0:0:0:0:
256,192,129278,1,8,0:0:0:0:
256,192,129361,1,0,0:0:0:0:
256,192,129445,1,8,0:0:0:0:
256,192,129529,1,8,0:0:0:0:
256,192,129613,1,0,0:0:0:0:
256,192,129697,1,0,0:0:0:0:
256,192,129780,1,8,0:0:0:0:
256,192,129864,1,0,0:0:0:0:
256,192,129948,1,8,0:0:0:0:
256,192,130032,1,8,0:0:0:0:
256,192,130116,1,0,0:0:0:0:
256,192,130367,1,4,0:0:0:0:
256,192,130618,1,4,0:0:0:0:
256,192,130786,1,6,0:0:0:0:
256,192,131456,1,4,0:0:0:0:
256,192,131792,1,0,0:0:0:0:
256,192,131875,1,0,0:0:0:0:
256,192,131959,1,0,0:0:0:0:
256,192,132043,1,0,0:0:0:0:
256,192,132127,1,8,0:0:0:0:
256,192,132294,1,0,0:0:0:0:
256,192,132378,1,0,0:0:0:0:
256,192,132462,1,8,0:0:0:0:
256,192,132630,1,8,0:0:0:0:
256,192,132797,1,0,0:0:0:0:
256,192,133132,1,0,0:0:0:0:
256,192,133216,1,0,0:0:0:0:
256,192,133300,1,8,0:0:0:0:
256,192,133384,1,0,0:0:0:0:
256,192,133468,1,8,0:0:0:0:
256,192,133523,1,8,0:0:0:0:
256,192,133579,1,8,0:0:0:0:
256,192,133635,1,0,0:0:0:0:
256,192,133803,1,8,0:0:0:0:
256,192,133845,1,8,0:0:0:0:
256,192,133970,1,8,0:0:0:0:
256,192,134012,1,8,0:0:0:0:
256,192,134138,1,0,0:0:0:0:
256,192,134194,1,0,0:0:0:0:
256,192,134250,1,0,0:0:0:0:
256,192,134306,1,8,0:0:0:0:
319,184,134361,1,8,0:0:0:0:
256,192,134417,1,8,0:0:0:0:
256,192,134473,1,0,0:0:0:0:
256,192,134557,1,0,0:0:0:0:
256,192,134641,1,8,0:0:0:0:
256,192,134725,1,0,0:0:0:0:
256,192,134808,1,8,0:0:0:0:
256,192,134976,1,8,0:0:0:0:
256,192,135060,1,8,0:0:0:0:
256,192,135144,1,0,0:0:0:0:
256,192,135199,1,0,0:0:0:0:
256,192,135255,1,0,0:0:0:0:
256,192,135311,1,0,0:0:0:0:
256,192,135395,1,8,0:0:0:0:
256,192,135479,1,0,0:0:0:0:
256,192,135646,1,0,0:0:0:0:
256,192,135814,1,8,0:0:0:0:
256,192,135982,1,0,0:0:0:0:
256,192,136065,1,0,0:0:0:0:
256,192,136149,1,8,0:0:0:0:
256,192,136233,1,0,0:0:0:0:
256,192,136317,1,8,0:0:0:0:
256,192,136484,1,8,0:0:0:0:
256,192,136819,1,8,0:0:0:0:
256,192,136875,1,0,0:0:0:0:
256,192,136931,1,0,0:0:0:0:
256,192,136987,1,8,0:0:0:0:
256,192,137043,1,0,0:0:0:0:
256,192,137099,1,0,0:0:0:0:
256,192,137155,1,8,0:0:0:0:
256,192,137238,1,8,0:0:0:0:
256,192,137322,1,0,0:0:0:0:
256,192,137406,1,0,0:0:0:0:
256,192,137490,1,8,0:0:0:0:
256,192,137574,1,8,0:0:0:0:
256,192,137657,1,8,0:0:0:0:
256,192,137741,1,8,0:0:0:0:
256,192,137825,1,0,0:0:0:0:
256,192,137993,1,8,0:0:0:0:
256,192,138049,1,8,0:0:0:0:
256,192,138104,1,8,0:0:0:0:
256,192,138160,1,0,0:0:0:0:
256,192,138495,1,0,0:0:0:0:
256,192,138663,1,0,0:0:0:0:
256,192,138747,1,0,0:0:0:0:
256,192,138831,1,8,0:0:0:0:
256,192,138914,1,8,0:0:0:0:
256,192,138998,1,0,0:0:0:0:
256,192,139166,1,8,0:0:0:0:
256,192,139208,1,8,0:0:0:0:
256,192,139333,1,8,0:0:0:0:
256,192,139375,1,8,0:0:0:0:
256,192,139501,1,0,0:0:0:0:
256,192,139557,1,0,0:0:0:0:
256,192,139613,1,0,0:0:0:0:
256,192,139669,1,8,0:0:0:0:
256,192,139725,1,0,0:0:0:0:
256,192,139780,1,0,0:0:0:0:
256,192,139836,1,8,0:0:0:0:
256,192,140060,1,8,0:0:0:0:
256,192,140171,1,0,0:0:0:0:
256,192,140283,1,8,0:0:0:0:
256,192,140507,1,8,0:0:0:0:
256,192,140618,1,8,0:0:0:0:
256,192,140730,1,0,0:0:0:0:
256,192,140842,1,0,0:0:0:0:
256,192,140954,1,8,0:0:0:0:
256,192,141065,1,0,0:0:0:0:
256,192,141177,1,8,0:0:0:0:
256,192,141289,1,0,0:0:0:0:
256,192,141401,1,8,0:0:0:0:
256,192,141512,1,8,0:0:0:0:
256,192,141624,1,0,0:0:0:0:
256,192,141736,1,0,0:0:0:0:
256,192,141847,1,8,0:0:0:0:
256,192,142183,1,4,0:0:0:0:
256,192,142518,1,0,0:0:0:0:
256,192,142853,1,8,0:0:0:0:
256,192,142909,1,8,0:0:0:0:
256,192,142965,1,8,0:0:0:0:
256,192,143021,1,0,0:0:0:0:
256,192,143188,1,0,0:0:0:0:
256,192,143356,1,8,0:0:0:0:
256,192,143523,1,0,0:0:0:0:
256,192,143859,1,8,0:0:0:0:
256,192,144110,1,0,0:0:0:0:
256,192,144194,1,8,0:0:0:0:
256,192,144445,1,8,0:0:0:0:
256,192,144697,1,8,0:0:0:0:
256,192,144864,1,0,0:0:0:0:
256,192,144920,1,0,0:0:0:0:
256,192,144976,1,0,0:0:0:0:
256,192,145032,1,0,0:0:0:0:
256,192,145535,1,8,0:0:0:0:
256,192,145870,1,8,0:0:0:0:
256,192,146121,1,0,0:0:0:0:
256,192,146205,1,8,0:0:0:0:
256,192,146373,1,0,0:0:0:0:
256,192,146540,1,8,0:0:0:0:
256,192,146708,1,0,0:0:0:0:
256,192,146792,1,0,0:0:0:0:
256,192,146875,1,8,0:0:0:0:
256,192,147043,1,8,0:0:0:0:
256,192,147211,1,8,0:0:0:0:
256,192,147378,1,0,0:0:0:0:
256,192,147546,1,4,0:0:0:0:
256,192,147881,1,8,0:0:0:0:
256,192,148049,1,0,0:0:0:0:
256,192,148132,1,8,0:0:0:0:
256,192,148300,1,0,0:0:0:0:
256,192,148384,1,8,0:0:0:0:
256,192,148551,1,0,0:0:0:0:
256,192,148635,1,8,0:0:0:0:
256,192,148887,1,0,0:0:0:0:
256,192,149222,1,8,0:0:0:0:
256,192,149389,1,0,0:0:0:0:
256,192,149473,1,8,0:0:0:0:
256,192,149641,1,0,0:0:0:0:
256,192,149725,1,8,0:0:0:0:
256,192,149892,1,0,0:0:0:0:
256,192,149976,1,8,0:0:0:0:
256,192,150227,1,0,0:0:0:0:
256,192,150563,1,8,0:0:0:0:
256,192,150730,1,0,0:0:0:0:
256,192,150814,1,8,0:0:0:0:
256,192,150982,1,0,0:0:0:0:
256,192,151065,1,8,0:0:0:0:
256,192,151233,1,0,0:0:0:0:
256,192,151317,1,8,0:0:0:0:
256,192,151568,1,0,0:0:0:0:
256,192,151736,1,0,0:0:0:0:
256,192,151819,1,8,0:0:0:0:
256,192,151987,1,0,0:0:0:0:
256,192,152071,1,8,0:0:0:0:
256,192,152238,1,8,0:0:0:0:
256,192,152322,1,8,0:0:0:0:
256,192,152406,1,0,0:0:0:0:
256,192,152490,1,0,0:0:0:0:
256,192,152574,1,0,0:0:0:0:
256,192,152657,1,0,0:0:0:0:
256,192,152741,1,8,0:0:0:0:
256,192,152909,1,4,0:0:0:0:
256,192,154250,1,8,0:0:0:0:
256,192,155088,1,0,0:0:0:0:
256,192,155590,1,0,0:0:0:0:
256,192,156931,1,8,0:0:0:0:
256,192,157434,1,0,0:0:0:0:
256,192,157518,1,0,0:0:0:0:
256,192,157602,1,8,0:0:0:0:
256,192,157685,1,0,0:0:0:0:
256,192,157769,1,0,0:0:0:0:
256,192,157853,1,0,0:0:0:0:
256,192,157937,1,8,0:0:0:0:
256,192,158021,1,8,0:0:0:0:
256,192,158104,1,0,0:0:0:0:
256,192,158188,1,0,0:0:0:0:
256,192,158272,1,8,0:0:0:0:
256,192,158356,1,0,0:0:0:0:
256,192,158440,1,8,0:0:0:0:
256,192,158523,1,8,0:0:0:0:
256,192,158607,1,0,0:0:0:0:
256,192,159613,1,8,0:0:0:0:
256,192,160283,1,0,0:0:0:0:
256,192,160954,1,8,0:0:0:0:
256,192,163132,1,0,0:0:0:0:
256,192,163216,1,0,0:0:0:0:
256,192,163300,1,8,0:0:0:0:
256,192,163468,1,0,0:0:0:0:
256,192,163635,1,4,0:0:0:0:
256,192,164306,1,8,0:0:0:0:
256,192,164473,1,0,0:0:0:0:
256,192,164641,1,0,0:0:0:0:
256,192,164808,1,4,0:0:0:0:
256,192,165144,1,0,0:0:0:0:
256,192,165311,1,8,0:0:0:0:
256,192,165479,1,4,0:0:0:0:
256,192,165982,12,0,166149,0:0:0:0:
256,192,166317,5,4,0:0:0:0:
256,192,166987,1,8,0:0:0:0:
256,192,167071,1,8,0:0:0:0:
256,192,167155,1,0,0:0:0:0:
256,192,167238,1,0,0:0:0:0:
256,192,167322,1,0,0:0:0:0:
256,192,167490,1,4,0:0:0:0:
256,192,167825,1,8,0:0:0:0:
256,192,167993,1,8,0:0:0:0:
256,192,168160,1,4,0:0:0:0:
256,192,168495,1,0,0:0:0:0:
256,192,168579,1,0,0:0:0:0:
256,192,168663,1,8,0:0:0:0:
256,192,168747,1,0,0:0:0:0:
256,192,168831,1,8,0:0:0:0:
256,192,168998,1,4,0:0:0:0:
256,192,169669,1,8,0:0:0:0:
256,192,169752,1,0,0:0:0:0:
256,192,169836,1,0,0:0:0:0:
256,192,169920,1,8,0:0:0:0:
256,192,170171,1,4,0:0:0:0:
256,192,170674,1,8,0:0:0:0:
256,192,170842,1,4,0:0:0:0:
256,192,171345,12,0,171512,0:0:0:0:
256,192,171680,5,4,0:0:0:0:
256,192,171931,1,8,0:0:0:0:
256,192,172015,1,8,0:0:0:0:
256,192,172183,1,0,0:0:0:0:
256,192,172350,1,8,0:0:0:0:
256,192,172518,1,8,0:0:0:0:
256,192,172685,1,0,0:0:0:0:
256,192,172769,1,0,0:0:0:0:
256,192,172853,1,8,0:0:0:0:
256,192,173104,1,14,0:0:0:0:
256,192,173356,1,14,0:0:0:0:
256,192,173523,1,4,0:0:0:0:
256,192,173691,1,0,0:0:0:0:
256,192,173859,1,4,0:0:0:0:
256,192,174026,1,14,0:0:0:0:
256,192,174361,1,4,0:0:0:0:
256,192,174697,1,8,0:0:0:0:
256,192,174864,1,8,0:0:0:0:
256,192,175032,1,0,0:0:0:0:
256,192,175199,1,0,0:0:0:0:
256,192,175367,1,8,0:0:0:0:
256,192,175535,1,8,0:0:0:0:
256,192,175870,1,0,0:0:0:0:
256,192,176037,1,0,0:0:0:0:
256,192,176205,1,8,0:0:0:0:
256,192,176373,1,0,0:0:0:0:
256,192,176540,1,8,0:0:0:0:
256,192,176708,1,8,0:0:0:0:
256,192,176875,1,0,0:0:0:0:
256,192,177043,1,0,0:0:0:0:
256,192,177378,1,0,0:0:0:0:
256,192,177713,1,0,0:0:0:0:
256,192,178049,1,0,0:0:0:0:
404,332,178216,1,0,0:0:0:0:
276,208,178384,1,0,0:0:0:0:
256,192,178719,1,0,0:0:0:0:
256,192,179054,1,0,0:0:0:0:
256,192,179222,1,0,0:0:0:0:
256,192,179389,1,0,0:0:0:0:
256,192,179557,1,0,0:0:0:0:
256,192,179725,1,8,0:0:0:0:
256,192,180060,1,8,0:0:0:0:
256,192,180227,1,8,0:0:0:0:
256,192,180395,1,0,0:0:0:0:
256,192,180479,1,0,0:0:0:0:
256,192,180563,1,8,0:0:0:0:
256,192,180646,1,0,0:0:0:0:
256,192,180730,1,8,0:0:0:0:
256,192,180898,1,8,0:0:0:0:
256,192,181233,1,0,0:0:0:0:
256,192,181401,1,8,0:0:0:0:
256,192,181484,1,0,0:0:0:0:
256,192,181568,1,8,0:0:0:0:
256,192,181652,1,8,0:0:0:0:
256,192,181736,1,0,0:0:0:0:
256,192,181903,1,8,0:0:0:0:
256,192,182071,1,0,0:0:0:0:
256,192,182238,1,8,0:0:0:0:
256,192,182574,1,0,0:0:0:0:
256,192,182741,1,0,0:0:0:0:
256,192,183076,1,0,0:0:0:0:
256,192,183412,1,0,0:0:0:0:
256,192,183579,1,0,0:0:0:0:
256,192,183747,1,0,0:0:0:0:
256,192,184082,1,0,0:0:0:0:
256,192,184417,1,0,0:0:0:0:
256,192,184752,1,0,0:0:0:0:
256,192,184920,1,0,0:0:0:0:
256,192,185088,1,14,0:0:0:0:
256,192,185255,1,0,0:0:0:0:
256,192,185339,1,0,0:0:0:0:
256,192,185423,1,8,0:0:0:0:
256,192,185590,1,8,0:0:0:0:
256,192,185758,1,0,0:0:0:0:
256,192,185842,1,0,0:0:0:0:
256,192,185926,1,8,0:0:0:0:
256,192,186009,1,8,0:0:0:0:
256,192,186093,1,0,0:0:0:0:
256,192,186261,1,8,0:0:0:0:
256,192,186596,1,0,0:0:0:0:
256,192,186764,1,0,0:0:0:0:
256,192,186931,1,8,0:0:0:0:
256,192,187099,1,0,0:0:0:0:
256,192,187183,1,0,0:0:0:0:
256,192,187266,1,8,0:0:0:0:
256,192,187434,1,0,0:0:0:0:
256,192,187602,1,8,0:0:0:0:
256,192,187937,1,0,0:0:0:0:
256,192,188104,1,0,0:0:0:0:
256,192,188440,1,0,0:0:0:0:
256,192,188775,1,0,0:0:0:0:
256,192,188942,1,0,0:0:0:0:
256,192,189110,1,0,0:0:0:0:
256,192,189445,1,0,0:0:0:0:
256,192,189780,1,0,0:0:0:0:
256,192,189948,1,0,0:0:0:0:
256,192,190116,1,0,0:0:0:0:
256,192,190283,1,0,0:0:0:0:
256,192,190451,1,8,0:0:0:0:
240,180,190786,1,8,0:0:0:0:
240,180,190954,1,8,0:0:0:0:
256,192,191037,1,8,0:0:0:0:
240,180,191121,1,0,0:0:0:0:
240,180,191205,1,0,0:0:0:0:
240,180,191289,1,8,0:0:0:0:
240,180,191456,1,8,0:0:0:0:
240,180,191624,1,0,0:0:0:0:
240,180,191959,1,0,0:0:0:0:
240,180,192127,1,8,0:0:0:0:
240,180,192294,1,8,0:0:0:0:
240,180,192462,1,0,0:0:0:0:
240,180,192630,1,8,0:0:0:0:
240,180,192797,1,0,0:0:0:0:
240,180,192965,1,8,0:0:0:0:
240,180,193300,1,0,0:0:0:0:
240,180,193468,1,0,0:0:0:0:
240,180,193803,1,0,0:0:0:0:
240,180,194138,1,0,0:0:0:0:
240,180,194306,1,0,0:0:0:0:
240,180,194473,1,0,0:0:0:0:
240,180,194808,1,0,0:0:0:0:
240,180,195144,1,0,0:0:0:0:
240,180,195311,1,0,0:0:0:0:
240,180,195479,1,0,0:0:0:0:
240,180,195646,1,0,0:0:0:0:
240,180,195814,1,14,0:0:0:0:
240,180,196149,1,8,0:0:0:0:
240,180,196317,1,8,0:0:0:0:
240,180,196401,1,0,0:0:0:0:
240,180,196484,1,0,0:0:0:0:
240,180,196652,1,8,0:0:0:0:
240,180,196819,1,0,0:0:0:0:
240,180,196987,1,8,0:0:0:0:
240,180,197322,1,0,0:0:0:0:
240,180,197490,1,0,0:0:0:0:
240,180,197657,1,8,0:0:0:0:
240,180,197741,1,8,0:0:0:0:
240,180,197825,1,0,0:0:0:0:
240,180,197993,1,8,0:0:0:0:
240,180,198160,1,0,0:0:0:0:
240,180,198328,1,8,0:0:0:0:
240,180,198663,1,0,0:0:0:0:
240,180,198831,1,0,0:0:0:0:
240,180,199166,1,0,0:0:0:0:
240,180,199501,1,0,0:0:0:0:
240,180,199669,1,0,0:0:0:0:
240,180,199836,1,0,0:0:0:0:
240,180,200171,1,0,0:0:0:0:
240,180,200507,1,0,0:0:0:0:
240,180,200674,1,0,0:0:0:0:
240,180,200842,1,0,0:0:0:0:
240,180,201009,1,0,0:0:0:0:
240,180,201177,1,8,0:0:0:0:
240,180,201512,1,8,0:0:0:0:
240,180,201596,1,0,0:0:0:0:
240,180,201680,1,8,0:0:0:0:
240,180,201764,1,0,0:0:0:0:
240,180,201847,1,0,0:0:0:0:
240,180,202015,1,8,0:0:0:0:
240,180,202183,1,8,0:0:0:0:
240,180,202350,1,0,0:0:0:0:
240,180,202685,1,0,0:0:0:0:
240,180,202853,1,0,0:0:0:0:
240,180,203021,1,8,0:0:0:0:
240,180,203188,1,0,0:0:0:0:
240,180,203356,1,8,0:0:0:0:
240,180,203440,1,0,0:0:0:0:
240,180,203523,1,8,0:0:0:0:
240,180,203607,1,8,0:0:0:0:
240,180,203691,1,0,0:0:0:0:
240,180,203859,1,0,0:0:0:0:
240,180,204194,1,0,0:0:0:0:
240,180,204529,1,0,0:0:0:0:
240,180,204864,1,0,0:0:0:0:
240,180,205032,1,0,0:0:0:0:
240,180,205199,1,0,0:0:0:0:
240,180,205535,1,0,0:0:0:0:
240,180,205870,1,0,0:0:0:0:
240,180,206037,1,0,0:0:0:0:
240,180,206205,1,0,0:0:0:0:
240,180,206373,1,0,0:0:0:0:
240,180,206540,1,14,0:0:0:0:
240,180,206875,1,8,0:0:0:0:
240,180,206959,1,0,0:0:0:0:
240,180,207043,1,8,0:0:0:0:
240,180,207127,1,0,0:0:0:0:
240,180,207211,1,0,0:0:0:0:
240,180,207378,1,8,0:0:0:0:
240,180,207546,1,0,0:0:0:0:
240,180,207713,1,8,0:0:0:0:
240,180,207797,1,8,0:0:0:0:
240,180,207881,1,0,0:0:0:0:
240,180,208049,1,0,0:0:0:0:
240,180,208216,1,8,0:0:0:0:
240,180,208384,1,8,0:0:0:0:
240,180,208551,1,0,0:0:0:0:
240,180,208635,1,0,0:0:0:0:
240,180,208719,1,8,0:0:0:0:
240,180,208887,1,0,0:0:0:0:
240,180,209054,1,8,0:0:0:0:
240,180,209222,1,0,0:0:0:0:
240,180,209389,1,8,0:0:0:0:
240,180,209445,1,8,0:0:0:0:
240,180,209501,1,8,0:0:0:0:
240,180,209557,1,0,0:0:0:0:
240,180,209725,1,0,0:0:0:0:
240,180,209808,1,0,0:0:0:0:
240,180,209892,1,8,0:0:0:0:
240,180,210060,1,0,0:0:0:0:
240,180,210144,1,8,0:0:0:0:
240,180,210227,1,0,0:0:0:0:
240,180,210395,1,8,0:0:0:0:
240,180,210451,1,8,0:0:0:0:
240,180,210507,1,8,0:0:0:0:
240,180,210563,1,0,0:0:0:0:
240,180,210730,1,8,0:0:0:0:
240,180,210898,1,0,0:0:0:0:
240,180,211065,1,0,0:0:0:0:
240,180,211233,1,8,0:0:0:0:
240,180,211401,1,8,0:0:0:0:
240,180,211568,1,0,0:0:0:0:
240,180,211903,1,14,0:0:0:0:
240,180,212071,1,0,0:0:0:0:
240,180,212155,1,0,0:0:0:0:
240,180,212238,1,8,0:0:0:0:
240,180,212322,1,0,0:0:0:0:
240,180,212406,1,8,0:0:0:0:
240,180,212490,1,8,0:0:0:0:
240,180,212574,1,0,0:0:0:0:
240,180,212657,1,0,0:0:0:0:
240,180,212741,1,8,0:0:0:0:
240,180,212825,1,0,0:0:0:0:
240,180,212909,1,8,0:0:0:0:
240,180,212993,1,8,0:0:0:0:
240,180,213076,1,8,0:0:0:0:
240,180,213160,1,8,0:0:0:0:
240,180,213244,1,0,0:0:0:0:
240,180,213328,1,0,0:0:0:0:
240,180,213412,1,8,0:0:0:0:
240,180,213495,1,0,0:0:0:0:
240,180,213579,1,8,0:0:0:0:
240,180,213663,1,8,0:0:0:0:
240,180,213747,1,0,0:0:0:0:
240,180,213831,1,0,0:0:0:0:
240,180,213914,1,8,0:0:0:0:
240,180,213998,1,0,0:0:0:0:
240,180,214082,1,8,0:0:0:0:
240,180,214166,1,0,0:0:0:0:
240,180,214250,1,8,0:0:0:0:
240,180,214333,1,8,0:0:0:0:
240,180,214417,1,0,0:0:0:0:
240,180,214501,1,0,0:0:0:0:
240,180,214585,1,8,0:0:0:0:
240,180,214641,1,8,0:0:0:0:
240,180,214697,1,8,0:0:0:0:
240,180,214752,1,0,0:0:0:0:
240,180,214836,1,0,0:0:0:0:
240,180,214920,1,8,0:0:0:0:
240,180,214976,1,8,0:0:0:0:
240,180,215032,1,8,0:0:0:0:
240,180,215088,1,0,0:0:0:0:
240,180,215171,1,0,0:0:0:0:
240,180,215255,1,8,0:0:0:0:
240,180,215311,1,0,0:0:0:0:
240,180,215367,1,0,0:0:0:0:
240,180,215423,1,8,0:0:0:0:
240,180,215479,1,0,0:0:0:0:
240,180,215535,1,0,0:0:0:0:
240,180,215590,1,8,0:0:0:0:
240,180,215646,1,0,0:0:0:0:
240,180,215702,1,0,0:0:0:0:
240,180,215758,1,8,0:0:0:0:
240,180,215814,1,8,0:0:0:0:
240,180,215870,1,8,0:0:0:0:
240,180,215926,1,0,0:0:0:0:
256,192,216764,1,4,0:0:0:0:
256,192,216931,1,14,0:0:0:0:
256,192,217266,1,4,0:0:0:0:
256,192,217434,1,8,0:0:0:0:
256,192,217518,1,0,0:0:0:0:
256,192,217602,1,8,0:0:0:0:
256,192,217685,1,8,0:0:0:0:
256,192,217769,1,0,0:0:0:0:
256,192,217853,1,0,0:0:0:0:
256,192,217937,1,8,0:0:0:0:
264,176,218021,1,0,0:0:0:0:
264,176,218104,1,8,0:0:0:0:
264,176,218188,1,8,0:0:0:0:
264,176,218272,1,0,0:0:0:0:
264,176,218356,1,0,0:0:0:0:
264,176,218440,1,0,0:0:0:0:
264,176,218523,1,8,0:0:0:0:
264,176,218607,1,0,0:0:0:0:
264,176,218775,1,0,0:0:0:0:
264,176,218859,1,0,0:0:0:0:
264,176,218942,1,0,0:0:0:0:
264,176,219026,1,0,0:0:0:0:
264,176,219110,1,8,0:0:0:0:
264,176,219194,1,0,0:0:0:0:
264,176,219278,1,8,0:0:0:0:
264,176,219333,1,8,0:0:0:0:
264,176,219389,1,8,0:0:0:0:
264,176,219445,1,0,0:0:0:0:
264,176,219613,1,8,0:0:0:0:
264,176,219697,1,8,0:0:0:0:
264,176,219780,1,8,0:0:0:0:
264,176,219864,1,8,0:0:0:0:
264,176,219948,1,0,0:0:0:0:
264,176,220004,1,0,0:0:0:0:
264,176,220060,1,0,0:0:0:0:
264,176,220116,1,8,0:0:0:0:
264,176,220199,1,8,0:0:0:0:
264,176,220283,1,0,0:0:0:0:
264,176,220367,1,0,0:0:0:0:
264,176,220451,1,8,0:0:0:0:
264,176,220535,1,0,0:0:0:0:
264,176,220618,1,8,0:0:0:0:
264,176,220786,1,8,0:0:0:0:
264,176,220870,1,8,0:0:0:0:
264,176,220954,1,0,0:0:0:0:
264,176,221037,1,8,0:0:0:0:
264,176,221121,1,0,0:0:0:0:
264,176,221177,1,0,0:0:0:0:
264,176,221233,1,0,0:0:0:0:
264,176,221289,1,8,0:0:0:0:
264,176,221373,1,8,0:0:0:0:
264,176,221456,1,0,0:0:0:0:
264,176,221540,1,0,0:0:0:0:
264,176,221624,1,8,0:0:0:0:
264,176,221708,1,8,0:0:0:0:
264,176,221792,1,0,0:0:0:0:
264,176,221875,1,0,0:0:0:0:
264,176,221959,1,8,0:0:0:0:
264,176,222043,1,0,0:0:0:0:
264,176,222127,1,8,0:0:0:0:
264,176,222294,1,8,0:0:0:0:
264,176,222378,1,8,0:0:0:0:
264,176,222462,1,8,0:0:0:0:
264,176,222546,1,8,0:0:0:0:
264,176,222630,1,0,0:0:0:0:
264,176,222685,1,0,0:0:0:0:
264,176,222741,1,0,0:0:0:0:
264,176,222797,1,8,0:0:0:0:
264,176,222881,1,0,0:0:0:0:
264,176,222965,1,8,0:0:0:0:
264,176,223049,1,8,0:0:0:0:
264,176,223132,1,0,0:0:0:0:
264,176,223216,1,0,0:0:0:0:
264,176,223300,1,8,0:0:0:0:
264,176,223384,1,8,0:0:0:0:
264,176,223468,1,0,0:0:0:0:
264,176,223551,1,0,0:0:0:0:
264,176,223635,1,8,0:0:0:0:
264,176,223719,1,0,0:0:0:0:
264,176,223803,1,8,0:0:0:0:
264,176,223970,1,0,0:0:0:0:
264,176,224138,1,8,0:0:0:0:
264,176,224194,1,8,0:0:0:0:
264,176,224250,1,8,0:0:0:0:
264,176,224306,1,0,0:0:0:0:
264,176,224389,1,0,0:0:0:0:
264,176,224473,1,8,0:0:0:0:
264,176,224557,1,0,0:0:0:0:
264,176,224641,1,8,0:0:0:0:
264,176,224683,1,8,0:0:0:0:
264,176,224808,1,8,0:0:0:0:
264,176,224850,1,8,0:0:0:0:
264,176,224976,1,8,0:0:0:0:
264,176,225018,1,8,0:0:0:0:
264,176,225144,1,8,0:0:0:0:
264,176,225311,1,4,0:0:0:0:
264,176,225479,1,0,0:0:0:0:
264,176,225563,1,0,0:0:0:0:
264,176,225646,1,8,0:0:0:0:
264,176,225730,1,0,0:0:0:0:
264,176,225814,1,8,0:0:0:0:
264,176,225898,1,8,0:0:0:0:
264,176,225982,1,0,0:0:0:0:
264,176,226065,1,0,0:0:0:0:
264,176,226149,1,8,0:0:0:0:
264,176,226233,1,8,0:0:0:0:
264,176,226317,1,8,0:0:0:0:
264,176,226401,1,0,0:0:0:0:
264,176,226484,1,8,0:0:0:0:
264,176,226568,1,0,0:0:0:0:
264,176,226652,1,0,0:0:0:0:
264,176,226819,1,8,0:0:0:0:
264,176,226903,1,0,0:0:0:0:
264,176,226987,1,0,0:0:0:0:
264,176,227071,1,8,0:0:0:0:
264,176,227155,1,0,0:0:0:0:
264,176,227238,1,0,0:0:0:0:
264,176,227322,1,8,0:0:0:0:
264,176,227490,1,0,0:0:0:0:
264,176,227574,1,8,0:0:0:0:
264,176,227657,1,8,0:0:0:0:
264,176,227741,1,0,0:0:0:0:
264,176,227825,1,8,0:0:0:0:
264,176,227993,1,0,0:0:0:0:
264,176,228328,1,0,0:0:0:0:
264,176,228663,1,8,0:0:0:0:
264,176,228831,1,0,0:0:0:0:
264,176,228914,1,0,0:0:0:0:
264,176,228998,1,8,0:0:0:0:
264,176,229082,1,0,0:0:0:0:
264,176,229166,1,8,0:0:0:0:
264,176,229250,1,8,0:0:0:0:
264,176,229333,1,0,0:0:0:0:
264,176,229417,1,0,0:0:0:0:
264,176,229501,1,8,0:0:0:0:
264,176,229557,1,8,0:0:0:0:
264,176,229613,1,8,0:0:0:0:
264,176,229669,1,0,0:0:0:0:
264,176,229752,1,0,0:0:0:0:
264,176,229836,1,8,0:0:0:0:
264,176,229920,1,0,0:0:0:0:
264,176,230004,1,8,0:0:0:0:
264,176,230171,1,0,0:0:0:0:
264,176,230227,1,0,0:0:0:0:
264,176,230283,1,0,0:0:0:0:
264,176,230395,1,0,0:0:0:0:
264,176,230507,1,0,0:0:0:0:
264,176,230674,1,4,0:0:0:0:
264,176,230842,1,0,0:0:0:0:
264,176,230926,1,0,0:0:0:0:
264,176,231009,1,8,0:0:0:0:
264,176,231093,1,0,0:0:0:0:
264,176,231177,1,8,0:0:0:0:
264,176,231233,1,8,0:0:0:0:
264,176,231289,1,8,0:0:0:0:
264,176,231345,1,0,0:0:0:0:
264,176,231428,1,0,0:0:0:0:
264,176,231512,1,8,0:0:0:0:
264,176,231568,1,0,0:0:0:0:
264,176,231624,1,0,0:0:0:0:
264,176,231680,1,8,0:0:0:0:
264,176,231736,1,0,0:0:0:0:
264,176,231792,1,0,0:0:0:0:
264,176,231847,1,8,0:0:0:0:
264,176,231931,1,8,0:0:0:0:
264,176,232015,1,0,0:0:0:0:
264,176,232183,1,0,0:0:0:0:
264,176,232266,1,0,0:0:0:0:
264,176,232350,1,8,0:0:0:0:
264,176,232434,1,0,0:0:0:0:
264,176,232518,1,0,0:0:0:0:
264,176,232602,1,0,0:0:0:0:
264,176,232685,1,8,0:0:0:0:
264,176,232769,1,0,0:0:0:0:
264,176,232853,1,8,0:0:0:0:
264,176,233021,1,8,0:0:0:0:
264,176,233104,1,8,0:0:0:0:
264,176,233188,1,8,0:0:0:0:
264,176,233356,1,4,0:0:0:0:
264,176,233691,1,8,0:0:0:0:
264,176,233775,1,8,0:0:0:0:
264,176,233859,1,0,0:0:0:0:
264,176,233942,1,0,0:0:0:0:
264,176,234026,1,8,0:0:0:0:
264,176,234194,1,0,0:0:0:0:
264,176,234361,1,8,0:0:0:0:
264,176,234445,1,0,0:0:0:0:
264,176,234529,1,0,0:0:0:0:
264,176,234613,1,8,0:0:0:0:
264,176,234697,1,0,0:0:0:0:
264,176,234864,1,8,0:0:0:0:
264,176,234948,1,8,0:0:0:0:
264,176,235032,1,0,0:0:0:0:
264,176,235116,1,0,0:0:0:0:
264,176,235199,1,0,0:0:0:0:
264,176,235283,1,0,0:0:0:0:
264,176,235367,1,8,0:0:0:0:
264,176,235409,1,8,0:0:0:0:
264,176,235535,1,8,0:0:0:0:
264,176,235576,1,8,0:0:0:0:
264,176,235702,1,8,0:0:0:0:
264,176,235744,1,8,0:0:0:0:
264,176,235870,1,8,0:0:0:0:
264,176,236037,1,4,0:0:0:0:
264,176,236373,1,0,0:0:0:0:
264,176,236456,1,0,0:0:0:0:
264,176,236540,1,8,0:0:0:0:
264,176,236624,1,0,0:0:0:0:
264,176,236708,1,8,0:0:0:0:
264,176,236875,1,8,0:0:0:0:
264,176,236959,1,8,0:0:0:0:
264,176,237043,1,0,0:0:0:0:
264,176,237127,1,0,0:0:0:0:
264,176,237211,1,8,0:0:0:0:
264,176,237378,1,4,0:0:0:0:
264,176,237630,1,4,0:0:0:0:
264,176,237881,1,4,0:0:0:0:
264,176,238132,1,14,0:0:0:0:
264,176,238384,1,0,0:0:0:0:
264,176,238719,1,4,0:0:0:0:
264,176,239054,1,0,0:0:0:0:
256,192,239389,1,8,0:0:0:0:
256,192,239557,1,0,0:0:0:0:
256,192,239613,1,0,0:0:0:0:
256,192,239669,1,0,0:0:0:0:
256,192,239725,1,0,0:0:0:0:
264,176,239892,1,8,0:0:0:0:
256,192,240060,1,0,0:0:0:0:
256,192,240395,1,0,0:0:0:0:
256,192,240563,1,0,0:0:0:0:
256,192,240646,1,0,0:0:0:0:
256,192,240730,1,8,0:0:0:0:
256,192,240898,1,0,0:0:0:0:
256,192,241065,1,0,0:0:0:0:
256,192,241149,1,0,0:0:0:0:
256,192,241233,1,8,0:0:0:0:
256,192,241317,1,8,0:0:0:0:
256,192,241401,1,0,0:0:0:0:
256,192,241736,1,0,0:0:0:0:
256,192,241903,1,0,0:0:0:0:
256,192,242071,1,8,0:0:0:0:
256,192,242238,1,0,0:0:0:0:
256,192,242322,1,0,0:0:0:0:
256,192,242406,1,8,0:0:0:0:
256,192,242574,1,8,0:0:0:0:
256,192,242741,1,0,0:0:0:0:
256,192,242909,1,8,0:0:0:0:
256,192,243076,1,0,0:0:0:0:
256,192,243244,1,0,0:0:0:0:
256,192,243328,1,0,0:0:0:0:
256,192,243412,1,8,0:0:0:0:
256,192,243579,1,0,0:0:0:0:
256,192,243663,1,0,0:0:0:0:
256,192,243747,1,8,0:0:0:0:
256,192,243831,1,0,0:0:0:0:
256,192,243914,1,8,0:0:0:0:
256,192,243998,1,8,0:0:0:0:
256,192,244082,1,0,0:0:0:0:
256,192,244417,1,0,0:0:0:0:
256,192,244585,1,0,0:0:0:0:
256,192,244752,1,8,0:0:0:0:
256,192,244920,1,0,0:0:0:0:
256,192,245088,1,8,0:0:0:0:
256,192,245171,1,8,0:0:0:0:
256,192,245255,1,8,0:0:0:0:
256,192,245423,1,0,0:0:0:0:
256,192,245590,1,8,0:0:0:0:
256,192,245758,1,8,0:0:0:0:
256,192,245926,1,0,0:0:0:0:
256,192,246009,1,0,0:0:0:0:
256,192,246093,1,8,0:0:0:0:
256,192,246261,1,0,0:0:0:0:
256,192,246428,1,8,0:0:0:0:
256,192,246512,1,8,0:0:0:0:
256,192,246596,1,0,0:0:0:0:
256,192,246764,1,4,0:0:0:0:
256,192,247099,1,8,0:0:0:0:
256,192,247266,1,0,0:0:0:0:
256,192,247350,1,0,0:0:0:0:
256,192,247434,1,0,0:0:0:0:
256,192,247518,1,8,0:0:0:0:
256,192,247602,1,0,0:0:0:0:
256,192,247769,1,8,0:0:0:0:
256,192,247937,1,0,0:0:0:0:
256,192,248021,1,8,0:0:0:0:
256,192,248104,1,0,0:0:0:0:
256,192,248272,1,0,0:0:0:0:
256,192,248440,1,8,0:0:0:0:
256,192,248607,1,8,0:0:0:0:
256,192,248691,1,8,0:0:0:0:
256,192,248775,1,0,0:0:0:0:
256,192,248859,1,8,0:0:0:0:
256,192,248942,1,0,0:0:0:0:
256,192,249026,1,0,0:0:0:0:
256,192,249110,1,8,0:0:0:0:
256,192,249194,1,0,0:0:0:0:
256,192,249278,1,8,0:0:0:0:
256,192,249361,1,8,0:0:0:0:
256,192,249445,1,0,0:0:0:0:
256,192,249780,1,8,0:0:0:0:
256,192,249948,1,0,0:0:0:0:
256,192,250032,1,0,0:0:0:0:
256,192,250116,1,8,0:0:0:0:
256,192,250283,1,0,0:0:0:0:
256,192,250367,1,0,0:0:0:0:
256,192,250451,1,8,0:0:0:0:
256,192,250535,1,0,0:0:0:0:
256,192,250618,1,8,0:0:0:0:
256,192,250786,1,0,0:0:0:0:
256,192,250954,1,0,0:0:0:0:
256,192,251037,1,0,0:0:0:0:
256,192,251121,1,8,0:0:0:0:
256,192,251289,1,0,0:0:0:0:
256,192,251456,1,0,0:0:0:0:
256,192,251540,1,0,0:0:0:0:
256,192,251624,1,8,0:0:0:0:
256,192,251708,1,0,0:0:0:0:
256,192,251792,1,8,0:0:0:0:
256,192,251847,1,8,0:0:0:0:
256,192,251903,1,8,0:0:0:0:
256,192,251959,1,0,0:0:0:0:
256,192,252127,1,0,0:0:0:0:
256,192,252294,1,0,0:0:0:0:
256,192,252378,1,0,0:0:0:0:
256,192,252462,1,8,0:0:0:0:
256,192,252546,1,0,0:0:0:0:
256,192,252630,1,8,0:0:0:0:
256,192,252797,1,8,0:0:0:0:
256,192,252881,1,8,0:0:0:0:
256,192,252965,1,0,0:0:0:0:
256,192,253049,1,0,0:0:0:0:
256,192,253132,1,8,0:0:0:0:
256,192,253300,1,8,0:0:0:0:
256,192,253468,1,0,0:0:0:0:
256,192,253551,1,0,0:0:0:0:
256,192,253635,1,0,0:0:0:0:
256,192,253803,1,8,0:0:0:0:
256,192,253970,1,0,0:0:0:0:
256,192,254138,1,8,0:0:0:0:
256,192,254222,1,8,0:0:0:0:
256,192,254306,1,0,0:0:0:0:
256,192,254389,1,0,0:0:0:0:
256,192,254473,1,8,0:0:0:0:
256,192,254557,1,0,0:0:0:0:
256,192,254641,1,8,0:0:0:0:
256,192,254725,1,8,0:0:0:0:
256,192,254808,1,0,0:0:0:0:
256,192,254976,1,0,0:0:0:0:
256,192,255144,1,8,0:0:0:0:
256,192,255311,1,8,0:0:0:0:
256,192,255395,1,8,0:0:0:0:
256,192,255479,1,0,0:0:0:0:
256,192,255646,1,0,0:0:0:0:
256,192,255814,1,8,0:0:0:0:
256,192,255982,1,8,0:0:0:0:
256,192,256149,1,0,0:0:0:0:
256,192,256317,1,0,0:0:0:0:
256,192,256401,1,0,0:0:0:0:
256,192,256484,1,8,0:0:0:0:
256,192,256652,1,8,0:0:0:0:
256,192,256736,1,8,0:0:0:0:
256,192,256819,1,8,0:0:0:0:
256,192,256903,1,8,0:0:0:0:
256,192,256987,1,0,0:0:0:0:
256,192,257155,1,8,0:0:0:0:
256,192,257322,1,8,0:0:0:0:
256,192,257490,1,0,0:0:0:0:
256,192,257574,1,0,0:0:0:0:
256,192,257657,1,0,0:0:0:0:
256,192,257741,1,8,0:0:0:0:
256,192,257825,1,8,0:0:0:0:
256,192,257993,1,0,0:0:0:0:
256,192,258160,1,8,0:0:0:0:
256,192,258244,1,8,0:0:0:0:
256,192,258328,1,0,0:0:0:0:
256,192,258412,1,0,0:0:0:0:
256,192,258495,1,8,0:0:0:0:
256,192,258663,1,0,0:0:0:0:
256,192,258747,1,0,0:0:0:0:
256,192,258914,1,4,0:0:0:0:
256,192,259166,1,14,0:0:0:0:
256,192,259333,1,14,0:0:0:0:
256,192,259501,1,0,0:0:0:0:
256,192,259669,1,4,0:0:0:0:
256,192,259836,1,8,0:0:0:0:
256,192,259920,1,8,0:0:0:0:
256,192,260004,1,8,0:0:0:0:
256,192,260088,1,8,0:0:0:0:
256,192,260171,1,0,0:0:0:0:
256,192,260227,1,0,0:0:0:0:
256,192,260283,1,0,0:0:0:0:
256,192,260339,1,8,0:0:0:0:
256,192,260423,1,8,0:0:0:0:
256,192,260507,1,0,0:0:0:0:
256,192,260590,1,0,0:0:0:0:
256,192,260674,1,8,0:0:0:0:
256,192,260758,1,0,0:0:0:0:
256,192,260842,1,8,0:0:0:0:
256,192,261177,1,8,0:0:0:0:
256,192,261345,1,0,0:0:0:0:
256,192,261428,1,8,0:0:0:0:
256,192,261512,1,0,0:0:0:0:
256,192,261680,1,8,0:0:0:0:
256,192,261847,1,8,0:0:0:0:
256,192,261931,1,8,0:0:0:0:
256,192,262015,1,0,0:0:0:0:
256,192,262099,1,0,0:0:0:0:
256,192,262183,1,8,0:0:0:0:
256,192,262350,1,0,0:0:0:0:
256,192,262434,1,0,0:0:0:0:
256,192,262518,1,8,0:0:0:0:
256,192,262685,1,0,0:0:0:0:
256,192,262853,1,0,0:0:0:0:
256,192,263021,1,0,0:0:0:0:
256,192,263188,1,8,0:0:0:0:
256,192,263272,1,0,0:0:0:0:
256,192,263356,1,0,0:0:0:0:
256,192,263440,1,0,0:0:0:0:
256,192,263523,1,8,0:0:0:0:
256,192,263775,1,8,0:0:0:0:
256,192,264026,1,4,0:0:0:0:
256,192,264361,1,0,0:0:0:0:
256,192,264529,1,8,0:0:0:0:
256,192,264697,1,0,0:0:0:0:
256,192,264780,1,0,0:0:0:0:
256,192,264864,1,8,0:0:0:0:
256,192,265032,1,0,0:0:0:0:
256,192,265199,1,8,0:0:0:0:
256,192,265535,1,4,0:0:0:0:
256,192,265702,1,0,0:0:0:0:
256,192,265786,1,0,0:0:0:0:
256,192,265870,1,8,0:0:0:0:
256,192,265954,1,0,0:0:0:0:
256,192,266037,1,8,0:0:0:0:
256,192,266205,1,0,0:0:0:0:
256,192,266373,1,8,0:0:0:0:
256,192,266540,1,8,0:0:0:0:
256,192,266708,1,0,0:0:0:0:
256,192,266792,1,8,0:0:0:0:
256,192,266875,1,0,0:0:0:0:
256,192,267043,1,8,0:0:0:0:
256,192,267127,1,8,0:0:0:0:
256,192,267211,1,0,0:0:0:0:
256,192,267294,1,8,0:0:0:0:
256,192,267378,1,0,0:0:0:0:
256,192,267546,1,8,0:0:0:0:
256,192,267797,1,0,0:0:0:0:
256,192,267881,1,8,0:0:0:0:
256,192,268049,1,0,0:0:0:0:
256,192,268216,1,14,0:0:0:0:
256,192,268551,1,8,0:0:0:0:
256,192,268719,1,0,0:0:0:0:
256,192,268803,1,8,0:0:0:0:
256,192,268887,1,0,0:0:0:0:
256,192,268970,1,0,0:0:0:0:
256,192,269054,1,8,0:0:0:0:
256,192,269222,1,8,0:0:0:0:
256,192,269389,1,8,0:0:0:0:
256,192,269557,1,0,0:0:0:0:
256,192,269892,1,8,0:0:0:0:
256,192,270060,1,0,0:0:0:0:
256,192,270144,1,0,0:0:0:0:
256,192,270227,1,0,0:0:0:0:
256,192,270395,1,8,0:0:0:0:
256,192,270563,1,8,0:0:0:0:
256,192,270646,1,8,0:0:0:0:
256,192,270730,1,8,0:0:0:0:
256,192,270814,1,8,0:0:0:0:
256,192,270898,1,0,0:0:0:0:
256,192,271233,1,0,0:0:0:0:
256,192,271401,1,0,0:0:0:0:
256,192,271484,1,0,0:0:0:0:
256,192,271568,1,8,0:0:0:0:
256,192,271736,1,8,0:0:0:0:
256,192,271903,1,8,0:0:0:0:
256,192,272071,1,0,0:0:0:0:
256,192,272406,1,8,0:0:0:0:
256,192,272490,1,0,0:0:0:0:
256,192,272574,1,8,0:0:0:0:
256,192,272657,1,8,0:0:0:0:
256,192,272741,1,0,0:0:0:0:
256,192,272909,1,8,0:0:0:0:
256,192,273132,1,0,0:0:0:0:
256,192,273356,1,8,0:0:0:0:
256,192,273579,1,4,0:0:0:0:
256,192,274250,1,8,0:0:0:0:
256,192,274417,1,0,0:0:0:0:
256,192,274501,1,0,0:0:0:0:
256,192,274585,1,0,0:0:0:0:
256,192,274752,1,4,0:0:0:0:
256,192,275088,1,8,0:0:0:0:
256,192,275171,1,8,0:0:0:0:
256,192,275255,1,8,0:0:0:0:
256,192,275339,1,8,0:0:0:0:
256,192,275423,1,0,0:0:0:0:
256,192,275507,1,0,0:0:0:0:
256,192,275590,1,8,0:0:0:0:
256,192,275674,1,0,0:0:0:0:
256,192,275758,1,0,0:0:0:0:
256,192,275842,1,8,0:0:0:0:
256,192,275926,1,0,0:0:0:0:
256,192,276093,1,8,0:0:0:0:
256,192,276261,1,4,0:0:0:0:
256,192,276596,1,8,0:0:0:0:
256,192,276680,1,0,0:0:0:0:
256,192,276764,1,8,0:0:0:0:
256,192,276847,1,8,0:0:0:0:
256,192,276931,1,0,0:0:0:0:
256,192,277099,1,8,0:0:0:0:
256,192,277266,1,8,0:0:0:0:
256,192,277434,1,0,0:0:0:0:
256,192,277518,1,8,0:0:0:0:
256,192,277769,1,0,0:0:0:0:
256,192,277853,1,8,0:0:0:0:
256,192,277937,1,8,0:0:0:0:
256,192,278021,1,0,0:0:0:0:
256,192,278104,1,8,0:0:0:0:
256,192,278272,1,8,0:0:0:0:
256,192,278440,1,0,0:0:0:0:
256,192,278523,1,0,0:0:0:0:
256,192,278607,1,8,0:0:0:0:
256,192,278775,1,8,0:0:0:0:
256,192,278942,1,4,0:0:0:0:
256,192,279110,1,0,0:0:0:0:
256,192,279278,1,0,0:0:0:0:
256,192,279361,1,0,0:0:0:0:
256,192,279445,1,0,0:0:0:0:
256,192,279529,1,0,0:0:0:0:
256,192,279613,1,8,0:0:0:0:
256,192,279697,1,0,0:0:0:0:
256,192,279780,1,8,0:0:0:0:
256,192,279864,1,8,0:0:0:0:
256,192,279948,1,0,0:0:0:0:
256,192,280032,1,0,0:0:0:0:
256,192,280116,1,8,0:0:0:0:
240,184,280283,1,4,0:0:0:0:
240,184,280535,1,4,0:0:0:0:
240,184,280786,1,4,0:0:0:0:
240,184,280954,1,14,0:0:0:0:
256,192,281624,1,4,0:0:0:0:
256,192,281792,1,0,0:0:0:0:
256,192,281875,1,0,0:0:0:0:
256,192,281959,1,8,0:0:0:0:
256,192,282043,1,0,0:0:0:0:
256,192,282127,1,8,0:0:0:0:
256,192,282211,1,8,0:0:0:0:
256,192,282294,1,0,0:0:0:0:
256,192,282350,1,0,0:0:0:0:
256,192,282406,1,0,0:0:0:0:
256,192,282462,1,8,0:0:0:0:
256,192,282546,1,0,0:0:0:0:
256,192,282630,1,8,0:0:0:0:
256,192,282713,1,0,0:0:0:0:
256,192,282797,1,8,0:0:0:0:
256,192,282853,1,8,0:0:0:0:
256,192,282909,1,8,0:0:0:0:
256,192,282965,1,0,0:0:0:0:
256,192,283049,1,0,0:0:0:0:
256,192,283132,1,8,0:0:0:0:
256,192,283216,1,0,0:0:0:0:
256,192,283300,1,8,0:0:0:0:
256,192,283384,1,8,0:0:0:0:
256,192,283468,1,0,0:0:0:0:
256,192,283551,1,0,0:0:0:0:
256,192,283635,1,8,0:0:0:0:
256,192,283691,1,8,0:0:0:0:
256,192,283747,1,8,0:0:0:0:
256,192,283803,1,0,0:0:0:0:
256,192,283887,1,0,0:0:0:0:
256,192,283970,1,8,0:0:0:0:
256,192,284054,1,8,0:0:0:0:
256,192,284138,1,8,0:0:0:0:
256,192,284222,1,8,0:0:0:0:
256,192,284306,1,0,0:0:0:0:
256,192,284361,1,0,0:0:0:0:
256,192,284417,1,0,0:0:0:0:
256,192,284473,1,8,0:0:0:0:
256,192,284557,1,0,0:0:0:0:
256,192,284641,1,8,0:0:0:0:
256,192,284725,1,0,0:0:0:0:
256,192,284808,1,8,0:0:0:0:
256,192,284892,1,8,0:0:0:0:
256,192,284976,1,0,0:0:0:0:
256,192,285060,1,8,0:0:0:0:
256,192,285144,1,0,0:0:0:0:
256,192,285227,1,0,0:0:0:0:
256,192,285311,1,8,0:0:0:0:
256,192,285395,1,0,0:0:0:0:
256,192,285479,1,0,0:0:0:0:
256,192,285563,1,8,0:0:0:0:
256,192,285646,1,0,0:0:0:0:
256,192,285702,1,0,0:0:0:0:
256,192,285758,1,0,0:0:0:0:
256,192,285814,1,8,0:0:0:0:
256,192,285898,1,0,0:0:0:0:
256,192,285982,1,8,0:0:0:0:
256,192,286065,1,0,0:0:0:0:
256,192,286149,1,8,0:0:0:0:
256,192,286233,1,8,0:0:0:0:
256,192,286317,1,0,0:0:0:0:
256,192,286401,1,0,0:0:0:0:
256,192,286484,1,8,0:0:0:0:
256,192,286568,1,0,0:0:0:0:
256,192,286652,1,8,0:0:0:0:
256,192,286736,1,0,0:0:0:0:
256,192,286819,1,0,0:0:0:0:
256,192,286903,1,8,0:0:0:0:
256,192,286987,1,0,0:0:0:0:
256,192,287043,1,0,0:0:0:0:
256,192,287099,1,0,0:0:0:0:
256,192,287155,1,8,0:0:0:0:
256,192,287238,1,0,0:0:0:0:
256,192,287322,1,8,0:0:0:0:
256,192,287406,1,0,0:0:0:0:
256,192,287490,1,8,0:0:0:0:
256,192,287574,1,8,0:0:0:0:
256,192,287657,1,0,0:0:0:0:
256,192,287713,1,0,0:0:0:0:
256,192,287769,1,0,0:0:0:0:
256,192,287825,1,8,0:0:0:0:
256,192,287909,1,8,0:0:0:0:
256,192,287993,1,0,0:0:0:0:
256,192,288076,1,0,0:0:0:0:
256,192,288160,1,8,0:0:0:0:
256,192,288216,1,8,0:0:0:0:
256,192,288272,1,8,0:0:0:0:
256,192,288328,1,0,0:0:0:0:
256,192,288412,1,0,0:0:0:0:
256,192,288495,1,8,0:0:0:0:
256,192,288579,1,0,0:0:0:0:
256,192,288663,1,8,0:0:0:0:
256,192,288747,1,8,0:0:0:0:
256,192,288831,1,0,0:0:0:0:
256,192,288914,1,0,0:0:0:0:
256,192,288998,1,8,0:0:0:0:
256,192,289040,1,8,0:0:0:0:
256,192,289166,1,8,0:0:0:0:
256,192,289208,1,8,0:0:0:0:
256,192,289333,1,8,0:0:0:0:
256,192,289375,1,8,0:0:0:0:
256,192,289501,1,8,0:0:0:0:
256,192,289669,1,0,0:0:0:0:
256,192,289752,1,0,0:0:0:0:
256,192,289836,1,8,0:0:0:0:
256,192,289920,1,0,0:0:0:0:
256,192,290004,1,8,0:0:0:0:
256,192,290060,1,0,0:0:0:0:
256,192,290116,1,0,0:0:0:0:
256,192,290171,1,8,0:0:0:0:
256,192,290255,1,8,0:0:0:0:
256,192,290339,1,0,0:0:0:0:
256,192,290423,1,0,0:0:0:0:
256,192,290507,1,8,0:0:0:0:
256,192,290590,1,0,0:0:0:0:
256,192,290674,1,8,0:0:0:0:
256,192,290758,1,8,0:0:0:0:
256,192,290842,1,0,0:0:0:0:
256,192,290926,1,0,0:0:0:0:
256,192,291009,1,0,0:0:0:0:
256,192,291093,1,0,0:0:0:0:
256,192,291177,1,8,0:0:0:0:
256,192,291261,1,8,0:0:0:0:
256,192,291345,1,0,0:0:0:0:
256,192,291428,1,0,0:0:0:0:
256,192,291512,1,8,0:0:0:0:
256,192,291596,1,0,0:0:0:0:
256,192,291680,1,8,0:0:0:0:
256,192,291764,1,8,0:0:0:0:
256,192,291847,1,0,0:0:0:0:
256,192,291931,1,0,0:0:0:0:
256,192,292015,1,8,0:0:0:0:
256,192,292099,1,0,0:0:0:0:
256,192,292183,1,8,0:0:0:0:
256,192,292266,1,8,0:0:0:0:
256,192,292350,1,0,0:0:0:0:
256,192,292685,1,8,0:0:0:0:
256,192,292853,1,0,0:0:0:0:
256,192,292909,1,0,0:0:0:0:
256,192,292965,1,0,0:0:0:0:
256,192,293021,1,8,0:0:0:0:
256,192,293104,1,8,0:0:0:0:
256,192,293188,1,0,0:0:0:0:
256,192,293272,1,0,0:0:0:0:
256,192,293356,1,8,0:0:0:0:
256,192,293440,1,0,0:0:0:0:
256,192,293523,1,8,0:0:0:0:
256,192,293579,1,8,0:0:0:0:
256,192,293635,1,8,0:0:0:0:
256,192,293691,1,0,0:0:0:0:
256,192,293775,1,0,0:0:0:0:
256,192,293859,1,8,0:0:0:0:
256,192,293942,1,0,0:0:0:0:
256,192,294026,1,8,0:0:0:0:
256,192,294110,1,0,0:0:0:0:
256,192,294194,1,0,0:0:0:0:
256,192,294278,1,0,0:0:0:0:
256,192,294361,1,8,0:0:0:0:
256,192,294417,1,8,0:0:0:0:
256,192,294473,1,8,0:0:0:0:
256,192,294529,1,0,0:0:0:0:
256,192,294613,1,0,0:0:0:0:
256,192,294697,1,8,0:0:0:0:
256,192,294780,1,0,0:0:0:0:
256,192,294864,1,8,0:0:0:0:
256,192,294948,1,8,0:0:0:0:
256,192,295032,1,0,0:0:0:0:
256,192,295088,1,0,0:0:0:0:
256,192,295144,1,0,0:0:0:0:
256,192,295199,1,8,0:0:0:0:
256,192,295283,1,8,0:0:0:0:
256,192,295367,1,0,0:0:0:0:
256,192,295451,1,0,0:0:0:0:
256,192,295535,1,8,0:0:0:0:
256,192,295618,1,0,0:0:0:0:
256,192,295702,1,8,0:0:0:0:
256,192,295786,1,8,0:0:0:0:
256,192,295870,1,0,0:0:0:0:
256,192,295954,1,0,0:0:0:0:
256,192,296037,1,8,0:0:0:0:
256,192,296121,1,8,0:0:0:0:
256,192,296205,1,8,0:0:0:0:
256,192,296289,1,8,0:0:0:0:
256,192,296373,1,0,0:0:0:0:
256,192,296428,1,0,0:0:0:0:
256,192,296484,1,0,0:0:0:0:
256,192,296540,1,8,0:0:0:0:
256,192,296624,1,0,0:0:0:0:
256,192,296708,1,8,0:0:0:0:
256,192,296792,1,0,0:0:0:0:
256,192,296875,1,0,0:0:0:0:
256,192,296959,1,0,0:0:0:0:
256,192,297043,1,8,0:0:0:0:
256,192,297127,1,8,0:0:0:0:
256,192,297211,1,0,0:0:0:0:
256,192,297294,1,0,0:0:0:0:
256,192,297378,1,8,0:0:0:0:
256,192,297462,1,8,0:0:0:0:
256,192,297546,1,0,0:0:0:0:
256,192,297630,1,8,0:0:0:0:
256,192,297713,1,0,0:0:0:0:
256,192,297769,1,0,0:0:0:0:
256,192,297825,1,0,0:0:0:0:
256,192,297881,1,8,0:0:0:0:
256,192,297965,1,0,0:0:0:0:
256,192,298049,1,8,0:0:0:0:
256,192,298132,1,8,0:0:0:0:
256,192,298216,1,0,0:0:0:0:
256,192,298300,1,0,0:0:0:0:
256,192,298384,1,8,0:0:0:0:
256,192,298440,1,8,0:0:0:0:
256,192,298496,1,8,0:0:0:0:
256,192,298552,1,0,0:0:0:0:
256,192,298635,1,0,0:0:0:0:
256,192,298719,1,8,0:0:0:0:
256,192,298803,1,0,0:0:0:0:
256,192,298887,1,8,0:0:0:0:
256,192,298942,1,8,0:0:0:0:
256,192,298998,1,8,0:0:0:0:
256,192,299054,1,0,0:0:0:0:
256,192,299138,1,0,0:0:0:0:
256,192,299222,1,0,0:0:0:0:
256,192,299306,1,0,0:0:0:0:
256,192,299389,1,8,0:0:0:0:
256,192,299473,1,0,0:0:0:0:
256,192,299557,1,0,0:0:0:0:
256,192,299641,1,0,0:0:0:0:
256,192,299725,1,8,0:0:0:0:
256,192,299766,1,8,0:0:0:0:
256,192,299892,1,8,0:0:0:0:
256,192,299934,1,8,0:0:0:0:
256,192,300060,1,8,0:0:0:0:
256,192,300102,1,8,0:0:0:0:
256,192,300227,1,8,0:0:0:0:
256,192,300395,1,0,0:0:0:0:
256,192,300479,1,0,0:0:0:0:
256,192,300563,1,8,0:0:0:0:
256,192,300646,1,0,0:0:0:0:
256,192,300730,1,8,0:0:0:0:
256,192,300814,1,0,0:0:0:0:
256,192,300898,1,8,0:0:0:0:
256,192,300982,1,8,0:0:0:0:
256,192,301065,1,0,0:0:0:0:
256,192,301149,1,0,0:0:0:0:
256,192,301233,1,8,0:0:0:0:
256,192,301317,1,0,0:0:0:0:
256,192,301401,1,8,0:0:0:0:
256,192,301484,1,8,0:0:0:0:
256,192,301568,1,0,0:0:0:0:
256,192,301652,1,0,0:0:0:0:
256,192,301736,1,8,0:0:0:0:
256,192,301819,1,8,0:0:0:0:
256,192,301903,1,8,0:0:0:0:
256,192,301987,1,8,0:0:0:0:
256,192,302071,1,0,0:0:0:0:
256,192,302155,1,0,0:0:0:0:
256,192,302238,1,8,0:0:0:0:
256,192,302322,1,8,0:0:0:0:
256,192,302406,1,0,0:0:0:0:
256,192,302490,1,0,0:0:0:0:
256,192,302574,1,8,0:0:0:0:
256,192,302741,1,8,0:0:0:0:
256,192,302825,1,8,0:0:0:0:
256,192,302909,1,8,0:0:0:0:
256,192,302993,1,8,0:0:0:0:
256,192,303076,1,0,0:0:0:0:
256,192,303244,1,0,0:0:0:0:
256,192,303328,1,8,0:0:0:0:
256,192,303579,1,8,0:0:0:0:
256,192,303747,1,0,0:0:0:0:
256,192,303914,1,0,0:0:0:0:
256,192,304082,1,8,0:0:0:0:
256,192,304417,1,0,0:0:0:0:
256,192,304585,1,0,0:0:0:0:
256,192,304752,1,8,0:0:0:0:
256,192,304920,1,0,0:0:0:0:
256,192,305004,1,0,0:0:0:0:
256,192,305088,1,8,0:0:0:0:
256,192,305171,1,8,0:0:0:0:
256,192,305255,1,8,0:0:0:0:
256,192,305339,1,8,0:0:0:0:
256,192,305423,1,0,0:0:0:0:
256,192,305507,1,0,0:0:0:0:
256,192,305590,1,8,0:0:0:0:
256,192,305758,1,4,0:0:0:0:
