osu file format v14

[General]
AudioFilename: audio.mp3
AudioLeadIn: 0
PreviewTime: 43849
Countdown: 0
SampleSet: Soft
StackLeniency: 0.7
Mode: 0
LetterboxInBreaks: 0
WidescreenStoryboard: 1

[Editor]
Bookmarks: 23779,45231,66684,88136,109589,122997,144449,157857,168583,200762,222215,243667,265120
DistanceSpacing: 1.4
BeatDivisor: 8
GridSize: 4
TimelineZoom: 8

[Metadata]
Title:Bassdrop Freaks (2018 "Redrop" ver.)
TitleUnicode:べィスドロップ・フリークス (2018 "Redrop" ver.)
Artist:Camellia feat. Nanahira
ArtistUnicode:かめりあ feat. ななひら
Creator:sammy711
Version:sammy
Source:
Tags:Galaxy Burst
BeatmapID:1749985
BeatmapSetID:835567

[Difficulty]
HPDrainRate:0
CircleSize:4.3
OverallDifficulty:9
ApproachRate:9.8
SliderMultiplier:1.8
SliderTickRate:1

[Events]
//Background and Video events
0,0,"bg.jpg",0,0
//Break Periods
//Storyboard Layer 0 (Background)
//Storyboard Layer 1 (Fail)
//Storyboard Layer 2 (Pass)
//Storyboard Layer 3 (Foreground)
//Storyboard Sound Samples

[TimingPoints]
986,335.195530726257,4,2,1,70,1,0
1039,-100,4,2,1,70,0,0
1039,-100,4,2,1,70,0,0
1039,-100,4,2,1,70,0,0
1039,-100,4,2,1,70,0,0
1039,-100,4,2,1,70,0,0
1039,-100,4,2,1,70,0,0
1039,-100,4,2,1,70,0,0
1039,-100,4,2,1,70,0,0
1039,-100,4,2,1,70,0,0
1039,-100,4,2,1,70,0,0
1039,-100,4,2,1,70,0,0
1039,-100,4,2,1,70,0,0
1039,-100,4,2,1,70,0,0
2326,-66.6666666666667,4,2,1,70,0,0
2661,-100,4,2,1,70,0,0
3499,-66.6666666666667,4,2,1,70,0,0
6181,-57.1428571428571,4,2,1,70,0,0
6851,-100,4,2,1,70,0,0
7689,-66.6666666666667,4,2,1,70,0,0
8863,-57.1428571428571,4,2,1,70,0,0
9533,-43.4782608695652,4,2,1,70,0,0
9868,-38.4615384615385,4,2,1,70,0,0
10371,-66.6666666666667,4,2,1,70,0,0
10874,-50,4,2,1,70,0,0
12215,-41.6666666666667,4,2,1,70,0,0
12717,-66.6666666666667,4,2,1,70,0,0
13723,-41.6666666666667,4,2,1,70,0,0
14393,-55.5555555555556,4,2,1,70,0,0
18416,-55.5555555555556,4,2,1,70,0,0
19086,-66.6666666666667,4,2,1,70,0,0
22103,-33.3333333333333,4,2,1,70,0,0
23444,-50,4,2,1,70,0,0
23779,-100,4,2,1,70,0,0
26460,-133.333333333333,4,2,1,70,0,0
34505,-100,4,2,1,70,0,0
43891,-50,4,2,1,70,0,0
44226,-34.4827586206897,4,2,1,70,0,0
44896,-31.25,4,2,1,70,0,0
45231,-28.5714285714286,4,2,1,70,0,1
45567,-41.6666666666667,4,2,1,90,0,1
46572,-34.4827586206897,4,2,1,90,0,1
53036,-34.4827586206897,4,2,99,5,0,1
53036,-34.4827586206897,4,2,99,5,0,1
53036,-34.4827586206897,4,2,99,5,0,1
53036,-34.4827586206897,4,2,99,5,0,1
53036,-34.4827586206897,4,2,99,5,0,1
53036,-34.4827586206897,4,2,99,5,0,1
53036,-34.4827586206897,4,2,99,5,0,1
53036,-34.4827586206897,4,2,99,5,0,1
53036,-34.4827586206897,4,2,99,5,0,1
53036,-34.4827586206897,4,2,99,5,0,1
53036,-34.4827586206897,4,2,99,5,0,1
53036,-34.4827586206897,4,2,99,5,0,1
53036,-34.4827586206897,4,2,99,5,0,1
53036,-34.4827586206897,4,2,99,5,0,1
53078,-34.4827586206897,4,2,1,90,0,1
53078,-34.4827586206897,4,2,1,90,0,1
53078,-34.4827586206897,4,2,1,90,0,1
53078,-34.4827586206897,4,2,1,90,0,1
53078,-34.4827586206897,4,2,1,90,0,1
53078,-34.4827586206897,4,2,1,90,0,1
53078,-34.4827586206897,4,2,1,90,0,1
53078,-34.4827586206897,4,2,1,90,0,1
53078,-34.4827586206897,4,2,1,90,0,1
53078,-34.4827586206897,4,2,1,90,0,1
53078,-34.4827586206897,4,2,1,90,0,1
53078,-34.4827586206897,4,2,1,90,0,1
53078,-34.4827586206897,4,2,1,90,0,1
53078,-34.4827586206897,4,2,1,90,0,1
53203,-34.4827586206897,4,2,99,5,0,1
53203,-34.4827586206897,4,2,99,5,0,1
53203,-34.4827586206897,4,2,99,5,0,1
53203,-34.4827586206897,4,2,99,5,0,1
53203,-34.4827586206897,4,2,99,5,0,1
53203,-34.4827586206897,4,2,99,5,0,1
53203,-34.4827586206897,4,2,99,5,0,1
53203,-34.4827586206897,4,2,99,5,0,1
53203,-34.4827586206897,4,2,99,5,0,1
53203,-34.4827586206897,4,2,99,5,0,1
53203,-34.4827586206897,4,2,99,5,0,1
53203,-34.4827586206897,4,2,99,5,0,1
53203,-34.4827586206897,4,2,99,5,0,1
53203,-34.4827586206897,4,2,99,5,0,1
53245,-34.4827586206897,4,2,1,90,0,1
53245,-34.4827586206897,4,2,1,90,0,1
53245,-34.4827586206897,4,2,1,90,0,1
53245,-34.4827586206897,4,2,1,90,0,1
53245,-34.4827586206897,4,2,1,90,0,1
53245,-34.4827586206897,4,2,1,90,0,1
53245,-34.4827586206897,4,2,1,90,0,1
53245,-34.4827586206897,4,2,1,90,0,1
53245,-34.4827586206897,4,2,1,90,0,1
53245,-34.4827586206897,4,2,1,90,0,1
53245,-34.4827586206897,4,2,1,90,0,1
53245,-34.4827586206897,4,2,1,90,0,1
53245,-34.4827586206897,4,2,1,90,0,1
53245,-34.4827586206897,4,2,1,90,0,1
53276,-66.6666666666667,4,2,1,90,0,0
53946,-55.5555555555556,4,2,1,90,0,0
55622,-47.6190476190476,4,2,1,90,0,0
55927,-47.6190476190476,4,2,1,70,0,0
55927,-47.6190476190476,4,2,1,70,0,0
55927,-47.6190476190476,4,2,1,70,0,0
55927,-47.6190476190476,4,2,1,70,0,0
55927,-47.6190476190476,4,2,1,70,0,0
55927,-47.6190476190476,4,2,1,70,0,0
55927,-47.6190476190476,4,2,1,70,0,0
55927,-47.6190476190476,4,2,1,70,0,0
55927,-47.6190476190476,4,2,1,70,0,0
55927,-47.6190476190476,4,2,1,70,0,0
55927,-47.6190476190476,4,2,1,70,0,0
55927,-47.6190476190476,4,2,1,70,0,0
55927,-47.6190476190476,4,2,1,70,0,0
55927,-47.6190476190476,4,2,1,70,0,0
55958,-34.4827586206897,4,2,1,70,0,1
56011,-34.4827586206897,4,2,1,90,0,1
56011,-34.4827586206897,4,2,1,90,0,1
56011,-34.4827586206897,4,2,1,90,0,1
56011,-34.4827586206897,4,2,1,90,0,1
56011,-34.4827586206897,4,2,1,90,0,1
56011,-34.4827586206897,4,2,1,90,0,1
56011,-34.4827586206897,4,2,1,90,0,1
56011,-34.4827586206897,4,2,1,90,0,1
56011,-34.4827586206897,4,2,1,90,0,1
56011,-34.4827586206897,4,2,1,90,0,1
56011,-34.4827586206897,4,2,1,90,0,1
56011,-34.4827586206897,4,2,1,90,0,1
56011,-34.4827586206897,4,2,1,90,0,1
56011,-34.4827586206897,4,2,1,90,0,1
56293,-55.5555555555556,4,2,1,90,0,1
56460,-34.4827586206897,4,2,1,90,0,1
57298,-31.25,4,2,1,90,0,1
57634,-50,4,2,1,90,0,1
58304,-31.25,4,2,1,90,0,1
63332,-40,4,2,1,90,0,1
64002,-45.4545454545455,4,2,1,90,0,0
64055,-45.4545454545455,4,2,1,70,0,0
64055,-45.4545454545455,4,2,1,70,0,0
65343,-33.3333333333333,4,2,1,70,0,1
65396,-33.3333333333333,4,2,1,90,0,1
65396,-33.3333333333333,4,2,1,90,0,1
66097,-25,4,2,1,90,0,1
66402,-55.5555555555556,4,2,1,70,0,0
69701,-100,4,2,1,70,0,0
70036,-66.6666666666667,4,2,1,70,0,0
70706,-76.9230769230769,4,2,1,70,0,0
71377,-62.5,4,2,1,70,0,0
71712,-117.647058823529,4,2,1,70,0,0
71963,-117.647058823529,4,2,1,70,0,0
72047,-90.9090909090909,4,2,1,70,0,0
72717,-54.054054054054,4,2,1,70,0,0
73136,-54.054054054054,4,2,1,70,0,0
73220,-54.054054054054,4,2,1,70,0,0
73555,-83.3333333333333,4,2,1,70,0,0
74393,-100,4,2,1,70,0,0
74729,-100,4,2,1,70,0,0
76069,-76.9230769230769,4,2,1,70,0,0
77410,-62.5,4,2,1,70,0,0
78835,-62.5,4,2,1,70,0,0
78918,-62.5,4,2,1,70,0,0
79505,-62.5,4,2,1,70,0,0
79589,-62.5,4,2,1,70,0,0
79756,-83.3333333333333,4,2,1,70,0,0
80092,-71.4285714285714,4,2,1,70,0,0
80343,-71.4285714285714,4,2,1,70,0,0
80427,-58.8235294117647,4,2,1,70,0,0
82438,-100,4,2,1,70,0,0
82773,-62.5,4,2,1,70,0,0
83611,-76.9230769230769,4,2,1,70,0,0
84114,-62.5,4,2,1,70,0,0
85120,-55.5555555555556,4,2,1,70,0,0
85371,-55.5555555555556,4,2,1,70,0,0
85455,-71.4285714285714,4,2,1,70,0,0
86460,-71.4285714285714,4,2,1,70,0,1
86879,-41.6666666666667,4,2,1,70,0,1
87466,-41.6666666666667,4,2,1,70,0,1
88136,-62.5,4,2,1,70,0,0
88189,-62.5,4,2,1,90,0,0
88189,-62.5,4,2,1,90,0,0
88189,-62.5,4,2,1,90,0,0
88189,-62.5,4,2,1,90,0,0
88189,-62.5,4,2,1,90,0,0
88189,-62.5,4,2,1,90,0,0
88189,-62.5,4,2,1,90,0,0
88189,-62.5,4,2,1,90,0,0
88189,-62.5,4,2,1,90,0,0
88189,-62.5,4,2,1,90,0,0
88189,-62.5,4,2,1,90,0,0
88189,-62.5,4,2,1,90,0,0
88189,-62.5,4,2,1,90,0,0
88189,-62.5,4,2,1,90,0,0
88723,-62.5,4,2,1,90,0,0
88807,-90.9090909090909,4,2,1,90,0,0
89310,-117.647058823529,4,2,1,90,0,0
89561,-117.647058823529,4,2,1,90,0,0
89645,-117.647058823529,4,2,1,90,0,0
89812,-71.4285714285714,4,2,1,90,0,0
90064,-71.4285714285714,4,2,1,90,0,0
90148,-62.5,4,2,1,90,0,0
90986,-50,4,2,1,90,0,0
91991,-71.4285714285714,4,2,1,90,0,0
92242,-71.4285714285714,4,2,1,90,0,0
92326,-71.4285714285714,4,2,1,90,0,0
92829,-50,4,2,1,90,0,0
93080,-133.333333333333,4,2,1,90,0,0
93332,-62.5,4,2,1,90,0,0
93751,-62.5,4,2,1,90,0,0
93835,-62.5,4,2,1,90,0,0
94170,-41.6666666666667,4,2,1,90,0,0
94673,-62.5,4,2,1,90,0,0
95511,-76.9230769230769,4,2,1,90,0,0
95762,-76.9230769230769,4,2,1,90,0,0
95846,-62.5,4,2,1,90,0,0
96181,-83.3333333333333,4,2,1,90,0,0
96768,-83.3333333333333,4,2,1,90,0,0
96851,-83.3333333333333,4,2,1,90,0,0
97522,-50,4,2,1,90,0,0
97773,-50,4,2,1,90,0,0
97857,-41.6666666666667,4,2,1,90,0,0
98108,-41.6666666666667,4,2,1,90,0,0
98192,-111.111111111111,4,2,1,90,0,0
98611,-90.9090909090909,4,2,1,90,0,0
99533,-76.9230769230769,4,2,1,90,0,0
100036,-50,4,2,1,90,0,0
100287,-50,4,2,1,90,0,0
100371,-50,4,2,1,90,0,0
101125,-71.4285714285714,4,2,1,90,0,0
101293,-71.4285714285714,4,2,1,90,0,0
101377,-41.6666666666667,4,2,1,90,0,0
101796,-41.6666666666667,4,2,1,90,0,0
101879,-62.5,4,2,1,90,0,0
102717,-76.9230769230769,4,2,1,90,0,0
103555,-62.5,4,2,1,90,0,0
103807,-62.5,4,2,1,90,0,0
103891,-100,4,2,1,90,0,0
104226,-200,4,2,1,90,0,0
104477,-200,4,2,1,90,0,0
104561,-41.6666666666667,4,2,1,90,0,0
104812,-41.6666666666667,4,2,1,90,0,0
104896,-62.5,4,2,1,90,0,0
106237,-76.9230769230769,4,2,1,90,0,0
106572,-125,4,2,1,90,0,0
106823,-125,4,2,1,90,0,0
106907,-125,4,2,1,90,0,0
108248,-55.5555555555556,4,2,1,90,0,0
108918,-100,4,2,1,90,0,0
109505,-100,4,2,1,90,0,0
109589,-62.5,4,2,1,90,0,0
109642,-62.5,4,2,1,70,0,0
109642,-62.5,4,2,1,70,0,0
109642,-62.5,4,2,1,70,0,0
109642,-62.5,4,2,1,70,0,0
109642,-62.5,4,2,1,70,0,0
109642,-62.5,4,2,1,70,0,0
109642,-62.5,4,2,1,70,0,0
109642,-62.5,4,2,1,70,0,0
109642,-62.5,4,2,1,70,0,0
109642,-62.5,4,2,1,70,0,0
109642,-62.5,4,2,1,70,0,0
109642,-62.5,4,2,1,70,0,0
109642,-62.5,4,2,1,70,0,0
109642,-62.5,4,2,1,70,0,0
109726,-62.5,4,2,99,5,0,0
109726,-62.5,4,2,99,5,0,0
109726,-62.5,4,2,99,5,0,0
109726,-62.5,4,2,99,5,0,0
109726,-62.5,4,2,99,5,0,0
109726,-62.5,4,2,99,5,0,0
109726,-62.5,4,2,99,5,0,0
109726,-62.5,4,2,99,5,0,0
109726,-62.5,4,2,99,5,0,0
109726,-62.5,4,2,99,5,0,0
109726,-62.5,4,2,99,5,0,0
109726,-62.5,4,2,99,5,0,0
109726,-62.5,4,2,99,5,0,0
109726,-62.5,4,2,99,5,0,0
109809,-62.5,4,2,1,70,0,0
109809,-62.5,4,2,1,70,0,0
109809,-62.5,4,2,1,70,0,0
109809,-62.5,4,2,1,70,0,0
109809,-62.5,4,2,1,70,0,0
109809,-62.5,4,2,1,70,0,0
109809,-62.5,4,2,1,70,0,0
109809,-62.5,4,2,1,70,0,0
109809,-62.5,4,2,1,70,0,0
109809,-62.5,4,2,1,70,0,0
109809,-62.5,4,2,1,70,0,0
109809,-62.5,4,2,1,70,0,0
109809,-62.5,4,2,1,70,0,0
109809,-62.5,4,2,1,70,0,0
109840,-62.5,4,2,1,70,0,0
109893,-62.5,4,2,99,5,0,0
109893,-62.5,4,2,99,5,0,0
109893,-62.5,4,2,99,5,0,0
109893,-62.5,4,2,99,5,0,0
109893,-62.5,4,2,99,5,0,0
109893,-62.5,4,2,99,5,0,0
109893,-62.5,4,2,99,5,0,0
109893,-62.5,4,2,99,5,0,0
109893,-62.5,4,2,99,5,0,0
109893,-62.5,4,2,99,5,0,0
109893,-62.5,4,2,99,5,0,0
109893,-62.5,4,2,99,5,0,0
109893,-62.5,4,2,99,5,0,0
109893,-62.5,4,2,99,5,0,0
109924,-62.5,4,2,99,5,0,0
109976,-62.5,4,2,1,70,0,0
109976,-62.5,4,2,1,70,0,0
109976,-62.5,4,2,1,70,0,0
109976,-62.5,4,2,1,70,0,0
109976,-62.5,4,2,1,70,0,0
109976,-62.5,4,2,1,70,0,0
109976,-62.5,4,2,1,70,0,0
109976,-62.5,4,2,1,70,0,0
109976,-62.5,4,2,1,70,0,0
109976,-62.5,4,2,1,70,0,0
109976,-62.5,4,2,1,70,0,0
109976,-62.5,4,2,1,70,0,0
109976,-62.5,4,2,1,70,0,0
109976,-62.5,4,2,1,70,0,0
110008,-62.5,4,2,1,70,0,0
110061,-62.5,4,2,99,5,0,0
110061,-62.5,4,2,99,5,0,0
110061,-62.5,4,2,99,5,0,0
110061,-62.5,4,2,99,5,0,0
110061,-62.5,4,2,99,5,0,0
110061,-62.5,4,2,99,5,0,0
110061,-62.5,4,2,99,5,0,0
110061,-62.5,4,2,99,5,0,0
110061,-62.5,4,2,99,5,0,0
110061,-62.5,4,2,99,5,0,0
110061,-62.5,4,2,99,5,0,0
110061,-62.5,4,2,99,5,0,0
110061,-62.5,4,2,99,5,0,0
110061,-62.5,4,2,99,5,0,0
110092,-62.5,4,2,99,5,0,0
110144,-62.5,4,2,1,70,0,0
110144,-62.5,4,2,1,70,0,0
110144,-62.5,4,2,1,70,0,0
110144,-62.5,4,2,1,70,0,0
110144,-62.5,4,2,1,70,0,0
110144,-62.5,4,2,1,70,0,0
110144,-62.5,4,2,1,70,0,0
110144,-62.5,4,2,1,70,0,0
110144,-62.5,4,2,1,70,0,0
110144,-62.5,4,2,1,70,0,0
110144,-62.5,4,2,1,70,0,0
110144,-62.5,4,2,1,70,0,0
110144,-62.5,4,2,1,70,0,0
110144,-62.5,4,2,1,70,0,0
110175,-62.5,4,2,1,70,0,0
110228,-62.5,4,2,99,5,0,0
110228,-62.5,4,2,99,5,0,0
110228,-62.5,4,2,99,5,0,0
110228,-62.5,4,2,99,5,0,0
110228,-62.5,4,2,99,5,0,0
110228,-62.5,4,2,99,5,0,0
110228,-62.5,4,2,99,5,0,0
110228,-62.5,4,2,99,5,0,0
110228,-62.5,4,2,99,5,0,0
110228,-62.5,4,2,99,5,0,0
110228,-62.5,4,2,99,5,0,0
110228,-62.5,4,2,99,5,0,0
110228,-62.5,4,2,99,5,0,0
110228,-62.5,4,2,99,5,0,0
110259,-62.5,4,2,99,5,0,0
110311,-62.5,4,2,1,70,0,0
110311,-62.5,4,2,1,70,0,0
110311,-62.5,4,2,1,70,0,0
110311,-62.5,4,2,1,70,0,0
110311,-62.5,4,2,1,70,0,0
110311,-62.5,4,2,1,70,0,0
110311,-62.5,4,2,1,70,0,0
110311,-62.5,4,2,1,70,0,0
110311,-62.5,4,2,1,70,0,0
110311,-62.5,4,2,1,70,0,0
110311,-62.5,4,2,1,70,0,0
110311,-62.5,4,2,1,70,0,0
110311,-62.5,4,2,1,70,0,0
110311,-62.5,4,2,1,70,0,0
110343,-62.5,4,2,1,70,0,0
110396,-62.5,4,2,99,5,0,0
110396,-62.5,4,2,99,5,0,0
110396,-62.5,4,2,99,5,0,0
110396,-62.5,4,2,99,5,0,0
110396,-62.5,4,2,99,5,0,0
110396,-62.5,4,2,99,5,0,0
110396,-62.5,4,2,99,5,0,0
110396,-62.5,4,2,99,5,0,0
110396,-62.5,4,2,99,5,0,0
110396,-62.5,4,2,99,5,0,0
110396,-62.5,4,2,99,5,0,0
110396,-62.5,4,2,99,5,0,0
110396,-62.5,4,2,99,5,0,0
110396,-62.5,4,2,99,5,0,0
110427,-62.5,4,2,99,5,0,0
110479,-62.5,4,2,1,70,0,0
110479,-62.5,4,2,1,70,0,0
110479,-62.5,4,2,1,70,0,0
110479,-62.5,4,2,1,70,0,0
110479,-62.5,4,2,1,70,0,0
110479,-62.5,4,2,1,70,0,0
110479,-62.5,4,2,1,70,0,0
110479,-62.5,4,2,1,70,0,0
110479,-62.5,4,2,1,70,0,0
110479,-62.5,4,2,1,70,0,0
110479,-62.5,4,2,1,70,0,0
110479,-62.5,4,2,1,70,0,0
110479,-62.5,4,2,1,70,0,0
110479,-62.5,4,2,1,70,0,0
110511,-62.5,4,2,1,70,0,0
110564,-62.5,4,2,99,5,0,0
110564,-62.5,4,2,99,5,0,0
110564,-62.5,4,2,99,5,0,0
110564,-62.5,4,2,99,5,0,0
110564,-62.5,4,2,99,5,0,0
110564,-62.5,4,2,99,5,0,0
110564,-62.5,4,2,99,5,0,0
110564,-62.5,4,2,99,5,0,0
110564,-62.5,4,2,99,5,0,0
110564,-62.5,4,2,99,5,0,0
110564,-62.5,4,2,99,5,0,0
110564,-62.5,4,2,99,5,0,0
110564,-62.5,4,2,99,5,0,0
110564,-62.5,4,2,99,5,0,0
110594,-62.5,4,2,99,5,0,0
110647,-62.5,4,2,1,70,0,0
110647,-62.5,4,2,1,70,0,0
110647,-62.5,4,2,1,70,0,0
110647,-62.5,4,2,1,70,0,0
110647,-62.5,4,2,1,70,0,0
110647,-62.5,4,2,1,70,0,0
110647,-62.5,4,2,1,70,0,0
110647,-62.5,4,2,1,70,0,0
110647,-62.5,4,2,1,70,0,0
110647,-62.5,4,2,1,70,0,0
110647,-62.5,4,2,1,70,0,0
110647,-62.5,4,2,1,70,0,0
110647,-62.5,4,2,1,70,0,0
110647,-62.5,4,2,1,70,0,0
110678,-62.5,4,2,1,70,0,0
110731,-62.5,4,2,99,5,0,0
110731,-62.5,4,2,99,5,0,0
110731,-62.5,4,2,99,5,0,0
110731,-62.5,4,2,99,5,0,0
110731,-62.5,4,2,99,5,0,0
110731,-62.5,4,2,99,5,0,0
110731,-62.5,4,2,99,5,0,0
110731,-62.5,4,2,99,5,0,0
110731,-62.5,4,2,99,5,0,0
110731,-62.5,4,2,99,5,0,0
110731,-62.5,4,2,99,5,0,0
110731,-62.5,4,2,99,5,0,0
110731,-62.5,4,2,99,5,0,0
110731,-62.5,4,2,99,5,0,0
110762,-62.5,4,2,99,5,0,0
110814,-62.5,4,2,1,70,0,0
110814,-62.5,4,2,1,70,0,0
110814,-62.5,4,2,1,70,0,0
110814,-62.5,4,2,1,70,0,0
110814,-62.5,4,2,1,70,0,0
110814,-62.5,4,2,1,70,0,0
110814,-62.5,4,2,1,70,0,0
110814,-62.5,4,2,1,70,0,0
110814,-62.5,4,2,1,70,0,0
110814,-62.5,4,2,1,70,0,0
110814,-62.5,4,2,1,70,0,0
110814,-62.5,4,2,1,70,0,0
110814,-62.5,4,2,1,70,0,0
110814,-62.5,4,2,1,70,0,0
110846,-62.5,4,2,1,70,0,0
110899,-62.5,4,2,99,5,0,0
110899,-62.5,4,2,99,5,0,0
110899,-62.5,4,2,99,5,0,0
110899,-62.5,4,2,99,5,0,0
110899,-62.5,4,2,99,5,0,0
110899,-62.5,4,2,99,5,0,0
110899,-62.5,4,2,99,5,0,0
110899,-62.5,4,2,99,5,0,0
110899,-62.5,4,2,99,5,0,0
110899,-62.5,4,2,99,5,0,0
110899,-62.5,4,2,99,5,0,0
110899,-62.5,4,2,99,5,0,0
110899,-62.5,4,2,99,5,0,0
110899,-62.5,4,2,99,5,0,0
110930,-62.5,4,2,99,5,0,0
110982,-62.5,4,2,1,70,0,0
110982,-62.5,4,2,1,70,0,0
110982,-62.5,4,2,1,70,0,0
110982,-62.5,4,2,1,70,0,0
110982,-62.5,4,2,1,70,0,0
110982,-62.5,4,2,1,70,0,0
110982,-62.5,4,2,1,70,0,0
110982,-62.5,4,2,1,70,0,0
110982,-62.5,4,2,1,70,0,0
110982,-62.5,4,2,1,70,0,0
110982,-62.5,4,2,1,70,0,0
110982,-62.5,4,2,1,70,0,0
110982,-62.5,4,2,1,70,0,0
110982,-62.5,4,2,1,70,0,0
111013,-62.5,4,2,1,70,0,0
111066,-62.5,4,2,99,5,0,0
111066,-62.5,4,2,99,5,0,0
111066,-62.5,4,2,99,5,0,0
111066,-62.5,4,2,99,5,0,0
111066,-62.5,4,2,99,5,0,0
111066,-62.5,4,2,99,5,0,0
111066,-62.5,4,2,99,5,0,0
111066,-62.5,4,2,99,5,0,0
111066,-62.5,4,2,99,5,0,0
111066,-62.5,4,2,99,5,0,0
111066,-62.5,4,2,99,5,0,0
111066,-62.5,4,2,99,5,0,0
111066,-62.5,4,2,99,5,0,0
111066,-62.5,4,2,99,5,0,0
111097,-62.5,4,2,99,5,0,0
111149,-62.5,4,2,1,70,0,0
111149,-62.5,4,2,1,70,0,0
111149,-62.5,4,2,1,70,0,0
111149,-62.5,4,2,1,70,0,0
111149,-62.5,4,2,1,70,0,0
111149,-62.5,4,2,1,70,0,0
111149,-62.5,4,2,1,70,0,0
111149,-62.5,4,2,1,70,0,0
111149,-62.5,4,2,1,70,0,0
111149,-62.5,4,2,1,70,0,0
111149,-62.5,4,2,1,70,0,0
111149,-62.5,4,2,1,70,0,0
111149,-62.5,4,2,1,70,0,0
111149,-62.5,4,2,1,70,0,0
111181,-62.5,4,2,1,70,0,0
111234,-62.5,4,2,99,5,0,0
111234,-62.5,4,2,99,5,0,0
111234,-62.5,4,2,99,5,0,0
111234,-62.5,4,2,99,5,0,0
111234,-62.5,4,2,99,5,0,0
111234,-62.5,4,2,99,5,0,0
111234,-62.5,4,2,99,5,0,0
111234,-62.5,4,2,99,5,0,0
111234,-62.5,4,2,99,5,0,0
111234,-62.5,4,2,99,5,0,0
111234,-62.5,4,2,99,5,0,0
111234,-62.5,4,2,99,5,0,0
111234,-62.5,4,2,99,5,0,0
111234,-62.5,4,2,99,5,0,0
111265,-62.5,4,2,99,5,0,0
111317,-62.5,4,2,1,70,0,0
111317,-62.5,4,2,1,70,0,0
111317,-62.5,4,2,1,70,0,0
111317,-62.5,4,2,1,70,0,0
111317,-62.5,4,2,1,70,0,0
111317,-62.5,4,2,1,70,0,0
111317,-62.5,4,2,1,70,0,0
111317,-62.5,4,2,1,70,0,0
111317,-62.5,4,2,1,70,0,0
111317,-62.5,4,2,1,70,0,0
111317,-62.5,4,2,1,70,0,0
111317,-62.5,4,2,1,70,0,0
111317,-62.5,4,2,1,70,0,0
111317,-62.5,4,2,1,70,0,0
111349,-62.5,4,2,1,70,0,0
111402,-62.5,4,2,99,5,0,0
111402,-62.5,4,2,99,5,0,0
111402,-62.5,4,2,99,5,0,0
111402,-62.5,4,2,99,5,0,0
111402,-62.5,4,2,99,5,0,0
111402,-62.5,4,2,99,5,0,0
111402,-62.5,4,2,99,5,0,0
111402,-62.5,4,2,99,5,0,0
111402,-62.5,4,2,99,5,0,0
111402,-62.5,4,2,99,5,0,0
111402,-62.5,4,2,99,5,0,0
111402,-62.5,4,2,99,5,0,0
111402,-62.5,4,2,99,5,0,0
111402,-62.5,4,2,99,5,0,0
111432,-62.5,4,2,99,5,0,0
111485,-62.5,4,2,1,70,0,0
111485,-62.5,4,2,1,70,0,0
111485,-62.5,4,2,1,70,0,0
111485,-62.5,4,2,1,70,0,0
111485,-62.5,4,2,1,70,0,0
111485,-62.5,4,2,1,70,0,0
111485,-62.5,4,2,1,70,0,0
111485,-62.5,4,2,1,70,0,0
111485,-62.5,4,2,1,70,0,0
111485,-62.5,4,2,1,70,0,0
111485,-62.5,4,2,1,70,0,0
111485,-62.5,4,2,1,70,0,0
111485,-62.5,4,2,1,70,0,0
111485,-62.5,4,2,1,70,0,0
111516,-62.5,4,2,1,70,0,0
111569,-62.5,4,2,99,5,0,0
111569,-62.5,4,2,99,5,0,0
111569,-62.5,4,2,99,5,0,0
111569,-62.5,4,2,99,5,0,0
111569,-62.5,4,2,99,5,0,0
111569,-62.5,4,2,99,5,0,0
111569,-62.5,4,2,99,5,0,0
111569,-62.5,4,2,99,5,0,0
111569,-62.5,4,2,99,5,0,0
111569,-62.5,4,2,99,5,0,0
111569,-62.5,4,2,99,5,0,0
111569,-62.5,4,2,99,5,0,0
111569,-62.5,4,2,99,5,0,0
111569,-62.5,4,2,99,5,0,0
111600,-62.5,4,2,99,5,0,0
111652,-62.5,4,2,1,70,0,0
111652,-62.5,4,2,1,70,0,0
111652,-62.5,4,2,1,70,0,0
111652,-62.5,4,2,1,70,0,0
111652,-62.5,4,2,1,70,0,0
111652,-62.5,4,2,1,70,0,0
111652,-62.5,4,2,1,70,0,0
111652,-62.5,4,2,1,70,0,0
111652,-62.5,4,2,1,70,0,0
111652,-62.5,4,2,1,70,0,0
111652,-62.5,4,2,1,70,0,0
111652,-62.5,4,2,1,70,0,0
111652,-62.5,4,2,1,70,0,0
111652,-62.5,4,2,1,70,0,0
111684,-62.5,4,2,1,70,0,0
111737,-62.5,4,2,99,5,0,0
111737,-62.5,4,2,99,5,0,0
111737,-62.5,4,2,99,5,0,0
111737,-62.5,4,2,99,5,0,0
111737,-62.5,4,2,99,5,0,0
111737,-62.5,4,2,99,5,0,0
111737,-62.5,4,2,99,5,0,0
111737,-62.5,4,2,99,5,0,0
111737,-62.5,4,2,99,5,0,0
111737,-62.5,4,2,99,5,0,0
111737,-62.5,4,2,99,5,0,0
111737,-62.5,4,2,99,5,0,0
111737,-62.5,4,2,99,5,0,0
111737,-62.5,4,2,99,5,0,0
111768,-62.5,4,2,99,5,0,0
111820,-62.5,4,2,1,70,0,0
111820,-62.5,4,2,1,70,0,0
111820,-62.5,4,2,1,70,0,0
111820,-62.5,4,2,1,70,0,0
111820,-62.5,4,2,1,70,0,0
111820,-62.5,4,2,1,70,0,0
111820,-62.5,4,2,1,70,0,0
111820,-62.5,4,2,1,70,0,0
111820,-62.5,4,2,1,70,0,0
111820,-62.5,4,2,1,70,0,0
111820,-62.5,4,2,1,70,0,0
111820,-62.5,4,2,1,70,0,0
111820,-62.5,4,2,1,70,0,0
111820,-62.5,4,2,1,70,0,0
111851,-62.5,4,2,1,70,0,0
111904,-62.5,4,2,99,5,0,0
111904,-62.5,4,2,99,5,0,0
111904,-62.5,4,2,99,5,0,0
111904,-62.5,4,2,99,5,0,0
111904,-62.5,4,2,99,5,0,0
111904,-62.5,4,2,99,5,0,0
111904,-62.5,4,2,99,5,0,0
111904,-62.5,4,2,99,5,0,0
111904,-62.5,4,2,99,5,0,0
111904,-62.5,4,2,99,5,0,0
111904,-62.5,4,2,99,5,0,0
111904,-62.5,4,2,99,5,0,0
111904,-62.5,4,2,99,5,0,0
111904,-62.5,4,2,99,5,0,0
111935,-166.666666666667,4,2,99,5,0,0
111987,-166.666666666667,4,2,1,70,0,0
111987,-166.666666666667,4,2,1,70,0,0
111987,-166.666666666667,4,2,1,70,0,0
111987,-166.666666666667,4,2,1,70,0,0
111987,-166.666666666667,4,2,1,70,0,0
111987,-166.666666666667,4,2,1,70,0,0
111987,-166.666666666667,4,2,1,70,0,0
111987,-166.666666666667,4,2,1,70,0,0
111987,-166.666666666667,4,2,1,70,0,0
111987,-166.666666666667,4,2,1,70,0,0
111987,-166.666666666667,4,2,1,70,0,0
111987,-166.666666666667,4,2,1,70,0,0
111987,-166.666666666667,4,2,1,70,0,0
111987,-166.666666666667,4,2,1,70,0,0
112270,-58.8235294117647,4,2,1,70,0,0
112522,-58.8235294117647,4,2,1,70,0,0
112606,-76.9230769230769,4,2,1,70,0,0
114952,-58.8235294117647,4,2,1,70,0,0
115120,-76.9230769230769,4,2,1,70,0,0
116963,-117.647058823529,4,2,1,70,0,0
117215,-117.647058823529,4,2,1,70,0,0
117298,-117.647058823529,4,2,1,70,0,0
117550,-117.647058823529,4,2,1,70,0,0
117634,-76.9230769230769,4,2,1,70,0,0
120315,-66.6666666666667,4,2,1,70,0,0
120986,-54.054054054054,4,2,1,70,0,0
121656,-166.666666666667,4,2,1,70,0,0
121949,-166.666666666667,4,2,1,70,0,0
121991,-250,4,2,1,70,0,0
122075,-250,4,2,1,70,0,0
122159,-90.9090909090909,4,2,1,70,0,0
122242,-90.9090909090909,4,2,1,70,0,0
122326,-55.5555555555556,4,2,1,70,0,0
122410,-55.5555555555556,4,2,1,70,0,0
122494,-37.037037037037,4,2,1,70,0,0
122547,-37.037037037037,4,2,1,90,0,0
122547,-37.037037037037,4,2,1,90,0,0
122547,-37.037037037037,4,2,1,90,0,0
122547,-37.037037037037,4,2,1,90,0,0
122547,-37.037037037037,4,2,1,90,0,0
122547,-37.037037037037,4,2,1,90,0,0
122547,-37.037037037037,4,2,1,90,0,0
122547,-37.037037037037,4,2,1,90,0,0
122547,-37.037037037037,4,2,1,90,0,0
122547,-37.037037037037,4,2,1,90,0,0
122547,-37.037037037037,4,2,1,90,0,0
122547,-37.037037037037,4,2,1,90,0,0
122547,-37.037037037037,4,2,1,90,0,0
122547,-37.037037037037,4,2,1,90,0,0
122578,-37.037037037037,4,2,1,90,0,0
122661,-50,4,2,1,90,0,0
122997,-41.6666666666667,4,2,1,90,0,1
123248,-41.6666666666667,4,2,1,90,0,1
123332,-55.5555555555556,4,2,1,90,0,1
124337,-66.6666666666667,4,2,1,90,0,1
125175,-66.6666666666667,4,2,1,90,0,1
125270,-66.6666666666667,4,2,99,5,0,1
125270,-66.6666666666667,4,2,99,5,0,1
125270,-66.6666666666667,4,2,99,5,0,1
125270,-66.6666666666667,4,2,99,5,0,1
125270,-66.6666666666667,4,2,99,5,0,1
125270,-66.6666666666667,4,2,99,5,0,1
125270,-66.6666666666667,4,2,99,5,0,1
125270,-66.6666666666667,4,2,99,5,0,1
125270,-66.6666666666667,4,2,99,5,0,1
125270,-66.6666666666667,4,2,99,5,0,1
125270,-66.6666666666667,4,2,99,5,0,1
125270,-66.6666666666667,4,2,99,5,0,1
125270,-66.6666666666667,4,2,99,5,0,1
125270,-66.6666666666667,4,2,99,5,0,1
125312,-66.6666666666667,4,2,1,90,0,1
125312,-66.6666666666667,4,2,1,90,0,1
125312,-66.6666666666667,4,2,1,90,0,1
125312,-66.6666666666667,4,2,1,90,0,1
125312,-66.6666666666667,4,2,1,90,0,1
125312,-66.6666666666667,4,2,1,90,0,1
125312,-66.6666666666667,4,2,1,90,0,1
125312,-66.6666666666667,4,2,1,90,0,1
125312,-66.6666666666667,4,2,1,90,0,1
125312,-66.6666666666667,4,2,1,90,0,1
125312,-66.6666666666667,4,2,1,90,0,1
125312,-66.6666666666667,4,2,1,90,0,1
125312,-66.6666666666667,4,2,1,90,0,1
125312,-66.6666666666667,4,2,1,90,0,1
125438,-66.6666666666667,4,2,99,5,0,1
125438,-66.6666666666667,4,2,99,5,0,1
125438,-66.6666666666667,4,2,99,5,0,1
125438,-66.6666666666667,4,2,99,5,0,1
125438,-66.6666666666667,4,2,99,5,0,1
125438,-66.6666666666667,4,2,99,5,0,1
125438,-66.6666666666667,4,2,99,5,0,1
125438,-66.6666666666667,4,2,99,5,0,1
125438,-66.6666666666667,4,2,99,5,0,1
125438,-66.6666666666667,4,2,99,5,0,1
125438,-66.6666666666667,4,2,99,5,0,1
125438,-66.6666666666667,4,2,99,5,0,1
125438,-66.6666666666667,4,2,99,5,0,1
125438,-66.6666666666667,4,2,99,5,0,1
125480,-66.6666666666667,4,2,1,90,0,1
125480,-66.6666666666667,4,2,1,90,0,1
125480,-66.6666666666667,4,2,1,90,0,1
125480,-66.6666666666667,4,2,1,90,0,1
125480,-66.6666666666667,4,2,1,90,0,1
125480,-66.6666666666667,4,2,1,90,0,1
125480,-66.6666666666667,4,2,1,90,0,1
125480,-66.6666666666667,4,2,1,90,0,1
125480,-66.6666666666667,4,2,1,90,0,1
125480,-66.6666666666667,4,2,1,90,0,1
125480,-66.6666666666667,4,2,1,90,0,1
125480,-66.6666666666667,4,2,1,90,0,1
125480,-66.6666666666667,4,2,1,90,0,1
125480,-66.6666666666667,4,2,1,90,0,1
125606,-66.6666666666667,4,2,99,5,0,1
125606,-66.6666666666667,4,2,99,5,0,1
125606,-66.6666666666667,4,2,99,5,0,1
125606,-66.6666666666667,4,2,99,5,0,1
125606,-66.6666666666667,4,2,99,5,0,1
125606,-66.6666666666667,4,2,99,5,0,1
125606,-66.6666666666667,4,2,99,5,0,1
125606,-66.6666666666667,4,2,99,5,0,1
125606,-66.6666666666667,4,2,99,5,0,1
125606,-66.6666666666667,4,2,99,5,0,1
125606,-66.6666666666667,4,2,99,5,0,1
125606,-66.6666666666667,4,2,99,5,0,1
125606,-66.6666666666667,4,2,99,5,0,1
125606,-66.6666666666667,4,2,99,5,0,1
125648,-66.6666666666667,4,2,1,90,0,1
125648,-66.6666666666667,4,2,1,90,0,1
125648,-66.6666666666667,4,2,1,90,0,1
125648,-66.6666666666667,4,2,1,90,0,1
125648,-66.6666666666667,4,2,1,90,0,1
125648,-66.6666666666667,4,2,1,90,0,1
125648,-66.6666666666667,4,2,1,90,0,1
125648,-66.6666666666667,4,2,1,90,0,1
125648,-66.6666666666667,4,2,1,90,0,1
125648,-66.6666666666667,4,2,1,90,0,1
125648,-66.6666666666667,4,2,1,90,0,1
125648,-66.6666666666667,4,2,1,90,0,1
125648,-66.6666666666667,4,2,1,90,0,1
125648,-66.6666666666667,4,2,1,90,0,1
125678,-47.6190476190476,4,2,1,90,0,1
125930,-47.6190476190476,4,2,1,90,0,1
126013,-55.5555555555556,4,2,1,90,0,1
126097,-55.5555555555556,4,2,1,90,0,1
126349,-55.5555555555556,4,2,1,90,0,1
126391,-55.5555555555556,4,2,1,90,0,1
126485,-55.5555555555556,4,2,99,5,0,1
126485,-55.5555555555556,4,2,99,5,0,1
126485,-55.5555555555556,4,2,99,5,0,1
126485,-55.5555555555556,4,2,99,5,0,1
126485,-55.5555555555556,4,2,99,5,0,1
126485,-55.5555555555556,4,2,99,5,0,1
126485,-55.5555555555556,4,2,99,5,0,1
126485,-55.5555555555556,4,2,99,5,0,1
126485,-55.5555555555556,4,2,99,5,0,1
126485,-55.5555555555556,4,2,99,5,0,1
126485,-55.5555555555556,4,2,99,5,0,1
126485,-55.5555555555556,4,2,99,5,0,1
126485,-55.5555555555556,4,2,99,5,0,1
126485,-55.5555555555556,4,2,99,5,0,1
126516,-55.5555555555556,4,2,99,5,0,1
126569,-55.5555555555556,4,2,1,90,0,1
126569,-55.5555555555556,4,2,1,90,0,1
126569,-55.5555555555556,4,2,1,90,0,1
126569,-55.5555555555556,4,2,1,90,0,1
126569,-55.5555555555556,4,2,1,90,0,1
126569,-55.5555555555556,4,2,1,90,0,1
126569,-55.5555555555556,4,2,1,90,0,1
126569,-55.5555555555556,4,2,1,90,0,1
126569,-55.5555555555556,4,2,1,90,0,1
126569,-55.5555555555556,4,2,1,90,0,1
126569,-55.5555555555556,4,2,1,90,0,1
126569,-55.5555555555556,4,2,1,90,0,1
126569,-55.5555555555556,4,2,1,90,0,1
126569,-55.5555555555556,4,2,1,90,0,1
126726,-55.5555555555556,4,2,1,90,0,1
126821,-55.5555555555556,4,2,99,5,0,1
126821,-55.5555555555556,4,2,99,5,0,1
126821,-55.5555555555556,4,2,99,5,0,1
126821,-55.5555555555556,4,2,99,5,0,1
126821,-55.5555555555556,4,2,99,5,0,1
126821,-55.5555555555556,4,2,99,5,0,1
126821,-55.5555555555556,4,2,99,5,0,1
126821,-55.5555555555556,4,2,99,5,0,1
126821,-55.5555555555556,4,2,99,5,0,1
126821,-55.5555555555556,4,2,99,5,0,1
126821,-55.5555555555556,4,2,99,5,0,1
126821,-55.5555555555556,4,2,99,5,0,1
126821,-55.5555555555556,4,2,99,5,0,1
126821,-55.5555555555556,4,2,99,5,0,1
126905,-55.5555555555556,4,2,1,90,0,1
126905,-55.5555555555556,4,2,1,90,0,1
126905,-55.5555555555556,4,2,1,90,0,1
126905,-55.5555555555556,4,2,1,90,0,1
126905,-55.5555555555556,4,2,1,90,0,1
126905,-55.5555555555556,4,2,1,90,0,1
126905,-55.5555555555556,4,2,1,90,0,1
126905,-55.5555555555556,4,2,1,90,0,1
126905,-55.5555555555556,4,2,1,90,0,1
126905,-55.5555555555556,4,2,1,90,0,1
126905,-55.5555555555556,4,2,1,90,0,1
126905,-55.5555555555556,4,2,1,90,0,1
126905,-55.5555555555556,4,2,1,90,0,1
126905,-55.5555555555556,4,2,1,90,0,1
127019,-55.5555555555556,4,2,1,90,0,1
127061,-55.5555555555556,4,2,1,90,0,1
127156,-55.5555555555556,4,2,99,5,0,1
127156,-55.5555555555556,4,2,99,5,0,1
127156,-55.5555555555556,4,2,99,5,0,1
127156,-55.5555555555556,4,2,99,5,0,1
127156,-55.5555555555556,4,2,99,5,0,1
127156,-55.5555555555556,4,2,99,5,0,1
127156,-55.5555555555556,4,2,99,5,0,1
127156,-55.5555555555556,4,2,99,5,0,1
127156,-55.5555555555556,4,2,99,5,0,1
127156,-55.5555555555556,4,2,99,5,0,1
127156,-55.5555555555556,4,2,99,5,0,1
127156,-55.5555555555556,4,2,99,5,0,1
127156,-55.5555555555556,4,2,99,5,0,1
127156,-55.5555555555556,4,2,99,5,0,1
127187,-55.5555555555556,4,2,99,5,0,1
127240,-55.5555555555556,4,2,1,90,0,1
127240,-55.5555555555556,4,2,1,90,0,1
127240,-55.5555555555556,4,2,1,90,0,1
127240,-55.5555555555556,4,2,1,90,0,1
127240,-55.5555555555556,4,2,1,90,0,1
127240,-55.5555555555556,4,2,1,90,0,1
127240,-55.5555555555556,4,2,1,90,0,1
127240,-55.5555555555556,4,2,1,90,0,1
127240,-55.5555555555556,4,2,1,90,0,1
127240,-55.5555555555556,4,2,1,90,0,1
127240,-55.5555555555556,4,2,1,90,0,1
127240,-55.5555555555556,4,2,1,90,0,1
127240,-55.5555555555556,4,2,1,90,0,1
127240,-55.5555555555556,4,2,1,90,0,1
127396,-55.5555555555556,4,2,1,90,0,1
127522,-55.5555555555556,4,2,1,90,0,1
127689,-58.8235294117647,4,2,1,90,0,1
128360,-41.6666666666667,4,2,1,90,0,1
128611,-41.6666666666667,4,2,1,90,0,1
128695,-55.5555555555556,4,2,1,90,0,1
129701,-58.8235294117647,4,2,1,90,0,1
130371,-76.9230769230769,4,2,1,90,0,1
130455,-76.9230769230769,4,2,1,90,0,1
130539,-76.9230769230769,4,2,1,90,0,1
130622,-76.9230769230769,4,2,1,90,0,1
130706,-76.9230769230769,4,2,1,90,0,1
130790,-76.9230769230769,4,2,1,90,0,1
130874,-76.9230769230769,4,2,1,90,0,1
130958,-76.9230769230769,4,2,1,90,0,1
131041,-76.9230769230769,4,2,1,90,0,0
131712,-55.5555555555556,4,2,1,90,0,0
132215,-71.4285714285714,4,2,1,90,0,0
133723,-166.666666666667,4,2,1,90,0,0
133807,-166.666666666667,4,2,1,90,0,0
133891,-100,4,2,1,90,0,0
133974,-100,4,2,1,90,0,0
134058,-58.8235294117647,4,2,1,90,0,0
134142,-58.8235294117647,4,2,1,90,0,0
134226,-37.037037037037,4,2,1,90,0,0
134310,-37.037037037037,4,2,1,90,0,0
134393,-50,4,2,1,90,0,0
134645,-50,4,2,1,90,0,0
134729,-50,4,2,1,90,0,1
135064,-52.6315789473684,4,2,1,90,0,1
135902,-66.6666666666667,4,2,1,90,0,1
135997,-66.6666666666667,4,2,99,5,0,1
135997,-66.6666666666667,4,2,99,5,0,1
135997,-66.6666666666667,4,2,99,5,0,1
135997,-66.6666666666667,4,2,99,5,0,1
135997,-66.6666666666667,4,2,99,5,0,1
135997,-66.6666666666667,4,2,99,5,0,1
135997,-66.6666666666667,4,2,99,5,0,1
135997,-66.6666666666667,4,2,99,5,0,1
135997,-66.6666666666667,4,2,99,5,0,1
135997,-66.6666666666667,4,2,99,5,0,1
135997,-66.6666666666667,4,2,99,5,0,1
135997,-66.6666666666667,4,2,99,5,0,1
135997,-66.6666666666667,4,2,99,5,0,1
135997,-66.6666666666667,4,2,99,5,0,1
136039,-66.6666666666667,4,2,1,90,0,1
136039,-66.6666666666667,4,2,1,90,0,1
136039,-66.6666666666667,4,2,1,90,0,1
136039,-66.6666666666667,4,2,1,90,0,1
136039,-66.6666666666667,4,2,1,90,0,1
136039,-66.6666666666667,4,2,1,90,0,1
136039,-66.6666666666667,4,2,1,90,0,1
136039,-66.6666666666667,4,2,1,90,0,1
136039,-66.6666666666667,4,2,1,90,0,1
136039,-66.6666666666667,4,2,1,90,0,1
136039,-66.6666666666667,4,2,1,90,0,1
136039,-66.6666666666667,4,2,1,90,0,1
136039,-66.6666666666667,4,2,1,90,0,1
136039,-66.6666666666667,4,2,1,90,0,1
136164,-66.6666666666667,4,2,99,5,0,1
136164,-66.6666666666667,4,2,99,5,0,1
136164,-66.6666666666667,4,2,99,5,0,1
136164,-66.6666666666667,4,2,99,5,0,1
136164,-66.6666666666667,4,2,99,5,0,1
136164,-66.6666666666667,4,2,99,5,0,1
136164,-66.6666666666667,4,2,99,5,0,1
136164,-66.6666666666667,4,2,99,5,0,1
136164,-66.6666666666667,4,2,99,5,0,1
136164,-66.6666666666667,4,2,99,5,0,1
136164,-66.6666666666667,4,2,99,5,0,1
136164,-66.6666666666667,4,2,99,5,0,1
136164,-66.6666666666667,4,2,99,5,0,1
136164,-66.6666666666667,4,2,99,5,0,1
136206,-66.6666666666667,4,2,1,90,0,1
136206,-66.6666666666667,4,2,1,90,0,1
136206,-66.6666666666667,4,2,1,90,0,1
136206,-66.6666666666667,4,2,1,90,0,1
136206,-66.6666666666667,4,2,1,90,0,1
136206,-66.6666666666667,4,2,1,90,0,1
136206,-66.6666666666667,4,2,1,90,0,1
136206,-66.6666666666667,4,2,1,90,0,1
136206,-66.6666666666667,4,2,1,90,0,1
136206,-66.6666666666667,4,2,1,90,0,1
136206,-66.6666666666667,4,2,1,90,0,1
136206,-66.6666666666667,4,2,1,90,0,1
136206,-66.6666666666667,4,2,1,90,0,1
136206,-66.6666666666667,4,2,1,90,0,1
136332,-66.6666666666667,4,2,99,5,0,1
136332,-66.6666666666667,4,2,99,5,0,1
136332,-66.6666666666667,4,2,99,5,0,1
136332,-66.6666666666667,4,2,99,5,0,1
136332,-66.6666666666667,4,2,99,5,0,1
136332,-66.6666666666667,4,2,99,5,0,1
136332,-66.6666666666667,4,2,99,5,0,1
136332,-66.6666666666667,4,2,99,5,0,1
136332,-66.6666666666667,4,2,99,5,0,1
136332,-66.6666666666667,4,2,99,5,0,1
136332,-66.6666666666667,4,2,99,5,0,1
136332,-66.6666666666667,4,2,99,5,0,1
136332,-66.6666666666667,4,2,99,5,0,1
136332,-66.6666666666667,4,2,99,5,0,1
136374,-66.6666666666667,4,2,1,90,0,1
136374,-66.6666666666667,4,2,1,90,0,1
136374,-66.6666666666667,4,2,1,90,0,1
136374,-66.6666666666667,4,2,1,90,0,1
136374,-66.6666666666667,4,2,1,90,0,1
136374,-66.6666666666667,4,2,1,90,0,1
136374,-66.6666666666667,4,2,1,90,0,1
136374,-66.6666666666667,4,2,1,90,0,1
136374,-66.6666666666667,4,2,1,90,0,1
136374,-66.6666666666667,4,2,1,90,0,1
136374,-66.6666666666667,4,2,1,90,0,1
136374,-66.6666666666667,4,2,1,90,0,1
136374,-66.6666666666667,4,2,1,90,0,1
136374,-66.6666666666667,4,2,1,90,0,1
136404,-47.6190476190476,4,2,1,90,0,1
136656,-47.6190476190476,4,2,1,90,0,1
136740,-55.5555555555556,4,2,1,90,0,1
136823,-55.5555555555556,4,2,1,90,0,1
137075,-55.5555555555556,4,2,1,90,0,1
137117,-55.5555555555556,4,2,1,90,0,1
137212,-55.5555555555556,4,2,99,5,0,1
137212,-55.5555555555556,4,2,99,5,0,1
137212,-55.5555555555556,4,2,99,5,0,1
137212,-55.5555555555556,4,2,99,5,0,1
137212,-55.5555555555556,4,2,99,5,0,1
137212,-55.5555555555556,4,2,99,5,0,1
137212,-55.5555555555556,4,2,99,5,0,1
137212,-55.5555555555556,4,2,99,5,0,1
137212,-55.5555555555556,4,2,99,5,0,1
137212,-55.5555555555556,4,2,99,5,0,1
137212,-55.5555555555556,4,2,99,5,0,1
137212,-55.5555555555556,4,2,99,5,0,1
137212,-55.5555555555556,4,2,99,5,0,1
137212,-55.5555555555556,4,2,99,5,0,1
137242,-55.5555555555556,4,2,99,5,0,1
137296,-55.5555555555556,4,2,1,90,0,1
137296,-55.5555555555556,4,2,1,90,0,1
137296,-55.5555555555556,4,2,1,90,0,1
137296,-55.5555555555556,4,2,1,90,0,1
137296,-55.5555555555556,4,2,1,90,0,1
137296,-55.5555555555556,4,2,1,90,0,1
137296,-55.5555555555556,4,2,1,90,0,1
137296,-55.5555555555556,4,2,1,90,0,1
137296,-55.5555555555556,4,2,1,90,0,1
137296,-55.5555555555556,4,2,1,90,0,1
137296,-55.5555555555556,4,2,1,90,0,1
137296,-55.5555555555556,4,2,1,90,0,1
137296,-55.5555555555556,4,2,1,90,0,1
137296,-55.5555555555556,4,2,1,90,0,1
137452,-55.5555555555556,4,2,1,90,0,1
137547,-55.5555555555556,4,2,99,5,0,1
137547,-55.5555555555556,4,2,99,5,0,1
137547,-55.5555555555556,4,2,99,5,0,1
137547,-55.5555555555556,4,2,99,5,0,1
137547,-55.5555555555556,4,2,99,5,0,1
137547,-55.5555555555556,4,2,99,5,0,1
137547,-55.5555555555556,4,2,99,5,0,1
137547,-55.5555555555556,4,2,99,5,0,1
137547,-55.5555555555556,4,2,99,5,0,1
137547,-55.5555555555556,4,2,99,5,0,1
137547,-55.5555555555556,4,2,99,5,0,1
137547,-55.5555555555556,4,2,99,5,0,1
137547,-55.5555555555556,4,2,99,5,0,1
137547,-55.5555555555556,4,2,99,5,0,1
137631,-55.5555555555556,4,2,1,90,0,1
137631,-55.5555555555556,4,2,1,90,0,1
137631,-55.5555555555556,4,2,1,90,0,1
137631,-55.5555555555556,4,2,1,90,0,1
137631,-55.5555555555556,4,2,1,90,0,1
137631,-55.5555555555556,4,2,1,90,0,1
137631,-55.5555555555556,4,2,1,90,0,1
137631,-55.5555555555556,4,2,1,90,0,1
137631,-55.5555555555556,4,2,1,90,0,1
137631,-55.5555555555556,4,2,1,90,0,1
137631,-55.5555555555556,4,2,1,90,0,1
137631,-55.5555555555556,4,2,1,90,0,1
137631,-55.5555555555556,4,2,1,90,0,1
137631,-55.5555555555556,4,2,1,90,0,1
137745,-55.5555555555556,4,2,1,90,0,1
137787,-55.5555555555556,4,2,1,90,0,1
137882,-55.5555555555556,4,2,99,5,0,1
137882,-55.5555555555556,4,2,99,5,0,1
137882,-55.5555555555556,4,2,99,5,0,1
137882,-55.5555555555556,4,2,99,5,0,1
137882,-55.5555555555556,4,2,99,5,0,1
137882,-55.5555555555556,4,2,99,5,0,1
137882,-55.5555555555556,4,2,99,5,0,1
137882,-55.5555555555556,4,2,99,5,0,1
137882,-55.5555555555556,4,2,99,5,0,1
137882,-55.5555555555556,4,2,99,5,0,1
137882,-55.5555555555556,4,2,99,5,0,1
137882,-55.5555555555556,4,2,99,5,0,1
137882,-55.5555555555556,4,2,99,5,0,1
137882,-55.5555555555556,4,2,99,5,0,1
137913,-55.5555555555556,4,2,99,5,0,1
137966,-55.5555555555556,4,2,1,90,0,1
137966,-55.5555555555556,4,2,1,90,0,1
137966,-55.5555555555556,4,2,1,90,0,1
137966,-55.5555555555556,4,2,1,90,0,1
137966,-55.5555555555556,4,2,1,90,0,1
137966,-55.5555555555556,4,2,1,90,0,1
137966,-55.5555555555556,4,2,1,90,0,1
137966,-55.5555555555556,4,2,1,90,0,1
137966,-55.5555555555556,4,2,1,90,0,1
137966,-55.5555555555556,4,2,1,90,0,1
137966,-55.5555555555556,4,2,1,90,0,1
137966,-55.5555555555556,4,2,1,90,0,1
137966,-55.5555555555556,4,2,1,90,0,1
137966,-55.5555555555556,4,2,1,90,0,1
138122,-55.5555555555556,4,2,1,90,0,1
138248,-55.5555555555556,4,2,1,90,0,1
138416,-66.6666666666667,4,2,1,90,0,1
139086,-100,4,2,1,90,0,0
139421,-55.5555555555556,4,2,1,90,0,0
139463,-55.5555555555556,4,2,1,90,0,0
139756,-55.5555555555556,4,2,1,90,0,0
140092,-55.5555555555556,4,2,1,90,0,1
140427,-50,4,2,1,90,0,1
141097,-76.9230769230769,4,2,1,90,0,1
141181,-76.9230769230769,4,2,1,90,0,1
141265,-76.9230769230769,4,2,1,90,0,1
141349,-76.9230769230769,4,2,1,90,0,1
141432,-76.9230769230769,4,2,1,90,0,1
141516,-76.9230769230769,4,2,1,90,0,1
141600,-76.9230769230769,4,2,1,90,0,1
141684,-76.9230769230769,4,2,1,90,0,1
141768,-41.6666666666667,4,2,1,90,0,1
142773,-50,4,2,1,90,0,1
143779,-66.6666666666667,4,2,1,90,0,0
143832,-66.6666666666667,4,2,1,70,0,0
143832,-66.6666666666667,4,2,1,70,0,0
143832,-66.6666666666667,4,2,1,70,0,0
143832,-66.6666666666667,4,2,1,70,0,0
143832,-66.6666666666667,4,2,1,70,0,0
143832,-66.6666666666667,4,2,1,70,0,0
143832,-66.6666666666667,4,2,1,70,0,0
143832,-66.6666666666667,4,2,1,70,0,0
143832,-66.6666666666667,4,2,1,70,0,0
143832,-66.6666666666667,4,2,1,70,0,0
143832,-66.6666666666667,4,2,1,70,0,0
143832,-66.6666666666667,4,2,1,70,0,0
143832,-66.6666666666667,4,2,1,70,0,0
143832,-66.6666666666667,4,2,1,70,0,0
147131,-200,4,2,1,70,0,0
147184,-200,4,2,1,40,0,0
147184,-200,4,2,1,40,0,0
147184,-200,4,2,1,40,0,0
147184,-200,4,2,1,40,0,0
147184,-200,4,2,1,40,0,0
147184,-200,4,2,1,40,0,0
147184,-200,4,2,1,40,0,0
147184,-200,4,2,1,40,0,0
147184,-200,4,2,1,40,0,0
147184,-200,4,2,1,40,0,0
147184,-200,4,2,1,40,0,0
147184,-200,4,2,1,40,0,0
147184,-200,4,2,1,40,0,0
147184,-200,4,2,1,40,0,0
155175,-117.647058823529,4,2,1,40,0,0
156516,-57.1428571428571,4,2,1,40,0,0
156569,-57.1428571428571,4,2,1,70,0,0
156569,-57.1428571428571,4,2,1,70,0,0
156569,-57.1428571428571,4,2,1,70,0,0
156569,-57.1428571428571,4,2,1,70,0,0
156569,-57.1428571428571,4,2,1,70,0,0
156569,-57.1428571428571,4,2,1,70,0,0
156569,-57.1428571428571,4,2,1,70,0,0
156569,-57.1428571428571,4,2,1,70,0,0
156569,-57.1428571428571,4,2,1,70,0,0
156569,-57.1428571428571,4,2,1,70,0,0
156569,-57.1428571428571,4,2,1,70,0,0
156569,-57.1428571428571,4,2,1,70,0,0
156569,-57.1428571428571,4,2,1,70,0,0
156569,-57.1428571428571,4,2,1,70,0,0
157522,-100,4,2,1,70,0,0
157857,-71.4285714285714,4,2,1,70,0,0
160203,-100,4,2,1,70,0,0
160539,-58.8235294117647,4,2,1,70,0,0
160958,-58.8235294117647,4,2,1,70,0,0
161041,-58.8235294117647,4,2,1,70,0,0
161712,-66.6666666666667,4,2,1,70,0,0
161963,-66.6666666666667,4,2,1,70,0,0
162047,-66.6666666666667,4,2,1,70,0,0
162885,-117.647058823529,4,2,1,70,0,0
163220,-58.8235294117647,4,2,1,70,0,0
164393,-71.4285714285714,4,2,1,70,0,0
165064,-83.3333333333333,4,2,1,70,0,0
165567,-58.8235294117647,4,2,1,70,0,0
165902,-100,4,2,1,70,0,0
167326,-50,4,2,1,70,0,0
167913,-100,4,2,1,70,0,0
170930,-200,4,2,1,70,0,0
171181,-200,4,2,1,70,0,0
171234,-200,4,2,99,5,0,0
171234,-200,4,2,99,5,0,0
171234,-200,4,2,99,5,0,0
171234,-200,4,2,99,5,0,0
171234,-200,4,2,99,5,0,0
171234,-200,4,2,99,5,0,0
171234,-200,4,2,99,5,0,0
171234,-200,4,2,99,5,0,0
171234,-200,4,2,99,5,0,0
171234,-200,4,2,99,5,0,0
171234,-200,4,2,99,5,0,0
171234,-200,4,2,99,5,0,0
171234,-200,4,2,99,5,0,0
171234,-200,4,2,99,5,0,0
171265,-100,4,2,99,5,0,0
171318,-100,4,2,1,70,0,0
171318,-100,4,2,1,70,0,0
171318,-100,4,2,1,70,0,0
171318,-100,4,2,1,70,0,0
171318,-100,4,2,1,70,0,0
171318,-100,4,2,1,70,0,0
171318,-100,4,2,1,70,0,0
171318,-100,4,2,1,70,0,0
171318,-100,4,2,1,70,0,0
171318,-100,4,2,1,70,0,0
171318,-100,4,2,1,70,0,0
171318,-100,4,2,1,70,0,0
171318,-100,4,2,1,70,0,0
171318,-100,4,2,1,70,0,0
173360,-100,4,2,1,70,0,0
173444,-100,4,2,1,70,0,0
173527,-100,4,2,1,70,0,0
173611,-100,4,2,1,70,0,0
173695,-100,4,2,1,70,0,0
173779,-100,4,2,1,70,0,0
173863,-100,4,2,1,70,0,0
173946,-62.5,4,2,1,70,0,0
175287,-52.6315789473684,4,2,1,70,0,0
176628,-62.5,4,2,1,70,0,0
176963,-41.6666666666667,4,2,1,70,0,0
177298,-31.25,4,2,1,70,0,0
177634,-25,4,2,1,70,0,0
177969,-100,4,2,1,70,0,0
178136,-125,4,2,1,70,0,0
178220,-125,4,2,1,70,0,0
178304,-83.3333333333333,4,2,1,70,0,0
178388,-83.3333333333333,4,2,1,70,0,0
178472,-62.5,4,2,1,70,0,0
178555,-62.5,4,2,1,70,0,0
178639,-50,4,2,1,70,0,0
178723,-50,4,2,1,70,0,0
178807,-41.6666666666667,4,2,1,70,0,0
178891,-41.6666666666667,4,2,1,70,0,0
178974,-50,4,2,1,70,0,0
179310,-41.6666666666667,4,2,1,70,0,1
179363,-41.6666666666667,4,2,1,90,0,1
179363,-41.6666666666667,4,2,1,90,0,1
179363,-41.6666666666667,4,2,1,90,0,1
179363,-41.6666666666667,4,2,1,90,0,1
179363,-41.6666666666667,4,2,1,90,0,1
179363,-41.6666666666667,4,2,1,90,0,1
179363,-41.6666666666667,4,2,1,90,0,1
179363,-41.6666666666667,4,2,1,90,0,1
179363,-41.6666666666667,4,2,1,90,0,1
179363,-41.6666666666667,4,2,1,90,0,1
179363,-41.6666666666667,4,2,1,90,0,1
179363,-41.6666666666667,4,2,1,90,0,1
179363,-41.6666666666667,4,2,1,90,0,1
179363,-41.6666666666667,4,2,1,90,0,1
179561,-41.6666666666667,4,2,1,90,0,1
179645,-41.6666666666667,4,2,1,90,0,1
179812,-47.6190476190476,4,2,1,90,0,1
179980,-55.5555555555556,4,2,1,90,0,1
180483,-47.6190476190476,4,2,1,90,0,1
180650,-41.6666666666667,4,2,1,90,0,1
180902,-41.6666666666667,4,2,1,90,0,1
180986,-55.5555555555556,4,2,1,90,0,1
181656,-133.333333333333,4,2,1,90,0,1
181907,-133.333333333333,4,2,1,90,0,1
181991,-55.5555555555556,4,2,1,90,0,1
182494,-47.6190476190476,4,2,1,90,0,1
182661,-66.6666666666667,4,2,1,90,0,1
183248,-66.6666666666667,4,2,1,90,0,1
183332,-100,4,2,1,90,0,1
183583,-100,4,2,1,90,0,1
183667,-50,4,2,1,90,0,1
184002,-41.6666666666667,4,2,1,90,0,1
184924,-41.6666666666667,4,2,1,90,0,1
185008,-55.5555555555556,4,2,1,90,0,1
185175,-41.6666666666667,4,2,1,90,0,1
185343,-55.5555555555556,4,2,1,90,0,1
185846,-41.6666666666667,4,2,1,90,0,1
186013,-66.6666666666667,4,2,1,90,0,1
186265,-66.6666666666667,4,2,1,90,0,1
186349,-66.6666666666667,4,2,1,90,0,1
187354,-55.5555555555556,4,2,1,90,0,1
188025,-100,4,2,1,90,0,1
188527,-55.5555555555556,4,2,1,90,0,1
189701,-55.5555555555556,4,2,1,90,0,1
189784,-55.5555555555556,4,2,1,90,0,1
189868,-55.5555555555556,4,2,1,90,0,1
189952,-55.5555555555556,4,2,1,90,0,1
190036,-41.6666666666667,4,2,1,90,0,1
190287,-41.6666666666667,4,2,1,90,0,1
190371,-41.6666666666667,4,2,1,90,0,1
190706,-55.5555555555556,4,2,1,90,0,1
191209,-41.6666666666667,4,2,1,90,0,1
191628,-41.6666666666667,4,2,1,90,0,1
191712,-41.6666666666667,4,2,1,90,0,1
192382,-133.333333333333,4,2,1,90,0,1
192634,-133.333333333333,4,2,1,90,0,1
192717,-55.5555555555556,4,2,1,90,0,1
193220,-41.6666666666667,4,2,1,90,0,1
193388,-66.6666666666667,4,2,1,90,0,1
194142,-66.6666666666667,4,2,1,90,0,1
194226,-66.6666666666667,4,2,1,90,0,1
194729,-41.6666666666667,4,2,1,90,0,1
195399,-83.3333333333333,4,2,1,90,0,1
195734,-83.3333333333333,4,2,1,90,0,0
196069,-55.5555555555556,4,2,1,90,0,0
196237,-83.3333333333333,4,2,1,90,0,0
196782,-83.3333333333333,4,2,1,90,0,0
196823,-83.3333333333333,4,2,1,90,0,0
196865,-83.3333333333333,4,2,1,90,0,0
197075,-83.3333333333333,4,2,1,90,0,0
197410,-133.333333333333,4,2,1,90,0,0
197463,-133.333333333333,4,2,1,70,0,0
197463,-133.333333333333,4,2,1,70,0,0
197463,-133.333333333333,4,2,1,70,0,0
197463,-133.333333333333,4,2,1,70,0,0
197463,-133.333333333333,4,2,1,70,0,0
197463,-133.333333333333,4,2,1,70,0,0
197463,-133.333333333333,4,2,1,70,0,0
197463,-133.333333333333,4,2,1,70,0,0
197463,-133.333333333333,4,2,1,70,0,0
197463,-133.333333333333,4,2,1,70,0,0
197463,-133.333333333333,4,2,1,70,0,0
197463,-133.333333333333,4,2,1,70,0,0
197463,-133.333333333333,4,2,1,70,0,0
197463,-133.333333333333,4,2,1,70,0,0
197745,-66.6666666666667,4,2,1,70,0,0
199421,-55.5555555555556,4,2,1,70,0,1
200762,-166.666666666667,4,2,1,70,0,0
201349,-166.666666666667,4,2,1,70,0,0
201432,-76.9230769230769,4,2,1,70,0,0
201851,-76.9230769230769,4,2,1,70,0,0
201935,-50,4,2,1,70,0,0
202072,-50,4,2,99,5,0,0
202072,-50,4,2,99,5,0,0
202072,-50,4,2,99,5,0,0
202072,-50,4,2,99,5,0,0
202072,-50,4,2,99,5,0,0
202072,-50,4,2,99,5,0,0
202072,-50,4,2,99,5,0,0
202072,-50,4,2,99,5,0,0
202072,-50,4,2,99,5,0,0
202072,-50,4,2,99,5,0,0
202072,-50,4,2,99,5,0,0
202072,-50,4,2,99,5,0,0
202072,-50,4,2,99,5,0,0
202072,-50,4,2,99,5,0,0
202156,-50,4,2,1,70,0,0
202156,-50,4,2,1,70,0,0
202156,-50,4,2,1,70,0,0
202156,-50,4,2,1,70,0,0
202156,-50,4,2,1,70,0,0
202156,-50,4,2,1,70,0,0
202156,-50,4,2,1,70,0,0
202156,-50,4,2,1,70,0,0
202156,-50,4,2,1,70,0,0
202156,-50,4,2,1,70,0,0
202156,-50,4,2,1,70,0,0
202156,-50,4,2,1,70,0,0
202156,-50,4,2,1,70,0,0
202156,-50,4,2,1,70,0,0
202407,-50,4,2,99,5,0,0
202407,-50,4,2,99,5,0,0
202407,-50,4,2,99,5,0,0
202407,-50,4,2,99,5,0,0
202407,-50,4,2,99,5,0,0
202407,-50,4,2,99,5,0,0
202407,-50,4,2,99,5,0,0
202407,-50,4,2,99,5,0,0
202407,-50,4,2,99,5,0,0
202407,-50,4,2,99,5,0,0
202407,-50,4,2,99,5,0,0
202407,-50,4,2,99,5,0,0
202407,-50,4,2,99,5,0,0
202407,-50,4,2,99,5,0,0
202491,-50,4,2,1,70,0,0
202491,-50,4,2,1,70,0,0
202491,-50,4,2,1,70,0,0
202491,-50,4,2,1,70,0,0
202491,-50,4,2,1,70,0,0
202491,-50,4,2,1,70,0,0
202491,-50,4,2,1,70,0,0
202491,-50,4,2,1,70,0,0
202491,-50,4,2,1,70,0,0
202491,-50,4,2,1,70,0,0
202491,-50,4,2,1,70,0,0
202491,-50,4,2,1,70,0,0
202491,-50,4,2,1,70,0,0
202491,-50,4,2,1,70,0,0
202606,-58.8235294117647,4,2,1,70,0,0
202857,-58.8235294117647,4,2,1,70,0,0
202941,-58.8235294117647,4,2,1,70,0,0
203444,-62.5,4,2,1,70,0,0
204114,-55.5555555555556,4,2,1,70,0,0
204617,-62.5,4,2,1,70,0,0
205790,-133.333333333333,4,2,1,70,0,0
206041,-133.333333333333,4,2,1,70,0,0
206125,-62.5,4,2,1,70,0,0
206796,-50,4,2,1,70,0,0
207298,-62.5,4,2,1,70,0,0
208472,-100,4,2,1,70,0,0
208807,-76.9230769230769,4,2,1,70,0,0
210148,-62.5,4,2,1,70,0,0
211153,-52.6315789473684,4,2,1,70,0,0
211488,-62.5,4,2,1,70,0,0
214002,-52.6315789473684,4,2,1,70,0,0
214097,-52.6315789473684,4,2,99,5,0,0
214097,-52.6315789473684,4,2,99,5,0,0
214097,-52.6315789473684,4,2,99,5,0,0
214097,-52.6315789473684,4,2,99,5,0,0
214097,-52.6315789473684,4,2,99,5,0,0
214097,-52.6315789473684,4,2,99,5,0,0
214097,-52.6315789473684,4,2,99,5,0,0
214097,-52.6315789473684,4,2,99,5,0,0
214097,-52.6315789473684,4,2,99,5,0,0
214097,-52.6315789473684,4,2,99,5,0,0
214097,-52.6315789473684,4,2,99,5,0,0
214097,-52.6315789473684,4,2,99,5,0,0
214097,-52.6315789473684,4,2,99,5,0,0
214097,-52.6315789473684,4,2,99,5,0,0
214139,-52.6315789473684,4,2,1,70,0,0
214139,-52.6315789473684,4,2,1,70,0,0
214139,-52.6315789473684,4,2,1,70,0,0
214139,-52.6315789473684,4,2,1,70,0,0
214139,-52.6315789473684,4,2,1,70,0,0
214139,-52.6315789473684,4,2,1,70,0,0
214139,-52.6315789473684,4,2,1,70,0,0
214139,-52.6315789473684,4,2,1,70,0,0
214139,-52.6315789473684,4,2,1,70,0,0
214139,-52.6315789473684,4,2,1,70,0,0
214139,-52.6315789473684,4,2,1,70,0,0
214139,-52.6315789473684,4,2,1,70,0,0
214139,-52.6315789473684,4,2,1,70,0,0
214139,-52.6315789473684,4,2,1,70,0,0
214170,-62.5,4,2,1,70,0,0
214756,-62.5,4,2,1,70,0,0
214840,-62.5,4,2,1,70,0,0
216432,-62.5,4,2,1,70,0,0
216516,-100,4,2,1,70,0,0
216851,-62.5,4,2,1,70,0,0
217438,-62.5,4,2,1,70,0,0
217522,-50,4,2,1,70,0,0
217773,-50,4,2,1,70,0,0
217857,-50,4,2,1,70,0,0
218192,-62.5,4,2,1,70,0,0
220874,-50,4,2,1,70,0,0
221544,-41.6666666666667,4,2,1,70,0,0
221639,-41.6666666666667,4,2,99,5,0,0
221639,-41.6666666666667,4,2,99,5,0,0
221639,-41.6666666666667,4,2,99,5,0,0
221639,-41.6666666666667,4,2,99,5,0,0
221639,-41.6666666666667,4,2,99,5,0,0
221639,-41.6666666666667,4,2,99,5,0,0
221639,-41.6666666666667,4,2,99,5,0,0
221639,-41.6666666666667,4,2,99,5,0,0
221639,-41.6666666666667,4,2,99,5,0,0
221639,-41.6666666666667,4,2,99,5,0,0
221639,-41.6666666666667,4,2,99,5,0,0
221639,-41.6666666666667,4,2,99,5,0,0
221639,-41.6666666666667,4,2,99,5,0,0
221639,-41.6666666666667,4,2,99,5,0,0
221681,-41.6666666666667,4,2,1,70,0,0
221681,-41.6666666666667,4,2,1,70,0,0
221681,-41.6666666666667,4,2,1,70,0,0
221681,-41.6666666666667,4,2,1,70,0,0
221681,-41.6666666666667,4,2,1,70,0,0
221681,-41.6666666666667,4,2,1,70,0,0
221681,-41.6666666666667,4,2,1,70,0,0
221681,-41.6666666666667,4,2,1,70,0,0
221681,-41.6666666666667,4,2,1,70,0,0
221681,-41.6666666666667,4,2,1,70,0,0
221681,-41.6666666666667,4,2,1,70,0,0
221681,-41.6666666666667,4,2,1,70,0,0
221681,-41.6666666666667,4,2,1,70,0,0
221681,-41.6666666666667,4,2,1,70,0,0
221807,-41.6666666666667,4,2,99,5,0,0
221807,-41.6666666666667,4,2,99,5,0,0
221807,-41.6666666666667,4,2,99,5,0,0
221807,-41.6666666666667,4,2,99,5,0,0
221807,-41.6666666666667,4,2,99,5,0,0
221807,-41.6666666666667,4,2,99,5,0,0
221807,-41.6666666666667,4,2,99,5,0,0
221807,-41.6666666666667,4,2,99,5,0,0
221807,-41.6666666666667,4,2,99,5,0,0
221807,-41.6666666666667,4,2,99,5,0,0
221807,-41.6666666666667,4,2,99,5,0,0
221807,-41.6666666666667,4,2,99,5,0,0
221807,-41.6666666666667,4,2,99,5,0,0
221807,-41.6666666666667,4,2,99,5,0,0
221849,-41.6666666666667,4,2,1,70,0,0
221849,-41.6666666666667,4,2,1,70,0,0
221849,-41.6666666666667,4,2,1,70,0,0
221849,-41.6666666666667,4,2,1,70,0,0
221849,-41.6666666666667,4,2,1,70,0,0
221849,-41.6666666666667,4,2,1,70,0,0
221849,-41.6666666666667,4,2,1,70,0,0
221849,-41.6666666666667,4,2,1,70,0,0
221849,-41.6666666666667,4,2,1,70,0,0
221849,-41.6666666666667,4,2,1,70,0,0
221849,-41.6666666666667,4,2,1,70,0,0
221849,-41.6666666666667,4,2,1,70,0,0
221849,-41.6666666666667,4,2,1,70,0,0
221849,-41.6666666666667,4,2,1,70,0,0
222215,-83.3333333333333,4,2,1,70,0,0
222268,-83.3333333333333,4,2,1,90,0,0
222268,-83.3333333333333,4,2,1,90,0,0
222268,-83.3333333333333,4,2,1,90,0,0
222268,-83.3333333333333,4,2,1,90,0,0
222268,-83.3333333333333,4,2,1,90,0,0
222268,-83.3333333333333,4,2,1,90,0,0
222268,-83.3333333333333,4,2,1,90,0,0
222268,-83.3333333333333,4,2,1,90,0,0
222268,-83.3333333333333,4,2,1,90,0,0
222268,-83.3333333333333,4,2,1,90,0,0
222268,-83.3333333333333,4,2,1,90,0,0
222268,-83.3333333333333,4,2,1,90,0,0
222268,-83.3333333333333,4,2,1,90,0,0
222268,-83.3333333333333,4,2,1,90,0,0
222885,-62.5,4,2,1,90,0,0
223388,-76.9230769230769,4,2,1,90,0,0
223639,-76.9230769230769,4,2,1,90,0,0
223723,-76.9230769230769,4,2,1,90,0,0
224226,-100,4,2,1,90,0,0
224561,-66.6666666666667,4,2,1,90,0,0
224812,-66.6666666666667,4,2,1,90,0,0
224896,-100,4,2,1,90,0,0
225567,-66.6666666666667,4,2,1,90,0,0
225734,-66.6666666666667,4,2,1,90,0,0
225818,-133.333333333333,4,2,1,90,0,0
225829,-133.333333333333,4,2,99,5,0,0
225829,-133.333333333333,4,2,99,5,0,0
225829,-133.333333333333,4,2,99,5,0,0
225829,-133.333333333333,4,2,99,5,0,0
225829,-133.333333333333,4,2,99,5,0,0
225829,-133.333333333333,4,2,99,5,0,0
225829,-133.333333333333,4,2,99,5,0,0
225829,-133.333333333333,4,2,99,5,0,0
225829,-133.333333333333,4,2,99,5,0,0
225829,-133.333333333333,4,2,99,5,0,0
225829,-133.333333333333,4,2,99,5,0,0
225829,-133.333333333333,4,2,99,5,0,0
225829,-133.333333333333,4,2,99,5,0,0
225829,-133.333333333333,4,2,99,5,0,0
225871,-133.333333333333,4,2,1,90,0,0
225871,-133.333333333333,4,2,1,90,0,0
225871,-133.333333333333,4,2,1,90,0,0
225871,-133.333333333333,4,2,1,90,0,0
225871,-133.333333333333,4,2,1,90,0,0
225871,-133.333333333333,4,2,1,90,0,0
225871,-133.333333333333,4,2,1,90,0,0
225871,-133.333333333333,4,2,1,90,0,0
225871,-133.333333333333,4,2,1,90,0,0
225871,-133.333333333333,4,2,1,90,0,0
225871,-133.333333333333,4,2,1,90,0,0
225871,-133.333333333333,4,2,1,90,0,0
225871,-133.333333333333,4,2,1,90,0,0
225871,-133.333333333333,4,2,1,90,0,0
225986,-133.333333333333,4,2,1,90,0,0
226069,-71.4285714285714,4,2,1,90,0,0
226321,-71.4285714285714,4,2,1,90,0,0
226404,-71.4285714285714,4,2,1,90,0,0
226907,-54.054054054054,4,2,1,90,0,0
227673,-54.054054054054,4,2,99,5,0,0
227673,-54.054054054054,4,2,99,5,0,0
227673,-54.054054054054,4,2,99,5,0,0
227673,-54.054054054054,4,2,99,5,0,0
227673,-54.054054054054,4,2,99,5,0,0
227673,-54.054054054054,4,2,99,5,0,0
227673,-54.054054054054,4,2,99,5,0,0
227673,-54.054054054054,4,2,99,5,0,0
227673,-54.054054054054,4,2,99,5,0,0
227673,-54.054054054054,4,2,99,5,0,0
227673,-54.054054054054,4,2,99,5,0,0
227673,-54.054054054054,4,2,99,5,0,0
227673,-54.054054054054,4,2,99,5,0,0
227673,-54.054054054054,4,2,99,5,0,0
227714,-54.054054054054,4,2,1,90,0,0
227714,-54.054054054054,4,2,1,90,0,0
227714,-54.054054054054,4,2,1,90,0,0
227714,-54.054054054054,4,2,1,90,0,0
227714,-54.054054054054,4,2,1,90,0,0
227714,-54.054054054054,4,2,1,90,0,0
227714,-54.054054054054,4,2,1,90,0,0
227714,-54.054054054054,4,2,1,90,0,0
227714,-54.054054054054,4,2,1,90,0,0
227714,-54.054054054054,4,2,1,90,0,0
227714,-54.054054054054,4,2,1,90,0,0
227714,-54.054054054054,4,2,1,90,0,0
227714,-54.054054054054,4,2,1,90,0,0
227714,-54.054054054054,4,2,1,90,0,0
227913,-66.6666666666667,4,2,1,90,0,0
228583,-55.5555555555556,4,2,1,90,0,0
228835,-66.6666666666667,4,2,1,90,0,0
229840,-66.6666666666667,4,2,1,90,0,0
229924,-66.6666666666667,4,2,1,90,0,0
230259,-83.3333333333333,4,2,1,90,0,0
230385,-83.3333333333333,4,2,1,90,0,0
230427,-66.6666666666667,4,2,1,90,0,0
230930,-133.333333333333,4,2,1,90,0,0
231097,-133.333333333333,4,2,1,90,0,0
231181,-133.333333333333,4,2,1,90,0,0
231600,-50,4,2,1,90,0,0
231851,-50,4,2,1,90,0,0
231935,-50,4,2,1,90,0,0
232354,-50,4,2,1,90,0,0
232438,-50,4,2,1,90,0,0
232857,-50,4,2,1,90,0,0
232941,-76.9230769230769,4,2,1,90,0,0
233611,-90.9090909090909,4,2,1,90,0,0
234114,-71.4285714285714,4,2,1,90,0,0
234533,-71.4285714285714,4,2,1,90,0,0
234617,-71.4285714285714,4,2,1,90,0,0
235036,-71.4285714285714,4,2,1,90,0,0
235120,-55.5555555555556,4,2,1,90,0,0
235539,-71.4285714285714,4,2,1,90,0,0
235706,-71.4285714285714,4,2,1,90,0,0
235790,-58.8235294117647,4,2,1,90,0,0
235874,-58.8235294117647,4,2,1,90,0,0
235958,-71.4285714285714,4,2,1,90,0,0
236209,-71.4285714285714,4,2,1,90,0,0
236293,-50,4,2,1,90,0,0
236460,-50,4,2,1,90,0,0
236544,-50,4,2,1,90,0,0
236712,-50,4,2,1,90,0,0
236796,-142.857142857143,4,2,1,90,0,0
236963,-142.857142857143,4,2,1,90,0,0
237047,-100,4,2,1,90,0,0
237215,-100,4,2,1,90,0,0
237298,-76.9230769230769,4,2,1,90,0,0
237550,-62.5,4,2,1,90,0,0
237717,-62.5,4,2,1,90,0,0
237801,-50,4,2,1,90,0,0
237885,-50,4,2,1,90,0,0
237969,-50,4,2,1,90,0,0
238555,-50,4,2,1,90,0,0
238639,-50,4,2,1,90,0,0
239111,-50,4,2,99,5,0,0
239111,-50,4,2,99,5,0,0
239111,-50,4,2,99,5,0,0
239111,-50,4,2,99,5,0,0
239111,-50,4,2,99,5,0,0
239111,-50,4,2,99,5,0,0
239111,-50,4,2,99,5,0,0
239111,-50,4,2,99,5,0,0
239111,-50,4,2,99,5,0,0
239111,-50,4,2,99,5,0,0
239111,-50,4,2,99,5,0,0
239111,-50,4,2,99,5,0,0
239111,-50,4,2,99,5,0,0
239111,-50,4,2,99,5,0,0
239195,-50,4,2,1,90,0,0
239195,-50,4,2,1,90,0,0
239195,-50,4,2,1,90,0,0
239195,-50,4,2,1,90,0,0
239195,-50,4,2,1,90,0,0
239195,-50,4,2,1,90,0,0
239195,-50,4,2,1,90,0,0
239195,-50,4,2,1,90,0,0
239195,-50,4,2,1,90,0,0
239195,-50,4,2,1,90,0,0
239195,-50,4,2,1,90,0,0
239195,-50,4,2,1,90,0,0
239195,-50,4,2,1,90,0,0
239195,-50,4,2,1,90,0,0
239477,-50,4,2,1,90,0,0
239561,-66.6666666666667,4,2,1,90,0,0
239729,-66.6666666666667,4,2,1,90,0,0
239812,-66.6666666666667,4,2,1,90,0,0
240315,-83.3333333333333,4,2,1,90,0,0
240818,-66.6666666666667,4,2,1,90,0,0
242326,-100,4,2,1,90,0,0
242578,-100,4,2,1,90,0,0
242661,-71.4285714285714,4,2,1,90,0,0
242829,-55.5555555555556,4,2,1,90,0,0
242997,-100,4,2,1,90,0,0
243667,-41.6666666666667,4,2,1,90,0,0
243918,-41.6666666666667,4,2,1,90,0,0
244002,-41.6666666666667,4,2,1,90,0,0
244170,-55.5555555555556,4,2,1,90,0,0
244840,-47.6190476190476,4,2,1,90,0,0
245259,-47.6190476190476,4,2,1,90,0,0
245343,-47.6190476190476,4,2,1,90,0,0
246013,-100,4,2,1,90,0,0
246265,-100,4,2,1,90,0,0
246349,-55.5555555555556,4,2,1,90,0,0
247019,-66.6666666666667,4,2,1,90,0,0
247689,-100,4,2,1,90,0,0
247941,-100,4,2,1,90,0,0
248025,-50,4,2,1,90,0,0
248360,-41.6666666666667,4,2,1,90,0,0
249282,-41.6666666666667,4,2,1,90,0,0
249365,-55.5555555555556,4,2,1,90,0,0
250371,-76.9230769230769,4,2,1,90,0,0
250622,-76.9230769230769,4,2,1,90,0,0
250706,-76.9230769230769,4,2,1,90,0,0
251377,-71.4285714285714,4,2,1,90,0,0
252298,-71.4285714285714,4,2,1,90,0,0
252382,-76.9230769230769,4,2,1,90,0,0
252477,-76.9230769230769,4,2,99,5,0,0
252477,-76.9230769230769,4,2,99,5,0,0
252477,-76.9230769230769,4,2,99,5,0,0
252477,-76.9230769230769,4,2,99,5,0,0
252477,-76.9230769230769,4,2,99,5,0,0
252477,-76.9230769230769,4,2,99,5,0,0
252477,-76.9230769230769,4,2,99,5,0,0
252477,-76.9230769230769,4,2,99,5,0,0
252477,-76.9230769230769,4,2,99,5,0,0
252477,-76.9230769230769,4,2,99,5,0,0
252477,-76.9230769230769,4,2,99,5,0,0
252477,-76.9230769230769,4,2,99,5,0,0
252477,-76.9230769230769,4,2,99,5,0,0
252477,-76.9230769230769,4,2,99,5,0,0
252519,-76.9230769230769,4,2,1,90,0,0
252519,-76.9230769230769,4,2,1,90,0,0
252519,-76.9230769230769,4,2,1,90,0,0
252519,-76.9230769230769,4,2,1,90,0,0
252519,-76.9230769230769,4,2,1,90,0,0
252519,-76.9230769230769,4,2,1,90,0,0
252519,-76.9230769230769,4,2,1,90,0,0
252519,-76.9230769230769,4,2,1,90,0,0
252519,-76.9230769230769,4,2,1,90,0,0
252519,-76.9230769230769,4,2,1,90,0,0
252519,-76.9230769230769,4,2,1,90,0,0
252519,-76.9230769230769,4,2,1,90,0,0
252519,-76.9230769230769,4,2,1,90,0,0
252519,-76.9230769230769,4,2,1,90,0,0
252645,-76.9230769230769,4,2,99,5,0,0
252645,-76.9230769230769,4,2,99,5,0,0
252645,-76.9230769230769,4,2,99,5,0,0
252645,-76.9230769230769,4,2,99,5,0,0
252645,-76.9230769230769,4,2,99,5,0,0
252645,-76.9230769230769,4,2,99,5,0,0
252645,-76.9230769230769,4,2,99,5,0,0
252645,-76.9230769230769,4,2,99,5,0,0
252645,-76.9230769230769,4,2,99,5,0,0
252645,-76.9230769230769,4,2,99,5,0,0
252645,-76.9230769230769,4,2,99,5,0,0
252645,-76.9230769230769,4,2,99,5,0,0
252645,-76.9230769230769,4,2,99,5,0,0
252645,-76.9230769230769,4,2,99,5,0,0
252687,-76.9230769230769,4,2,1,90,0,0
252687,-76.9230769230769,4,2,1,90,0,0
252687,-76.9230769230769,4,2,1,90,0,0
252687,-76.9230769230769,4,2,1,90,0,0
252687,-76.9230769230769,4,2,1,90,0,0
252687,-76.9230769230769,4,2,1,90,0,0
252687,-76.9230769230769,4,2,1,90,0,0
252687,-76.9230769230769,4,2,1,90,0,0
252687,-76.9230769230769,4,2,1,90,0,0
252687,-76.9230769230769,4,2,1,90,0,0
252687,-76.9230769230769,4,2,1,90,0,0
252687,-76.9230769230769,4,2,1,90,0,0
252687,-76.9230769230769,4,2,1,90,0,0
252687,-76.9230769230769,4,2,1,90,0,0
252812,-76.9230769230769,4,2,99,5,0,0
252812,-76.9230769230769,4,2,99,5,0,0
252812,-76.9230769230769,4,2,99,5,0,0
252812,-76.9230769230769,4,2,99,5,0,0
252812,-76.9230769230769,4,2,99,5,0,0
252812,-76.9230769230769,4,2,99,5,0,0
252812,-76.9230769230769,4,2,99,5,0,0
252812,-76.9230769230769,4,2,99,5,0,0
252812,-76.9230769230769,4,2,99,5,0,0
252812,-76.9230769230769,4,2,99,5,0,0
252812,-76.9230769230769,4,2,99,5,0,0
252812,-76.9230769230769,4,2,99,5,0,0
252812,-76.9230769230769,4,2,99,5,0,0
252812,-76.9230769230769,4,2,99,5,0,0
252854,-76.9230769230769,4,2,1,90,0,0
252854,-76.9230769230769,4,2,1,90,0,0
252854,-76.9230769230769,4,2,1,90,0,0
252854,-76.9230769230769,4,2,1,90,0,0
252854,-76.9230769230769,4,2,1,90,0,0
252854,-76.9230769230769,4,2,1,90,0,0
252854,-76.9230769230769,4,2,1,90,0,0
252854,-76.9230769230769,4,2,1,90,0,0
252854,-76.9230769230769,4,2,1,90,0,0
252854,-76.9230769230769,4,2,1,90,0,0
252854,-76.9230769230769,4,2,1,90,0,0
252854,-76.9230769230769,4,2,1,90,0,0
252854,-76.9230769230769,4,2,1,90,0,0
252854,-76.9230769230769,4,2,1,90,0,0
253053,-71.4285714285714,4,2,1,90,0,0
253723,-55.5555555555556,4,2,1,90,0,0
254058,-62.5,4,2,1,90,0,0
254142,-62.5,4,2,1,90,0,0
254226,-62.5,4,2,1,90,0,0
254310,-62.5,4,2,1,90,0,0
254393,-41.6666666666667,4,2,1,90,0,0
254645,-41.6666666666667,4,2,1,90,0,0
254729,-41.6666666666667,4,2,1,90,0,0
254896,-55.5555555555556,4,2,1,90,0,0
255567,-47.6190476190476,4,2,1,90,0,0
255986,-47.6190476190476,4,2,1,90,0,0
256069,-55.5555555555556,4,2,1,90,0,0
256823,-55.5555555555556,4,2,1,90,0,0
256907,-41.6666666666667,4,2,1,90,0,0
257159,-41.6666666666667,4,2,1,90,0,0
257242,-41.6666666666667,4,2,1,90,0,0
257661,-41.6666666666667,4,2,1,90,0,0
257745,-41.6666666666667,4,2,1,90,0,0
257997,-41.6666666666667,4,2,1,90,0,0
258080,-41.6666666666667,4,2,1,90,0,0
258332,-41.6666666666667,4,2,1,90,0,0
258416,-55.5555555555556,4,2,1,90,0,0
259086,-41.6666666666667,4,2,1,90,0,0
260008,-41.6666666666667,4,2,1,90,0,0
260092,-100,4,2,1,90,0,0
260427,-41.6666666666667,4,2,1,90,0,0
261349,-41.6666666666667,4,2,1,90,0,0
261432,-55.5555555555556,4,2,1,90,0,0
261768,-55.5555555555556,4,2,1,90,0,0
262354,-55.5555555555556,4,2,1,90,0,0
262438,-117.647058823529,4,2,1,90,0,0
263025,-117.647058823529,4,2,1,90,0,0
263108,-55.5555555555556,4,2,1,90,0,0
263611,-55.5555555555556,4,2,1,90,0,0
263695,-55.5555555555556,4,2,1,90,0,0
263779,-55.5555555555556,4,2,1,90,0,0
264449,-50,4,2,1,90,0,0
264784,-76.9230769230769,4,2,1,90,0,0
265036,-76.9230769230769,4,2,1,90,0,0
265120,-133.333333333333,4,2,1,90,0,0
265455,-133.333333333333,4,2,1,90,0,0
266963,-66.6666666666667,4,2,1,90,0,0
267770,-66.6666666666667,4,2,1,5,0,0
267770,-66.6666666666667,4,2,1,5,0,0
267770,-66.6666666666667,4,2,1,5,0,0
267770,-66.6666666666667,4,2,1,5,0,0
267770,-66.6666666666667,4,2,1,5,0,0
267770,-66.6666666666667,4,2,1,5,0,0
267770,-66.6666666666667,4,2,1,5,0,0
267770,-66.6666666666667,4,2,1,5,0,0
267770,-66.6666666666667,4,2,1,5,0,0
267770,-66.6666666666667,4,2,1,5,0,0
267770,-66.6666666666667,4,2,1,5,0,0
267770,-66.6666666666667,4,2,1,5,0,0
267770,-66.6666666666667,4,2,1,5,0,0
267770,-66.6666666666667,4,2,1,5,0,0
267801,-66.6666666666667,4,2,1,5,0,0
267854,-66.6666666666667,4,2,1,100,0,0
267854,-66.6666666666667,4,2,1,100,0,0
267854,-66.6666666666667,4,2,1,100,0,0
267854,-66.6666666666667,4,2,1,100,0,0
267854,-66.6666666666667,4,2,1,100,0,0
267854,-66.6666666666667,4,2,1,100,0,0
267854,-66.6666666666667,4,2,1,100,0,0
267854,-66.6666666666667,4,2,1,100,0,0
267854,-66.6666666666667,4,2,1,100,0,0
267854,-66.6666666666667,4,2,1,100,0,0
267854,-66.6666666666667,4,2,1,100,0,0
267854,-66.6666666666667,4,2,1,100,0,0
267854,-66.6666666666667,4,2,1,100,0,0
267854,-66.6666666666667,4,2,1,100,0,0
267896,-66.6666666666667,4,2,99,5,0,0
267896,-66.6666666666667,4,2,99,5,0,0
267896,-66.6666666666667,4,2,99,5,0,0
267896,-66.6666666666667,4,2,99,5,0,0
267896,-66.6666666666667,4,2,99,5,0,0
267896,-66.6666666666667,4,2,99,5,0,0
267896,-66.6666666666667,4,2,99,5,0,0
267896,-66.6666666666667,4,2,99,5,0,0
267896,-66.6666666666667,4,2,99,5,0,0
267896,-66.6666666666667,4,2,99,5,0,0
267896,-66.6666666666667,4,2,99,5,0,0
267896,-66.6666666666667,4,2,99,5,0,0
267896,-66.6666666666667,4,2,99,5,0,0
267896,-66.6666666666667,4,2,99,5,0,0
270483,-66.6666666666667,4,2,99,5,0,0

[Colours]
Combo1 : 172,172,172
Combo2 : 82,164,254
Combo3 : 199,159,253
Combo4 : 111,237,255
Combo5 : 106,251,189

[HitObjects]
75,119,1991,5,8,0:1:0:0:
136,296,2159,1,0,0:2:0:0:
269,163,2326,6,0,B|351:125|351:125|465:137,1,202.500007724762,6|0,3:2|0:0,0:0:0:0:
382,279,2661,2,0,L|355:217,1,45
254,324,2829,2,0,L|225:376,1,45
101,330,2997,1,8,0:2:0:0:
70,297,3080,1,0,0:0:0:0:
59,253,3164,2,0,L|6:234,1,45,0|0,0:2|0:2,0:0:0:0:
76,139,3332,2,0,L|119:127,1,45,0|0,0:2|0:2,0:0:0:0:
368,99,3499,6,0,B|343:102|311:89|311:89|255:44|176:52,1,202.500007724762,6|0,3:2|0:0,0:0:0:0:
134,323,3835,2,0,P|214:267|210:171,1,202.500007724762
352,230,4170,2,0,P|437:276|444:373,1,202.500007724762,6|0,3:2|0:0,0:0:0:0:
440,69,4505,2,0,L|342:34,1,67.5000025749208,0|0,0:2|0:0,0:0:0:0:
185,29,4673,1,0,0:2:0:0:
41,151,4840,1,0,0:2:0:0:
41,151,4924,1,0,0:2:0:0:
41,151,5008,6,0,B|50:224|50:224|72:280|72:280|87:366,1,202.500007724762,6|0,3:2|0:0,0:0:0:0:
185,193,5343,2,0,L|173:125,1,67.5000025749208,0|0,0:2|0:0,0:0:0:0:
303,255,5511,2,0,L|315:321,1,67.5000025749208,0|0,3:2|3:2,0:0:0:0:
427,341,5678,1,8,0:2:0:0:
471,309,5762,1,0,0:2:0:0:
490,258,5846,1,0,0:2:0:0:
469,207,5930,1,0,0:2:0:0:
437,164,6013,2,0,L|430:128,3,33.7500012874604,0|0|0|0,0:2|0:0|0:0|0:0,0:0:0:0:
291,73,6181,6,0,B|191:93|191:93|139:148|55:154,1,236.250002253056,6|0,3:2|0:0,0:0:0:0:
55,278,6516,1,8,0:2:0:0:
76,32,6684,1,8,0:2:0:0:
272,265,6851,5,6,3:2:0:0:
296,312,6934,1,0,0:0:0:0:
342,340,7018,1,0,0:0:0:0:
395,345,7102,1,0,0:0:0:0:
448,336,7186,1,0,0:2:0:0:
483,295,7269,1,0,0:0:0:0:
487,240,7354,2,0,L|506:158,1,45,0|0,0:2|0:2,0:0:0:0:
380,167,7522,2,0,L|391:248,1,45,0|0,0:2|0:2,0:0:0:0:
469,97,7689,6,0,P|385:47|283:99,1,202.500007724762,6|0,3:2|0:0,0:0:0:0:
69,152,8025,2,0,L|44:225,1,67.5000025749208,0|0,0:0|0:0,0:0:0:0:
139,270,8192,2,0,L|147:350,1,67.5000025749208,0|0,0:2|0:0,0:0:0:0:
325,329,8360,6,0,L|241:313,1,67.5000025749208,2|2,0:2|0:2,0:0:0:0:
179,97,8527,2,0,B|223:184|223:184|270:191|352:234,1,202.500007724762,2|0,0:2|0:2,0:0:0:0:
507,23,8863,6,0,B|428:49|340:31|340:31|317:85|244:128,1,236.250002253056,6|0,3:2|0:0,0:0:0:0:
466,384,9198,2,0,B|450:326|480:294|480:294|470:256|434:225|434:225|419:201|416:131,1,236.250002253056,0|0,0:2|0:0,0:0:0:0:
122,327,9533,2,0,B|181:329|181:329|232:366|232:366|278:329|278:329|287:262|287:262|220:202,1,310.500005922318,6|0,3:2|0:0,0:0:0:0:
171,58,9868,2,0,B|121:32|121:32|78:30|78:30|39:110|39:110|116:155|116:155|159:267,1,350.999983932496,0|0,0:2|0:0,2:0:0:0:
444,294,10203,1,0,0:2:0:0:
512,38,10371,6,0,P|447:56|380:60,1,135.000005149842,6|0,3:2|0:0,0:0:0:0:
269,108,10622,2,0,P|321:150|381:180,1,135.000005149842,0|0,0:0|0:2,0:0:0:0:
191,362,10874,6,0,B|99:351|99:351|25:303,1,180,0|0,0:2|0:2,0:0:0:0:
83,57,11125,2,0,B|135:130|135:130|144:222,1,180,0|0,0:0|0:0,0:0:0:0:
303,279,11377,1,0,0:2:0:0:
295,235,11460,1,0,0:0:0:0:
298,190,11544,1,0,0:2:0:0:
313,147,11628,1,0,0:0:0:0:
313,101,11712,6,0,B|352:35|373:11|373:11|413:41|498:27,1,180,6|0,3:2|0:0,0:0:0:0:
475,293,11963,2,0,B|491:218|492:186|492:186|442:180|390:112,1,180,6|0,3:2|0:0,0:0:0:0:
193,315,12215,2,0,P|113:358|15:296,1,215.999993408203,6|0,0:2|0:2,0:0:0:0:
48,72,12466,2,0,P|130:134|116:236,1,215.999993408203,6|0,3:2|0:2,0:0:0:0:
262,115,12717,2,0,L|294:122,1,33.7500012874604,2|0,0:2|0:2,0:0:0:0:
281,93,12801,2,0,L|432:136,1,135.000005149842,0|0,0:2|0:2,0:0:0:0:
503,220,13053,6,0,B|392:263|392:263|311:242,1,202.500007724762,6|0,3:2|0:0,0:0:0:0:
108,359,13388,2,0,L|202:387,1,67.5000025749208,0|0,0:0|0:0,0:0:0:0:
351,361,13555,2,0,L|286:342,1,67.5000025749208,0|0,0:2|0:0,0:0:0:0:
3,291,13723,6,0,B|29:265|52:263|52:263|67:228|90:208,1,107.999996704102,10|0,0:2|0:0,0:0:0:0:
29,29,13891,2,0,B|33:42|25:79|25:79|43:94|50:130,1,107.999996704102,2|0,0:2|0:0,0:0:0:0:
197,248,14058,2,0,B|223:222|246:220|246:220|261:185|284:165,1,107.999996704102,2|0,0:2|0:0,0:0:0:0:
166,17,14226,2,0,B|170:30|162:67|162:67|180:82|187:118,1,107.999996704102,2|0,0:2|0:0,0:0:0:0:
353,244,14393,6,0,B|427:268|458:369|458:369|454:251|541:97,1,404.999987640381,0|0,3:2|0:0,0:0:0:0:
401,87,14896,1,2,3:2:0:0:
410,47,14980,1,0,3:2:0:0:
440,19,15064,6,0,B|381:103|319:117|319:117|291:148|281:240,1,242.999992584229,8|0,0:2|0:0,0:0:0:0:
287,193,15399,1,0,0:2:0:0:
153,40,15567,1,0,0:2:0:0:
85,278,15734,6,0,B|65:370|118:377|118:377|169:340|238:350,1,242.999992584229,6|0,3:2|0:0,0:0:0:0:
425,290,16069,1,0,0:0:0:0:
368,35,16237,1,2,0:2:0:0:
189,148,16404,2,0,P|238:138|303:118,1,80.9999975280763,8|0,0:2|0:0,0:0:0:0:
91,50,16572,2,0,P|76:87|63:162,1,80.9999975280763,0|0,0:2|0:0,0:0:0:0:
179,266,16740,2,0,P|225:258|293:236,1,80.9999975280763,2|0,0:2|0:0,0:0:0:0:
58,273,16908,2,0,P|44:315|30:385,1,80.9999975280763,0|0,3:2|3:2,0:0:0:0:
390,357,17075,5,2,3:2:0:0:
491,156,17242,1,0,3:2:0:0:
305,19,17410,1,10,0:2:0:0:
84,129,17578,1,0,3:2:0:0:
71,175,17661,1,0,3:2:0:0:
91,219,17745,1,10,0:2:0:0:
132,244,17829,1,0,0:2:0:0:
180,238,17913,1,10,0:2:0:0:
217,206,17997,1,0,0:2:0:0:
259,184,18080,2,0,P|304:167|336:163,1,80.9999975280763,10|0,0:2|0:0,0:0:0:0:
470,288,18248,2,0,P|464:329|450:367,1,80.9999975280763,0|0,0:0|0:0,0:0:0:0:
329,359,18416,6,0,B|183:379|183:379|94:349|94:349|-13:340,1,323.999990112305,2|0,0:0|0:0,0:0:0:0:
38,207,18918,1,0,0:0:0:0:
231,277,19086,2,0,L|253:208,1,67.5000025749208,10|0,0:2|0:0,0:0:0:0:
174,62,19254,2,0,L|152:125,1,67.5000025749208,0|0,0:0|0:0,0:0:0:0:
396,260,19421,2,0,L|418:191,1,67.5000025749208,0|0,0:0|0:0,0:0:0:0:
340,47,19589,2,0,L|318:110,1,67.5000025749208,2|0,0:2|0:2,0:0:0:0:
50,226,19756,6,0,B|49:252|62:273|62:273|56:297|28:324|28:324|31:369|79:371|79:371|111:359|129:363,1,202.500007724762,6|0,3:2|0:0,0:0:0:0:
222,355,20092,2,0,L|289:363,1,67.5000025749208,0|0,0:0|0:0,0:0:0:0:
288,241,20259,1,0,3:2:0:0:
315,211,20343,1,0,3:2:0:0:
319,170,20427,2,0,B|383:129|383:129|420:82,1,135.000005149842,8|0,0:2|0:2,0:0:0:0:
430,270,20762,2,0,L|465:357,1,67.5000025749208,2|0,0:2|0:0,0:0:0:0:
288,241,20930,6,0,L|255:324,1,67.5000025749208,0|0,0:0|0:0,0:0:0:0:
59,202,21097,1,2,0:0:0:0:
24,41,21265,1,0,0:0:0:0:
165,320,21432,1,0,3:2:0:0:
175,64,21600,2,0,L|247:40,1,67.5000025749208,0|0,3:2|0:2,0:0:0:0:
385,231,21768,1,10,0:2:0:0:
165,320,21935,2,0,L|158:243,1,67.5000025749208,0|0,3:2|0:2,0:0:0:0:
100,12,22103,6,0,B|60:68|60:68|4:103,1,135.000005149842
17,190,22270,6,0,B|160:172|160:172|311:201,1,270.000010299683
478,158,22522,6,0,B|472:82|495:39|495:39|427:-13|353:75,1,270.000010299683,0|0,3:2|0:2,0:0:0:0:
355,359,22773,2,0,B|409:361|425:377|425:377|499:367,1,135.000005149842,0|0,3:2|0:2,0:0:0:0:
387,231,22941,1,0,3:2:0:0:
228,169,23108,1,10,0:2:0:0:
182,171,23192,1,2,0:0:0:0:
151,137,23276,1,2,0:0:0:0:
147,92,23360,1,2,0:0:0:0:
174,56,23444,6,0,L|339:38,1,90,2|0,3:2|0:0,0:0:0:0:
134,266,23611,2,0,L|44:279,1,90,2|0,3:2|0:0,0:0:0:0:
363,100,23779,5,6,3:2:0:0:
363,100,24114,5,0,0:0:0:0:
492,63,24282,1,0,0:0:0:0:
430,192,24449,1,0,0:0:0:0:
502,314,24617,1,0,0:0:0:0:
502,314,24701,1,0,0:0:0:0:
502,314,24784,1,0,0:0:0:0:
430,192,24952,1,0,0:0:0:0:
356,294,25120,5,0,0:0:0:0:
236,129,25287,1,0,0:0:0:0:
430,192,25455,1,0,0:0:0:0:
236,255,25622,1,0,0:0:0:0:
356,90,25790,1,0,0:0:0:0:
236,129,25958,1,0,0:0:0:0:
191,14,26125,1,0,0:0:0:0:
191,14,26460,6,0,L|113:31,1,67.5000025749208,0|0,0:0|0:0,0:0:0:0:
141,115,26796,2,0,L|63:132,1,67.5000025749208,0|0,0:0|0:0,0:0:0:0:
142,218,27131,2,0,L|207:203,1,67.5000025749208,0|0,0:0|0:0,0:0:0:0:
218,303,27466,2,0,L|283:288,1,67.5000025749208,0|0,0:0|0:0,0:0:0:0:
401,188,27801,1,0,0:0:0:0:
457,71,27969,1,0,0:0:0:0:
444,59,28053,1,0,0:0:0:0:
428,53,28136,1,0,0:0:0:0:
411,54,28220,1,0,0:0:0:0:
396,62,28304,2,0,L|409:3,1,33.7500012874604,0|0,0:0|0:0,0:0:0:0:
232,47,28472,6,0,L|268:141,1,101.250003862381,0|0,0:0|0:0,0:0:0:0:
268,141,28807,1,0,0:0:0:0:
217,300,28974,1,0,0:0:0:0:
38,228,29142,6,0,P|89:212|148:177,1,101.250003862381,0|0,0:0|0:0,0:0:0:0:
268,141,29477,1,0,0:0:0:0:
376,271,29645,1,0,0:0:0:0:
376,271,29729,1,0,0:0:0:0:
376,271,29812,1,0,0:0:0:0:
455,118,29980,1,0,0:0:0:0:
344,6,30148,1,0,0:0:0:0:
455,118,30315,1,0,0:0:0:0:
376,271,30483,5,0,0:0:0:0:
301,131,30651,1,0,0:0:0:0:
158,205,30819,1,0,0:0:0:0:
238,350,30986,1,0,0:0:0:0:
301,131,31153,1,0,0:0:0:0:
158,205,31321,1,0,0:0:0:0:
86,74,31488,1,0,0:0:0:0:
86,74,31823,6,0,L|14:51,1,67.5000025749208,0|0,0:0|0:0,0:0:0:0:
17,200,32075,1,0,0:0:0:0:
17,200,32159,2,0,L|93:157,1,67.5000025749208,0|0,0:0|0:0,0:0:0:0:
195,273,32410,1,0,0:0:0:0:
195,273,32494,2,0,L|129:253,1,67.5000025749208,0|0,0:0|0:0,0:0:0:0:
208,129,32745,1,0,0:0:0:0:
208,129,32829,2,0,L|291:92,1,67.5000025749208,0|0,0:0|0:0,0:0:0:0:
419,150,33080,1,0,0:0:0:0:
419,150,33164,5,0,0:0:0:0:
392,288,33332,1,0,0:0:0:0:
392,288,33416,1,0,0:0:0:0:
392,288,33499,1,0,0:0:0:0:
392,288,33583,1,0,0:0:0:0:
392,288,33667,1,0,0:0:0:0:
116,304,33835,5,2,0:2:0:0:
13,17,34002,2,0,L|41:68,1,33.7500012874604,2|0,2:2|0:0,0:0:0:0:
132,83,34170,2,0,L|139:50,1,33.7500012874604,2|2,0:2|0:2,0:2:0:0:
4,137,34337,2,0,L|0:170,1,33.7500012874604,2|2,0:2|0:0,0:0:0:0:
105,184,34505,6,0,P|152:181|222:182,1,90,4|0,0:0|0:2,0:0:0:0:
315,245,34840,1,8,0:2:0:0:
397,126,35008,1,0,0:2:0:0:
397,126,35092,1,0,0:2:0:0:
397,126,35175,1,0,0:2:0:0:
315,245,35343,1,0,3:2:0:0:
397,126,35511,1,8,0:2:0:0:
315,245,35678,1,0,0:2:0:0:
185,259,35846,5,0,0:2:0:0:
102,158,36013,1,0,3:2:0:0:
137,38,36181,1,8,0:2:0:0:
264,6,36349,1,0,0:2:0:0:
361,111,36516,1,0,0:2:0:0:
315,245,36684,1,0,3:2:0:0:
361,111,36851,1,8,0:2:0:0:
447,226,37019,1,0,0:2:0:0:
183,259,37187,5,0,3:2:0:0:
135,126,37354,2,0,L|107:147,1,22.5,0|0,0:2|0:0,0:0:0:0:
140,110,37438,2,0,L|112:131,1,22.5,0|0,0:2|0:0,0:0:0:0:
143,97,37522,2,0,L|251:128,1,90,8|0,0:2|0:2,0:0:0:0:
354,90,37857,2,0,P|374:182|372:239,1,135,0|0,0:2|0:2,0:0:0:0:
373,222,38192,1,8,0:2:0:0:
214,341,38360,1,0,0:2:0:0:
59,237,38527,5,0,0:2:0:0:
59,237,38695,1,0,3:2:0:0:
214,341,38863,1,8,0:2:0:0:
221,342,39031,1,0,0:2:0:0:
335,79,39198,5,0,0:2:0:0:
367,282,39365,1,0,3:2:0:0:
443,17,39533,1,8,0:2:0:0:
492,366,39701,1,0,0:2:0:0:
461,200,39868,6,0,L|504:188,1,45,10|0,0:2|0:0,0:0:0:0:
443,17,40036,1,0,3:2:0:0:
367,282,40203,2,0,L|446:306,1,45,10|0,0:2|0:0,0:0:0:0:
335,79,40371,1,0,3:2:0:0:
226,208,40539,2,0,L|301:184,1,45,10|0,0:2|0:0,0:0:0:0:
221,19,40707,1,0,3:2:0:0:
83,284,40874,2,0,L|162:308,1,45,10|0,0:2|0:0,0:0:0:0:
115,76,41041,1,0,3:2:0:0:
275,191,41209,6,0,L|343:220,1,45,10|0,0:2|0:0,0:0:0:0:
402,32,41377,2,0,L|365:58,1,45,0|0,3:2|0:0,0:0:0:0:
87,184,41544,2,0,L|155:213,1,45,10|0,0:2|0:0,0:0:0:0:
214,25,41712,2,0,L|177:51,1,45,0|0,3:2|0:0,0:0:0:0:
267,237,41879,2,0,L|311:244,1,45,10|0,0:2|0:0,0:0:0:0:
306,46,42047,2,0,L|229:33,1,45,0|0,3:2|0:0,0:0:0:0:
438,295,42215,2,0,L|473:348,1,45,10|0,0:2|0:0,0:0:0:0:
480,112,42383,2,0,L|523:66,1,45,0|0,3:2|0:0,0:0:0:0:
185,159,42550,5,8,3:2:0:0:
168,185,42634,1,0,3:2:0:0:
168,216,42717,1,0,3:2:0:0:
179,245,42801,1,0,3:2:0:0:
202,266,42885,1,8,3:2:0:0:
221,290,42969,1,0,3:2:0:0:
226,321,43053,1,0,3:2:0:0:
213,349,43136,1,0,3:2:0:0:
172,363,43220,6,0,L|158:374,4,15,8|0|0|0|0,3:2|0:0|0:0|3:2|0:0,0:0:0:0:
103,284,43388,2,0,L|82:272,4,15,0|0|0|0|0,3:2|0:0|0:0|3:2|0:0,0:0:0:0:
139,171,43555,2,0,L|136:151,4,15,8|0|0|0|0,3:2|0:0|0:0|3:2|0:0,0:0:0:0:
253,131,43723,2,0,L|260:115,4,15,0|0|0|0|0,3:2|0:0|0:0|3:2|0:0,0:0:0:0:
488,265,43891,6,0,B|445:316|428:357|428:357|345:343|322:247,1,270,0|0,3:2|0:2,0:0:0:0:
410,32,44226,2,0,P|417:89|401:177,1,130.500003982544,0|0,0:0|0:0,0:0:0:0:
115,323,44393,2,0,P|108:266|124:178,1,130.500003982544,0|0,0:2|0:2,0:0:0:0:
283,23,44561,2,0,P|290:80|274:168,1,130.500003982544,0|0,0:2|0:0,0:0:0:0:
0,325,44728,2,0,P|-7:268|9:180,1,130.500003982544,0|0,0:2|0:0,0:0:0:0:
278,155,44896,6,0,B|375:171|381:249|381:249|545:285|485:54,1,432,8|0,0:2|0:0,0:0:0:0:
77,29,45231,6,0,P|-3:113|129:41,1,472.500004506111,4|0,0:2|0:0,0:0:0:0:
77,29,45567,6,0,B|69:87|42:122|42:122|76:171|74:257,1,215.999993408203,0|0,0:2|0:2,0:0:0:0:
226,283,45818,1,0,0:2:0:0:
315,123,45902,2,0,L|211:152,1,107.999996704102,8|0,0:2|0:2,0:0:0:0:
375,232,46069,2,0,L|479:203,1,107.999996704102,0|0,0:2|0:0,0:0:0:0:
211,152,46237,1,0,0:2:0:0:
241,378,46404,1,0,0:2:0:0:
211,152,46572,6,0,B|168:90|166:13|166:13|90:14|83:112|83:112|107:166|81:242,1,391.500011947632,0|0,3:2|0:2,0:0:0:0:
260,268,46907,2,0,L|194:299,1,65.250001991272,2|2,0:2|0:2,0:0:0:0:
349,281,46991,2,0,L|318:341,1,65.250001991272,2|2,0:2|0:2,0:0:0:0:
423,240,47075,2,0,L|453:324,1,65.250001991272,2|0,3:2|0:0,0:0:0:0:
464,157,47159,2,0,L|543:228,1,65.250001991272,2|0,3:2|0:0,0:0:0:0:
493,71,47242,5,10,0:2:0:0:
418,91,47326,1,2,3:2:0:0:
344,114,47410,1,2,0:2:0:0:
273,141,47494,1,2,0:2:0:0:
203,170,47578,2,0,B|188:137|153:91|153:91|55:75|-28:6,1,261.000007965088,0|0,0:2|0:0,0:0:0:0:
77,210,47913,6,0,L|41:344,1,130.500003982544,0|0,3:2|0:2,0:0:0:0:
230,384,48080,2,0,L|196:257,1,130.500003982544,0|0,0:2|0:2,0:0:0:0:
358,133,48248,2,0,L|322:267,1,130.500003982544,0|0,0:2|0:2,0:0:0:0:
486,366,48416,5,0,0:2:0:0:
486,366,48499,1,0,0:2:0:0:
486,366,48583,2,0,L|454:240,1,130.500003982544,8|0,0:2|0:2,0:0:0:0:
357,132,48751,6,0,L|324:259,1,130.500003982544,0|0,0:2|0:0,0:0:0:0:
230,384,48918,2,0,L|196:257,1,130.500003982544,0|0,0:2|0:0,0:0:0:0:
77,210,49086,2,0,L|41:344,1,130.500003982544,0|0,3:2|0:0,0:0:0:0:
432,48,49254,6,0,B|361:23|361:23|313:0|313:0|298:72|205:100|205:100|166:54|109:62,1,391.500011947632,0|0,3:2|0:2,0:0:0:0:
206,96,49421,1,0,0:0:0:0:
196,257,49589,2,0,B|260:263|305:198|305:198|394:181|425:229|425:229|391:307|355:359,1,391.500011947632,8|0,0:2|3:2,0:0:0:0:
211,149,49924,2,0,L|240:122,6,32.625000995636,8|0|0|0|0|0|0,0:2|0:0|0:0|0:0|0:2|0:0|0:0,0:0:0:0:
360,39,50092,2,0,L|404:81,6,32.625000995636,8|0|0|0|0|0|0,0:2|0:0|0:0|0:0|0:2|0:0|0:0,0:0:0:0:
469,185,50259,2,0,L|442:229,6,32.625000995636,10|0|0|0|2|0|0,0:2|0:0|0:0|0:0|0:2|0:0|0:0,0:0:0:0:
368,342,50427,2,0,L|332:326,6,32.625000995636,2|0|0|0|2|0|0,0:2|0:0|0:0|0:0|0:2|0:0|0:0,0:0:0:0:
60,238,50594,6,0,P|31:134|275:36,1,391.500011947632,4|0,3:2|0:2,0:0:0:0:
389,366,50930,2,0,B|386:312|445:276|445:276|416:272|377:237|377:237|367:215|331:183,1,261.000007965088,0|0,0:2|0:2,0:0:0:0:
353,86,51181,1,0,0:2:0:0:
179,25,51265,2,0,L|57:69,1,130.500003982544,8|0,0:2|0:2,0:0:0:0:
0,283,51432,2,0,L|125:247,1,130.500003982544,0|0,0:2|0:0,0:0:0:0:
331,184,51600,2,0,L|207:146,1,130.500003982544,0|0,0:2|0:0,0:0:0:0:
191,329,51767,2,0,L|317:293,1,130.500003982544,0|0,0:2|0:0,0:0:0:0:
409,79,51935,6,0,B|465:36|492:-18|492:-18|497:113|464:159|464:159|562:334,1,391.500011947632,0|0,3:2|0:2,0:0:0:0:
82,235,52270,2,0,L|56:198,4,43.5000013275147,2|0|0|2|0,0:2|0:0|0:0|0:2|0:0,0:0:0:0:
128,115,52438,2,0,L|137:66,4,43.5000013275147,2|0|0|2|0,3:2|0:0|0:0|3:2|0:0,0:0:0:0:
228,178,52606,2,0,L|325:172,1,65.250001991272,10|0,0:2|0:0,0:0:0:0:
240,214,52690,2,0,L|337:208,1,65.250001991272,2|0,0:2|0:0,0:0:0:0:
256,254,52774,2,0,L|353:248,1,65.250001991272,10|10,0:2|0:2,0:0:0:0:
270,294,52858,2,0,L|367:288,1,65.250001991272,2|2,0:2|0:2,0:0:0:0:
286,333,52941,2,0,L|469:326,1,130.500003982544,2|0,0:2|0:2,0:0:0:0:
511,75,53108,2,0,L|380:79,1,130.500003982544,2|0,0:2|0:0,0:0:0:0:
49,83,53276,6,0,B|78:138|123:157|123:157|61:246|109:352,1,270.000010299683,4|8,3:2|0:2,0:0:0:0:
221,236,53779,1,0,0:2:0:0:
320,331,53946,1,0,0:2:0:0:
371,190,54113,1,0,3:2:0:0:
371,190,54156,1,2,0:0:0:0:
511,240,54281,1,8,0:2:0:0:
511,240,54323,1,2,0:0:0:0:
460,384,54449,6,0,B|403:386|403:386|388:342|314:329,1,161.999995056153,4|0,3:2|0:0,0:0:0:0:
186,239,54784,1,0,3:2:0:0:
109,104,54952,1,8,0:2:0:0:
186,239,55120,1,4,3:2:0:0:
335,173,55287,1,0,0:2:0:0:
380,17,55455,1,0,3:2:0:0:
335,173,55622,1,8,0:2:0:0:
380,17,55790,1,0,0:2:0:0:
213,350,55958,6,0,B|184:281|229:231|229:231|282:280|328:301|405:288|468:185,1,391.500011947632,4|0,3:2|0:0,0:0:0:0:
380,17,56293,1,0,0:0:0:0:
0,100,56460,2,0,L|36:166,1,65.250001991272,0|0,3:2|0:0,0:0:0:0:
130,176,56544,2,0,L|100:107,1,65.250001991272,0|0,3:2|0:0,0:0:0:0:
170,66,56628,6,0,L|312:40,1,130.500003982544,8|0,0:2|0:2,0:0:0:0:
491,113,56796,2,0,L|362:136,1,130.500003982544,0|0,0:2|0:0,0:0:0:0:
144,263,56963,2,0,B|194:279|196:371|196:371|250:279|298:303,1,261.000007965088,0|0,0:2|0:2,0:0:0:0:
459,373,57215,1,0,0:0:0:0:
390,202,57298,6,0,B|364:97|244:65|244:65|323:-4|472:94,1,432,0|0,3:2|0:2,0:0:0:0:
43,52,57634,2,0,L|-14:69,1,45,2|2,0:2|0:2,0:0:0:0:
63,136,57717,2,0,L|121:120,1,45,2|2,0:2|0:2,0:0:0:0:
82,217,57801,2,0,L|2:244,1,45,2|0,3:2|0:0,0:0:0:0:
109,297,57885,2,0,L|171:274,1,45,2|0,3:2|0:0,0:0:0:0:
207,368,57969,5,10,0:2:0:0:
306,383,58053,1,2,0:2:0:0:
342,290,58136,1,2,3:2:0:0:
268,219,58220,1,2,0:2:0:0:
178,271,58304,2,0,L|34:258,1,144,0|0,0:2|0:0,0:0:0:0:
368,212,58472,2,0,L|514:184,1,144,0|0,0:0|0:2,0:0:0:0:
500,23,58639,5,0,3:2:0:0:
259,193,58807,1,2,0:2:0:0:
45,30,58974,1,2,0:2:0:0:
0,222,59142,2,0,L|36:160,1,72,0|0,3:2|0:0,0:0:0:0:
32,313,59226,2,0,L|41:384,1,72,0|0,3:2|0:0,0:0:0:0:
134,299,59310,2,0,L|332:274,1,144,8|0,0:2|0:2,0:0:0:0:
303,79,59477,2,0,L|160:97,1,144,0|0,0:2|0:0,0:0:0:0:
371,215,59645,2,0,B|382:277|363:351|363:351|437:360|437:360|476:277|448:143,1,432,0|0,0:2|0:0,0:0:0:0:
160,97,59980,5,0,3:2:0:0:
371,215,60148,1,0,3:2:0:0:
356,0,60315,1,8,0:2:0:0:
211,241,60483,1,0,3:2:0:0:
196,296,60567,1,0,3:2:0:0:
162,341,60650,1,8,0:2:0:0:
109,364,60734,1,0,0:2:0:0:
51,364,60818,6,0,L|6:349,5,48,8|0|0|0|0|0,0:2|0:0|0:0|0:2|0:0|0:0,0:0:0:0:
35,244,60986,2,0,L|18:202,5,36,10|0|0|2|0|0,0:2|0:0|0:0|0:2|0:0|0:0,0:0:0:0:
123,161,61153,2,0,L|143:98,5,36,10|0|0|2|0|0,0:2|0:0|0:0|0:2|0:0|0:0,0:0:0:0:
211,241,61321,6,0,L|253:169,1,72,0|0,3:2|0:2,0:0:0:0:
275,307,61404,6,0,L|213:411,1,72,0|0,0:2|0:2,0:0:0:0:
328,228,61488,6,0,L|380:137,1,72,0|0,0:2|0:2,0:0:0:0:
392,294,61571,6,0,L|330:398,1,72,0|0,0:2|0:0,0:0:0:0:
446,214,61656,6,0,L|516:80,1,144,0|0,0:2|0:0,0:0:0:0:
281,114,61823,2,0,L|207:247,1,144,0|0,0:2|0:2,0:0:0:0:
473,379,61991,6,0,B|454:272|326:226|326:226|429:220|502:119,1,432,12|0,0:2|0:0,0:0:0:0:
68,151,62326,2,0,P|72:318|361:328,1,432,2|0,0:0|0:0,0:0:0:0:
365,92,62661,2,0,B|345:25|257:-18|257:-18|143:109|226:276,1,432,4|0,3:2|0:0,0:0:0:0:
436,368,62997,1,0,0:0:0:0:
499,122,63164,1,0,3:2:0:0:
58,93,63332,6,0,P|41:271|233:256,1,337.5,12|0,0:2|0:2,0:0:0:0:
252,253,63667,1,0,0:2:0:0:
279,155,63751,1,0,0:2:0:0:
326,65,63835,1,0,0:2:0:0:
419,28,63918,1,0,0:2:0:0:
488,84,64002,6,0,L|517:186,1,99.0000030212403,0|0,3:2|0:0,0:0:0:0:
424,156,64170,2,0,L|453:258,1,99.0000030212403,2|0,0:0|0:2,0:0:0:0:
354,229,64337,2,0,L|383:331,1,99.0000030212403,2|0,0:2|0:2,0:0:0:0:
279,289,64505,2,0,L|308:391,1,99.0000030212403,2|0,0:2|0:2,0:0:0:0:
129,320,64673,1,2,0:2:0:0:
73,300,64756,1,2,0:2:0:0:
25,264,64840,1,2,0:2:0:0:
2,208,64924,1,2,0:2:0:0:
4,148,65008,2,0,L|138:116,1,99.0000030212403,2|0,0:2|0:2,0:0:0:0:
278,288,65175,2,0,L|147:335,1,99.0000030212403,2|0,0:2|0:2,0:0:0:0:
190,57,65343,6,0,B|376:72|388:286,1,270.000010299683,4|0,3:2|0:0,0:0:0:0:
69,382,65594,2,0,P|102:257|220:194,1,270.000010299683,6|0,0:0|0:2,0:0:0:0:
491,254,65846,2,0,P|394:339|278:288,1,270.000010299683,4|0,3:2|0:2,0:0:0:0:
149,25,66097,2,0,B|306:21|352:84|352:84|351:161|387:238,1,360,4|0,3:2|0:0,0:0:0:0:
154,332,66349,5,8,0:2:0:0:
351,79,66516,1,2,0:2:0:0:
486,251,66684,6,0,P|398:321|271:283,1,242.999992584229,12|0,3:2|0:0,0:0:0:0:
