osu file format v14

[General]
AudioFilename: audio.mp3
AudioLeadIn: 0
PreviewTime: 177917
Countdown: 0
SampleSet: Soft
StackLeniency: 0.7
Mode: 3
LetterboxInBreaks: 0
SpecialStyle: 0
WidescreenStoryboard: 1

[Editor]
DistanceSpacing: 0.8
BeatDivisor: 8
GridSize: 16
TimelineZoom: 2.1

[Metadata]
Title:Bassdrop Freaks (2018 "Redrop" ver.)
TitleUnicode:べィスドロップ・フリークス (2018 "Redrop" ver.)
Artist:Camellia feat. Nanahira
ArtistUnicode:かめりあ feat. ななひら
Creator:PianoLuigi
Version:Re-Drop!
Source:beatmania IIDX 22 PENDUAL
Tags:Galaxy Burst dnb drum and bass drumstep
BeatmapID:1587042
BeatmapSetID:753845

[Difficulty]
HPDrainRate:8.5
CircleSize:4
OverallDifficulty:8.5
ApproachRate:5
SliderMultiplier:1.4
SliderTickRate:1

[Events]
//Background and Video events
0,0,"bg.jpg",0,0
//Break Periods
//Storyboard Layer 0 (Background)
//Storyboard Layer 1 (Fail)
//Storyboard Layer 2 (Pass)
//Storyboard Layer 3 (Foreground)
//Storyboard Sound Samples

[TimingPoints]
1039,335.195530726257,4,2,1,75,1,0
2378,-66.6666666666667,4,2,1,75,0,0
2379,335.195530726257,4,2,1,75,1,0
2504,-100,4,2,1,75,0,0
3049,-52.6315789473684,4,2,1,75,0,0
3070,-1000,4,2,1,75,0,0
3091,-52.6315789473684,4,2,1,75,0,0
3112,-1000,4,2,1,75,0,0
3132,-52.6315789473684,4,2,1,75,0,0
3153,-1000,4,2,1,75,0,0
3174,-52.6315789473684,4,2,1,75,0,0
3195,-1000,4,2,1,75,0,0
3216,-52.6315789473684,4,2,1,75,0,0
3237,-1000,4,2,1,75,0,0
3258,-52.6315789473684,4,2,1,75,0,0
3279,-1000,4,2,1,75,0,0
3300,-52.6315789473684,4,2,1,75,0,0
3321,-1000,4,2,1,75,0,0
3342,-52.6315789473684,4,2,1,75,0,0
3363,-1000,4,2,1,75,0,0
3384,-100,4,2,1,75,0,0
3551,-66.6666666666667,4,2,1,75,0,0
3677,-100,4,2,1,75,0,0
4222,-66.6666666666667,4,2,1,75,0,0
4348,-100,4,2,1,75,0,0
4892,-52.6315789473684,4,2,1,75,0,0
4934,-1000,4,2,1,75,0,0
4976,-52.6315789473684,4,2,1,75,0,0
5018,-1000,4,2,1,75,0,0
5060,-50,4,2,1,75,0,0
5186,-100,4,2,1,75,0,0
6233,-66.6666666666667,4,2,1,75,0,0
6359,-100,4,2,1,75,0,0
6903,-66.6666666666667,4,2,1,75,0,0
7071,-100,4,2,1,75,0,0
7741,-66.6666666666667,4,2,1,75,0,0
7867,-100,4,2,1,75,0,0
8412,-52.6315789473684,4,2,1,75,0,0
8454,-1000,4,2,1,75,0,0
8496,-52.6315789473684,4,2,1,75,0,0
8538,-1000,4,2,1,75,0,0
8579,-52.6315789473684,4,2,1,75,0,0
8621,-1000,4,2,1,75,0,0
8663,-52.6315789473684,4,2,1,75,0,0
8705,-1000,4,2,1,75,0,0
8747,-100,4,2,1,75,0,0
8915,-66.6666666666667,4,2,1,75,0,0
9040,-100,4,2,1,75,0,0
9585,-66.6666666666667,4,2,1,75,0,0
9711,-100,4,2,1,75,0,0
10591,-52.6315789473684,4,2,1,75,0,0
10612,-1000,4,2,1,75,0,0
10632,-52.6315789473684,4,2,1,75,0,0
10653,-1000,4,2,1,75,0,0
10674,-52.6315789473684,4,2,1,75,0,0
10695,-1000,4,2,1,75,0,0
10716,-52.6315789473684,4,2,1,75,0,0
10737,-1000,4,2,1,75,0,0
10758,-52.6315789473684,4,2,1,75,0,0
10779,-1000,4,2,1,75,0,0
10800,-52.6315789473684,4,2,1,75,0,0
10821,-1000,4,2,1,75,0,0
10842,-52.6315789473684,4,2,1,75,0,0
10863,-1000,4,2,1,75,0,0
10884,-52.6315789473684,4,2,1,75,0,0
10905,-1000,4,2,1,75,0,0
10926,-52.6315789473684,4,2,1,75,0,0
10947,-1000,4,2,1,75,0,0
10968,-52.6315789473684,4,2,1,75,0,0
10989,-1000,4,2,1,75,0,0
11010,-52.6315789473684,4,2,1,75,0,0
11031,-1000,4,2,1,75,0,0
11051,-52.6315789473684,4,2,1,75,0,0
11072,-1000,4,2,1,75,0,0
11093,-52.6315789473684,4,2,1,75,0,0
11114,-1000,4,2,1,75,0,0
11135,-52.6315789473684,4,2,1,75,0,0
11156,-1000,4,2,1,75,0,0
11177,-52.6315789473684,4,2,1,75,0,0
11198,-1000,4,2,1,75,0,0
11219,-52.6315789473684,4,2,1,75,0,0
11240,-1000,4,2,1,75,0,0
11261,-100,4,2,1,75,0,0
11764,-66.6666666666667,4,2,1,75,0,0
11889,-200,4,2,1,75,0,0
12015,-66.6666666666667,4,2,1,75,0,0
12141,-200,4,2,1,75,0,0
12267,-66.6666666666667,4,2,1,75,0,0
12392,-200,4,2,1,75,0,0
12518,-66.6666666666667,4,2,1,75,0,0
12644,-200,4,2,1,75,0,0
12769,-100,4,2,1,75,0,0
13105,-66.6666666666667,4,2,1,75,0,0
13230,-100,4,2,1,75,0,0
13775,-66.6666666666667,4,2,1,75,0,0
13817,-200,4,2,1,75,0,0
13901,-66.6666666666667,4,2,1,75,0,0
13984,-200,4,2,1,75,0,0
14068,-66.6666666666667,4,2,1,75,0,0
14152,-100,4,2,1,75,0,0
14445,-66.6666666666667,4,2,1,75,0,0
14529,-100,4,2,1,75,0,0
15451,-52.6315789473684,4,2,1,75,0,0
15493,-1000,4,2,1,75,0,0
15535,-52.6315789473684,4,2,1,75,0,0
15577,-1000,4,2,1,75,0,0
15619,-52.6315789473684,4,2,1,75,0,0
15660,-1000,4,2,1,75,0,0
15702,-52.6315789473684,4,2,1,75,0,0
15744,-1000,4,2,1,75,0,0
15786,-66.6666666666667,4,2,1,75,0,0
15912,-100,4,2,1,75,0,0
16456,-66.6666666666667,4,2,1,75,0,0
16498,-200,4,2,1,75,0,0
16582,-66.6666666666667,4,2,1,75,0,0
16666,-200,4,2,1,75,0,0
16750,-66.6666666666667,4,2,1,75,0,0
16834,-100,4,2,1,75,0,0
17043,-52.6315789473684,4,2,1,75,0,0
17085,-1000,4,2,1,75,0,0
17127,-62.5,4,2,1,75,0,0
17169,-200,4,2,1,75,0,0
17253,-62.5,4,2,1,75,0,0
17336,-200,4,2,1,75,0,0
17420,-62.5,4,2,1,75,0,0
17504,-200,4,2,1,75,0,0
17588,-62.5,4,2,1,75,0,0
17630,-200,4,2,1,75,0,0
17672,-62.5,4,2,1,75,0,0
17713,-200,4,2,1,75,0,0
17755,-62.5,4,2,1,75,0,0
17797,-200,4,2,1,75,0,0
17839,-62.5,4,2,1,75,0,0
17923,-200,4,2,1,75,0,0
18007,-62.5,4,2,1,75,0,0
18091,-200,4,2,1,75,0,0
18174,-100,4,2,1,75,0,0
18468,-66.6666666666667,4,2,1,75,0,0
18593,-100,4,2,1,75,0,0
19138,-52.6315789473684,4,2,1,75,0,0
19159,-1000,4,2,1,75,0,0
19180,-52.6315789473684,4,2,1,75,0,0
19201,-1000,4,2,1,75,0,0
19222,-52.6315789473684,4,2,1,75,0,0
19243,-1000,4,2,1,75,0,0
19264,-52.6315789473684,4,2,1,75,0,0
19285,-1000,4,2,1,75,0,0
19306,-100,4,2,1,75,0,0
19808,-66.6666666666667,4,2,1,75,0,0
19934,-100,4,2,1,75,0,0
21149,-76.9230769230769,4,2,1,75,0,0
21191,-86.9565217391305,4,2,1,75,0,0
21233,-100,4,2,1,75,0,0
21568,-52.6315789473684,4,2,1,75,0,0
21610,-1000,4,2,1,75,0,0
21652,-66.6666666666667,4,2,1,75,0,0
21694,-200,4,2,1,75,0,0
21778,-66.6666666666667,4,2,1,75,0,0
21862,-100,4,2,1,75,0,0
22155,-66.6666666666667,4,2,1,75,0,0
22197,-200,4,2,1,75,0,0
22281,-66.6666666666667,4,2,1,75,0,0
22385,-200,4,2,1,75,0,0
22511,-66.6666666666667,4,2,1,75,0,0
22637,-200,4,2,1,75,0,0
22762,-66.6666666666667,4,2,1,75,0,0
22867,-200,4,2,1,75,0,0
22951,-66.6666666666667,4,2,1,75,0,0
22993,-100,4,2,1,75,0,0
23831,-66.6666666666667,4,2,1,75,0,0
23956,-125,4,2,1,75,0,0
26177,-90.9090909090909,4,2,1,75,0,0
26303,-125,4,2,1,75,0,0
26512,-90.9090909090909,4,2,1,75,0,0
26638,-125,4,2,1,75,0,0
28524,-90.9090909090909,4,2,1,75,0,0
28649,-125,4,2,1,75,0,0
28859,-90.9090909090909,4,2,1,75,0,0
28984,-125,4,2,1,75,0,0
29194,-90.9090909090909,4,2,1,75,0,0
29320,-125,4,2,1,75,0,0
29529,-111.111111111111,4,2,1,75,0,0
31540,-90.9090909090909,4,2,1,75,0,0
31666,-125,4,2,1,75,0,0
31875,-90.9090909090909,4,2,1,75,0,0
32001,-125,4,2,1,75,0,0
32211,-105.263157894737,4,2,1,75,0,0
34054,-52.6315789473684,4,2,1,75,0,0
34096,-1000,4,2,1,75,0,0
34138,-52.6315789473684,4,2,1,75,0,0
34180,-1000,4,2,1,75,0,0
34222,-52.6315789473684,4,2,1,75,0,0
34264,-1000,4,2,1,75,0,0
34306,-52.6315789473684,4,2,1,75,0,0
34348,-1000,4,2,1,75,0,0
34389,-52.6315789473684,4,2,1,75,0,0
34431,-1000,4,2,1,75,0,0
34473,-52.6315789473684,4,2,1,75,0,0
34515,-1000,4,2,1,75,0,0
34557,-100,4,2,1,75,0,0
39920,-71.4285714285714,4,2,1,75,0,0
40002,-166.666666666667,4,2,1,75,0,0
40088,-100,4,2,1,75,0,0
40255,-71.4285714285714,4,2,1,75,0,0
40337,-166.666666666667,4,2,1,75,0,0
40423,-100,4,2,1,75,0,0
40591,-71.4285714285714,4,2,1,75,0,0
40672,-166.666666666667,4,2,1,75,0,0
40758,-100,4,2,1,75,0,0
40926,-71.4285714285714,4,2,1,75,0,0
41008,-166.666666666667,4,2,1,75,0,0
41093,-100,4,2,1,75,0,0
41261,-71.4285714285714,4,2,1,75,0,0
41343,-166.666666666667,4,2,1,75,0,0
41429,-100,4,2,1,75,0,0
41596,-71.4285714285714,4,2,1,75,0,0
41678,-166.666666666667,4,2,1,75,0,0
41764,-100,4,2,1,75,0,0
41931,-71.4285714285714,4,2,1,75,0,0
42013,-166.666666666667,4,2,1,75,0,0
42099,-100,4,2,1,75,0,0
42267,-71.4285714285714,4,2,1,75,0,0
42348,-166.666666666667,4,2,1,75,0,0
42434,-100,4,2,1,75,0,0
42602,-52.6315789473684,4,2,1,75,0,0
42644,-1000,4,2,1,75,0,0
42686,-52.6315789473684,4,2,1,75,0,0
42727,-1000,4,2,1,75,0,0
42769,-52.6315789473684,4,2,1,75,0,0
42811,-1000,4,2,1,75,0,0
42853,-52.6315789473684,4,2,1,75,0,0
42895,-1000,4,2,1,75,0,0
42937,-52.6315789473684,4,2,1,75,0,0
42979,-1000,4,2,1,75,0,0
43021,-52.6315789473684,4,2,1,75,0,0
43063,-1000,4,2,1,75,0,0
43105,-52.6315789473684,4,2,1,75,0,0
43146,-1000,4,2,1,75,0,0
43188,-52.6315789473684,4,2,1,75,0,0
43230,-1000,4,2,1,75,0,0
43272,-52.6315789473684,4,2,1,75,0,0
43314,-1000,4,2,1,75,0,0
43356,-52.6315789473684,4,2,1,75,0,0
43398,-1000,4,2,1,75,0,0
43440,-52.6315789473684,4,2,1,75,0,0
43482,-1000,4,2,1,75,0,0
43524,-52.6315789473684,4,2,1,75,0,0
43565,-1000,4,2,1,75,0,0
43607,-52.6315789473684,4,2,1,75,0,0
43649,-1000,4,2,1,75,0,0
43691,-52.6315789473684,4,2,1,75,0,0
43733,-1000,4,2,1,75,0,0
43775,-52.6315789473684,4,2,1,75,0,0
43817,-1000,4,2,1,75,0,0
43859,-52.6315789473684,4,2,1,75,0,0
43901,-1000,4,2,1,75,0,0
43943,-20,4,2,1,75,0,0
44613,-2000,4,2,1,75,0,0
44906,-40,4,2,1,75,0,0
44990,-200,4,2,1,75,0,0
45200,-62.5,4,2,1,75,0,0
45284,-62.5,4,2,1,75,0,1
45367,-200,4,2,1,75,0,1
45535,-50,4,2,1,75,0,1
45619,-100,4,2,1,75,0,1
45786,-52.6315789473684,4,2,1,75,0,1
45828,-1000,4,2,1,75,0,1
45870,-52.6315789473684,4,2,1,75,0,1
45912,-1000,4,2,1,75,0,1
45954,-100,4,2,1,75,0,1
46624,-52.6315789473684,4,2,1,75,0,1
46645,-1000,4,2,1,75,0,1
46666,-52.6315789473684,4,2,1,75,0,1
46687,-1000,4,2,1,75,0,1
46708,-52.6315789473684,4,2,1,75,0,1
46729,-1000,4,2,1,75,0,1
46750,-52.6315789473684,4,2,1,75,0,1
46771,-1000,4,2,1,75,0,1
46792,-100,4,2,1,75,0,1
46959,-52.6315789473684,4,2,1,75,0,1
46980,-1000,4,2,1,75,0,1
47001,-52.6315789473684,4,2,1,75,0,1
47022,-1000,4,2,1,75,0,1
47043,-52.6315789473684,4,2,1,75,0,1
47064,-1000,4,2,1,75,0,1
47085,-52.6315789473684,4,2,1,75,0,1
47106,-1000,4,2,1,75,0,1
47127,-52.6315789473684,4,2,1,75,0,1
47148,-1000,4,2,1,75,0,1
47169,-52.6315789473684,4,2,1,75,0,1
47190,-1000,4,2,1,75,0,1
47211,-52.6315789473684,4,2,1,75,0,1
47232,-1000,4,2,1,75,0,1
47253,-52.6315789473684,4,2,1,75,0,1
47274,-1000,4,2,1,75,0,1
47294,-52.6315789473684,4,2,1,75,0,1
47336,-1000,4,2,1,75,0,1
47378,-52.6315789473684,4,2,1,75,0,1
47420,-1000,4,2,1,75,0,1
47462,-52.6315789473684,4,2,1,75,0,1
47504,-1000,4,2,1,75,0,1
47546,-52.6315789473684,4,2,1,75,0,1
47588,-1000,4,2,1,75,0,1
47630,-66.6666666666667,4,2,1,75,0,1
47672,-100,4,2,1,75,0,1
47965,-66.6666666666667,4,2,1,75,0,1
48049,-200,4,2,1,75,0,1
48132,-66.6666666666667,4,2,1,75,0,1
48216,-200,4,2,1,75,0,1
48300,-66.6666666666667,4,2,1,75,0,1
48384,-200,4,2,1,75,0,1
48468,-100,4,2,1,75,0,1
49306,-62.5,4,2,1,75,0,1
49348,-200,4,2,1,75,0,1
49432,-62.5,4,2,1,75,0,1
49515,-200,4,2,1,75,0,1
49599,-62.5,4,2,1,75,0,1
49683,-200,4,2,1,75,0,1
49767,-62.5,4,2,1,75,0,1
49809,-200,4,2,1,75,0,1
49851,-62.5,4,2,1,75,0,1
49892,-200,4,2,1,75,0,1
49934,-62.5,4,2,1,75,0,1
49976,-200,4,2,1,75,0,1
50018,-62.5,4,2,1,75,0,1
50102,-200,4,2,1,75,0,1
50186,-62.5,4,2,1,75,0,1
50270,-200,4,2,1,75,0,1
50353,-62.5,4,2,1,75,0,1
50437,-200,4,2,1,75,0,1
50563,-66.6666666666667,4,2,1,75,0,1
50730,-200,4,2,1,75,0,1
50898,-66.6666666666667,4,2,1,75,0,1
50982,-100,4,2,1,75,0,1
51149,-52.6315789473684,4,2,1,75,0,1
51191,-1000,4,2,1,75,0,1
51233,-52.6315789473684,4,2,1,75,0,1
51275,-1000,4,2,1,75,0,1
51317,-100,4,2,1,75,0,1
51987,-52.6315789473684,4,2,1,75,0,1
52008,-1000,4,2,1,75,0,1
52029,-52.6315789473684,4,2,1,75,0,1
52050,-1000,4,2,1,75,0,1
52071,-52.6315789473684,4,2,1,75,0,1
52092,-1000,4,2,1,75,0,1
52113,-52.6315789473684,4,2,1,75,0,1
52134,-1000,4,2,1,75,0,1
52155,-100,4,2,1,75,0,1
52322,-52.6315789473684,4,2,1,75,0,1
52343,-1000,4,2,1,75,0,1
52364,-52.6315789473684,4,2,1,75,0,1
52385,-1000,4,2,1,75,0,1
52406,-52.6315789473684,4,2,1,75,0,1
52427,-1000,4,2,1,75,0,1
52448,-52.6315789473684,4,2,1,75,0,1
52469,-1000,4,2,1,75,0,1
52490,-52.6315789473684,4,2,1,75,0,1
52511,-1000,4,2,1,75,0,1
52532,-52.6315789473684,4,2,1,75,0,1
52553,-1000,4,2,1,75,0,1
52574,-52.6315789473684,4,2,1,75,0,1
52595,-1000,4,2,1,75,0,1
52616,-52.6315789473684,4,2,1,75,0,1
52637,-1000,4,2,1,75,0,1
52657,-52.6315789473684,4,2,1,75,0,1
52699,-1000,4,2,1,75,0,1
52741,-52.6315789473684,4,2,1,75,0,1
52783,-1000,4,2,1,75,0,1
52825,-52.6315789473684,4,2,1,75,0,1
52867,-1000,4,2,1,75,0,1
52909,-52.6315789473684,4,2,1,75,0,1
52951,-1000,4,2,1,75,0,1
52993,-66.6666666666667,4,2,1,75,0,1
53035,-100,4,2,1,75,0,1
53328,-83.3333333333333,4,2,1,75,0,1
53412,-100,4,2,1,75,0,1
54501,-83.3333333333333,4,2,1,75,0,1
54585,-100,4,2,1,75,0,1
55172,-83.3333333333333,4,2,1,75,0,1
55255,-100,4,2,1,75,0,1
56010,-62.5,4,2,1,75,0,1
56094,-200,4,2,1,75,0,1
56262,-50,4,2,1,75,0,1
56346,-100,4,2,1,75,0,1
56513,-52.6315789473684,4,2,1,75,0,1
56555,-1000,4,2,1,75,0,1
56597,-52.6315789473684,4,2,1,75,0,1
56639,-1000,4,2,1,75,0,1
56681,-100,4,2,1,75,0,1
57351,-52.6315789473684,4,2,1,75,0,1
57372,-1000,4,2,1,75,0,1
57393,-52.6315789473684,4,2,1,75,0,1
57414,-1000,4,2,1,75,0,1
57435,-52.6315789473684,4,2,1,75,0,1
57456,-1000,4,2,1,75,0,1
57477,-52.6315789473684,4,2,1,75,0,1
57498,-1000,4,2,1,75,0,1
57519,-100,4,2,1,75,0,1
57686,-52.6315789473684,4,2,1,75,0,1
57707,-1000,4,2,1,75,0,1
57728,-52.6315789473684,4,2,1,75,0,1
57749,-1000,4,2,1,75,0,1
57770,-52.6315789473684,4,2,1,75,0,1
57791,-1000,4,2,1,75,0,1
57812,-52.6315789473684,4,2,1,75,0,1
57833,-1000,4,2,1,75,0,1
57854,-52.6315789473684,4,2,1,75,0,1
57875,-1000,4,2,1,75,0,1
57896,-52.6315789473684,4,2,1,75,0,1
57917,-1000,4,2,1,75,0,1
57938,-52.6315789473684,4,2,1,75,0,1
57959,-1000,4,2,1,75,0,1
57980,-52.6315789473684,4,2,1,75,0,1
58001,-1000,4,2,1,75,0,1
58021,-52.6315789473684,4,2,1,75,0,1
58063,-1000,4,2,1,75,0,1
58105,-52.6315789473684,4,2,1,75,0,1
58147,-1000,4,2,1,75,0,1
58189,-52.6315789473684,4,2,1,75,0,1
58231,-1000,4,2,1,75,0,1
58273,-52.6315789473684,4,2,1,75,0,1
58315,-1000,4,2,1,75,0,1
58357,-66.6666666666667,4,2,1,75,0,1
58399,-100,4,2,1,75,0,1
58692,-66.6666666666667,4,2,1,75,0,1
58776,-200,4,2,1,75,0,1
58859,-66.6666666666667,4,2,1,75,0,1
58943,-200,4,2,1,75,0,1
59027,-66.6666666666667,4,2,1,75,0,1
59111,-200,4,2,1,75,0,1
59195,-100,4,2,1,75,0,1
60033,-62.5,4,2,1,75,0,1
60075,-200,4,2,1,75,0,1
60159,-62.5,4,2,1,75,0,1
60242,-200,4,2,1,75,0,1
60326,-62.5,4,2,1,75,0,1
60410,-200,4,2,1,75,0,1
60494,-62.5,4,2,1,75,0,1
60536,-200,4,2,1,75,0,1
60578,-62.5,4,2,1,75,0,1
60619,-200,4,2,1,75,0,1
60661,-62.5,4,2,1,75,0,1
60703,-200,4,2,1,75,0,1
60745,-62.5,4,2,1,75,0,1
60829,-200,4,2,1,75,0,1
60913,-62.5,4,2,1,75,0,1
60997,-200,4,2,1,75,0,1
61080,-62.5,4,2,1,75,0,1
61163,-200,4,2,1,75,0,1
61247,-100,4,2,1,75,0,1
61373,-52.6315789473684,4,2,1,75,0,1
61394,-1000,4,2,1,75,0,1
61415,-52.6315789473684,4,2,1,75,0,1
61436,-1000,4,2,1,75,0,1
61456,-52.6315789473684,4,2,1,75,0,1
61477,-1000,4,2,1,75,0,1
61498,-52.6315789473684,4,2,1,75,0,1
61519,-1000,4,2,1,75,0,1
61540,-52.6315789473684,4,2,1,75,0,1
61561,-1000,4,2,1,75,0,1
61582,-52.6315789473684,4,2,1,75,0,1
61603,-1000,4,2,1,75,0,1
61624,-52.6315789473684,4,2,1,75,0,1
61645,-1000,4,2,1,75,0,1
61666,-52.6315789473684,4,2,1,75,0,1
61687,-1000,4,2,1,75,0,1
61708,-100,4,2,1,75,0,1
62043,-62.5,4,2,1,75,0,1
62127,-200,4,2,1,75,0,1
62294,-66.6666666666667,4,2,1,75,0,1
62420,-100,4,2,1,75,0,1
62713,-52.6315789473684,4,2,1,75,0,1
62755,-1000,4,2,1,75,0,1
62797,-52.6315789473684,4,2,1,75,0,1
62839,-1000,4,2,1,75,0,1
62881,-52.6315789473684,4,2,1,75,0,1
62923,-1000,4,2,1,75,0,1
62965,-52.6315789473684,4,2,1,75,0,1
63007,-1000,4,2,1,75,0,1
63049,-100,4,2,1,75,0,1
63216,-52.6315789473684,4,2,1,75,0,1
63258,-1000,4,2,1,75,0,1
63300,-52.6315789473684,4,2,1,75,0,1
63342,-1000,4,2,1,75,0,1
63384,-105.263157894737,4,2,1,75,0,1
64054,-103.092783505155,4,2,1,75,0,0
64222,-101.010101010101,4,2,1,75,0,0
64389,-99.009900990099,4,2,1,75,0,0
64557,-97.0873786407767,4,2,1,75,0,0
64725,-95.2380952380952,4,2,1,75,0,0
64892,-93.4579439252337,4,2,1,75,0,0
65060,-100,4,2,1,75,0,0
65227,-90.0900900900901,4,2,1,75,0,0
65395,-62.5,4,2,1,75,0,0
65479,-200,4,2,1,75,0,0
65563,-66.6666666666667,4,2,1,75,0,0
65730,-200,4,2,1,75,0,0
65814,-66.6666666666667,4,2,1,75,0,0
65982,-200,4,2,1,75,0,0
66065,-66.6666666666667,4,2,1,75,0,0
66233,-100,4,2,1,75,0,0
66736,-66.6666666666667,4,2,1,75,0,0
66862,-100,4,2,1,75,0,0
67406,-66.6666666666667,4,2,1,75,0,0
67448,-200,4,2,1,75,0,0
67532,-66.6666666666667,4,2,1,75,0,0
67616,-200,4,2,1,75,0,0
67700,-66.6666666666667,4,2,1,75,0,0
67783,-200,4,2,1,75,0,0
67867,-66.6666666666667,4,2,1,75,0,0
67909,-100,4,2,1,75,0,0
68077,-66.6666666666667,4,2,1,75,0,0
68160,-100,4,2,1,75,0,0
69417,-66.6666666666667,4,2,1,75,0,0
69543,-100,4,2,1,75,0,0
70760,-52.6315789473684,4,2,1,75,0,0
70802,-1000,4,2,1,75,0,0
70844,-62.5,4,2,1,75,0,0
70886,-200,4,2,1,75,0,0
70970,-62.5,4,2,1,75,0,0
71053,-200,4,2,1,75,0,0
71137,-62.5,4,2,1,75,0,0
71221,-200,4,2,1,75,0,0
71305,-62.5,4,2,1,75,0,0
71347,-200,4,2,1,75,0,0
71389,-62.5,4,2,1,75,0,0
71430,-200,4,2,1,75,0,0
71472,-62.5,4,2,1,75,0,0
71514,-200,4,2,1,75,0,0
71556,-62.5,4,2,1,75,0,0
71640,-200,4,2,1,75,0,0
71724,-62.5,4,2,1,75,0,0
71808,-200,4,2,1,75,0,0
71891,-100,4,2,1,75,0,0
72099,-66.6666666666667,4,2,1,75,0,0
72225,-100,4,2,1,75,0,0
72769,-66.6666666666667,4,2,1,75,0,0
72853,-100,4,2,1,75,0,0
73440,-66.6666666666667,4,2,1,75,0,0
73524,-100,4,2,1,75,0,0
74781,-86.9565217391305,4,2,1,75,0,0
74823,-100,4,2,1,75,0,0
74948,-86.9565217391305,4,2,1,75,0,0
74990,-100,4,2,1,75,0,0
75116,-66.6666666666667,4,2,1,75,0,0
75200,-100,4,2,1,75,0,0
75451,-86.9565217391305,4,2,1,75,0,0
75493,-100,4,2,1,75,0,0
75619,-86.9565217391305,4,2,1,75,0,0
75661,-100,4,2,1,75,0,0
76624,-52.6315789473684,4,2,1,75,0,0
76666,-1000,4,2,1,75,0,0
76708,-52.6315789473684,4,2,1,75,0,0
76750,-1000,4,2,1,75,0,0
76792,-52.6315789473684,4,2,1,75,0,0
76834,-1000,4,2,1,75,0,0
76875,-52.6315789473684,4,2,1,75,0,0
76917,-1000,4,2,1,75,0,0
76959,-100,4,2,1,75,0,0
78132,-52.6315789473684,4,2,1,75,0,0
78153,-1000,4,2,1,75,0,0
78174,-52.6315789473684,4,2,1,75,0,0
78195,-1000,4,2,1,75,0,0
78216,-52.6315789473684,4,2,1,75,0,0
78237,-1000,4,2,1,75,0,0
78258,-52.6315789473684,4,2,1,75,0,0
78279,-1000,4,2,1,75,0,0
78300,-52.6315789473684,4,2,1,75,0,0
78321,-1000,4,2,1,75,0,0
78342,-52.6315789473684,4,2,1,75,0,0
78363,-1000,4,2,1,75,0,0
78384,-52.6315789473684,4,2,1,75,0,0
78405,-1000,4,2,1,75,0,0
78426,-52.6315789473684,4,2,1,75,0,0
78447,-1000,4,2,1,75,0,0
78468,-100,4,2,1,75,0,0
79808,-52.6315789473684,4,2,1,75,0,0
79850,-1000,4,2,1,75,0,0
79892,-52.6315789473684,4,2,1,75,0,0
79934,-1000,4,2,1,75,0,0
79976,-52.6315789473684,4,2,1,75,0,0
80018,-1000,4,2,1,75,0,0
80060,-52.6315789473684,4,2,1,75,0,0
80102,-1000,4,2,1,75,0,0
80144,-100,4,2,1,75,0,0
80646,-71.4285714285714,4,2,1,75,0,0
80688,-166.666666666667,4,2,1,75,0,0
80730,-71.4285714285714,4,2,1,75,0,0
80772,-166.666666666667,4,2,1,75,0,0
80814,-71.4285714285714,4,2,1,75,0,0
80856,-166.666666666667,4,2,1,75,0,0
80898,-100,4,2,1,75,0,0
82490,-62.5,4,2,1,75,0,0
82532,-250,4,2,1,75,0,0
82574,-62.5,4,2,1,75,0,0
82616,-250,4,2,1,75,0,0
82658,-62.5,4,2,1,75,0,0
82700,-250,4,2,1,75,0,0
82741,-62.5,4,2,1,75,0,0
82783,-250,4,2,1,75,0,0
82825,-100,4,2,1,75,0,0
83496,-52.6315789473684,4,2,1,75,0,0
83517,-1000,4,2,1,75,0,0
83538,-52.6315789473684,4,2,1,75,0,0
83558,-1000,4,2,1,75,0,0
83579,-55.5555555555556,4,2,1,75,0,0
83600,-500,4,2,1,75,0,0
83621,-55.5555555555556,4,2,1,75,0,0
83642,-500,4,2,1,75,0,0
83663,-62.5,4,2,1,75,0,0
83684,-250,4,2,1,75,0,0
83705,-62.5,4,2,1,75,0,0
83726,-250,4,2,1,75,0,0
83747,-71.4285714285714,4,2,1,75,0,0
83768,-166.666666666667,4,2,1,75,0,0
83789,-71.4285714285714,4,2,1,75,0,0
83810,-166.666666666667,4,2,1,75,0,0
83831,-100,4,2,1,75,0,0
85172,-66.6666666666667,4,2,1,75,0,0
85213,-200,4,2,1,75,0,0
85255,-66.6666666666667,4,2,1,75,0,0
85297,-200,4,2,1,75,0,0
85339,-66.6666666666667,4,2,1,75,0,0
85381,-200,4,2,1,75,0,0
85423,-66.6666666666667,4,2,1,75,0,0
85465,-200,4,2,1,75,0,0
85507,-52.6315789473684,4,2,1,75,0,0
85549,-1000,4,2,1,75,0,0
85591,-52.6315789473684,4,2,1,75,0,0
85632,-1000,4,2,1,75,0,0
85674,-100,4,2,1,75,0,0
85926,-52.6315789473684,4,2,1,75,0,0
85968,-1000,4,2,1,75,0,0
86010,-100,4,2,1,75,0,0
86512,-52.6315789473684,4,2,1,75,0,0
86554,-1000,4,2,1,75,0,0
86596,-52.6315789473684,4,2,1,75,0,0
86638,-1000,4,2,1,75,0,0
86680,-52.6315789473684,4,2,1,75,0,0
86722,-1000,4,2,1,75,0,0
86764,-100,4,2,1,75,0,0
88859,-52.6315789473684,4,2,1,75,0,0
88901,-1000,4,2,1,75,0,0
88943,-52.6315789473684,4,2,1,75,0,0
88984,-1000,4,2,1,75,0,0
89026,-52.6315789473684,4,2,1,75,0,0
89068,-1000,4,2,1,75,0,0
89110,-52.6315789473684,4,2,1,75,0,0
89152,-1000,4,2,1,75,0,0
89194,-100,4,2,1,75,0,0
89445,-133.333333333333,4,2,1,75,0,0
89655,-80,4,2,1,75,0,0
89739,-100,4,2,1,75,0,0
89864,-66.6666666666667,4,2,1,75,0,0
89990,-100,4,2,1,75,0,0
90367,-66.6666666666667,4,2,1,75,0,0
90493,-100,4,2,1,75,0,0
90702,-66.6666666666667,4,2,1,75,0,0
90828,-100,4,2,1,75,0,0
91540,-66.6666666666667,4,2,1,75,0,0
91666,-100,4,2,1,75,0,0
92043,-66.6666666666667,4,2,1,75,0,0
92169,-100,4,2,1,75,0,0
93384,-66.6666666666667,4,2,1,75,0,0
93510,-100,4,2,1,75,0,0
93887,-52.6315789473684,4,2,1,75,0,0
93929,-1000,4,2,1,75,0,0
93970,-52.6315789473684,4,2,1,75,0,0
94012,-1000,4,2,1,75,0,0
94054,-52.6315789473684,4,2,1,75,0,0
94096,-1000,4,2,1,75,0,0
94138,-52.6315789473684,4,2,1,75,0,0
94180,-1000,4,2,1,75,0,0
94222,-66.6666666666667,4,2,1,75,0,0
94348,-100,4,2,1,75,0,0
94725,-66.6666666666667,4,2,1,75,0,0
94850,-100,4,2,1,75,0,0
95227,-52.6315789473684,4,2,1,75,0,0
95269,-1000,4,2,1,75,0,0
95311,-52.6315789473684,4,2,1,75,0,0
95353,-1000,4,2,1,75,0,0
95395,-100,4,2,1,75,0,0
95646,-133.333333333333,4,2,1,75,0,0
95856,-66.6666666666667,4,2,1,75,0,0
95940,-100,4,2,1,75,0,0
96233,-105.263157894737,4,2,1,75,0,0
97574,-100,4,2,1,75,0,0
98579,-52.6315789473684,4,2,1,75,0,0
98621,-1000,4,2,1,75,0,0
98663,-100,4,2,1,75,0,0
98915,-66.6666666666667,4,2,1,75,0,0
98998,-100,4,2,1,75,0,0
100088,-66.6666666666667,4,2,1,75,0,0
100172,-100,4,2,1,75,0,0
100926,-52.6315789473684,4,2,1,75,0,0
100947,-1000,4,2,1,75,0,0
100968,-52.6315789473684,4,2,1,75,0,0
100989,-1000,4,2,1,75,0,0
101010,-52.6315789473684,4,2,1,75,0,0
101031,-1000,4,2,1,75,0,0
101051,-52.6315789473684,4,2,1,75,0,0
101072,-1000,4,2,1,75,0,0
101093,-52.6315789473684,4,2,1,75,0,0
101114,-1000,4,2,1,75,0,0
101135,-52.6315789473684,4,2,1,75,0,0
101156,-1000,4,2,1,75,0,0
101177,-100,4,2,1,75,0,0
101429,-52.6315789473684,4,2,1,75,0,0
101450,-1000,4,2,1,75,0,0
101470,-52.6315789473684,4,2,1,75,0,0
101491,-1000,4,2,1,75,0,0
101512,-52.6315789473684,4,2,1,75,0,0
101533,-1000,4,2,1,75,0,0
101554,-52.6315789473684,4,2,1,75,0,0
101575,-1000,4,2,1,75,0,0
101596,-52.6315789473684,4,2,1,75,0,0
101617,-1000,4,2,1,75,0,0
101638,-52.6315789473684,4,2,1,75,0,0
101659,-1000,4,2,1,75,0,0
101680,-52.6315789473684,4,2,1,75,0,0
101701,-1000,4,2,1,75,0,0
101722,-52.6315789473684,4,2,1,75,0,0
101743,-1000,4,2,1,75,0,0
101764,-100,4,2,1,75,0,0
101931,-66.6666666666667,4,2,1,75,0,0
102057,-100,4,2,1,75,0,0
102267,-52.6315789473684,4,2,1,75,0,0
102308,-1000,4,2,1,75,0,0
102350,-52.6315789473684,4,2,1,75,0,0
102392,-1000,4,2,1,75,0,0
102434,-52.6315789473684,4,2,1,75,0,0
102476,-1000,4,2,1,75,0,0
102518,-52.6315789473684,4,2,1,75,0,0
102560,-1000,4,2,1,75,0,0
102602,-100,4,2,1,75,0,0
102769,-52.6315789473684,4,2,1,75,0,0
102811,-1000,4,2,1,75,0,0
102853,-52.6315789473684,4,2,1,75,0,0
102895,-1000,4,2,1,75,0,0
102937,-66.6666666666667,4,2,1,75,0,0
102979,-200,4,2,1,75,0,0
103063,-66.6666666666667,4,2,1,75,0,0
103146,-200,4,2,1,75,0,0
103230,-66.6666666666667,4,2,1,75,0,0
103314,-200,4,2,1,75,0,0
103398,-66.6666666666667,4,2,1,75,0,0
103461,-200,4,2,1,75,0,0
103503,-66.6666666666667,4,2,1,75,0,0
103544,-200,4,2,1,75,0,0
103586,-66.6666666666667,4,2,1,75,0,0
103733,-100,4,2,1,75,0,0
104278,-66.6666666666667,4,2,1,75,0,0
104403,-100,4,2,1,75,0,0
104613,-66.6666666666667,4,2,1,75,0,0
104739,-100,4,2,1,75,0,0
105451,-66.6666666666667,4,2,1,75,0,0
105577,-100,4,2,1,75,0,0
106289,-66.6666666666667,4,2,1,75,0,0
106415,-100,4,2,1,75,0,0
106959,-111.111111111111,4,2,1,75,0,0
108300,-52.6315789473684,4,2,1,75,0,0
108342,-1000,4,2,1,75,0,0
108384,-100,4,2,1,75,0,0
108468,-125,4,2,1,75,0,0
108572,-66.6666666666667,4,2,1,75,0,0
108677,-200,4,2,1,75,0,0
108761,-66.6666666666667,4,2,1,75,0,0
108845,-200,4,2,1,75,0,0
108929,-66.6666666666667,4,2,1,75,0,0
109012,-100,4,2,1,75,0,0
109641,-66.6666666666667,4,2,1,75,0,0
109725,-100,4,2,1,75,0,0
109976,-40,4,2,1,75,0,0
110016,-200,4,2,1,75,0,0
110144,-40,4,2,1,75,0,0
110183,-200,4,2,1,75,0,0
110311,-40,4,2,1,75,0,0
110351,-200,4,2,1,75,0,0
110479,-40,4,2,1,75,0,0
110519,-200,4,2,1,75,0,0
110646,-40,4,2,1,75,0,0
110686,-200,4,2,1,75,0,0
110814,-40,4,2,1,75,0,0
110854,-200,4,2,1,75,0,0
110982,-40,4,2,1,75,0,0
111021,-200,4,2,1,75,0,0
111149,-40,4,2,1,75,0,0
111189,-200,4,2,1,75,0,0
111317,-40,4,2,1,75,0,0
111357,-200,4,2,1,75,0,0
111484,-40,4,2,1,75,0,0
111524,-200,4,2,1,75,0,0
111652,-40,4,2,1,75,0,0
111692,-200,4,2,1,75,0,0
111820,-40,4,2,1,75,0,0
111859,-200,4,2,1,75,0,0
111987,-52.6315789473684,4,2,1,75,0,0
112008,-1000,4,2,1,75,0,0
112029,-52.6315789473684,4,2,1,75,0,0
112050,-1000,4,2,1,75,0,0
112071,-52.6315789473684,4,2,1,75,0,0
112092,-1000,4,2,1,75,0,0
112113,-52.6315789473684,4,2,1,75,0,0
112134,-1000,4,2,1,75,0,0
112155,-52.6315789473684,4,2,1,75,0,0
112176,-1000,4,2,1,75,0,0
112197,-52.6315789473684,4,2,1,75,0,0
112218,-1000,4,2,1,75,0,0
112239,-52.6315789473684,4,2,1,75,0,0
112260,-1000,4,2,1,75,0,0
112281,-52.6315789473684,4,2,1,75,0,0
112301,-1000,4,2,1,75,0,0
112322,-100,4,2,1,75,0,0
117686,-71.4285714285714,4,2,1,75,0,0
117769,-166.666666666667,4,2,1,75,0,0
117853,-100,4,2,1,75,0,0
118021,-71.4285714285714,4,2,1,75,0,0
118105,-166.666666666667,4,2,1,75,0,0
118188,-100,4,2,1,75,0,0
118356,-71.4285714285714,4,2,1,75,0,0
118440,-166.666666666667,4,2,1,75,0,0
118524,-100,4,2,1,75,0,0
118691,-71.4285714285714,4,2,1,75,0,0
118775,-166.666666666667,4,2,1,75,0,0
118859,-100,4,2,1,75,0,0
119026,-71.4285714285714,4,2,1,75,0,0
119110,-166.666666666667,4,2,1,75,0,0
119194,-100,4,2,1,75,0,0
119362,-71.4285714285714,4,2,1,75,0,0
119445,-166.666666666667,4,2,1,75,0,0
119529,-100,4,2,1,75,0,0
119697,-71.4285714285714,4,2,1,75,0,0
119781,-166.666666666667,4,2,1,75,0,0
119864,-100,4,2,1,75,0,0
120032,-71.4285714285714,4,2,1,75,0,0
120116,-166.666666666667,4,2,1,75,0,0
120200,-100,4,2,1,75,0,0
120368,-52.6315789473684,4,2,1,75,0,0
120410,-1000,4,2,1,75,0,0
120452,-52.6315789473684,4,2,1,75,0,0
120493,-1000,4,2,1,75,0,0
120535,-52.6315789473684,4,2,1,75,0,0
120577,-1000,4,2,1,75,0,0
120619,-52.6315789473684,4,2,1,75,0,0
120661,-1000,4,2,1,75,0,0
120703,-52.6315789473684,4,2,1,75,0,0
120745,-1000,4,2,1,75,0,0
120787,-52.6315789473684,4,2,1,75,0,0
120829,-1000,4,2,1,75,0,0
120871,-52.6315789473684,4,2,1,75,0,0
120912,-1000,4,2,1,75,0,0
120954,-52.6315789473684,4,2,1,75,0,0
120996,-1000,4,2,1,75,0,0
121038,-52.6315789473684,4,2,1,75,0,0
121080,-1000,4,2,1,75,0,0
121122,-52.6315789473684,4,2,1,75,0,0
121164,-1000,4,2,1,75,0,0
121206,-52.6315789473684,4,2,1,75,0,0
121248,-1000,4,2,1,75,0,0
121290,-52.6315789473684,4,2,1,75,0,0
121331,-1000,4,2,1,75,0,0
121373,-52.6315789473684,4,2,1,75,0,0
121415,-1000,4,2,1,75,0,0
121457,-52.6315789473684,4,2,1,75,0,0
121499,-1000,4,2,1,75,0,0
121541,-52.6315789473684,4,2,1,75,0,0
121583,-1000,4,2,1,75,0,0
121625,-52.6315789473684,4,2,1,75,0,0
121667,-1000,4,2,1,75,0,0
121709,-20,4,2,1,75,0,0
122379,-2000,4,2,1,75,0,0
122672,-40,4,2,1,75,0,0
122756,-200,4,2,1,75,0,0
122965,-58.8235294117647,4,2,1,75,0,0
123049,-100,4,2,1,75,0,1
125730,-40,4,2,1,75,0,1
125751,-200,4,2,1,75,0,1
125814,-100,4,2,1,75,0,1
126401,-40,4,2,1,75,0,1
126422,-200,4,2,1,75,0,1
126484,-100,4,2,1,75,0,1
126568,-52.6315789473684,4,2,1,75,0,1
126589,-1000,4,2,1,75,0,1
126610,-100,4,2,1,75,0,1
126736,-40,4,2,1,75,0,1
126757,-200,4,2,1,75,0,1
126820,-100,4,2,1,75,0,1
127239,-40,4,2,1,75,0,1
127260,-200,4,2,1,75,0,1
127322,-100,4,2,1,75,0,1
127406,-52.6315789473684,4,2,1,75,0,1
127448,-1000,4,2,1,75,0,1
127490,-100,4,2,1,75,0,1
127574,-52.6315789473684,4,2,1,75,0,1
127616,-1000,4,2,1,75,0,1
127658,-52.6315789473684,4,2,1,75,0,1
127700,-1000,4,2,1,75,0,1
127741,-52.6315789473684,4,2,1,75,0,1
127783,-1000,4,2,1,75,0,1
127867,-52.6315789473684,4,2,1,75,0,1
127951,-1000,4,2,1,75,0,1
128035,-52.6315789473684,4,2,1,75,0,1
128077,-66.6666666666667,4,2,1,75,0,1
128139,-333.333333333333,4,2,1,75,0,1
128349,-50,4,2,1,75,0,1
128412,-100,4,2,1,75,0,1
131093,-66.6666666666667,4,2,1,75,0,1
131219,-100,4,2,1,75,0,1
131764,-66.6666666666667,4,2,1,75,0,1
131848,-100,4,2,1,75,0,1
132267,-66.6666666666667,4,2,1,75,0,1
132392,-100,4,2,1,75,0,1
136456,-40,4,2,1,75,0,1
136477,-200,4,2,1,75,0,1
136540,-100,4,2,1,75,0,1
137127,-40,4,2,1,75,0,1
137148,-200,4,2,1,75,0,1
137210,-100,4,2,1,75,0,1
137294,-52.6315789473684,4,2,1,75,0,1
137315,-1000,4,2,1,75,0,1
137336,-100,4,2,1,75,0,1
137462,-40,4,2,1,75,0,1
137483,-200,4,2,1,75,0,1
137546,-100,4,2,1,75,0,1
137965,-40,4,2,1,75,0,1
137986,-200,4,2,1,75,0,1
138048,-100,4,2,1,75,0,1
138132,-52.6315789473684,4,2,1,75,0,1
138174,-1000,4,2,1,75,0,1
138216,-100,4,2,1,75,0,1
138300,-52.6315789473684,4,2,1,75,0,1
138342,-1000,4,2,1,75,0,1
138384,-52.6315789473684,4,2,1,75,0,1
138426,-1000,4,2,1,75,0,1
138467,-52.6315789473684,4,2,1,75,0,1
138509,-1000,4,2,1,75,0,1
138593,-52.6315789473684,4,2,1,75,0,1
138677,-1000,4,2,1,75,0,1
138761,-52.6315789473684,4,2,1,75,0,1
138803,-66.6666666666667,4,2,1,75,0,1
138866,-200,4,2,1,75,0,1
139075,-58.8235294117647,4,2,1,75,0,1
139138,-100,4,2,1,75,0,1
144501,-100,4,2,1,75,0,0
145842,-117.647058823529,4,2,1,45,0,0
152546,-111.111111111111,4,2,1,75,0,0
155227,-105.263157894737,4,2,1,75,0,0
156568,-66.6666666666667,4,2,1,75,0,0
156652,-100,4,2,1,75,0,0
156820,-66.6666666666667,4,2,1,75,0,0
156903,-100,4,2,1,75,0,0
157071,-66.6666666666667,4,2,1,75,0,0
157155,-100,4,2,1,75,0,0
157322,-66.6666666666667,4,2,1,75,0,0
157406,-100,4,2,1,75,0,0
157909,-66.6666666666667,4,2,1,75,0,0
158035,-100,4,2,1,75,0,0
158580,-52.6315789473684,4,2,1,75,0,0
158601,-1000,4,2,1,75,0,0
158622,-52.6315789473684,4,2,1,75,0,0
158643,-1000,4,2,1,75,0,0
158663,-52.6315789473684,4,2,1,75,0,0
158684,-1000,4,2,1,75,0,0
158705,-52.6315789473684,4,2,1,75,0,0
158726,-1000,4,2,1,75,0,0
158747,-52.6315789473684,4,2,1,75,0,0
158768,-1000,4,2,1,75,0,0
158789,-52.6315789473684,4,2,1,75,0,0
158810,-1000,4,2,1,75,0,0
158831,-52.6315789473684,4,2,1,75,0,0
158852,-1000,4,2,1,75,0,0
158873,-52.6315789473684,4,2,1,75,0,0
158894,-1000,4,2,1,75,0,0
158915,-100,4,2,1,75,0,0
159082,-66.6666666666667,4,2,1,75,0,0
159208,-100,4,2,1,75,0,0
159753,-66.6666666666667,4,2,1,75,0,0
159879,-100,4,2,1,75,0,0
160423,-52.6315789473684,4,2,1,75,0,0
160465,-1000,4,2,1,75,0,0
160507,-52.6315789473684,4,2,1,75,0,0
160549,-1000,4,2,1,75,0,0
160591,-50,4,2,1,75,0,0
160717,-100,4,2,1,75,0,0
161764,-66.6666666666667,4,2,1,75,0,0
161890,-100,4,2,1,75,0,0
162434,-66.6666666666667,4,2,1,75,0,0
162602,-100,4,2,1,75,0,0
163272,-66.6666666666667,4,2,1,75,0,0
163398,-100,4,2,1,75,0,0
163943,-52.6315789473684,4,2,1,75,0,0
163985,-1000,4,2,1,75,0,0
164027,-52.6315789473684,4,2,1,75,0,0
164069,-1000,4,2,1,75,0,0
164110,-52.6315789473684,4,2,1,75,0,0
164152,-1000,4,2,1,75,0,0
164194,-52.6315789473684,4,2,1,75,0,0
164236,-1000,4,2,1,75,0,0
164278,-100,4,2,1,75,0,0
164446,-66.6666666666667,4,2,1,75,0,0
164571,-100,4,2,1,75,0,0
165116,-66.6666666666667,4,2,1,75,0,0
165242,-100,4,2,1,75,0,0
166122,-52.6315789473684,4,2,1,75,0,0
166143,-1000,4,2,1,75,0,0
166163,-52.6315789473684,4,2,1,75,0,0
166184,-1000,4,2,1,75,0,0
166205,-52.6315789473684,4,2,1,75,0,0
166226,-1000,4,2,1,75,0,0
166247,-52.6315789473684,4,2,1,75,0,0
166268,-1000,4,2,1,75,0,0
166289,-52.6315789473684,4,2,1,75,0,0
166310,-1000,4,2,1,75,0,0
166331,-52.6315789473684,4,2,1,75,0,0
166352,-1000,4,2,1,75,0,0
166373,-52.6315789473684,4,2,1,75,0,0
166394,-1000,4,2,1,75,0,0
166415,-52.6315789473684,4,2,1,75,0,0
166436,-1000,4,2,1,75,0,0
166457,-52.6315789473684,4,2,1,75,0,0
166478,-1000,4,2,1,75,0,0
166499,-52.6315789473684,4,2,1,75,0,0
166520,-1000,4,2,1,75,0,0
166541,-52.6315789473684,4,2,1,75,0,0
166562,-1000,4,2,1,75,0,0
166582,-52.6315789473684,4,2,1,75,0,0
166603,-1000,4,2,1,75,0,0
166624,-52.6315789473684,4,2,1,75,0,0
166645,-1000,4,2,1,75,0,0
166666,-52.6315789473684,4,2,1,75,0,0
166687,-1000,4,2,1,75,0,0
166708,-52.6315789473684,4,2,1,75,0,0
166729,-1000,4,2,1,75,0,0
166750,-52.6315789473684,4,2,1,75,0,0
166771,-1000,4,2,1,75,0,0
166792,-100,4,2,1,75,0,0
167127,-66.6666666666667,4,2,1,75,0,0
167211,-200,4,2,1,75,0,0
167294,-66.6666666666667,4,2,1,75,0,0
167462,-200,4,2,1,75,0,0
167546,-66.6666666666667,4,2,1,75,0,0
167672,-200,4,2,1,75,0,0
167755,-66.6666666666667,4,2,1,75,0,0
167839,-100,4,2,1,75,0,0
168635,-52.6315789473684,4,2,1,75,0,0
168677,-1000,4,2,1,75,0,0
168719,-52.6315789473684,4,2,1,75,0,0
168761,-1000,4,2,1,75,0,0
168803,-52.6315789473684,4,2,1,75,0,0
168845,-1000,4,2,1,75,0,0
168887,-52.6315789473684,4,2,1,75,0,0
168929,-1000,4,2,1,75,0,0
168970,-52.6315789473684,4,2,1,75,0,0
169012,-1000,4,2,1,75,0,0
169054,-52.6315789473684,4,2,1,75,0,0
169096,-1000,4,2,1,75,0,0
169138,-52.6315789473684,4,2,1,75,0,0
169180,-1000,4,2,1,75,0,0
169222,-52.6315789473684,4,2,1,75,0,0
169264,-1000,4,2,1,75,0,0
169306,-52.6315789473684,4,2,1,75,0,0
169348,-1000,4,2,1,75,0,0
169389,-52.6315789473684,4,2,1,75,0,0
169431,-1000,4,2,1,75,0,0
169473,-52.6315789473684,4,2,1,75,0,0
169515,-1000,4,2,1,75,0,0
169557,-52.6315789473684,4,2,1,75,0,0
169599,-1000,4,2,1,75,0,0
169641,-52.6315789473684,4,2,1,75,0,0
169683,-1000,4,2,1,75,0,0
169725,-52.6315789473684,4,2,1,75,0,0
169767,-1000,4,2,1,75,0,0
169808,-52.6315789473684,4,2,1,75,0,0
169850,-1000,4,2,1,75,0,0
169892,-52.6315789473684,4,2,1,75,0,0
169934,-1000,4,2,1,75,0,0
169976,-52.6315789473684,4,2,1,75,0,0
170018,-1000,4,2,1,75,0,0
170060,-52.6315789473684,4,2,1,75,0,0
170102,-1000,4,2,1,75,0,0
170144,-52.6315789473684,4,2,1,75,0,0
170186,-1000,4,2,1,75,0,0
170227,-52.6315789473684,4,2,1,75,0,0
170269,-1000,4,2,1,75,0,0
170311,-52.6315789473684,4,2,1,75,0,0
170353,-1000,4,2,1,75,0,0
170395,-52.6315789473684,4,2,1,75,0,0
170437,-1000,4,2,1,75,0,0
170479,-52.6315789473684,4,2,1,75,0,0
170521,-1000,4,2,1,75,0,0
170563,-52.6315789473684,4,2,1,75,0,0
170605,-1000,4,2,1,75,0,0
170646,-52.6315789473684,4,2,1,75,0,0
170688,-1000,4,2,1,75,0,0
170730,-52.6315789473684,4,2,1,75,0,0
170772,-1000,4,2,1,75,0,0
170814,-52.6315789473684,4,2,1,75,0,0
170856,-1000,4,2,1,75,0,0
170898,-52.6315789473684,4,2,1,75,0,0
170940,-1000,4,2,1,75,0,0
170982,-52.6315789473684,4,2,1,75,0,0
171065,-1000,4,2,1,75,0,0
171233,-47.6190476190476,4,2,1,75,0,0
171317,-52.6315789473684,4,2,1,75,0,0
171359,-1000,4,2,1,75,0,0
171401,-52.6315789473684,4,2,1,75,0,0
171443,-1000,4,2,1,75,0,0
171485,-52.6315789473684,4,2,1,75,0,0
171527,-1000,4,2,1,75,0,0
171569,-52.6315789473684,4,2,1,75,0,0
171611,-1000,4,2,1,75,0,0
171652,-52.6315789473684,4,2,1,75,0,0
171694,-1000,4,2,1,75,0,0
171736,-52.6315789473684,4,2,1,75,0,0
171778,-1000,4,2,1,75,0,0
171820,-52.6315789473684,4,2,1,75,0,0
171862,-1000,4,2,1,75,0,0
171904,-52.6315789473684,4,2,1,75,0,0
171946,-1000,4,2,1,75,0,0
171988,-52.6315789473684,4,2,1,75,0,0
172030,-1000,4,2,1,75,0,0
172071,-52.6315789473684,4,2,1,75,0,0
172113,-1000,4,2,1,75,0,0
172155,-52.6315789473684,4,2,1,75,0,0
172197,-1000,4,2,1,75,0,0
172239,-52.6315789473684,4,2,1,75,0,0
172281,-1000,4,2,1,75,0,0
172323,-52.6315789473684,4,2,1,75,0,0
172365,-1000,4,2,1,75,0,0
172407,-52.6315789473684,4,2,1,75,0,0
172449,-1000,4,2,1,75,0,0
172490,-52.6315789473684,4,2,1,75,0,0
172532,-1000,4,2,1,75,0,0
172574,-52.6315789473684,4,2,1,75,0,0
172616,-1000,4,2,1,75,0,0
172658,-52.6315789473684,4,2,1,75,0,0
172700,-1000,4,2,1,75,0,0
172742,-52.6315789473684,4,2,1,75,0,0
172784,-1000,4,2,1,75,0,0
172826,-52.6315789473684,4,2,1,75,0,0
172868,-1000,4,2,1,75,0,0
172909,-52.6315789473684,4,2,1,75,0,0
172951,-1000,4,2,1,75,0,0
172993,-52.6315789473684,4,2,1,75,0,0
173035,-1000,4,2,1,75,0,0
173077,-52.6315789473684,4,2,1,75,0,0
173119,-1000,4,2,1,75,0,0
173161,-52.6315789473684,4,2,1,75,0,0
173203,-1000,4,2,1,75,0,0
173245,-52.6315789473684,4,2,1,75,0,0
173287,-1000,4,2,1,75,0,0
173328,-40,4,2,1,75,0,0
173349,-200,4,2,1,75,0,0
173412,-100,4,2,1,75,0,0
173496,-40,4,2,1,75,0,0
173517,-200,4,2,1,75,0,0
173579,-100,4,2,1,75,0,0
173663,-40,4,2,1,75,0,0
173684,-200,4,2,1,75,0,0
173747,-100,4,2,1,75,0,0
173831,-40,4,2,1,75,0,0
173852,-200,4,2,1,75,0,0
173915,-100,4,2,1,75,0,0
173999,-52.6315789473684,4,2,1,75,0,0
174041,-1000,4,2,1,75,0,0
174083,-52.6315789473684,4,2,1,75,0,0
174125,-1000,4,2,1,75,0,0
174167,-52.6315789473684,4,2,1,75,0,0
174209,-1000,4,2,1,75,0,0
174251,-52.6315789473684,4,2,1,75,0,0
174293,-1000,4,2,1,75,0,0
174334,-52.6315789473684,4,2,1,75,0,0
174376,-1000,4,2,1,75,0,0
174418,-52.6315789473684,4,2,1,75,0,0
174460,-1000,4,2,1,75,0,0
174502,-52.6315789473684,4,2,1,75,0,0
174544,-1000,4,2,1,75,0,0
174586,-52.6315789473684,4,2,1,75,0,0
174628,-1000,4,2,1,75,0,0
174670,-52.6315789473684,4,2,1,75,0,0
174712,-1000,4,2,1,75,0,0
174753,-52.6315789473684,4,2,1,75,0,0
174795,-1000,4,2,1,75,0,0
174837,-52.6315789473684,4,2,1,75,0,0
174879,-1000,4,2,1,75,0,0
174921,-52.6315789473684,4,2,1,75,0,0
174963,-1000,4,2,1,75,0,0
175005,-52.6315789473684,4,2,1,75,0,0
175047,-1000,4,2,1,75,0,0
175089,-52.6315789473684,4,2,1,75,0,0
175131,-1000,4,2,1,75,0,0
175172,-52.6315789473684,4,2,1,75,0,0
175214,-1000,4,2,1,75,0,0
175256,-52.6315789473684,4,2,1,75,0,0
175298,-1000,4,2,1,75,0,0
175340,-52.6315789473684,4,2,1,75,0,0
175382,-1000,4,2,1,75,0,0
175424,-52.6315789473684,4,2,1,75,0,0
175466,-1000,4,2,1,75,0,0
175508,-52.6315789473684,4,2,1,75,0,0
175550,-1000,4,2,1,75,0,0
175591,-52.6315789473684,4,2,1,75,0,0
175633,-1000,4,2,1,75,0,0
175675,-52.6315789473684,4,2,1,75,0,0
175717,-1000,4,2,1,75,0,0
175759,-52.6315789473684,4,2,1,75,0,0
175801,-1000,4,2,1,75,0,0
175843,-52.6315789473684,4,2,1,75,0,0
175885,-1000,4,2,1,75,0,0
175927,-52.6315789473684,4,2,1,75,0,0
175969,-1000,4,2,1,75,0,0
176010,-52.6315789473684,4,2,1,75,0,0
176052,-1000,4,2,1,75,0,0
176094,-52.6315789473684,4,2,1,75,0,0
176136,-1000,4,2,1,75,0,0
176178,-52.6315789473684,4,2,1,75,0,0
176220,-1000,4,2,1,75,0,0
176262,-52.6315789473684,4,2,1,75,0,0
176304,-1000,4,2,1,75,0,0
176345,-52.6315789473684,4,2,1,75,0,0
176387,-1000,4,2,1,75,0,0
176429,-52.6315789473684,4,2,1,75,0,0
176470,-1000,4,2,1,75,0,0
176512,-52.6315789473684,4,2,1,75,0,0
176554,-1000,4,2,1,75,0,0
176596,-52.6315789473684,4,2,1,75,0,0
176638,-1000,4,2,1,75,0,0
176680,-52.6315789473684,4,2,1,75,0,0
176701,-1000,4,2,1,75,0,0
176722,-52.6315789473684,4,2,1,75,0,0
176743,-1000,4,2,1,75,0,0
176764,-52.6315789473684,4,2,1,75,0,0
176785,-1000,4,2,1,75,0,0
176806,-52.6315789473684,4,2,1,75,0,0
176827,-1000,4,2,1,75,0,0
176848,-52.6315789473684,4,2,1,75,0,0
176869,-1000,4,2,1,75,0,0
176889,-52.6315789473684,4,2,1,75,0,0
176910,-1000,4,2,1,75,0,0
176931,-52.6315789473684,4,2,1,75,0,0
176952,-1000,4,2,1,75,0,0
176973,-52.6315789473684,4,2,1,75,0,0
176994,-1000,4,2,1,75,0,0
177015,-52.6315789473684,4,2,1,75,0,0
177036,-1000,4,2,1,75,0,0
177057,-52.6315789473684,4,2,1,75,0,0
177078,-1000,4,2,1,75,0,0
177099,-52.6315789473684,4,2,1,75,0,0
177120,-1000,4,2,1,75,0,0
177141,-52.6315789473684,4,2,1,75,0,0
177162,-1000,4,2,1,75,0,0
177183,-52.6315789473684,4,2,1,75,0,0
177204,-1000,4,2,1,75,0,0
177225,-52.6315789473684,4,2,1,75,0,0
177246,-1000,4,2,1,75,0,0
177267,-52.6315789473684,4,2,1,75,0,0
177288,-1000,4,2,1,75,0,0
177308,-52.6315789473684,4,2,1,75,0,0
177329,-1000,4,2,1,75,0,0
177350,-52.6315789473684,4,2,1,75,0,0
177371,-1000,4,2,1,75,0,0
177392,-52.6315789473684,4,2,1,75,0,0
177413,-1000,4,2,1,75,0,0
177434,-52.6315789473684,4,2,1,75,0,0
177455,-1000,4,2,1,75,0,0
177476,-52.6315789473684,4,2,1,75,0,0
177497,-1000,4,2,1,75,0,0
177518,-52.6315789473684,4,2,1,75,0,0
177539,-1000,4,2,1,75,0,0
177560,-52.6315789473684,4,2,1,75,0,0
177581,-1000,4,2,1,75,0,0
177602,-52.6315789473684,4,2,1,75,0,0
177623,-1000,4,2,1,75,0,0
177644,-52.6315789473684,4,2,1,75,0,0
177665,-1000,4,2,1,75,0,0
177686,-52.6315789473684,4,2,1,75,0,0
177706,-1000,4,2,1,75,0,0
177727,-52.6315789473684,4,2,1,75,0,0
177748,-1000,4,2,1,75,0,0
177769,-52.6315789473684,4,2,1,75,0,0
177790,-1000,4,2,1,75,0,0
177811,-52.6315789473684,4,2,1,75,0,0
177832,-1000,4,2,1,75,0,0
177853,-52.6315789473684,4,2,1,75,0,0
177874,-1000,4,2,1,75,0,0
177895,-52.6315789473684,4,2,1,75,0,0
177916,-1000,4,2,1,75,0,0
177937,-52.6315789473684,4,2,1,75,0,0
177958,-1000,4,2,1,75,0,0
177979,-52.6315789473684,4,2,1,75,0,0
178000,-1000,4,2,1,75,0,0
178021,-20,4,2,1,75,0,0
178691,-2000,4,2,1,75,0,0
178942,-50,4,2,1,75,0,0
179110,-200,4,2,1,75,0,0
179278,-58.8235294117647,4,2,1,75,0,0
179362,-66.6666666666667,4,2,1,75,0,1
179445,-200,4,2,1,75,0,1
179613,-66.6666666666667,4,2,1,75,0,1
179739,-200,4,2,1,75,0,1
179822,-66.6666666666667,4,2,1,75,0,1
179864,-52.6315789473684,4,2,1,75,0,1
179906,-1000,4,2,1,75,0,1
179948,-52.6315789473684,4,2,1,75,0,1
179990,-1000,4,2,1,75,0,1
180032,-66.6666666666667,4,2,1,75,0,1
180074,-200,4,2,1,75,0,1
180158,-66.6666666666667,4,2,1,75,0,1
180241,-200,4,2,1,75,0,1
180325,-66.6666666666667,4,2,1,75,0,1
180409,-200,4,2,1,75,0,1
180493,-66.6666666666667,4,2,1,75,0,1
180535,-52.6315789473684,4,2,1,75,0,1
180577,-1000,4,2,1,75,0,1
180619,-52.6315789473684,4,2,1,75,0,1
180660,-1000,4,2,1,75,0,1
180702,-66.6666666666667,4,2,1,75,0,1
180786,-200,4,2,1,75,0,1
180954,-66.6666666666667,4,2,1,75,0,1
181038,-52.6315789473684,4,2,1,75,0,1
181058,-1000,4,2,1,75,0,1
181079,-52.6315789473684,4,2,1,75,0,1
181100,-1000,4,2,1,75,0,1
181121,-52.6315789473684,4,2,1,75,0,1
181142,-1000,4,2,1,75,0,1
181163,-52.6315789473684,4,2,1,75,0,1
181184,-1000,4,2,1,75,0,1
181205,-52.6315789473684,4,2,1,75,0,1
181226,-1000,4,2,1,75,0,1
181247,-52.6315789473684,4,2,1,75,0,1
181268,-1000,4,2,1,75,0,1
181289,-52.6315789473684,4,2,1,75,0,1
181310,-1000,4,2,1,75,0,1
181331,-52.6315789473684,4,2,1,75,0,1
181352,-1000,4,2,1,75,0,1
181373,-52.6315789473684,4,2,1,75,0,1
181415,-1000,4,2,1,75,0,1
181456,-52.6315789473684,4,2,1,75,0,1
181498,-1000,4,2,1,75,0,1
181540,-52.6315789473684,4,2,1,75,0,1
181582,-1000,4,2,1,75,0,1
181624,-52.6315789473684,4,2,1,75,0,1
181666,-1000,4,2,1,75,0,1
181708,-66.6666666666667,4,2,1,75,0,1
181792,-200,4,2,1,75,0,1
181959,-66.6666666666667,4,2,1,75,0,1
182085,-200,4,2,1,75,0,1
182169,-66.6666666666667,4,2,1,75,0,1
182253,-200,4,2,1,75,0,1
182336,-66.6666666666667,4,2,1,75,0,1
182420,-200,4,2,1,75,0,1
182504,-66.6666666666667,4,2,1,75,0,1
182546,-52.6315789473684,4,2,1,75,0,1
182588,-1000,4,2,1,75,0,1
182630,-52.6315789473684,4,2,1,75,0,1
182672,-1000,4,2,1,75,0,1
182713,-100,4,2,1,75,0,1
182755,-66.6666666666667,4,2,1,75,0,1
182839,-200,4,2,1,75,0,1
182923,-66.6666666666667,4,2,1,75,0,1
183007,-200,4,2,1,75,0,1
183091,-66.6666666666667,4,2,1,75,0,1
183174,-200,4,2,1,75,0,1
183258,-66.6666666666667,4,2,1,75,0,1
183342,-200,4,2,1,75,0,1
183468,-66.6666666666667,4,2,1,75,0,1
183635,-200,4,2,1,75,0,1
183761,-66.6666666666667,4,2,1,75,0,1
183845,-200,4,2,1,75,0,1
183929,-66.6666666666667,4,2,1,75,0,1
184012,-200,4,2,1,75,0,1
184054,-52.6315789473684,4,2,1,75,0,1
184075,-1000,4,2,1,75,0,1
184096,-52.6315789473684,4,2,1,75,0,1
184117,-1000,4,2,1,75,0,1
184138,-52.6315789473684,4,2,1,75,0,1
184159,-1000,4,2,1,75,0,1
184180,-52.6315789473684,4,2,1,75,0,1
184201,-1000,4,2,1,75,0,1
184222,-52.6315789473684,4,2,1,75,0,1
184243,-1000,4,2,1,75,0,1
184264,-52.6315789473684,4,2,1,75,0,1
184285,-1000,4,2,1,75,0,1
184306,-52.6315789473684,4,2,1,75,0,1
184327,-1000,4,2,1,75,0,1
184348,-52.6315789473684,4,2,1,75,0,1
184369,-1000,4,2,1,75,0,1
184389,-52.6315789473684,4,2,1,75,0,1
184410,-1000,4,2,1,75,0,1
184431,-52.6315789473684,4,2,1,75,0,1
184452,-1000,4,2,1,75,0,1
184473,-52.6315789473684,4,2,1,75,0,1
184494,-1000,4,2,1,75,0,1
184515,-52.6315789473684,4,2,1,75,0,1
184536,-1000,4,2,1,75,0,1
184557,-66.6666666666667,4,2,1,75,0,1
184599,-200,4,2,1,75,0,1
184683,-66.6666666666667,4,2,1,75,0,1
184808,-200,4,2,1,75,0,1
184976,-66.6666666666667,4,2,1,75,0,1
185102,-200,4,2,1,75,0,1
185186,-66.6666666666667,4,2,1,75,0,1
185227,-52.6315789473684,4,2,1,75,0,1
185269,-10000,4,2,1,75,0,1
185311,-52.6315789473684,4,2,1,75,0,1
185353,-10000,4,2,1,75,0,1
185395,-66.6666666666667,4,2,1,75,0,1
185437,-200,4,2,1,75,0,1
185521,-66.6666666666667,4,2,1,75,0,1
185605,-200,4,2,1,75,0,1
185688,-66.6666666666667,4,2,1,75,0,1
185772,-200,4,2,1,75,0,1
185856,-66.6666666666667,4,2,1,75,0,1
185898,-52.6315789473684,4,2,1,75,0,1
185940,-1000,4,2,1,75,0,1
185982,-52.6315789473684,4,2,1,75,0,1
186024,-1000,4,2,1,75,0,1
186065,-66.6666666666667,4,2,1,75,0,1
186149,-200,4,2,1,75,0,1
186317,-66.6666666666667,4,2,1,75,0,1
186401,-52.6315789473684,4,2,1,75,0,1
186422,-1000,4,2,1,75,0,1
186443,-52.6315789473684,4,2,1,75,0,1
186463,-1000,4,2,1,75,0,1
186484,-52.6315789473684,4,2,1,75,0,1
186505,-1000,4,2,1,75,0,1
186526,-52.6315789473684,4,2,1,75,0,1
186547,-1000,4,2,1,75,0,1
186568,-52.6315789473684,4,2,1,75,0,1
186589,-1000,4,2,1,75,0,1
186610,-52.6315789473684,4,2,1,75,0,1
186631,-1000,4,2,1,75,0,1
186652,-52.6315789473684,4,2,1,75,0,1
186673,-1000,4,2,1,75,0,1
186694,-52.6315789473684,4,2,1,75,0,1
186715,-1000,4,2,1,75,0,1
186736,-52.6315789473684,4,2,1,75,0,1
186778,-1000,4,2,1,75,0,1
186820,-52.6315789473684,4,2,1,75,0,1
186862,-1000,4,2,1,75,0,1
186903,-52.6315789473684,4,2,1,75,0,1
186945,-1000,4,2,1,75,0,1
186987,-52.6315789473684,4,2,1,75,0,1
187029,-1000,4,2,1,75,0,1
187071,-100,4,2,1,75,0,1
187406,-66.6666666666667,4,2,1,75,0,1
187448,-200,4,2,1,75,0,1
187532,-66.6666666666667,4,2,1,75,0,1
187616,-200,4,2,1,75,0,1
187700,-66.6666666666667,4,2,1,75,0,1
187783,-200,4,2,1,75,0,1
187867,-66.6666666666667,4,2,1,75,0,1
187951,-200,4,2,1,75,0,1
188035,-66.6666666666667,4,2,1,75,0,1
188119,-200,4,2,1,75,0,1
188202,-66.6666666666667,4,2,1,75,0,1
188286,-200,4,2,1,75,0,1
188370,-66.6666666666667,4,2,1,75,0,1
188454,-200,4,2,1,75,0,1
188538,-66.6666666666667,4,2,1,75,0,1
188621,-200,4,2,1,75,0,1
188705,-66.6666666666667,4,2,1,75,0,1
188789,-200,4,2,1,75,0,1
188873,-66.6666666666667,4,2,1,75,0,1
188956,-200,4,2,1,75,0,1
189040,-66.6666666666667,4,2,1,75,0,1
189124,-200,4,2,1,75,0,1
189208,-66.6666666666667,4,2,1,75,0,1
189292,-200,4,2,1,75,0,1
189375,-66.6666666666667,4,2,1,75,0,1
189459,-200,4,2,1,75,0,1
189543,-66.6666666666667,4,2,1,75,0,1
189627,-200,4,2,1,75,0,1
189711,-66.6666666666667,4,2,1,75,0,1
189836,-200,4,2,1,75,0,1
189920,-66.6666666666667,4,2,1,75,0,1
190004,-200,4,2,1,75,0,1
190088,-66.6666666666667,4,2,1,75,0,1
190172,-200,4,2,1,75,0,1
190340,-66.6666666666667,4,2,1,75,0,1
190466,-200,4,2,1,75,0,1
190549,-66.6666666666667,4,2,1,75,0,1
190591,-52.6315789473684,4,2,1,75,0,1
190633,-1000,4,2,1,75,0,1
190675,-52.6315789473684,4,2,1,75,0,1
190717,-1000,4,2,1,75,0,1
190759,-66.6666666666667,4,2,1,75,0,1
190801,-200,4,2,1,75,0,1
190885,-66.6666666666667,4,2,1,75,0,1
190968,-200,4,2,1,75,0,1
191052,-66.6666666666667,4,2,1,75,0,1
191136,-200,4,2,1,75,0,1
191220,-66.6666666666667,4,2,1,75,0,1
191262,-52.6315789473684,4,2,1,75,0,1
191304,-1000,4,2,1,75,0,1
191346,-52.6315789473684,4,2,1,75,0,1
191387,-1000,4,2,1,75,0,1
191429,-66.6666666666667,4,2,1,75,0,1
191513,-200,4,2,1,75,0,1
191681,-66.6666666666667,4,2,1,75,0,1
191765,-52.6315789473684,4,2,1,75,0,1
191785,-1000,4,2,1,75,0,1
191806,-52.6315789473684,4,2,1,75,0,1
191827,-1000,4,2,1,75,0,1
191848,-52.6315789473684,4,2,1,75,0,1
191869,-1000,4,2,1,75,0,1
191890,-52.6315789473684,4,2,1,75,0,1
191911,-1000,4,2,1,75,0,1
191932,-52.6315789473684,4,2,1,75,0,1
191953,-1000,4,2,1,75,0,1
191974,-52.6315789473684,4,2,1,75,0,1
191995,-1000,4,2,1,75,0,1
192016,-52.6315789473684,4,2,1,75,0,1
192037,-1000,4,2,1,75,0,1
192058,-52.6315789473684,4,2,1,75,0,1
192079,-1000,4,2,1,75,0,1
192100,-52.6315789473684,4,2,1,75,0,1
192142,-1000,4,2,1,75,0,1
192183,-52.6315789473684,4,2,1,75,0,1
192225,-1000,4,2,1,75,0,1
192267,-52.6315789473684,4,2,1,75,0,1
192309,-1000,4,2,1,75,0,1
192351,-52.6315789473684,4,2,1,75,0,1
192393,-1000,4,2,1,75,0,1
192435,-66.6666666666667,4,2,1,75,0,1
192519,-200,4,2,1,75,0,1
192686,-66.6666666666667,4,2,1,75,0,1
192812,-200,4,2,1,75,0,1
192896,-66.6666666666667,4,2,1,75,0,1
192980,-200,4,2,1,75,0,1
193063,-66.6666666666667,4,2,1,75,0,1
193147,-200,4,2,1,75,0,1
193231,-66.6666666666667,4,2,1,75,0,1
193273,-52.6315789473684,4,2,1,75,0,1
193294,-1000,4,2,1,75,0,1
193315,-52.6315789473684,4,2,1,75,0,1
193336,-1000,4,2,1,75,0,1
193357,-52.6315789473684,4,2,1,75,0,1
193378,-1000,4,2,1,75,0,1
193399,-52.6315789473684,4,2,1,75,0,1
193420,-1000,4,2,1,75,0,1
193440,-200,4,2,1,75,0,1
193482,-66.6666666666667,4,2,1,75,0,1
193566,-200,4,2,1,75,0,1
193650,-66.6666666666667,4,2,1,75,0,1
193734,-200,4,2,1,75,0,1
193818,-66.6666666666667,4,2,1,75,0,1
193901,-200,4,2,1,75,0,1
193985,-66.6666666666667,4,2,1,75,0,1
194069,-200,4,2,1,75,0,1
194152,-66.6666666666667,4,2,1,75,0,1
194236,-200,4,2,1,75,0,1
194278,-100,4,2,1,75,0,1
194781,-52.6315789473684,4,2,1,75,0,1
194801,-1000,4,2,1,75,0,1
194822,-52.6315789473684,4,2,1,75,0,1
194843,-1000,4,2,1,75,0,1
194864,-52.6315789473684,4,2,1,75,0,1
194885,-1000,4,2,1,75,0,1
194906,-52.6315789473684,4,2,1,75,0,1
194927,-1000,4,2,1,75,0,1
194948,-52.6315789473684,4,2,1,75,0,1
194969,-1000,4,2,1,75,0,1
194990,-52.6315789473684,4,2,1,75,0,1
195011,-1000,4,2,1,75,0,1
195032,-52.6315789473684,4,2,1,75,0,1
195053,-1000,4,2,1,75,0,1
195074,-52.6315789473684,4,2,1,75,0,1
195095,-1000,4,2,1,75,0,1
195116,-52.6315789473684,4,2,1,75,0,1
195137,-1000,4,2,1,75,0,1
195158,-52.6315789473684,4,2,1,75,0,1
195179,-1000,4,2,1,75,0,1
195200,-52.6315789473684,4,2,1,75,0,1
195220,-1000,4,2,1,75,0,1
195241,-52.6315789473684,4,2,1,75,0,1
195262,-1000,4,2,1,75,0,1
195283,-52.6315789473684,4,2,1,75,0,1
195304,-1000,4,2,1,75,0,1
195325,-52.6315789473684,4,2,1,75,0,1
195346,-1000,4,2,1,75,0,1
195367,-52.6315789473684,4,2,1,75,0,1
195388,-1000,4,2,1,75,0,1
195409,-52.6315789473684,4,2,1,75,0,1
195430,-1000,4,2,1,75,0,1
195451,-66.6666666666667,4,2,1,75,0,0
195535,-100,4,2,1,75,0,0
197462,-66.6666666666667,4,2,1,75,0,0
197525,-100,4,2,1,75,0,0
198132,-111.111111111111,4,2,1,75,0,0
199473,-66.6666666666667,4,2,1,75,0,0
199557,-200,4,2,1,75,0,0
199641,-66.6666666666667,4,2,1,75,0,0
199808,-200,4,2,1,75,0,0
199892,-66.6666666666667,4,2,1,75,0,0
200060,-200,4,2,1,75,0,0
200144,-66.6666666666667,4,2,1,75,0,0
200311,-200,4,2,1,75,0,0
200395,-66.6666666666667,4,2,1,75,0,0
200479,-100,4,2,1,75,0,0
200814,-108.695652173913,4,2,1,75,0,0
201820,-100,4,2,1,75,0,0
201987,-66.6666666666667,4,2,1,75,0,0
202071,-100,4,2,1,75,0,0
202322,-66.6666666666667,4,2,1,75,0,0
202406,-100,4,2,1,75,0,0
202658,-66.6666666666667,4,2,1,75,0,0
202741,-100,4,2,1,75,0,0
203160,-50,4,2,1,75,0,0
203244,-500,4,2,1,75,0,0
203412,-50,4,2,1,75,0,0
203496,-66.6666666666667,4,2,1,75,0,1
203538,-200,4,2,1,75,0,1
203621,-66.6666666666667,4,2,1,75,0,1
203705,-200,4,2,1,75,0,1
203789,-66.6666666666667,4,2,1,75,0,1
203873,-200,4,2,1,75,0,1
203956,-66.6666666666667,4,2,1,75,0,1
203998,-52.6315789473684,4,2,1,75,0,1
204040,-1000,4,2,1,75,0,1
204082,-52.6315789473684,4,2,1,75,0,1
204124,-1000,4,2,1,75,0,1
204166,-66.6666666666667,4,2,1,75,0,1
204208,-200,4,2,1,75,0,1
204292,-66.6666666666667,4,2,1,75,0,1
204375,-200,4,2,1,75,0,1
204459,-66.6666666666667,4,2,1,75,0,1
204543,-200,4,2,1,75,0,1
204627,-66.6666666666667,4,2,1,75,0,1
204711,-200,4,2,1,75,0,1
204794,-66.6666666666667,4,2,1,75,0,1
204878,-200,4,2,1,75,0,1
204962,-66.6666666666667,4,2,1,75,0,1
205046,-200,4,2,1,75,0,1
205130,-66.6666666666667,4,2,1,75,0,1
205213,-200,4,2,1,75,0,1
205297,-66.6666666666667,4,2,1,75,0,1
205381,-200,4,2,1,75,0,1
205465,-66.6666666666667,4,2,1,75,0,1
205549,-200,4,2,1,75,0,1
205632,-66.6666666666667,4,2,1,75,0,1
205716,-200,4,2,1,75,0,1
205800,-66.6666666666667,4,2,1,75,0,1
205884,-200,4,2,1,75,0,1
205968,-66.6666666666667,4,2,1,75,0,1
206051,-200,4,2,1,75,0,1
206135,-66.6666666666667,4,2,1,75,0,1
206219,-200,4,2,1,75,0,1
206303,-66.6666666666667,4,2,1,75,0,1
206387,-200,4,2,1,75,0,1
206470,-66.6666666666667,4,2,1,75,0,1
206554,-200,4,2,1,75,0,1
206638,-66.6666666666667,4,2,1,75,0,1
206722,-200,4,2,1,75,0,1
206806,-66.6666666666667,4,2,1,75,0,1
206889,-200,4,2,1,75,0,1
206973,-66.6666666666667,4,2,1,75,0,1
207057,-200,4,2,1,75,0,1
207141,-66.6666666666667,4,2,1,75,0,1
207225,-200,4,2,1,75,0,1
207308,-66.6666666666667,4,2,1,75,0,1
207392,-200,4,2,1,75,0,1
207476,-66.6666666666667,4,2,1,75,0,1
207560,-200,4,2,1,75,0,1
207644,-66.6666666666667,4,2,1,75,0,1
207727,-200,4,2,1,75,0,1
207811,-66.6666666666667,4,2,1,75,0,1
207895,-200,4,2,1,75,0,1
207979,-66.6666666666667,4,2,1,75,0,1
208063,-200,4,2,1,75,0,1
208146,-66.6666666666667,4,2,1,75,0,1
208230,-200,4,2,1,75,0,1
208314,-66.6666666666667,4,2,1,75,0,1
208398,-200,4,2,1,75,0,1
208482,-66.6666666666667,4,2,1,75,0,1
208565,-200,4,2,1,75,0,1
208649,-66.6666666666667,4,2,1,75,0,1
208691,-52.6315789473684,4,2,1,75,0,1
208733,-1000,4,2,1,75,0,1
208775,-52.6315789473684,4,2,1,75,0,1
208817,-1000,4,2,1,75,0,1
208859,-66.6666666666667,4,2,1,75,0,1
208901,-200,4,2,1,75,0,1
208984,-66.6666666666667,4,2,1,75,0,1
209068,-200,4,2,1,75,0,1
209152,-66.6666666666667,4,2,1,75,0,1
209236,-200,4,2,1,75,0,1
209320,-66.6666666666667,4,2,1,75,0,1
209403,-200,4,2,1,75,0,1
209487,-66.6666666666667,4,2,1,75,0,1
209571,-200,4,2,1,75,0,1
209655,-66.6666666666667,4,2,1,75,0,1
209739,-200,4,2,1,75,0,1
209822,-66.6666666666667,4,2,1,75,0,1
209906,-200,4,2,1,75,0,1
209990,-66.6666666666667,4,2,1,75,0,1
210074,-200,4,2,1,75,0,1
210158,-66.6666666666667,4,2,1,75,0,1
210200,-100,4,2,1,75,0,1
211540,-66.6666666666667,4,2,1,75,0,1
211582,-200,4,2,1,75,0,1
211666,-66.6666666666667,4,2,1,75,0,1
211750,-200,4,2,1,75,0,1
211834,-66.6666666666667,4,2,1,75,0,1
211917,-200,4,2,1,75,0,1
212001,-66.6666666666667,4,2,1,75,0,1
212085,-200,4,2,1,75,0,1
212169,-66.6666666666667,4,2,1,75,0,1
212253,-200,4,2,1,75,0,1
212336,-66.6666666666667,4,2,1,75,0,1
212420,-200,4,2,1,75,0,1
212504,-66.6666666666667,4,2,1,75,0,1
212588,-200,4,2,1,75,0,1
212672,-66.6666666666667,4,2,1,75,0,1
212755,-200,4,2,1,75,0,1
212839,-66.6666666666667,4,2,1,75,0,1
212923,-200,4,2,1,75,0,1
213007,-66.6666666666667,4,2,1,75,0,1
213091,-200,4,2,1,75,0,1
213174,-66.6666666666667,4,2,1,75,0,1
213258,-200,4,2,1,75,0,1
213342,-66.6666666666667,4,2,1,75,0,1
213426,-200,4,2,1,75,0,1
213510,-66.6666666666667,4,2,1,75,0,1
213593,-200,4,2,1,75,0,1
213677,-66.6666666666667,4,2,1,75,0,1
213761,-200,4,2,1,75,0,1
213845,-66.6666666666667,4,2,1,75,0,1
213929,-200,4,2,1,75,0,1
214012,-66.6666666666667,4,2,1,75,0,1
214096,-200,4,2,1,75,0,1
214180,-66.6666666666667,4,2,1,75,0,1
214264,-200,4,2,1,75,0,1
214348,-66.6666666666667,4,2,1,75,0,1
214431,-200,4,2,1,75,0,1
214515,-66.6666666666667,4,2,1,75,0,1
214599,-200,4,2,1,75,0,1
214683,-66.6666666666667,4,2,1,75,0,1
214767,-200,4,2,1,75,0,1
214850,-66.6666666666667,4,2,1,75,0,1
214934,-200,4,2,1,75,0,1
215018,-66.6666666666667,4,2,1,75,0,1
215102,-200,4,2,1,75,0,1
215186,-66.6666666666667,4,2,1,75,0,1
215269,-200,4,2,1,75,0,1
215353,-66.6666666666667,4,2,1,75,0,1
215437,-200,4,2,1,75,0,1
215521,-66.6666666666667,4,2,1,75,0,1
215605,-200,4,2,1,75,0,1
215688,-66.6666666666667,4,2,1,75,0,1
215772,-200,4,2,1,75,0,1
215856,-66.6666666666667,4,2,1,75,0,1
215940,-200,4,2,1,75,0,1
216024,-66.6666666666667,4,2,1,75,0,1
216107,-200,4,2,1,75,0,1
216191,-66.6666666666667,4,2,1,75,0,1
216275,-200,4,2,1,75,0,1
216359,-66.6666666666667,4,2,1,75,0,1
216443,-200,4,2,1,75,0,1
216526,-66.6666666666667,4,2,1,75,0,1
216610,-200,4,2,1,75,0,1
216694,-66.6666666666667,4,2,1,75,0,1
216778,-200,4,2,1,75,0,1
216862,-66.6666666666667,4,2,1,75,0,1
216945,-200,4,2,1,75,0,1
217029,-66.6666666666667,4,2,1,75,0,1
217113,-200,4,2,1,75,0,1
217197,-66.6666666666667,4,2,1,75,0,1
217281,-200,4,2,1,75,0,1
217364,-66.6666666666667,4,2,1,75,0,1
217448,-200,4,2,1,75,0,1
217532,-66.6666666666667,4,2,1,75,0,1
217616,-200,4,2,1,75,0,1
217700,-66.6666666666667,4,2,1,75,0,1
217783,-200,4,2,1,75,0,1
217867,-66.6666666666667,4,2,1,75,0,1
217951,-200,4,2,1,75,0,1
218035,-66.6666666666667,4,2,1,75,0,1
218119,-200,4,2,1,75,0,1
218202,-66.6666666666667,4,2,1,75,0,1
218286,-200,4,2,1,75,0,1
218370,-66.6666666666667,4,2,1,75,0,1
218454,-200,4,2,1,75,0,1
218538,-66.6666666666667,4,2,1,75,0,1
218621,-200,4,2,1,75,0,1
218705,-66.6666666666667,4,2,1,75,0,1
218789,-200,4,2,1,75,0,1
218873,-66.6666666666667,4,2,1,75,0,1
218956,-200,4,2,1,75,0,1
219040,-66.6666666666667,4,2,1,75,0,1
219124,-200,4,2,1,75,0,1
219208,-66.6666666666667,4,2,1,75,0,1
219292,-200,4,2,1,75,0,1
219375,-66.6666666666667,4,2,1,75,0,1
219459,-200,4,2,1,75,0,1
219543,-66.6666666666667,4,2,1,75,0,1
219585,-100,4,2,1,75,0,1
222267,-66.6666666666667,4,2,1,75,0,0
222392,-100,4,2,1,75,0,0
225702,-66.6666666666667,4,2,1,75,0,0
225744,-200,4,2,1,75,0,0
225828,-66.6666666666667,4,2,1,75,0,0
225870,-100,4,2,1,75,0,0
226121,-66.6666666666667,4,2,1,75,0,0
226247,-100,4,2,1,75,0,0
228300,-66.6666666666667,4,2,1,75,0,0
228426,-100,4,2,1,75,0,0
230311,-66.6666666666667,4,2,1,75,0,0
230353,-100,4,2,1,75,0,0
232658,-66.6666666666667,4,2,1,75,0,0
232783,-100,4,2,1,75,0,0
236848,-66.6666666666667,4,2,1,75,0,0
236973,-100,4,2,1,75,0,0
238356,-66.6666666666667,4,2,1,75,0,0
238482,-100,4,2,1,75,0,0
241038,-108.695652173913,4,2,1,75,0,0
242378,-40,4,2,1,75,0,0
242399,-200,4,2,1,75,0,0
242462,-66.6666666666667,4,2,1,75,0,0
242525,-200,4,2,1,75,0,0
242651,-66.6666666666667,4,2,1,75,0,0
242713,-52.6315789473684,4,2,1,75,0,0
242797,-1000,4,2,1,75,0,0
242881,-52.6315789473684,4,2,1,75,0,0
242965,-1000,4,2,1,75,0,0
243049,-100,4,2,1,75,0,0
243719,-66.6666666666667,4,2,1,75,0,1
243802,-200,4,2,1,75,0,1
243970,-66.6666666666667,4,2,1,75,0,1
244096,-200,4,2,1,75,0,1
244179,-66.6666666666667,4,2,1,75,0,1
244221,-52.6315789473684,4,2,1,75,0,1
244263,-1000,4,2,1,75,0,1
244305,-52.6315789473684,4,2,1,75,0,1
244347,-1000,4,2,1,75,0,1
244389,-66.6666666666667,4,2,1,75,0,1
244431,-200,4,2,1,75,0,1
244515,-66.6666666666667,4,2,1,75,0,1
244598,-200,4,2,1,75,0,1
244682,-66.6666666666667,4,2,1,75,0,1
244766,-200,4,2,1,75,0,1
244850,-66.6666666666667,4,2,1,75,0,1
244892,-52.6315789473684,4,2,1,75,0,1
244934,-1000,4,2,1,75,0,1
244976,-52.6315789473684,4,2,1,75,0,1
245017,-1000,4,2,1,75,0,1
245059,-66.6666666666667,4,2,1,75,0,1
245143,-200,4,2,1,75,0,1
245311,-66.6666666666667,4,2,1,75,0,1
245395,-52.6315789473684,4,2,1,75,0,1
245415,-1000,4,2,1,75,0,1
245436,-52.6315789473684,4,2,1,75,0,1
245457,-1000,4,2,1,75,0,1
245478,-52.6315789473684,4,2,1,75,0,1
245499,-1000,4,2,1,75,0,1
245520,-52.6315789473684,4,2,1,75,0,1
245541,-1000,4,2,1,75,0,1
245562,-52.6315789473684,4,2,1,75,0,1
245583,-1000,4,2,1,75,0,1
245604,-52.6315789473684,4,2,1,75,0,1
245625,-1000,4,2,1,75,0,1
245646,-52.6315789473684,4,2,1,75,0,1
245667,-1000,4,2,1,75,0,1
245688,-52.6315789473684,4,2,1,75,0,1
245709,-1000,4,2,1,75,0,1
245730,-52.6315789473684,4,2,1,75,0,1
245772,-1000,4,2,1,75,0,1
245813,-52.6315789473684,4,2,1,75,0,1
245855,-1000,4,2,1,75,0,1
245897,-52.6315789473684,4,2,1,75,0,1
245939,-1000,4,2,1,75,0,1
245981,-52.6315789473684,4,2,1,75,0,1
246023,-1000,4,2,1,75,0,1
246065,-66.6666666666667,4,2,1,75,0,1
246149,-200,4,2,1,75,0,1
246316,-66.6666666666667,4,2,1,75,0,1
246442,-200,4,2,1,75,0,1
246526,-66.6666666666667,4,2,1,75,0,1
246610,-200,4,2,1,75,0,1
246693,-66.6666666666667,4,2,1,75,0,1
246777,-200,4,2,1,75,0,1
246861,-66.6666666666667,4,2,1,75,0,1
246903,-52.6315789473684,4,2,1,75,0,1
246945,-1000,4,2,1,75,0,1
246987,-52.6315789473684,4,2,1,75,0,1
247029,-1000,4,2,1,75,0,1
247071,-200,4,2,1,75,0,1
247113,-66.6666666666667,4,2,1,75,0,1
247197,-200,4,2,1,75,0,1
247280,-66.6666666666667,4,2,1,75,0,1
247364,-200,4,2,1,75,0,1
247448,-66.6666666666667,4,2,1,75,0,1
247531,-200,4,2,1,75,0,1
247615,-66.6666666666667,4,2,1,75,0,1
247699,-200,4,2,1,75,0,1
247825,-66.6666666666667,4,2,1,75,0,1
247992,-200,4,2,1,75,0,1
248118,-66.6666666666667,4,2,1,75,0,1
248202,-200,4,2,1,75,0,1
248286,-66.6666666666667,4,2,1,75,0,1
248369,-200,4,2,1,75,0,1
248411,-52.6315789473684,4,2,1,75,0,1
248432,-1000,4,2,1,75,0,1
248453,-52.6315789473684,4,2,1,75,0,1
248474,-1000,4,2,1,75,0,1
248495,-52.6315789473684,4,2,1,75,0,1
248516,-1000,4,2,1,75,0,1
248537,-52.6315789473684,4,2,1,75,0,1
248558,-1000,4,2,1,75,0,1
248579,-52.6315789473684,4,2,1,75,0,1
248600,-1000,4,2,1,75,0,1
248621,-52.6315789473684,4,2,1,75,0,1
248642,-1000,4,2,1,75,0,1
248663,-52.6315789473684,4,2,1,75,0,1
248684,-1000,4,2,1,75,0,1
248705,-52.6315789473684,4,2,1,75,0,1
248726,-1000,4,2,1,75,0,1
248746,-52.6315789473684,4,2,1,75,0,1
248767,-1000,4,2,1,75,0,1
248788,-52.6315789473684,4,2,1,75,0,1
248809,-1000,4,2,1,75,0,1
248830,-52.6315789473684,4,2,1,75,0,1
248851,-1000,4,2,1,75,0,1
248872,-52.6315789473684,4,2,1,75,0,1
248893,-1000,4,2,1,75,0,1
248914,-66.6666666666667,4,2,1,75,0,1
248956,-200,4,2,1,75,0,1
249040,-66.6666666666667,4,2,1,75,0,1
249208,-100,4,2,1,75,0,1
251093,-40,4,2,1,75,0,1
251114,-200,4,2,1,75,0,1
251177,-100,4,2,1,75,0,1
251764,-66.6666666666667,4,2,1,75,0,1
251848,-100,4,2,1,75,0,1
253105,-62.5,4,2,1,75,0,1
253147,-200,4,2,1,75,0,1
253231,-62.5,4,2,1,75,0,1
253314,-200,4,2,1,75,0,1
253398,-62.5,4,2,1,75,0,1
253482,-200,4,2,1,75,0,1
253566,-62.5,4,2,1,75,0,1
253608,-200,4,2,1,75,0,1
253650,-62.5,4,2,1,75,0,1
253691,-200,4,2,1,75,0,1
253733,-62.5,4,2,1,75,0,1
253775,-200,4,2,1,75,0,1
253817,-62.5,4,2,1,75,0,1
253901,-200,4,2,1,75,0,1
253985,-62.5,4,2,1,75,0,1
254069,-200,4,2,1,75,0,1
254110,-100,4,2,1,75,0,1
254445,-66.6666666666667,4,2,1,75,0,1
254528,-200,4,2,1,75,0,1
254696,-66.6666666666667,4,2,1,75,0,1
254822,-200,4,2,1,75,0,1
254905,-66.6666666666667,4,2,1,75,0,1
254947,-52.6315789473684,4,2,1,75,0,1
254989,-1000,4,2,1,75,0,1
255031,-52.6315789473684,4,2,1,75,0,1
255073,-1000,4,2,1,75,0,1
255115,-66.6666666666667,4,2,1,75,0,1
255157,-200,4,2,1,75,0,1
255241,-66.6666666666667,4,2,1,75,0,1
255324,-200,4,2,1,75,0,1
255408,-66.6666666666667,4,2,1,75,0,1
255492,-200,4,2,1,75,0,1
255576,-66.6666666666667,4,2,1,75,0,1
255618,-52.6315789473684,4,2,1,75,0,1
255660,-1000,4,2,1,75,0,1
255702,-52.6315789473684,4,2,1,75,0,1
255743,-1000,4,2,1,75,0,1
255785,-66.6666666666667,4,2,1,75,0,1
255869,-200,4,2,1,75,0,1
256037,-66.6666666666667,4,2,1,75,0,1
256121,-52.6315789473684,4,2,1,75,0,1
256141,-1000,4,2,1,75,0,1
256162,-52.6315789473684,4,2,1,75,0,1
256183,-1000,4,2,1,75,0,1
256204,-52.6315789473684,4,2,1,75,0,1
256225,-1000,4,2,1,75,0,1
256246,-52.6315789473684,4,2,1,75,0,1
256267,-1000,4,2,1,75,0,1
256288,-52.6315789473684,4,2,1,75,0,1
256309,-1000,4,2,1,75,0,1
256330,-52.6315789473684,4,2,1,75,0,1
256351,-1000,4,2,1,75,0,1
256372,-52.6315789473684,4,2,1,75,0,1
256393,-1000,4,2,1,75,0,1
256414,-52.6315789473684,4,2,1,75,0,1
256435,-1000,4,2,1,75,0,1
256456,-52.6315789473684,4,2,1,75,0,1
256498,-1000,4,2,1,75,0,1
256539,-52.6315789473684,4,2,1,75,0,1
256581,-1000,4,2,1,75,0,1
256623,-52.6315789473684,4,2,1,75,0,1
256665,-1000,4,2,1,75,0,1
256707,-52.6315789473684,4,2,1,75,0,1
256749,-1000,4,2,1,75,0,1
256791,-66.6666666666667,4,2,1,75,0,1
256834,-100,4,2,1,75,0,1
256959,-66.6666666666667,4,2,1,75,0,1
257043,-100,4,2,1,75,0,1
257587,-66.6666666666667,4,2,1,75,0,1
257629,-52.6315789473684,4,2,1,75,0,1
257650,-1000,4,2,1,75,0,1
257671,-52.6315789473684,4,2,1,75,0,1
257692,-1000,4,2,1,75,0,1
257713,-52.6315789473684,4,2,1,75,0,1
257734,-1000,4,2,1,75,0,1
257755,-52.6315789473684,4,2,1,75,0,1
257776,-66.6666666666667,4,2,1,75,0,1
257796,-200,4,2,1,75,0,1
257838,-66.6666666666667,4,2,1,75,0,1
257922,-200,4,2,1,75,0,1
258006,-66.6666666666667,4,2,1,75,0,1
258090,-200,4,2,1,75,0,1
258174,-66.6666666666667,4,2,1,75,0,1
258257,-200,4,2,1,75,0,1
258341,-66.6666666666667,4,2,1,75,0,1
258425,-200,4,2,1,75,0,1
258551,-66.6666666666667,4,2,1,75,0,1
258718,-200,4,2,1,75,0,1
258803,-100,4,2,1,75,0,1
259808,-66.6666666666667,4,2,1,75,0,1
259934,-100,4,2,1,75,0,1
262490,-66.6666666666667,4,2,1,75,0,1
262574,-100,4,2,1,75,0,1
263831,-62.5,4,2,1,75,0,1
263873,-200,4,2,1,75,0,1
263957,-62.5,4,2,1,75,0,1
264040,-200,4,2,1,75,0,1
264124,-62.5,4,2,1,75,0,1
264208,-200,4,2,1,75,0,1
264292,-62.5,4,2,1,75,0,1
264334,-200,4,2,1,75,0,1
264376,-62.5,4,2,1,75,0,1
264417,-200,4,2,1,75,0,1
264459,-62.5,4,2,1,75,0,1
264501,-200,4,2,1,75,0,1
264543,-62.5,4,2,1,75,0,1
264627,-200,4,2,1,75,0,1
264711,-62.5,4,2,1,75,0,1
264795,-200,4,2,1,75,0,1
264836,-100,4,2,1,75,0,1
265172,-117.647058823529,4,2,1,75,0,0
266512,-105.263157894737,4,2,1,75,0,0
267183,-95.2380952380952,4,2,1,75,0,0
267853,-52.6315789473684,4,2,1,75,0,0
267874,-1000,4,2,1,75,0,0
267895,-52.6315789473684,4,2,1,75,0,0
267916,-1000,4,2,1,75,0,0
267937,-52.6315789473684,4,2,1,75,0,0
267958,-1000,4,2,1,75,0,0
267979,-52.6315789473684,4,2,1,75,0,0
268000,-1000,4,2,1,75,0,0
268021,-52.6315789473684,4,2,1,75,0,0
268042,-1000,4,2,1,75,0,0
268063,-52.6315789473684,4,2,1,75,0,0
268084,-1000,4,2,1,75,0,0
268105,-52.6315789473684,4,2,1,75,0,0
268125,-1000,4,2,1,75,0,0
268146,-52.6315789473684,4,2,1,75,0,0
268167,-1000,4,2,1,75,0,0
268188,-52.6315789473684,4,2,1,75,0,0
268209,-1000,4,2,1,75,0,0
268230,-52.6315789473684,4,2,1,75,0,0
268251,-1000,4,2,1,75,0,0
268272,-52.6315789473684,4,2,1,75,0,0
268293,-1000,4,2,1,75,0,0
268314,-52.6315789473684,4,2,1,75,0,0
268335,-1000,4,2,1,75,0,0
268356,-52.6315789473684,4,2,1,75,0,0
268377,-1000,4,2,1,75,0,0
268398,-52.6315789473684,4,2,1,75,0,0
268419,-1000,4,2,1,75,0,0
268440,-52.6315789473684,4,2,1,75,0,0
268461,-1000,4,2,1,75,0,0
268482,-52.6315789473684,4,2,1,75,0,0
268503,-1000,4,2,1,75,0,0
268524,-111.111111111111,4,2,1,75,0,0
268859,-117.647058823529,4,2,1,75,0,0
268970,-125,4,2,1,75,0,0
269082,-133.333333333333,4,2,1,75,0,0
269194,-142.857142857143,4,2,1,75,0,0
269529,-153.846153846154,4,2,1,75,0,0
269864,-166.666666666667,4,2,1,75,0,0

[HitObjects]
64,192,2044,5,8,0:0:0:0:
192,192,2044,1,0,0:0:0:0:
320,192,2212,1,0,0:0:0:0:
192,192,2379,1,4,0:0:0:0:
448,192,2379,128,0,2965:0:0:0:0:
64,192,2379,128,0,2965:0:0:0:0:
320,192,2714,128,0,2965:0:0:0:0:
448,192,3049,1,2,0:0:0:0:
64,192,3049,1,0,0:0:0:0:
320,192,3049,1,0,0:0:0:0:
192,192,3133,1,0,0:0:0:0:
320,192,3216,1,0,0:0:0:0:
64,192,3300,1,0,0:0:0:0:
320,192,3384,1,0,0:0:0:0:
192,192,3468,1,0,0:0:0:0:
320,192,3552,1,4,0:0:0:0:
448,192,3552,128,0,3971:0:0:0:0:
64,192,3552,128,0,3971:0:0:0:0:
320,192,3887,128,0,3971:0:0:0:0:
448,192,4054,1,2,0:0:0:0:
320,192,4054,1,0,0:0:0:0:
64,192,4054,1,0,0:0:0:0:
192,192,4222,1,4,0:0:0:0:
448,192,4222,128,0,4641:0:0:0:0:
64,192,4222,128,0,4641:0:0:0:0:
320,192,4557,128,0,4641:0:0:0:0:
448,192,4725,1,2,0:0:0:0:
64,192,4725,1,0,0:0:0:0:
192,192,4892,1,0,0:0:0:0:
320,192,4976,1,0,0:0:0:0:
64,192,5060,128,0,5647:0:0:0:0:
192,192,5060,1,4,0:0:0:0:
448,192,5060,128,0,5563:0:0:0:0:
192,192,5563,1,4,0:0:0:0:
320,192,5647,1,4,0:0:0:0:
448,192,5647,1,0,0:0:0:0:
192,192,5730,1,0,0:0:0:0:
64,192,5730,1,2,0:0:0:0:
448,192,5730,128,0,5842:0:0:0:0:
320,192,5786,128,0,5898:0:0:0:0:
192,192,5842,128,0,5954:0:0:0:0:
64,192,5898,128,0,6010:0:0:0:0:
448,192,5954,128,0,6066:0:0:0:0:
320,192,6010,128,0,6122:0:0:0:0:
192,192,6066,128,0,6177:0:0:0:0:
64,192,6122,128,0,6233:0:0:0:0:
192,192,6233,1,4,0:0:0:0:
448,192,6233,128,0,6736:0:0:0:0:
320,192,6233,128,0,6485:0:0:0:0:
320,192,6568,1,2,0:0:0:0:
192,192,6568,1,0,0:0:0:0:
192,192,6736,1,2,0:0:0:0:
64,192,6736,1,0,0:0:0:0:
320,192,6904,1,4,0:0:0:0:
448,192,6904,128,0,7239:0:0:0:0:
64,192,6904,128,0,7239:0:0:0:0:
64,192,7406,1,0,0:0:0:0:
192,192,7406,1,0,0:0:0:0:
320,192,7574,1,0,0:0:0:0:
192,192,7742,1,4,0:0:0:0:
448,192,7742,128,0,8328:0:0:0:0:
64,192,7742,128,0,8328:0:0:0:0:
320,192,8077,128,0,8328:0:0:0:0:
64,192,8412,1,0,0:0:0:0:
448,192,8412,1,2,0:0:0:0:
320,192,8412,1,0,0:0:0:0:
192,192,8496,1,0,0:0:0:0:
448,192,8580,1,0,0:0:0:0:
64,192,8580,1,0,0:0:0:0:
320,192,8663,1,0,0:0:0:0:
64,192,8747,1,0,0:0:0:0:
192,192,8747,1,0,0:0:0:0:
320,192,8915,1,4,0:0:0:0:
448,192,8915,128,0,9334:0:0:0:0:
64,192,8915,128,0,9334:0:0:0:0:
192,192,9250,128,0,9334:0:0:0:0:
64,192,9418,1,0,0:0:0:0:
192,192,9418,1,0,0:0:0:0:
448,192,9418,1,2,0:0:0:0:
64,192,9585,1,4,0:0:0:0:
448,192,9585,128,0,10004:0:0:0:0:
320,192,9585,128,0,10004:0:0:0:0:
192,192,9920,128,0,10004:0:0:0:0:
320,192,10088,1,0,0:0:0:0:
448,192,10088,1,0,0:0:0:0:
192,192,10256,1,0,0:0:0:0:
64,192,10256,1,0,0:0:0:0:
320,192,10423,1,0,0:0:0:0:
448,192,10423,1,4,0:0:0:0:
64,192,10423,1,0,0:0:0:0:
192,192,10591,1,0,0:0:0:0:
320,192,10647,1,0,0:0:0:0:
64,192,10703,1,0,0:0:0:0:
448,192,10758,1,0,0:0:0:0:
192,192,10814,1,0,0:0:0:0:
320,192,10870,1,0,0:0:0:0:
448,192,10926,1,0,0:0:0:0:
64,192,10982,1,0,0:0:0:0:
192,192,11038,1,0,0:0:0:0:
320,192,11135,1,0,0:0:0:0:
64,192,11219,1,0,0:0:0:0:
448,192,11303,1,0,0:0:0:0:
320,192,11429,1,0,0:0:0:0:
192,192,11596,1,0,0:0:0:0:
64,192,11764,1,4,0:0:0:0:
448,192,11764,1,0,0:0:0:0:
320,192,11764,1,0,0:0:0:0:
192,192,12015,1,4,0:0:0:0:
448,192,12015,1,0,0:0:0:0:
320,192,12015,1,0,0:0:0:0:
64,192,12267,1,0,0:0:0:0:
320,192,12267,1,4,0:0:0:0:
192,192,12267,1,0,0:0:0:0:
448,192,12518,1,4,0:0:0:0:
320,192,12518,1,0,0:0:0:0:
192,192,12518,1,0,0:0:0:0:
192,192,12770,1,0,0:0:0:0:
64,192,12770,128,0,12937:0:0:0:0:
448,192,12937,128,0,13105:0:0:0:0:
320,192,13105,1,4,0:0:0:0:
192,192,13105,128,0,13691:0:0:0:0:
64,192,13105,128,0,13691:0:0:0:0:
448,192,13440,128,0,13691:0:0:0:0:
448,192,13775,1,2,0:0:0:0:
192,192,13775,1,0,0:0:0:0:
64,192,13775,1,0,0:0:0:0:
64,192,13943,1,0,0:0:0:0:
192,192,13943,1,0,0:0:0:0:
192,192,14110,1,0,0:0:0:0:
64,192,14110,1,0,0:0:0:0:
448,192,14278,128,0,14948:0:0:0:0:
192,192,14446,1,4,0:0:0:0:
64,192,14446,128,0,15032:0:0:0:0:
320,192,14613,128,0,14948:0:0:0:0:
192,192,14948,1,0,0:0:0:0:
320,192,15032,1,4,0:0:0:0:
448,192,15032,1,0,0:0:0:0:
192,192,15116,1,2,0:0:0:0:
64,192,15116,1,0,0:0:0:0:
320,192,15284,1,0,0:0:0:0:
192,192,15451,128,0,15563:0:0:0:0:
448,192,15451,128,0,15563:0:0:0:0:
192,192,15619,128,0,15730:0:0:0:0:
448,192,15619,128,0,15730:0:0:0:0:
64,192,15786,128,0,16289:0:0:0:0:
448,192,15786,128,0,16373:0:0:0:0:
320,192,15786,1,4,0:0:0:0:
320,192,16289,128,0,16373:0:0:0:0:
64,192,16373,1,0,0:0:0:0:
320,192,16457,1,2,0:0:0:0:
448,192,16457,1,0,0:0:0:0:
320,192,16624,1,0,0:0:0:0:
448,192,16624,1,0,0:0:0:0:
320,192,16792,1,0,0:0:0:0:
448,192,16792,1,0,0:0:0:0:
192,192,16960,1,0,0:0:0:0:
320,192,17043,1,4,0:0:0:0:
448,192,17043,1,0,0:0:0:0:
192,192,17127,1,4,0:0:0:0:
64,192,17127,1,0,0:0:0:0:
448,192,17127,1,0,0:0:0:0:
64,192,17295,1,0,0:0:0:0:
192,192,17295,1,4,0:0:0:0:
320,192,17462,1,2,0:0:0:0:
448,192,17462,1,0,0:0:0:0:
192,192,17630,1,4,0:0:0:0:
64,192,17630,1,0,0:0:0:0:
64,192,17714,1,0,0:0:0:0:
192,192,17714,1,4,0:0:0:0:
320,192,17797,1,2,0:0:0:0:
448,192,17797,1,0,0:0:0:0:
64,192,17797,1,0,0:0:0:0:
320,192,17965,5,2,0:0:0:0:
448,192,17965,1,0,0:0:0:0:
320,192,18133,1,2,0:0:0:0:
448,192,18133,128,0,18384:0:0:0:0:
64,192,18300,128,0,18384:0:0:0:0:
192,192,18468,1,4,0:0:0:0:
64,192,18468,128,0,19054:0:0:0:0:
448,192,18468,128,0,19054:0:0:0:0:
320,192,18971,128,0,19054:0:0:0:0:
320,192,19138,1,2,0:0:0:0:
448,192,19138,1,0,0:0:0:0:
64,192,19138,1,0,0:0:0:0:
192,192,19306,1,0,0:0:0:0:
64,192,19473,128,0,19725:0:0:0:0:
192,192,19641,128,0,19725:0:0:0:0:
192,192,19809,1,4,0:0:0:0:
64,192,19809,128,0,20311:0:0:0:0:
448,192,19809,128,0,20395:0:0:0:0:
320,192,20311,128,0,20395:0:0:0:0:
64,192,20395,1,0,0:0:0:0:
192,192,20395,1,4,0:0:0:0:
320,192,20479,1,2,0:0:0:0:
448,192,20479,1,0,0:0:0:0:
192,192,20647,1,0,0:0:0:0:
320,192,20814,1,0,0:0:0:0:
64,192,20814,1,0,0:0:0:0:
64,192,20982,1,0,0:0:0:0:
192,192,21149,1,0,0:0:0:0:
320,192,21149,1,0,0:0:0:0:
448,192,21149,1,4,0:0:0:0:
320,192,21317,1,0,0:0:0:0:
320,192,21485,1,0,0:0:0:0:
64,192,21568,1,0,0:0:0:0:
192,192,21568,1,2,0:0:0:0:
320,192,21652,1,0,0:0:0:0:
448,192,21652,1,4,0:0:0:0:
448,192,21820,1,0,0:0:0:0:
192,192,21820,1,2,0:0:0:0:
64,192,21820,1,0,0:0:0:0:
192,192,21987,1,0,0:0:0:0:
320,192,22155,1,4,0:0:0:0:
448,192,22155,1,0,0:0:0:0:
64,192,22155,1,0,0:0:0:0:
448,192,22323,1,0,0:0:0:0:
320,192,22323,1,4,0:0:0:0:
64,192,22323,1,0,0:0:0:0:
64,192,22574,1,0,0:0:0:0:
192,192,22574,1,4,0:0:0:0:
320,192,22574,1,0,0:0:0:0:
192,192,22825,1,4,0:0:0:0:
448,192,22825,1,0,0:0:0:0:
320,192,22825,1,0,0:0:0:0:
192,192,22993,1,4,0:0:0:0:
64,192,22993,1,0,0:0:0:0:
448,192,22993,1,0,0:0:0:0:
320,192,23161,1,2,0:0:0:0:
64,192,23161,1,0,0:0:0:0:
448,192,23161,1,0,0:0:0:0:
192,192,23328,128,0,23747:0:0:0:0:
320,192,23496,128,0,23747:0:0:0:0:
64,192,23831,1,0,0:0:0:70:Cymbal.wav
192,192,23831,1,0,0:0:0:0:
448,192,23831,1,4,0:0:0:0:
320,192,23831,1,0,0:0:0:0:
192,192,24166,1,2,0:0:0:0:
320,192,24166,1,0,0:0:0:0:
320,192,24334,1,0,0:0:0:0:
64,192,24669,1,4,0:0:0:0:
448,192,24669,1,0,0:0:0:0:
320,192,24837,1,0,0:0:0:0:
192,192,24837,1,2,0:0:0:0:
64,192,25004,128,0,25339:0:0:0:0:
448,192,25172,1,0,0:0:0:0:
192,192,25339,1,4,0:0:0:0:
320,192,25507,1,2,0:0:0:0:
448,192,25507,1,0,0:0:0:0:
192,192,25675,1,0,0:0:0:0:
64,192,25675,1,0,0:0:0:0:
448,192,25842,1,0,0:0:0:0:
192,192,26010,1,4,0:0:0:0:
320,192,26010,1,0,0:0:0:0:
64,192,26177,128,0,26429:0:0:0:0:
320,192,26177,128,2,26429:0:0:0:0:
448,192,26177,128,0,26429:0:0:0:0:
192,192,26513,128,0,26764:0:0:0:0:
64,192,26513,128,4,26848:0:0:0:0:
320,192,26513,128,0,26848:0:0:0:0:
192,192,26848,1,2,0:0:0:0:
192,192,27015,1,0,0:0:0:0:
320,192,27099,1,0,0:0:0:0:
64,192,27183,1,0,0:0:0:0:
192,192,27267,1,0,0:0:0:0:
320,192,27351,1,4,0:0:0:0:
448,192,27351,1,0,0:0:0:0:
192,192,27518,1,0,0:0:0:0:
448,192,27518,1,2,0:0:0:0:
320,192,27853,1,0,0:0:0:0:
64,192,27853,1,4,0:0:0:0:
64,192,28021,1,0,0:0:0:0:
192,192,28189,1,0,0:0:0:0:
320,192,28189,1,2,0:0:0:0:
64,192,28356,1,0,0:0:0:0:
192,192,28356,1,0,0:0:0:0:
448,192,28440,1,0,0:0:0:0:
64,192,28524,128,0,28775:0:0:0:0:
192,192,28524,128,0,28775:0:0:0:0:
320,192,28524,128,0,28775:0:0:0:0:
64,192,28859,128,0,29110:0:0:0:0:
320,192,28859,128,0,29110:0:0:0:0:
448,192,28859,128,2,29110:0:0:0:0:
64,192,29194,128,4,29446:0:0:0:0:
192,192,29194,128,0,29446:0:0:0:0:
320,192,29194,128,0,29529:0:0:0:0:
64,192,29529,1,0,0:0:0:0:
192,192,29529,1,2,0:0:0:0:
192,192,29697,1,0,0:0:0:0:
448,192,29781,1,0,0:0:0:0:
64,192,29865,1,0,0:0:0:0:
320,192,29865,1,0,0:0:0:0:
192,192,29948,1,0,0:0:0:0:
448,192,30032,1,4,0:0:0:0:
320,192,30032,1,0,0:0:0:0:
64,192,30200,1,0,0:0:0:0:
192,192,30200,1,2,0:0:0:0:
64,192,30367,128,0,30703:0:0:0:0:
320,192,30535,1,0,0:0:0:0:
448,192,30535,1,4,0:0:0:0:
192,192,30703,1,0,0:0:0:0:
64,192,30870,1,0,0:0:0:0:
448,192,30870,1,2,0:0:0:0:
64,192,31038,1,0,0:0:0:0:
320,192,31038,1,0,0:0:0:0:
192,192,31122,1,0,0:0:0:0:
320,192,31205,1,0,0:0:0:0:
448,192,31205,1,0,0:0:0:0:
64,192,31289,1,0,0:0:0:0:
192,192,31373,1,4,0:0:0:0:
320,192,31373,1,0,0:0:0:0:
64,192,31541,128,0,31792:0:0:0:0:
320,192,31541,128,2,31792:0:0:0:0:
448,192,31541,128,0,31792:0:0:0:0:
64,192,31876,128,0,32127:0:0:0:0:
192,192,31876,128,4,32127:0:0:0:0:
320,192,31876,128,0,32127:0:0:0:0:
64,192,32211,1,0,0:0:0:0:
192,192,32211,1,0,0:0:0:0:
320,192,32211,1,2,0:0:0:0:
448,192,32379,1,0,0:0:0:0:
64,192,32379,1,0,0:0:0:0:
320,192,32462,1,0,0:0:0:0:
192,192,32546,1,0,0:0:0:0:
64,192,32546,1,0,0:0:0:0:
448,192,32630,1,0,0:0:0:0:
192,192,32714,1,4,0:0:0:0:
320,192,32714,1,0,0:0:0:0:
64,192,32881,1,0,0:0:0:0:
320,192,32881,1,0,0:0:0:0:
448,192,32881,1,2,0:0:0:0:
192,192,33049,1,0,0:0:0:0:
64,192,33049,1,0,0:0:0:0:
64,192,33216,1,4,0:0:0:0:
320,192,33216,1,0,0:0:0:0:
192,192,33384,1,0,0:0:0:0:
320,192,33468,1,0,0:0:0:0:
448,192,33552,1,0,0:0:0:0:
192,192,33552,1,0,0:0:0:0:
64,192,33552,1,2,0:0:0:0:
320,192,33719,1,0,0:0:0:0:
448,192,33719,1,0,0:0:0:0:
64,192,33803,1,0,0:0:0:0:
192,192,33887,1,4,0:0:0:0:
320,192,33887,1,0,0:0:0:0:
448,192,34054,1,0,0:0:0:0:
448,192,34138,1,0,0:0:0:0:
192,192,34222,1,0,0:0:0:0:
192,192,34306,1,0,0:0:0:0:
448,192,34390,1,0,0:0:0:0:
448,192,34473,1,0,0:0:0:0:
64,192,34557,1,4,0:0:0:0:
192,192,34557,1,0,0:0:0:0:
320,192,34557,1,0,0:0:0:70:Cymbal.wav
64,192,34725,1,0,0:0:0:0:
192,192,34725,1,0,0:0:0:0:
64,192,34892,1,0,0:0:0:0:
320,192,34892,1,0,0:0:0:0:
448,192,34892,1,2,0:0:0:0:
192,192,35060,1,0,0:0:0:0:
320,192,35060,1,0,0:0:0:0:
448,192,35144,1,0,0:0:0:0:
192,192,35228,1,0,0:0:0:0:
64,192,35228,1,0,0:0:0:0:
320,192,35311,1,0,0:0:0:0:
64,192,35395,1,4,0:0:0:0:
448,192,35395,1,0,0:0:0:0:
192,192,35395,1,0,0:0:0:0:
192,192,35563,1,0,0:0:0:0:
320,192,35563,1,2,0:0:0:0:
448,192,35563,1,0,0:0:0:0:
320,192,35730,1,0,0:0:0:0:
192,192,35730,1,0,0:0:0:0:
64,192,35814,1,0,0:0:0:0:
320,192,35898,1,0,0:0:0:0:
448,192,35898,1,0,0:0:0:0:
192,192,36066,1,0,0:0:0:0:
64,192,36066,1,4,0:0:0:0:
448,192,36066,1,0,0:0:0:0:
192,192,36233,1,0,0:0:0:0:
320,192,36233,1,2,0:0:0:0:
448,192,36233,1,0,0:0:0:0:
64,192,36401,1,0,0:0:0:0:
320,192,36401,1,0,0:0:0:0:
192,192,36485,1,0,0:0:0:0:
64,192,36568,1,0,0:0:0:0:
448,192,36568,1,0,0:0:0:0:
320,192,36652,1,0,0:0:0:0:
192,192,36736,1,4,0:0:0:0:
64,192,36736,1,0,0:0:0:0:
448,192,36736,1,0,0:0:0:0:
320,192,36904,1,2,0:0:0:0:
448,192,36904,1,0,0:0:0:0:
64,192,36904,1,0,0:0:0:0:
192,192,37071,1,0,0:0:0:0:
320,192,37071,1,0,0:0:0:0:
192,192,37239,1,0,0:0:0:0:
64,192,37239,1,4,0:0:0:0:
448,192,37239,1,0,0:0:0:0:
320,192,37406,1,0,0:0:0:0:
448,192,37448,1,0,0:0:0:0:
192,192,37490,1,0,0:0:0:0:
320,192,37574,1,2,0:0:0:0:
448,192,37574,1,0,0:0:0:0:
64,192,37574,1,0,0:0:0:0:
192,192,37742,1,0,0:0:0:0:
320,192,37742,1,0,0:0:0:0:
64,192,37909,1,0,0:0:0:0:
192,192,37909,1,0,0:0:0:0:
448,192,37993,1,0,0:0:0:0:
320,192,38077,1,0,0:0:0:0:
192,192,38077,1,0,0:0:0:0:
64,192,38077,1,4,0:0:0:0:
192,192,38244,1,0,0:0:0:0:
320,192,38244,1,2,0:0:0:0:
448,192,38244,1,0,0:0:0:0:
192,192,38412,1,0,0:0:0:0:
64,192,38412,1,0,0:0:0:0:
448,192,38496,1,0,0:0:0:0:
320,192,38580,1,0,0:0:0:0:
192,192,38580,1,0,0:0:0:0:
64,192,38663,1,0,0:0:0:0:
192,192,38747,1,0,0:0:0:0:
320,192,38747,1,4,0:0:0:0:
448,192,38747,1,0,0:0:0:0:
448,192,38915,1,0,0:0:0:0:
192,192,38915,1,0,0:0:0:0:
64,192,38915,1,2,0:0:0:0:
320,192,39082,1,0,0:0:0:0:
448,192,39082,1,0,0:0:0:0:
192,192,39166,1,0,0:0:0:0:
64,192,39250,1,0,0:0:0:0:
320,192,39250,1,0,0:0:0:0:
448,192,39334,1,0,0:0:0:0:
192,192,39418,1,4,0:0:0:0:
64,192,39418,1,0,0:0:0:0:
320,192,39418,1,0,0:0:0:0:
64,192,39585,1,0,0:0:0:0:
320,192,39585,1,0,0:0:0:0:
448,192,39585,1,2,0:0:0:0:
320,192,39753,1,0,0:0:0:0:
192,192,39753,1,0,0:0:0:0:
448,192,39920,1,4,0:0:0:0:
192,192,39920,1,0,0:0:0:70:Cymbal.wav
64,192,39920,1,2,0:0:0:0:
320,192,40088,1,0,0:0:0:0:
448,192,40088,1,4,0:0:0:0:
320,192,40256,1,2,0:0:0:0:
192,192,40256,1,0,0:0:0:0:
64,192,40256,1,4,0:0:0:0:
448,192,40423,1,0,0:0:0:0:
64,192,40423,1,4,0:0:0:0:
192,192,40591,1,4,0:0:0:0:
320,192,40591,1,0,0:0:0:0:
448,192,40591,1,2,0:0:0:0:
192,192,40758,1,4,0:0:0:0:
64,192,40758,1,0,0:0:0:0:
64,192,40926,1,2,0:0:0:0:
320,192,40926,1,4,0:0:0:0:
448,192,40926,1,0,0:0:0:0:
320,192,41094,1,4,0:0:0:0:
192,192,41094,1,0,0:0:0:0:
448,192,41261,1,4,0:0:0:0:
192,192,41261,1,2,0:0:0:0:
64,192,41261,1,0,0:0:0:0:
320,192,41429,1,0,0:0:0:0:
448,192,41429,1,4,0:0:0:0:
320,192,41596,1,2,0:0:0:0:
192,192,41596,1,0,0:0:0:0:
64,192,41596,1,4,0:0:0:0:
64,192,41764,1,4,0:0:0:0:
448,192,41764,1,0,0:0:0:0:
192,192,41932,1,4,0:0:0:0:
320,192,41932,1,0,0:0:0:0:
448,192,41932,1,2,0:0:0:0:
64,192,42099,1,0,0:0:0:0:
192,192,42099,1,4,0:0:0:0:
64,192,42267,1,2,0:0:0:0:
320,192,42267,1,4,0:0:0:0:
448,192,42267,1,0,0:0:0:0:
320,192,42434,1,4,0:0:0:0:
192,192,42434,1,0,0:0:0:0:
64,192,42602,1,0,0:0:0:0:
192,192,42602,1,4,0:0:0:0:
448,192,42686,1,0,0:0:0:0:
320,192,42686,1,4,0:0:0:0:
192,192,42770,1,4,0:0:0:0:
64,192,42770,1,0,0:0:0:0:
320,192,42853,1,4,0:0:0:0:
448,192,42853,1,0,0:0:0:0:
192,192,42937,1,4,0:0:0:0:
64,192,42937,1,0,0:0:0:0:
320,192,43021,1,4,0:0:0:0:
448,192,43021,1,0,0:0:0:0:
192,192,43105,1,4,0:0:0:0:
64,192,43105,1,0,0:0:0:0:
320,192,43189,1,4,0:0:0:0:
448,192,43189,1,0,0:0:0:0:
192,192,43272,1,4,0:0:0:0:
64,192,43272,1,0,0:0:0:0:
64,192,43356,1,0,0:0:0:0:
192,192,43356,1,4,0:0:0:0:
320,192,43440,1,4,0:0:0:0:
448,192,43440,1,0,0:0:0:0:
448,192,43524,1,0,0:0:0:0:
320,192,43524,1,4,0:0:0:0:
192,192,43608,1,4,0:0:0:0:
64,192,43608,1,0,0:0:0:0:
64,192,43691,1,0,0:0:0:0:
192,192,43691,1,4,0:0:0:0:
320,192,43775,1,4,0:0:0:0:
448,192,43775,1,0,0:0:0:0:
448,192,43859,1,0,0:0:0:0:
320,192,43859,1,4,0:0:0:0:
64,192,43943,1,0,0:0:0:0:
192,192,43943,1,4,0:0:0:0:
320,192,44948,5,2,0:0:0:0:
192,192,44948,1,0,0:0:0:0:
64,192,45284,1,4,0:0:0:0:
192,192,45284,1,0,0:0:0:0:
320,192,45284,1,0,0:0:0:0:
448,192,45284,1,0,0:0:0:70:Cymbal.wav
192,192,45619,1,0,0:0:0:0:
64,192,45619,128,0,46205:0:0:0:0:
448,192,45619,1,0,0:0:0:0:
320,192,45786,1,0,0:0:0:0:
192,192,45870,1,0,0:0:0:0:
320,192,45954,1,2,0:0:0:0:
448,192,45954,128,0,46289:0:0:0:0:
320,192,46122,1,0,0:0:0:0:
192,192,46289,1,0,0:0:0:0:
64,192,46289,128,0,46541:0:0:0:0:
320,192,46457,1,0,0:0:0:0:
448,192,46624,128,4,46792:0:0:0:0:
192,192,46624,128,0,46876:0:0:0:0:
64,192,46624,128,0,46960:0:0:0:0:
320,192,46960,1,0,0:0:0:0:
448,192,47001,1,0,0:0:0:0:
192,192,47043,1,0,0:0:0:0:
320,192,47085,1,0,0:0:0:0:
64,192,47127,1,0,0:0:0:0:
192,192,47169,1,0,0:0:0:0:
448,192,47211,1,4,0:0:0:0:
320,192,47253,1,0,0:0:0:0:
192,192,47295,1,2,0:0:0:0:
64,192,47295,1,0,0:0:0:0:
320,192,47379,1,0,0:0:0:0:
192,192,47462,1,0,0:0:0:0:
320,192,47546,1,0,0:0:0:0:
192,192,47630,128,0,47881:0:0:0:0:
448,192,47630,128,0,47881:0:0:0:0:
192,192,47965,1,4,0:0:0:0:
64,192,47965,128,0,48070:0:0:0:0:
448,192,47965,128,0,48070:0:0:0:0:
64,192,48133,128,0,48237:0:0:0:0:
448,192,48133,128,0,48237:0:0:0:0:
64,192,48300,128,0,48405:0:0:0:0:
448,192,48300,128,0,48405:0:0:0:0:
64,192,48468,1,0,0:0:0:0:
448,192,48468,1,0,0:0:0:0:
320,192,48552,1,0,0:0:0:0:
192,192,48552,1,0,0:0:0:0:
448,192,48635,128,0,49222:0:0:0:0:
64,192,48635,128,2,48887:0:0:0:0:
320,192,48803,1,0,0:0:0:0:
192,192,48971,1,0,0:0:0:0:
64,192,48971,128,0,49138:0:0:0:0:
320,192,49138,1,0,0:0:0:0:
64,192,49222,1,0,0:0:0:0:
192,192,49222,1,4,0:0:0:0:
320,192,49306,1,4,0:0:0:0:
448,192,49306,1,0,0:0:0:0:
64,192,49306,1,0,0:0:0:0:
320,192,49473,1,4,0:0:0:0:
448,192,49473,1,0,0:0:0:0:
192,192,49641,1,2,0:0:0:0:
64,192,49641,1,0,0:0:0:0:
448,192,49809,1,0,0:0:0:0:
320,192,49809,1,4,0:0:0:0:
320,192,49892,1,4,0:0:0:0:
448,192,49892,1,0,0:0:0:0:
192,192,49976,1,2,0:0:0:0:
64,192,49976,1,0,0:0:0:0:
448,192,49976,1,0,0:0:0:0:
64,192,50144,1,0,0:0:0:0:
192,192,50144,1,2,0:0:0:0:
64,192,50311,1,0,0:0:0:0:
192,192,50311,1,2,0:0:0:0:
448,192,50647,1,0,0:0:0:70:Cymbal.wav
320,192,50647,1,0,0:0:0:0:
192,192,50647,1,0,0:0:0:0:
64,192,50647,1,4,0:0:0:0:
320,192,50982,1,0,0:0:0:0:
448,192,50982,128,0,51568:0:0:0:0:
64,192,50982,1,0,0:0:0:0:
192,192,51149,1,0,0:0:0:0:
320,192,51233,1,0,0:0:0:0:
192,192,51317,1,2,0:0:0:0:
64,192,51317,128,0,51652:0:0:0:0:
192,192,51485,1,0,0:0:0:0:
320,192,51652,1,0,0:0:0:0:
448,192,51652,128,0,51904:0:0:0:0:
192,192,51820,1,0,0:0:0:0:
64,192,51987,128,4,52155:0:0:0:0:
320,192,51987,128,0,52239:0:0:0:0:
448,192,51987,128,0,52323:0:0:0:0:
192,192,52323,1,0,0:0:0:0:
64,192,52365,1,0,0:0:0:0:
320,192,52406,1,0,0:0:0:0:
448,192,52448,1,0,0:0:0:0:
192,192,52490,1,0,0:0:0:0:
320,192,52532,1,0,0:0:0:0:
64,192,52574,1,4,0:0:0:0:
192,192,52616,1,0,0:0:0:0:
320,192,52658,1,0,0:0:0:0:
448,192,52658,1,2,0:0:0:0:
192,192,52742,1,0,0:0:0:0:
320,192,52825,1,0,0:0:0:0:
192,192,52909,1,0,0:0:0:0:
448,192,52993,1,0,0:0:0:0:
64,192,52993,1,0,0:0:0:0:
192,192,53077,1,0,0:0:0:0:
320,192,53161,1,0,0:0:0:0:
448,192,53244,1,0,0:0:0:0:
64,192,53328,1,4,0:0:0:0:
192,192,53328,1,0,0:0:0:0:
64,192,53663,1,0,0:0:0:0:
320,192,53663,1,0,0:0:0:0:
448,192,53663,1,2,0:0:0:0:
320,192,53831,1,0,0:0:0:0:
192,192,53999,1,0,0:0:0:0:
64,192,53999,128,0,54103:0:0:0:0:
64,192,54166,128,0,54250:0:0:0:0:
192,192,54166,1,4,0:0:0:0:
448,192,54166,1,0,0:0:0:0:
64,192,54334,128,0,54418:0:0:0:0:
192,192,54334,1,0,0:0:0:0:
320,192,54334,1,2,0:0:0:0:
320,192,54501,1,0,0:0:0:0:
64,192,54501,128,0,54837:0:0:0:0:
448,192,54501,128,0,54837:0:0:0:0:
320,192,54837,1,4,0:0:0:0:
192,192,54837,1,0,0:0:0:0:
64,192,55004,1,0,0:0:0:0:
192,192,55004,1,2,0:0:0:0:
448,192,55004,1,0,0:0:0:0:
64,192,55172,1,0,0:0:0:0:
320,192,55172,128,0,55507:0:0:0:0:
448,192,55172,128,0,55507:0:0:0:0:
64,192,55507,1,4,0:0:0:0:
192,192,55507,1,0,0:0:0:0:
320,192,55675,128,2,55779:0:0:0:0:
192,192,55675,128,0,55947:0:0:0:0:
320,192,55842,128,0,55947:0:0:0:0:
448,192,56010,1,0,0:0:0:70:Cymbal.wav
320,192,56010,1,0,0:0:0:0:
192,192,56010,1,0,0:0:0:0:
64,192,56010,1,4,0:0:0:0:
320,192,56345,1,0,0:0:0:0:
448,192,56345,128,0,56932:0:0:0:0:
192,192,56513,1,0,0:0:0:0:
320,192,56596,1,0,0:0:0:0:
192,192,56680,1,2,0:0:0:0:
64,192,56680,128,0,57015:0:0:0:0:
192,192,56848,1,0,0:0:0:0:
320,192,57015,1,0,0:0:0:0:
448,192,57015,128,0,57267:0:0:0:0:
192,192,57183,1,0,0:0:0:0:
64,192,57351,128,4,57518:0:0:0:0:
320,192,57351,128,0,57602:0:0:0:0:
448,192,57351,128,0,57686:0:0:0:0:
64,192,57686,1,0,0:0:0:0:
192,192,57728,1,0,0:0:0:0:
320,192,57770,1,0,0:0:0:0:
64,192,57811,1,0,0:0:0:0:
448,192,57853,1,0,0:0:0:0:
320,192,57895,1,0,0:0:0:0:
192,192,57937,1,4,0:0:0:0:
64,192,57979,1,0,0:0:0:0:
320,192,58021,1,2,0:0:0:0:
448,192,58021,1,0,0:0:0:0:
192,192,58105,1,0,0:0:0:0:
320,192,58189,1,0,0:0:0:0:
192,192,58272,1,0,0:0:0:0:
320,192,58356,128,0,58608:0:0:0:0:
64,192,58356,128,0,58608:0:0:0:0:
320,192,58691,1,4,0:0:0:0:
448,192,58691,128,0,58796:0:0:0:0:
64,192,58691,128,0,58796:0:0:0:0:
448,192,58859,128,0,58964:0:0:0:0:
64,192,58859,128,0,58964:0:0:0:0:
448,192,59027,128,0,59131:0:0:0:0:
64,192,59027,128,0,59131:0:0:0:0:
448,192,59194,1,0,0:0:0:0:
64,192,59194,1,0,0:0:0:0:
192,192,59278,1,0,0:0:0:0:
320,192,59278,1,0,0:0:0:0:
64,192,59362,128,0,59948:0:0:0:0:
448,192,59362,128,2,59613:0:0:0:0:
192,192,59529,1,0,0:0:0:0:
320,192,59697,1,0,0:0:0:0:
448,192,59697,128,0,59865:0:0:0:0:
192,192,59865,1,0,0:0:0:0:
448,192,59948,1,0,0:0:0:0:
320,192,59948,1,4,0:0:0:0:
192,192,60032,1,4,0:0:0:0:
64,192,60032,1,0,0:0:0:0:
448,192,60032,1,0,0:0:0:0:
192,192,60200,1,4,0:0:0:0:
64,192,60200,1,0,0:0:0:0:
320,192,60367,1,2,0:0:0:0:
448,192,60367,1,0,0:0:0:0:
64,192,60535,1,0,0:0:0:0:
192,192,60535,1,4,0:0:0:0:
192,192,60619,1,4,0:0:0:0:
64,192,60619,1,0,0:0:0:0:
320,192,60703,1,2,0:0:0:0:
448,192,60703,1,0,0:0:0:0:
64,192,60703,1,0,0:0:0:0:
448,192,60870,1,0,0:0:0:0:
320,192,60870,1,2,0:0:0:0:
448,192,61038,1,0,0:0:0:0:
320,192,61038,1,2,0:0:0:0:
320,192,61205,1,2,0:0:0:0:
448,192,61205,1,0,0:0:0:0:
64,192,61373,1,4,0:0:0:0:
448,192,61373,1,0,0:0:0:0:
192,192,61415,1,0,0:0:0:0:
320,192,61457,1,0,0:0:0:0:
64,192,61499,1,0,0:0:0:0:
192,192,61541,1,0,0:0:0:0:
64,192,61624,1,0,0:0:0:0:
448,192,61708,1,0,0:0:0:0:
320,192,61708,1,0,0:0:0:0:
192,192,61876,1,0,0:0:0:0:
320,192,61876,1,0,0:0:0:0:
448,192,62043,1,2,0:0:0:0:
192,192,62043,1,0,0:0:0:0:
64,192,62043,1,0,0:0:0:70:Cymbal.wav
64,192,62379,128,0,62714:0:0:0:0:
192,192,62379,1,0,0:0:0:0:
320,192,62379,1,0,0:0:0:0:
320,192,62714,1,0,0:0:0:0:
192,192,62714,1,4,0:0:0:0:
448,192,62714,128,0,63049:0:0:0:0:
64,192,63049,1,0,0:0:0:0:
320,192,63049,1,0,0:0:0:0:
192,192,63216,1,0,0:0:0:0:
320,192,63300,1,0,0:0:0:0:
448,192,63300,1,4,0:0:0:0:
192,192,63384,1,0,0:0:0:0:
64,192,63384,1,2,0:0:0:0:
320,192,63552,1,0,0:0:0:0:
448,192,63635,1,0,0:0:0:0:
192,192,63719,1,0,0:0:0:0:
320,192,63803,1,0,0:0:0:0:
64,192,63887,1,0,0:0:0:0:
192,192,63971,1,0,0:0:0:0:
320,192,64054,1,4,0:0:0:0:
64,192,64054,128,0,64306:0:0:0:0:
448,192,64138,1,0,0:0:0:0:
192,192,64222,1,0,0:0:0:0:
320,192,64306,1,0,0:0:0:0:
448,192,64390,1,0,0:0:0:0:
64,192,64390,128,0,64473:0:0:0:0:
192,192,64473,1,0,0:0:0:0:
320,192,64557,1,0,0:0:0:0:
64,192,64557,128,0,64641:0:0:0:0:
448,192,64641,1,0,0:0:0:0:
192,192,64725,1,0,0:0:0:0:
64,192,64725,128,0,64976:0:0:0:0:
320,192,64809,1,0,0:0:0:0:
448,192,64892,1,0,0:0:0:0:
192,192,64976,1,0,0:0:0:0:
320,192,65060,1,0,0:0:0:0:
448,192,65144,1,0,0:0:0:0:
192,192,65228,1,0,0:0:0:0:
320,192,65311,1,0,0:0:0:0:
448,192,65395,1,4,0:0:0:0:
64,192,65395,1,0,0:0:0:0:
192,192,65395,1,0,0:0:0:0:
320,192,65647,1,0,0:0:0:0:
448,192,65647,1,4,0:0:0:0:
192,192,65647,1,0,0:0:0:0:
448,192,65898,1,4,0:0:0:0:
320,192,65898,1,0,0:0:0:0:
192,192,65898,1,0,0:0:0:0:
64,192,66149,1,0,0:0:0:0:
448,192,66149,1,4,0:0:0:0:
192,192,66149,1,0,0:0:0:0:
64,192,66401,1,0,0:0:0:0:
192,192,66401,1,2,0:0:0:0:
320,192,66568,1,0,0:0:0:0:
192,192,66736,1,4,0:0:0:0:
448,192,66736,128,0,67323:0:0:0:0:
64,192,66736,128,0,67323:0:0:0:0:
320,192,67071,128,0,67323:0:0:0:0:
64,192,67406,1,0,0:0:0:0:
320,192,67406,1,0,0:0:0:0:
448,192,67406,1,2,0:0:0:0:
320,192,67574,1,0,0:0:0:0:
64,192,67574,1,0,0:0:0:0:
64,192,67742,1,0,0:0:0:0:
320,192,67742,1,0,0:0:0:0:
448,192,67909,128,0,68580:0:0:0:0:
192,192,68077,1,4,0:0:0:0:
64,192,68077,128,0,68496:0:0:0:0:
320,192,68244,128,0,68580:0:0:0:0:
64,192,68580,1,0,0:0:0:0:
320,192,68663,1,4,0:0:0:0:
448,192,68663,1,0,0:0:0:0:
192,192,68747,1,2,0:0:0:0:
64,192,68747,1,0,0:0:0:0:
320,192,68915,1,0,0:0:0:0:
192,192,69082,1,0,0:0:0:0:
448,192,69082,1,0,0:0:0:0:
192,192,69250,1,0,0:0:0:0:
448,192,69250,1,0,0:0:0:0:
320,192,69418,1,4,0:0:0:0:
64,192,69418,128,0,70004:0:0:0:0:
448,192,69418,128,0,70004:0:0:0:0:
320,192,69753,128,0,70004:0:0:0:0:
192,192,69920,128,0,70004:0:0:0:0:
192,192,70088,1,2,0:0:0:0:
64,192,70088,128,0,70200:0:0:0:0:
448,192,70088,128,0,70200:0:0:0:0:
448,192,70256,128,0,70367:0:0:0:0:
64,192,70256,128,0,70367:0:0:0:0:
64,192,70423,128,0,70535:0:0:0:0:
448,192,70423,128,0,70535:0:0:0:0:
192,192,70591,1,0,0:0:0:0:
64,192,70591,1,0,0:0:0:0:
320,192,70675,1,4,0:0:0:0:
448,192,70675,1,0,0:0:0:0:
192,192,70758,1,4,0:0:0:0:
64,192,70758,1,0,0:0:0:0:
448,192,70758,1,0,0:0:0:0:
64,192,70926,1,0,0:0:0:0:
192,192,70926,1,4,0:0:0:0:
320,192,71094,1,2,0:0:0:0:
448,192,71094,1,0,0:0:0:0:
192,192,71261,1,4,0:0:0:0:
64,192,71261,1,0,0:0:0:0:
64,192,71345,1,0,0:0:0:0:
192,192,71345,1,4,0:0:0:0:
320,192,71429,1,2,0:0:0:0:
448,192,71429,1,0,0:0:0:0:
64,192,71429,1,0,0:0:0:0:
448,192,71596,1,0,0:0:0:0:
320,192,71596,1,2,0:0:0:0:
320,192,71764,1,2,0:0:0:0:
448,192,71764,1,0,0:0:0:0:
192,192,71932,1,0,0:0:0:0:
320,192,72099,1,4,0:0:0:0:
64,192,72099,128,0,72686:0:0:0:0:
448,192,72099,128,0,72686:0:0:0:0:
192,192,72434,128,0,72686:0:0:0:0:
192,192,72770,1,0,0:0:0:0:
448,192,72770,1,2,0:0:0:0:
64,192,72770,128,0,73272:0:0:0:0:
320,192,72937,128,0,73272:0:0:0:0:
448,192,73272,128,0,73943:0:0:0:0:
192,192,73440,1,4,0:0:0:0:
64,192,73440,128,0,73859:0:0:0:0:
320,192,73608,128,0,73943:0:0:0:0:
64,192,73943,1,0,0:0:0:0:
320,192,74027,1,4,0:0:0:0:
448,192,74027,1,0,0:0:0:0:
192,192,74110,1,2,0:0:0:0:
64,192,74110,1,0,0:0:0:0:
320,192,74278,1,0,0:0:0:0:
192,192,74446,1,0,0:0:0:0:
448,192,74446,128,0,74697:0:0:0:0:
448,192,74781,1,0,0:0:0:0:
320,192,74781,1,0,0:0:0:0:
64,192,74781,1,4,0:0:0:0:
192,192,74948,1,0,0:0:0:0:
64,192,75116,1,0,0:0:0:0:
192,192,75116,1,0,0:0:0:0:
320,192,75116,1,0,0:0:0:0:
448,192,75116,1,2,0:0:0:0:
448,192,75451,1,0,0:0:0:0:
192,192,75451,1,0,0:0:0:0:
64,192,75451,1,4,0:0:0:0:
320,192,75619,1,0,0:0:0:0:
64,192,75786,1,0,0:0:0:0:
192,192,75786,1,0,0:0:0:0:
320,192,75786,1,0,0:0:0:0:
448,192,75786,1,2,0:0:0:0:
192,192,75954,1,0,0:0:0:0:
320,192,76122,1,0,0:0:0:0:
448,192,76122,1,0,0:0:0:0:
64,192,76122,1,4,0:0:0:0:
192,192,76205,1,0,0:0:0:0:
320,192,76289,1,0,0:0:0:0:
448,192,76457,1,2,0:0:0:0:
192,192,76457,1,0,0:0:0:0:
64,192,76457,1,0,0:0:0:0:
320,192,76624,1,0,0:0:0:0:
192,192,76708,1,2,0:0:0:0:
320,192,76792,1,0,0:0:0:0:
448,192,76792,1,4,0:0:0:0:
192,192,76876,1,0,0:0:0:0:
64,192,76876,1,2,0:0:0:0:
320,192,76960,1,0,0:0:0:0:
448,192,76960,1,4,0:0:0:0:
448,192,77127,1,0,0:0:0:0:
192,192,77127,1,2,0:0:0:0:
64,192,77127,1,0,0:0:0:0:
320,192,77295,1,0,0:0:0:0:
192,192,77379,1,2,0:0:0:0:
64,192,77462,1,0,0:0:0:70:Cymbal.wav
320,192,77462,1,0,0:0:0:0:
448,192,77462,1,4,0:0:0:0:
192,192,77546,1,0,0:0:0:0:
320,192,77630,1,0,0:0:0:0:
448,192,77714,1,0,0:0:0:0:
192,192,77797,1,0,0:0:0:0:
64,192,77797,1,2,0:0:0:0:
320,192,77797,1,0,0:0:0:0:
448,192,77881,1,0,0:0:0:0:
320,192,77965,1,0,0:0:0:0:
64,192,78049,1,0,0:0:0:0:
192,192,78133,128,0,78216:0:0:0:0:
448,192,78133,128,0,78216:0:0:0:0:
320,192,78216,128,0,78300:0:0:0:0:
448,192,78300,128,4,78384:0:0:0:0:
64,192,78300,128,0,78384:0:0:0:0:
192,192,78384,128,0,78468:0:0:0:0:
64,192,78468,1,2,0:0:0:0:
320,192,78468,128,0,78552:0:0:0:0:
448,192,78468,128,0,78552:0:0:0:0:
192,192,78552,1,0,0:0:0:0:
320,192,78635,1,0,0:0:0:0:
448,192,78635,128,0,78887:0:0:0:0:
64,192,78719,1,0,0:0:0:0:
192,192,78803,1,0,0:0:0:0:
320,192,78887,1,0,0:0:0:0:
64,192,78971,1,0,0:0:0:0:
448,192,78971,1,4,0:0:0:0:
192,192,79054,1,0,0:0:0:0:
64,192,79138,1,0,0:0:0:0:
320,192,79138,1,0,0:0:0:0:
448,192,79138,1,2,0:0:0:0:
192,192,79222,1,0,0:0:0:0:
64,192,79306,1,0,0:0:0:0:
448,192,79306,128,0,79557:0:0:0:0:
320,192,79390,1,0,0:0:0:0:
192,192,79473,1,0,0:0:0:0:
64,192,79557,1,0,0:0:0:0:
320,192,79641,1,0,0:0:0:0:
448,192,79641,1,4,0:0:0:0:
192,192,79725,1,0,0:0:0:0:
64,192,79809,1,2,0:0:0:0:
320,192,79809,128,0,79892:0:0:0:0:
448,192,79809,128,0,79892:0:0:0:0:
192,192,79892,1,0,0:0:0:0:
320,192,79976,128,0,80060:0:0:0:0:
448,192,79976,128,0,80060:0:0:0:0:
192,192,80060,1,0,0:0:0:0:
320,192,80144,1,0,0:0:0:0:
448,192,80144,1,4,0:0:0:0:
64,192,80144,128,0,80395:0:0:0:0:
192,192,80228,1,0,0:0:0:0:
448,192,80311,1,0,0:0:0:0:
320,192,80395,1,0,0:0:0:0:
64,192,80479,1,0,0:0:0:0:
192,192,80479,1,0,0:0:0:0:
448,192,80479,1,2,0:0:0:0:
320,192,80563,1,0,0:0:0:0:
64,192,80647,1,0,0:0:0:0:
192,192,80730,1,0,0:0:0:0:
320,192,80814,1,0,0:0:0:0:
448,192,80898,1,0,0:0:0:0:
64,192,80982,1,4,0:0:0:0:
192,192,80982,1,0,0:0:0:0:
320,192,81066,1,0,0:0:0:0:
64,192,81149,1,0,0:0:0:0:
192,192,81149,1,2,0:0:0:0:
448,192,81149,1,0,0:0:0:0:
320,192,81233,1,0,0:0:0:0:
64,192,81317,128,0,81568:0:0:0:0:
448,192,81317,1,0,0:0:0:0:
192,192,81401,1,0,0:0:0:0:
448,192,81485,1,0,0:0:0:0:
320,192,81568,1,0,0:0:0:0:
192,192,81652,1,0,0:0:0:0:
64,192,81652,1,4,0:0:0:0:
320,192,81736,1,0,0:0:0:0:
448,192,81820,1,0,0:0:0:0:
192,192,81820,1,2,0:0:0:0:
64,192,81820,1,0,0:0:0:0:
320,192,81904,1,0,0:0:0:0:
192,192,81987,1,0,0:0:0:0:
448,192,81987,128,0,82239:0:0:0:0:
64,192,82071,1,0,0:0:0:0:
320,192,82155,1,0,0:0:0:0:
64,192,82239,1,0,0:0:0:0:
320,192,82323,1,0,0:0:0:0:
448,192,82323,1,4,0:0:0:0:
192,192,82406,1,0,0:0:0:0:
448,192,82490,1,0,0:0:0:0:
64,192,82490,128,0,82742:0:0:0:0:
320,192,82490,1,2,0:0:0:0:
192,192,82574,1,0,0:0:0:0:
448,192,82658,1,0,0:0:0:0:
320,192,82742,1,0,0:0:0:0:
192,192,82825,1,0,0:0:0:0:
64,192,82825,1,4,0:0:0:0:
448,192,82825,128,0,83077:0:0:0:0:
320,192,82909,1,0,0:0:0:0:
192,192,82993,1,0,0:0:0:0:
64,192,83077,1,0,0:0:0:0:
448,192,83161,1,2,0:0:0:0:
320,192,83161,1,0,0:0:0:0:
192,192,83161,1,0,0:0:0:0:
64,192,83244,1,0,0:0:0:0:
320,192,83328,1,0,0:0:0:0:
192,192,83412,1,0,0:0:0:0:
448,192,83496,1,0,0:0:0:0:
320,192,83580,1,0,0:0:0:0:
192,192,83663,1,0,0:0:0:0:
64,192,83663,1,4,0:0:0:0:
320,192,83747,1,0,0:0:0:0:
448,192,83831,1,0,0:0:0:0:
192,192,83831,1,2,0:0:0:0:
64,192,83831,1,0,0:0:0:0:
320,192,83915,1,0,0:0:0:0:
192,192,83999,1,0,0:0:0:0:
64,192,83999,128,0,84250:0:0:0:0:
320,192,84082,1,0,0:0:0:0:
448,192,84166,1,0,0:0:0:0:
192,192,84250,1,0,0:0:0:0:
320,192,84334,1,0,0:0:0:0:
64,192,84334,1,4,0:0:0:0:
448,192,84418,1,0,0:0:0:0:
320,192,84501,1,0,0:0:0:0:
192,192,84501,1,2,0:0:0:0:
64,192,84501,1,0,0:0:0:0:
448,192,84585,1,0,0:0:0:0:
192,192,84669,1,0,0:0:0:0:
64,192,84669,128,0,84920:0:0:0:0:
320,192,84753,1,0,0:0:0:0:
448,192,84837,1,0,0:0:0:0:
192,192,84920,1,0,0:0:0:0:
448,192,85004,1,4,0:0:0:0:
64,192,85004,1,0,0:0:0:0:
320,192,85088,1,0,0:0:0:0:
448,192,85172,1,0,0:0:0:0:
192,192,85172,1,0,0:0:0:0:
64,192,85172,1,2,0:0:0:0:
320,192,85256,1,0,0:0:0:0:
192,192,85339,1,0,0:0:0:0:
448,192,85423,1,0,0:0:0:0:
64,192,85507,1,4,0:0:0:0:
192,192,85507,1,0,0:0:0:0:
320,192,85591,1,0,0:0:0:0:
192,192,85675,1,0,0:0:0:0:
64,192,85675,1,4,0:0:0:0:
320,192,85842,1,0,0:0:0:0:
192,192,85926,1,2,0:0:0:0:
64,192,85926,1,0,0:0:0:0:
320,192,86010,1,4,0:0:0:0:
448,192,86010,1,0,0:0:0:0:
448,192,86177,1,0,0:0:0:0:
64,192,86177,1,0,0:0:0:0:
320,192,86345,1,4,0:0:0:0:
448,192,86345,1,0,0:0:0:0:
192,192,86513,1,2,0:0:0:0:
320,192,86513,1,0,0:0:0:0:
448,192,86596,1,0,0:0:0:0:
64,192,86596,1,2,0:0:0:0:
192,192,86680,1,2,0:0:0:0:
320,192,86680,1,0,0:0:0:0:
64,192,86764,1,2,0:0:0:0:
448,192,86764,1,0,0:0:0:0:
64,192,86932,1,0,0:0:0:0:
192,192,86932,1,4,0:0:0:0:
320,192,86932,1,0,0:0:0:0:
192,192,87183,1,4,0:0:0:0:
448,192,87183,1,0,0:0:0:0:
320,192,87183,1,0,0:0:0:0:
448,192,87351,1,0,0:0:0:0:
192,192,87351,1,4,0:0:0:0:
64,192,87351,1,0,0:0:0:0:
320,192,87518,1,0,0:0:0:0:
192,192,87518,1,2,0:0:0:0:
64,192,87518,1,0,0:0:0:0:
448,192,87686,1,0,0:0:0:0:
192,192,87853,1,0,0:0:0:0:
320,192,88021,1,0,0:0:0:0:
448,192,88189,128,4,88300:0:0:0:0:
192,192,88189,128,0,88356:0:0:0:0:
64,192,88189,128,0,88412:0:0:0:70:Cymbal.wav
448,192,88356,128,0,88468:0:0:0:0:
192,192,88412,128,0,88524:0:0:0:0:
64,192,88468,128,0,88580:0:0:0:0:
448,192,88524,128,0,88635:0:0:0:0:
192,192,88580,128,0,88691:0:0:0:0:
64,192,88635,128,0,88747:0:0:0:0:
448,192,88691,1,0,0:0:0:0:
192,192,88747,1,0,0:0:0:0:
64,192,88803,1,0,0:0:0:0:
320,192,88859,1,2,0:0:0:0:
448,192,88859,1,0,0:0:0:0:
64,192,88943,1,0,0:0:0:0:
192,192,89027,1,0,0:0:0:0:
448,192,89027,1,0,0:0:0:0:
320,192,89110,1,0,0:0:0:0:
64,192,89194,1,0,0:0:0:0:
192,192,89194,1,0,0:0:0:0:
448,192,89278,1,0,0:0:0:0:
320,192,89362,1,2,0:0:0:0:
64,192,89362,1,0,0:0:0:0:
192,192,89697,1,4,0:0:0:0:
320,192,89697,1,0,0:0:0:0:
320,192,89865,1,2,0:0:0:0:
448,192,89865,128,0,90200:0:0:0:0:
64,192,89865,128,0,90200:0:0:0:0:
320,192,90200,1,4,0:0:0:0:
192,192,90200,1,0,0:0:0:0:
192,192,90367,1,2,0:0:0:0:
448,192,90367,128,0,90619:0:0:0:0:
64,192,90367,128,0,90619:0:0:0:0:
64,192,90703,128,4,90954:0:0:0:0:
320,192,90703,128,0,91038:0:0:0:0:
448,192,90703,128,0,91038:0:0:0:0:
64,192,91038,1,0,0:0:0:0:
192,192,91038,1,4,0:0:0:0:
192,192,91205,1,4,0:0:0:0:
64,192,91205,1,0,0:0:0:0:
192,192,91373,1,4,0:0:0:0:
320,192,91373,1,0,0:0:0:0:
320,192,91541,1,2,0:0:0:0:
448,192,91541,128,0,91960:0:0:0:0:
64,192,91541,128,0,91960:0:0:0:0:
192,192,91792,1,0,0:0:0:0:
64,192,92043,1,4,0:0:0:0:
320,192,92043,1,0,0:0:0:0:
448,192,92043,128,0,92630:0:0:0:0:
320,192,92379,1,4,0:0:0:0:
64,192,92420,1,0,0:0:0:0:
192,192,92462,1,0,0:0:0:0:
320,192,92504,1,0,0:0:0:0:
64,192,92546,5,2,0:0:0:0:
192,192,92630,1,0,0:0:0:0:
320,192,92714,1,4,0:0:0:0:
448,192,92714,1,0,0:0:0:0:
64,192,92797,1,4,0:0:0:0:
192,192,92797,1,0,0:0:0:0:
320,192,92881,1,2,0:0:0:0:
64,192,92881,1,0,0:0:0:0:
448,192,92881,1,0,0:0:0:0:
192,192,93133,1,2,0:0:0:0:
320,192,93133,1,0,0:0:0:0:
64,192,93133,1,0,0:0:0:0:
320,192,93384,1,4,0:0:0:0:
448,192,93384,128,0,93887:0:0:0:0:
64,192,93384,128,0,93803:0:0:0:0:
64,192,93887,1,0,0:0:0:0:
192,192,93887,1,4,0:0:0:0:
320,192,93971,1,4,0:0:0:0:
448,192,93971,1,0,0:0:0:0:
192,192,94054,1,4,0:0:0:0:
64,192,94054,1,0,0:0:0:0:
192,192,94138,1,0,0:0:0:0:
320,192,94138,1,4,0:0:0:0:
320,192,94222,1,4,0:0:0:0:
448,192,94222,128,0,94641:0:0:0:0:
64,192,94222,1,4,0:0:0:70:Cymbal.wav
64,192,94557,128,0,94641:0:0:0:0:
192,192,94725,1,4,0:0:0:0:
64,192,94725,128,0,95060:0:0:0:0:
448,192,94725,128,0,95060:0:0:0:0:
192,192,95060,1,0,0:0:0:0:
320,192,95060,1,4,0:0:0:0:
64,192,95228,1,0,0:0:0:0:
448,192,95228,1,4,0:0:0:0:
192,192,95311,1,0,0:0:0:0:
320,192,95395,1,0,0:0:0:0:
448,192,95395,1,0,0:0:0:0:
64,192,95479,1,0,0:0:0:0:
192,192,95479,1,4,0:0:0:0:
64,192,95563,1,0,0:0:0:0:
320,192,95563,1,2,0:0:0:0:
448,192,95563,1,0,0:0:0:0:
192,192,95898,1,0,0:0:0:0:
320,192,95898,1,2,0:0:0:0:
64,192,96066,1,0,0:0:0:0:
192,192,96066,1,2,0:0:0:0:
448,192,96149,1,0,0:0:0:0:
320,192,96149,1,2,0:0:0:0:
192,192,96233,1,4,0:0:0:0:
448,192,96233,128,0,96401:0:0:0:0:
64,192,96233,128,0,97239:0:0:0:0:
320,192,96485,128,0,96652:0:0:0:0:
192,192,96736,128,0,96904:0:0:0:0:
320,192,96904,1,0,0:0:0:0:
448,192,96904,1,2,0:0:0:0:
192,192,97071,1,4,0:0:0:0:
448,192,97071,1,0,0:0:0:0:
192,192,97239,1,4,0:0:0:0:
320,192,97239,1,0,0:0:0:0:
448,192,97323,1,0,0:0:0:0:
320,192,97406,1,0,0:0:0:0:
192,192,97490,1,0,0:0:0:0:
64,192,97574,1,0,0:0:0:0:
320,192,97574,1,0,0:0:0:0:
448,192,97574,1,2,0:0:0:0:
64,192,97742,1,4,0:0:0:0:
448,192,97742,1,0,0:0:0:0:
320,192,97784,1,0,0:0:0:0:
192,192,97825,1,0,0:0:0:0:
64,192,97867,1,0,0:0:0:0:
448,192,97909,1,2,0:0:0:0:
320,192,97909,1,0,0:0:0:0:
64,192,98077,1,4,0:0:0:0:
448,192,98077,1,0,0:0:0:0:
320,192,98119,1,0,0:0:0:0:
192,192,98161,1,0,0:0:0:0:
64,192,98203,1,0,0:0:0:0:
320,192,98244,1,0,0:0:0:0:
448,192,98244,1,2,0:0:0:0:
192,192,98328,1,0,0:0:0:0:
448,192,98412,1,0,0:0:0:0:
192,192,98496,1,0,0:0:0:0:
64,192,98496,1,0,0:0:0:0:
448,192,98580,1,0,0:0:0:0:
320,192,98580,1,0,0:0:0:0:
64,192,98663,1,0,0:0:0:0:
192,192,98663,1,0,0:0:0:0:
192,192,98831,1,0,0:0:0:0:
320,192,98831,1,0,0:0:0:0:
64,192,98915,1,4,0:0:0:0:
448,192,98915,128,0,99501:0:0:0:0:
320,192,99082,128,0,99250:0:0:0:0:
64,192,99250,1,2,0:0:0:0:
192,192,99250,1,0,0:0:0:0:
320,192,99418,1,0,0:0:0:0:
64,192,99585,1,2,0:0:0:0:
192,192,99585,1,0,0:0:0:0:
448,192,99585,1,0,0:0:0:0:
320,192,99753,1,0,0:0:0:0:
192,192,99920,1,0,0:0:0:0:
320,192,100088,1,4,0:0:0:0:
448,192,100088,128,0,100339:0:0:0:0:
64,192,100088,128,0,100339:0:0:0:0:
64,192,100423,1,0,0:0:0:0:
192,192,100423,1,4,0:0:0:0:
448,192,100423,1,0,0:0:0:0:
320,192,100591,1,0,0:0:0:0:
448,192,100591,1,0,0:0:0:0:
64,192,100675,1,0,0:0:0:0:
192,192,100758,1,4,0:0:0:0:
448,192,100758,1,0,0:0:0:0:
320,192,100842,1,4,0:0:0:0:
64,192,100926,1,2,0:0:0:0:
192,192,100968,1,0,0:0:0:0:
320,192,101010,1,0,0:0:0:0:
448,192,101052,1,0,0:0:0:0:
192,192,101094,1,0,0:0:0:0:
320,192,101177,1,2,0:0:0:0:
448,192,101177,1,0,0:0:0:0:
448,192,101429,1,0,0:0:0:0:
320,192,101429,1,2,0:0:0:0:
64,192,101485,1,0,0:0:0:0:
192,192,101541,1,0,0:0:0:0:
320,192,101596,1,0,0:0:0:0:
448,192,101596,1,0,0:0:0:0:
192,192,101680,1,0,0:0:0:0:
64,192,101764,1,0,0:0:0:0:
448,192,101764,1,0,0:0:0:0:
320,192,101848,1,0,0:0:0:0:
192,192,101932,1,4,0:0:0:0:
64,192,101932,128,0,102183:0:0:0:70:Cymbal.wav
448,192,101932,128,0,102183:0:0:0:0:
192,192,102183,1,0,0:0:0:0:
448,192,102267,1,0,0:0:0:0:
320,192,102267,1,2,0:0:0:0:
64,192,102267,1,0,0:0:0:0:
192,192,102351,1,0,0:0:0:0:
448,192,102434,1,0,0:0:0:0:
320,192,102434,1,0,0:0:0:0:
64,192,102518,1,2,0:0:0:0:
192,192,102602,1,0,0:0:0:0:
448,192,102602,1,0,0:0:0:0:
320,192,102770,1,0,0:0:0:0:
192,192,102853,1,4,0:0:0:0:
64,192,102853,1,0,0:0:0:0:
320,192,102937,1,4,0:0:0:0:
448,192,102937,1,0,0:0:0:0:
64,192,102937,1,0,0:0:0:0:
320,192,103105,1,4,0:0:0:0:
448,192,103105,1,0,0:0:0:0:
192,192,103272,1,2,0:0:0:0:
64,192,103272,1,0,0:0:0:0:
320,192,103440,1,4,0:0:0:0:
448,192,103440,1,0,0:0:0:0:
448,192,103524,1,0,0:0:0:0:
320,192,103524,1,4,0:0:0:0:
192,192,103608,1,2,0:0:0:0:
64,192,103608,128,0,104194:0:0:0:0:
448,192,103608,1,0,0:0:0:0:
192,192,103859,1,0,0:0:0:0:
320,192,103943,1,0,0:0:0:0:
448,192,103943,128,0,104194:0:0:0:0:
192,192,104110,128,0,104194:0:0:0:0:
192,192,104278,1,4,0:0:0:0:
64,192,104278,128,0,104529:0:0:0:0:
448,192,104278,128,0,104529:0:0:0:0:
192,192,104613,1,4,0:0:0:0:
320,192,104613,1,2,0:0:0:0:
64,192,104613,128,0,104948:0:0:0:70:Cymbal.wav
448,192,104613,128,0,104948:0:0:0:0:
192,192,104948,1,0,0:0:0:0:
320,192,104948,1,2,0:0:0:0:
448,192,105032,1,0,0:0:0:0:
192,192,105116,1,0,0:0:0:0:
64,192,105116,1,0,0:0:0:0:
320,192,105200,1,0,0:0:0:0:
448,192,105284,1,0,0:0:0:0:
64,192,105284,1,0,0:0:0:0:
320,192,105451,1,4,0:0:0:0:
448,192,105451,128,0,105703:0:0:0:0:
64,192,105451,128,0,105703:0:0:0:0:
192,192,105786,1,4,0:0:0:0:
64,192,105786,1,0,0:0:0:0:
448,192,105786,1,0,0:0:0:0:
320,192,105954,1,4,0:0:0:0:
448,192,105954,1,0,0:0:0:0:
64,192,106038,1,0,0:0:0:0:
192,192,106122,1,0,0:0:0:0:
320,192,106122,1,0,0:0:0:0:
192,192,106289,1,2,0:0:0:0:
64,192,106289,128,0,106876:0:0:0:0:
448,192,106624,1,0,0:0:0:0:
320,192,106624,128,0,106876:0:0:0:0:
64,192,106960,1,0,0:0:0:0:
320,192,106960,1,4,0:0:0:0:
448,192,106960,1,2,0:0:0:0:
320,192,107127,1,4,0:0:0:0:
192,192,107127,1,0,0:0:0:0:
448,192,107295,1,0,0:0:0:0:
192,192,107295,1,4,0:0:0:0:
64,192,107295,1,2,0:0:0:0:
320,192,107462,1,4,0:0:0:0:
192,192,107462,1,0,0:0:0:0:
64,192,107630,1,0,0:0:0:0:
448,192,107630,1,2,0:0:0:0:
320,192,107630,1,0,0:0:0:0:
192,192,107797,1,0,0:0:0:0:
320,192,107797,1,4,0:0:0:0:
448,192,107965,1,0,0:0:0:0:
64,192,107965,1,2,0:0:0:0:
192,192,107965,1,0,0:0:0:0:
320,192,108133,1,0,0:0:0:0:
192,192,108133,1,4,0:0:0:0:
320,192,108300,1,4,0:0:0:0:
448,192,108300,1,2,0:0:0:0:
64,192,108300,1,0,0:0:0:0:
320,192,108384,1,0,0:0:0:0:
192,192,108384,1,4,0:0:0:0:
320,192,108635,1,0,0:0:0:0:
64,192,108635,1,4,0:0:0:0:
448,192,108635,1,0,0:0:0:0:
192,192,108803,1,4,0:0:0:0:
320,192,108803,1,0,0:0:0:0:
448,192,108971,1,2,0:0:0:0:
64,192,108971,128,0,109557:0:0:0:0:
192,192,109306,128,0,109557:0:0:0:0:
448,192,109306,128,0,109557:0:0:0:0:
64,192,109641,128,4,109892:0:0:0:0:
192,192,109641,128,0,109892:0:0:0:0:
448,192,109641,128,0,109892:0:0:0:70:Cymbal.wav
448,192,109976,1,0,0:0:0:0:
192,192,109976,1,0,0:0:0:0:
64,192,109976,1,0,0:0:0:0:
64,192,110144,1,0,0:0:0:0:
192,192,110144,1,0,0:0:0:0:
448,192,110144,1,0,0:0:0:0:
448,192,110311,1,0,0:0:0:0:
192,192,110311,1,0,0:0:0:0:
64,192,110311,1,0,0:0:0:0:
64,192,110479,1,0,0:0:0:0:
192,192,110479,1,0,0:0:0:0:
448,192,110479,1,0,0:0:0:0:
448,192,110647,1,0,0:0:0:0:
192,192,110647,1,0,0:0:0:0:
64,192,110647,1,0,0:0:0:0:
64,192,110814,1,0,0:0:0:0:
192,192,110814,1,0,0:0:0:0:
448,192,110814,1,0,0:0:0:0:
448,192,110982,1,0,0:0:0:0:
192,192,110982,1,0,0:0:0:0:
64,192,110982,1,0,0:0:0:0:
64,192,111149,1,0,0:0:0:0:
192,192,111149,1,0,0:0:0:0:
448,192,111149,1,0,0:0:0:0:
448,192,111317,1,0,0:0:0:0:
192,192,111317,1,0,0:0:0:0:
64,192,111317,1,0,0:0:0:0:
64,192,111485,1,0,0:0:0:0:
192,192,111485,1,0,0:0:0:0:
448,192,111485,1,0,0:0:0:0:
448,192,111652,1,0,0:0:0:0:
192,192,111652,1,0,0:0:0:0:
64,192,111652,1,0,0:0:0:0:
192,192,111820,1,0,0:0:0:0:
64,192,111820,1,0,0:0:0:0:
448,192,111820,1,0,0:0:0:0:
64,192,111987,1,0,0:0:0:0:
320,192,112029,1,0,0:0:0:0:
192,192,112071,1,0,0:0:0:0:
448,192,112113,1,0,0:0:0:0:
64,192,112155,1,0,0:0:0:0:
320,192,112197,1,0,0:0:0:0:
192,192,112239,1,0,0:0:0:0:
448,192,112281,1,0,0:0:0:0:
320,192,112323,1,0,0:0:0:0:
192,192,112323,1,0,0:0:0:70:Cymbal.wav
64,192,112323,1,4,0:0:0:0:
448,192,112490,1,0,0:0:0:0:
320,192,112490,1,0,0:0:0:0:
448,192,112658,1,0,0:0:0:0:
192,192,112658,1,2,0:0:0:0:
64,192,112658,1,0,0:0:0:0:
320,192,112825,1,0,0:0:0:0:
192,192,112825,1,0,0:0:0:0:
64,192,112909,1,0,0:0:0:0:
320,192,112993,1,0,0:0:0:0:
448,192,112993,1,0,0:0:0:0:
192,192,113077,1,0,0:0:0:0:
448,192,113161,1,4,0:0:0:0:
64,192,113161,1,0,0:0:0:0:
320,192,113161,1,0,0:0:0:0:
320,192,113328,1,0,0:0:0:0:
192,192,113328,1,2,0:0:0:0:
64,192,113328,1,0,0:0:0:0:
192,192,113496,1,0,0:0:0:0:
320,192,113496,1,0,0:0:0:0:
448,192,113580,1,0,0:0:0:0:
192,192,113663,1,0,0:0:0:0:
64,192,113663,1,0,0:0:0:0:
320,192,113831,1,0,0:0:0:0:
448,192,113831,1,4,0:0:0:0:
64,192,113831,1,0,0:0:0:0:
320,192,113999,1,0,0:0:0:0:
192,192,113999,1,2,0:0:0:0:
64,192,113999,1,0,0:0:0:0:
448,192,114166,1,0,0:0:0:0:
192,192,114166,1,0,0:0:0:0:
320,192,114250,1,0,0:0:0:0:
448,192,114334,1,0,0:0:0:0:
64,192,114334,1,0,0:0:0:0:
192,192,114418,1,0,0:0:0:0:
320,192,114501,1,4,0:0:0:0:
448,192,114501,1,0,0:0:0:0:
64,192,114501,1,0,0:0:0:0:
192,192,114669,1,2,0:0:0:0:
64,192,114669,1,0,0:0:0:0:
448,192,114669,1,0,0:0:0:0:
320,192,114837,1,0,0:0:0:0:
192,192,114837,1,0,0:0:0:0:
320,192,115004,1,0,0:0:0:0:
448,192,115004,1,0,0:0:0:0:
64,192,115004,1,4,0:0:0:0:
192,192,115172,1,0,0:0:0:0:
64,192,115214,1,0,0:0:0:0:
320,192,115256,1,0,0:0:0:0:
64,192,115339,1,0,0:0:0:0:
448,192,115339,1,0,0:0:0:0:
192,192,115339,1,2,0:0:0:0:
320,192,115507,1,0,0:0:0:0:
192,192,115507,1,0,0:0:0:0:
448,192,115675,1,0,0:0:0:0:
320,192,115675,1,0,0:0:0:0:
64,192,115758,1,0,0:0:0:0:
192,192,115842,1,0,0:0:0:0:
320,192,115842,1,4,0:0:0:0:
448,192,115842,1,0,0:0:0:0:
320,192,116010,1,0,0:0:0:0:
192,192,116010,1,2,0:0:0:0:
64,192,116010,1,0,0:0:0:0:
320,192,116177,1,0,0:0:0:0:
448,192,116177,1,0,0:0:0:0:
64,192,116261,1,0,0:0:0:0:
192,192,116345,1,0,0:0:0:0:
320,192,116345,1,0,0:0:0:0:
448,192,116429,1,0,0:0:0:0:
320,192,116513,1,0,0:0:0:0:
192,192,116513,1,4,0:0:0:0:
64,192,116513,1,0,0:0:0:0:
64,192,116680,1,0,0:0:0:0:
320,192,116680,1,0,0:0:0:0:
448,192,116680,1,2,0:0:0:0:
192,192,116848,1,0,0:0:0:0:
64,192,116848,1,0,0:0:0:0:
320,192,116932,1,0,0:0:0:0:
448,192,117015,1,0,0:0:0:0:
192,192,117015,1,0,0:0:0:0:
64,192,117099,1,0,0:0:0:0:
320,192,117183,1,4,0:0:0:0:
448,192,117183,1,0,0:0:0:0:
192,192,117183,1,0,0:0:0:0:
448,192,117351,1,0,0:0:0:0:
192,192,117351,1,2,0:0:0:0:
64,192,117351,1,0,0:0:0:0:
192,192,117518,1,0,0:0:0:0:
320,192,117518,1,0,0:0:0:0:
64,192,117686,1,4,0:0:0:0:
320,192,117686,1,0,0:0:0:70:Cymbal.wav
448,192,117686,1,2,0:0:0:0:
192,192,117853,1,0,0:0:0:0:
64,192,117853,1,4,0:0:0:0:
192,192,118021,1,2,0:0:0:0:
320,192,118021,1,0,0:0:0:0:
448,192,118021,1,4,0:0:0:0:
64,192,118189,1,0,0:0:0:0:
448,192,118189,1,4,0:0:0:0:
320,192,118356,1,4,0:0:0:0:
192,192,118356,1,0,0:0:0:0:
64,192,118356,1,2,0:0:0:0:
320,192,118524,1,4,0:0:0:0:
448,192,118524,1,0,0:0:0:0:
448,192,118691,1,2,0:0:0:0:
192,192,118691,1,4,0:0:0:0:
64,192,118691,1,0,0:0:0:0:
192,192,118859,1,4,0:0:0:0:
320,192,118859,1,0,0:0:0:0:
64,192,119027,1,4,0:0:0:0:
320,192,119027,1,2,0:0:0:0:
448,192,119027,1,0,0:0:0:0:
192,192,119194,1,0,0:0:0:0:
64,192,119194,1,4,0:0:0:0:
192,192,119362,1,2,0:0:0:0:
320,192,119362,1,0,0:0:0:0:
448,192,119362,1,4,0:0:0:0:
448,192,119529,1,4,0:0:0:0:
64,192,119529,1,0,0:0:0:0:
320,192,119697,1,4,0:0:0:0:
192,192,119697,1,0,0:0:0:0:
64,192,119697,1,2,0:0:0:0:
448,192,119865,1,0,0:0:0:0:
320,192,119865,1,4,0:0:0:0:
448,192,120032,1,2,0:0:0:0:
192,192,120032,1,4,0:0:0:0:
64,192,120032,1,0,0:0:0:0:
192,192,120200,1,4,0:0:0:0:
320,192,120200,1,0,0:0:0:0:
448,192,120367,1,0,0:0:0:0:
320,192,120367,1,4,0:0:0:0:
192,192,120451,1,4,0:0:0:0:
64,192,120451,1,0,0:0:0:0:
320,192,120535,1,4,0:0:0:0:
448,192,120535,1,0,0:0:0:0:
192,192,120619,1,4,0:0:0:0:
64,192,120619,1,0,0:0:0:0:
320,192,120703,1,4,0:0:0:0:
448,192,120703,1,0,0:0:0:0:
192,192,120786,1,4,0:0:0:0:
64,192,120786,1,0,0:0:0:0:
320,192,120870,1,4,0:0:0:0:
448,192,120870,1,0,0:0:0:0:
192,192,120954,1,4,0:0:0:0:
64,192,120954,1,0,0:0:0:0:
320,192,121038,1,4,0:0:0:0:
448,192,121038,1,0,0:0:0:0:
448,192,121122,1,0,0:0:0:0:
320,192,121122,1,4,0:0:0:0:
192,192,121205,1,4,0:0:0:0:
64,192,121205,1,0,0:0:0:0:
64,192,121289,1,0,0:0:0:0:
192,192,121289,1,4,0:0:0:0:
320,192,121373,1,4,0:0:0:0:
448,192,121373,1,0,0:0:0:0:
448,192,121457,1,0,0:0:0:0:
320,192,121457,1,4,0:0:0:0:
192,192,121541,1,4,0:0:0:0:
64,192,121541,1,0,0:0:0:0:
64,192,121624,1,0,0:0:0:0:
192,192,121624,1,4,0:0:0:0:
448,192,121708,1,0,0:0:0:0:
320,192,121708,1,4,0:0:0:0:
192,192,122714,1,2,0:0:0:0:
320,192,122714,1,0,0:0:0:0:
448,192,123049,1,4,0:0:0:0:
320,192,123049,1,0,0:0:0:0:
192,192,123049,1,0,0:0:0:0:
64,192,123049,1,0,0:0:0:70:Cymbal.wav
64,192,123384,1,0,0:0:0:0:
192,192,123384,1,0,0:0:0:0:
320,192,123552,1,0,0:0:0:0:
64,192,123552,1,0,0:0:0:0:
192,192,123635,1,0,0:0:0:0:
448,192,123719,1,2,0:0:0:0:
320,192,123719,1,0,0:0:0:0:
64,192,123803,1,0,0:0:0:0:
192,192,123887,1,0,0:0:0:0:
448,192,123887,1,0,0:0:0:0:
320,192,123971,1,0,0:0:0:0:
64,192,124054,1,4,0:0:0:0:
192,192,124096,1,0,0:0:0:0:
320,192,124138,1,0,0:0:0:0:
448,192,124180,1,0,0:0:0:0:
64,192,124222,1,0,0:0:0:0:
192,192,124264,1,0,0:0:0:0:
320,192,124306,1,0,0:0:0:0:
448,192,124348,1,0,0:0:0:0:
64,192,124390,128,0,124473:0:0:0:0:
192,192,124432,128,0,124515:0:0:0:0:
320,192,124473,1,0,0:0:0:0:
448,192,124515,1,0,0:0:0:0:
64,192,124557,128,4,124641:0:0:0:0:
192,192,124599,128,0,124683:0:0:0:0:
320,192,124641,1,0,0:0:0:0:
448,192,124683,1,0,0:0:0:0:
64,192,124725,128,4,124809:0:0:0:0:
192,192,124767,128,0,124851:0:0:0:0:
320,192,124809,1,0,0:0:0:0:
448,192,124851,1,0,0:0:0:0:
64,192,124892,128,0,124976:0:0:0:0:
192,192,124934,128,0,125018:0:0:0:0:
320,192,124976,1,0,0:0:0:0:
448,192,125018,1,0,0:0:0:0:
64,192,125060,128,2,125144:0:0:0:0:
192,192,125102,128,0,125186:0:0:0:0:
448,192,125144,1,0,0:0:0:0:
320,192,125186,1,0,0:0:0:0:
64,192,125228,1,0,0:0:0:0:
192,192,125270,1,0,0:0:0:0:
320,192,125311,1,0,0:0:0:0:
448,192,125353,1,0,0:0:0:0:
64,192,125395,1,0,0:0:0:0:
192,192,125437,1,0,0:0:0:0:
320,192,125479,1,0,0:0:0:0:
64,192,125521,1,0,0:0:0:0:
448,192,125563,1,0,0:0:0:0:
192,192,125605,1,0,0:0:0:0:
320,192,125647,1,0,0:0:0:0:
448,192,125689,1,0,0:0:0:0:
64,192,125730,1,0,0:0:0:0:
192,192,125730,1,4,0:0:0:0:
320,192,125814,1,0,0:0:0:0:
64,192,125898,1,0,0:0:0:0:
320,192,125982,1,0,0:0:0:0:
64,192,126066,1,0,0:0:0:0:
192,192,126066,1,0,0:0:0:0:
448,192,126149,1,0,0:0:0:0:
192,192,126233,1,0,0:0:0:0:
448,192,126317,1,0,0:0:0:0:
320,192,126401,1,2,0:0:0:0:
192,192,126401,1,0,0:0:0:0:
64,192,126401,1,0,0:0:0:0:
448,192,126485,1,0,0:0:0:0:
192,192,126568,1,4,0:0:0:0:
64,192,126568,1,0,0:0:0:0:
448,192,126610,1,0,0:0:0:0:
320,192,126652,1,0,0:0:0:0:
192,192,126694,1,0,0:0:0:0:
64,192,126736,1,0,0:0:0:0:
448,192,126736,1,4,0:0:0:0:
192,192,126820,1,0,0:0:0:0:
64,192,126904,1,0,0:0:0:0:
320,192,126904,1,0,0:0:0:0:
192,192,126987,1,0,0:0:0:0:
320,192,127071,1,0,0:0:0:0:
448,192,127071,1,0,0:0:0:0:
64,192,127155,1,0,0:0:0:0:
320,192,127239,1,0,0:0:0:0:
448,192,127239,1,4,0:0:0:0:
192,192,127323,1,0,0:0:0:0:
64,192,127406,1,2,0:0:0:0:
320,192,127406,1,0,0:0:0:0:
448,192,127406,1,0,0:0:0:0:
192,192,127490,1,0,0:0:0:0:
320,192,127574,1,4,0:0:0:0:
448,192,127574,1,0,0:0:0:0:
448,192,127658,1,0,0:0:0:0:
320,192,127658,1,4,0:0:0:0:
192,192,127742,1,2,0:0:0:0:
64,192,127742,1,0,0:0:0:0:
448,192,127742,1,0,0:0:0:0:
192,192,127909,1,2,0:0:0:0:
64,192,127909,1,0,0:0:0:0:
64,192,128077,1,0,0:0:0:0:
192,192,128077,1,2,0:0:0:0:
64,192,128412,1,0,0:0:0:70:Cymbal.wav
192,192,128412,1,0,0:0:0:0:
320,192,128412,1,0,0:0:0:0:
448,192,128412,1,4,0:0:0:0:
448,192,128747,1,0,0:0:0:0:
320,192,128747,1,0,0:0:0:0:
192,192,128915,1,0,0:0:0:0:
448,192,128915,1,0,0:0:0:0:
320,192,128999,1,0,0:0:0:0:
64,192,129082,1,2,0:0:0:0:
192,192,129082,1,0,0:0:0:0:
448,192,129166,1,0,0:0:0:0:
320,192,129250,1,0,0:0:0:0:
64,192,129250,1,0,0:0:0:0:
192,192,129334,1,0,0:0:0:0:
448,192,129418,1,4,0:0:0:0:
320,192,129460,1,0,0:0:0:0:
192,192,129501,1,0,0:0:0:0:
64,192,129543,1,0,0:0:0:0:
448,192,129585,1,0,0:0:0:0:
320,192,129627,1,0,0:0:0:0:
192,192,129669,1,0,0:0:0:0:
64,192,129711,1,0,0:0:0:0:
448,192,129753,128,0,129837:0:0:0:0:
320,192,129795,128,0,129879:0:0:0:0:
192,192,129837,1,0,0:0:0:0:
64,192,129879,1,0,0:0:0:0:
448,192,129920,128,4,130004:0:0:0:0:
320,192,129962,128,0,130046:0:0:0:0:
192,192,130004,1,0,0:0:0:0:
64,192,130046,1,0,0:0:0:0:
448,192,130088,128,4,130172:0:0:0:0:
320,192,130130,128,0,130214:0:0:0:0:
192,192,130172,1,0,0:0:0:0:
64,192,130214,1,0,0:0:0:0:
448,192,130256,128,0,130339:0:0:0:0:
320,192,130297,128,0,130381:0:0:0:0:
192,192,130339,1,0,0:0:0:0:
64,192,130381,1,0,0:0:0:0:
320,192,130423,1,0,0:0:0:0:
448,192,130423,128,2,130591:0:0:0:0:
192,192,130507,128,0,130675:0:0:0:0:
320,192,130591,128,0,130758:0:0:0:0:
64,192,130675,128,0,130842:0:0:0:0:
192,192,130758,128,0,130926:0:0:0:0:
448,192,130842,128,0,131010:0:0:0:0:
64,192,130926,128,0,131094:0:0:0:0:
320,192,131010,128,0,131094:0:0:0:0:
448,192,131094,1,4,0:0:0:0:
192,192,131094,128,0,131680:0:0:0:0:
448,192,131429,128,0,131680:0:0:0:0:
320,192,131596,128,0,131764:0:0:0:0:
64,192,131764,1,2,0:0:0:0:
192,192,131764,1,0,0:0:0:0:
448,192,131764,128,0,132267:0:0:0:0:
320,192,131932,128,0,132183:0:0:0:0:
192,192,132099,128,0,132183:0:0:0:0:
320,192,132267,1,4,0:0:0:0:
192,192,132267,1,0,0:0:0:0:
64,192,132267,128,0,132770:0:0:0:0:
448,192,132602,128,0,132853:0:0:0:0:
192,192,132602,1,4,0:0:0:0:
320,192,132937,1,4,0:0:0:0:
448,192,132937,1,0,0:0:0:0:
192,192,133021,1,4,0:0:0:0:
64,192,133021,1,0,0:0:0:0:
320,192,133105,1,2,0:0:0:0:
448,192,133105,1,0,0:0:0:0:
320,192,133272,1,4,0:0:0:0:
448,192,133272,1,0,0:0:0:0:
192,192,133356,1,2,0:0:0:0:
64,192,133356,1,0,0:0:0:0:
64,192,133524,1,0,0:0:0:0:
192,192,133524,1,4,0:0:0:0:
320,192,133608,1,2,0:0:0:0:
448,192,133608,1,0,0:0:0:0:
192,192,133691,1,4,0:0:0:0:
64,192,133775,1,2,0:0:0:0:
320,192,133775,1,0,0:0:0:0:
448,192,133775,128,0,133859:0:0:0:0:
448,192,133943,1,0,0:0:0:0:
320,192,133943,128,0,134027:0:0:0:0:
320,192,134110,1,0,0:0:0:0:
448,192,134110,128,0,134194:0:0:0:0:
448,192,134278,1,0,0:0:0:0:
320,192,134278,128,0,134362:0:0:0:0:
448,192,134446,1,0,0:0:0:0:
320,192,134446,1,2,0:0:0:0:
64,192,134529,1,0,0:0:0:0:
192,192,134613,1,0,0:0:0:0:
448,192,134613,1,0,0:0:0:0:
320,192,134697,1,0,0:0:0:0:
64,192,134781,1,4,0:0:0:0:
192,192,134823,1,0,0:0:0:0:
320,192,134865,1,0,0:0:0:0:
448,192,134906,1,0,0:0:0:0:
64,192,134948,1,0,0:0:0:0:
192,192,134990,1,0,0:0:0:0:
320,192,135032,1,0,0:0:0:0:
448,192,135074,1,0,0:0:0:0:
64,192,135116,128,0,135200:0:0:0:0:
192,192,135158,128,0,135242:0:0:0:0:
320,192,135200,128,0,135284:0:0:0:0:
448,192,135242,1,0,0:0:0:0:
64,192,135284,128,4,135367:0:0:0:0:
192,192,135325,128,0,135409:0:0:0:0:
320,192,135367,128,0,135451:0:0:0:0:
448,192,135409,1,0,0:0:0:0:
64,192,135451,128,4,135535:0:0:0:0:
192,192,135493,128,0,135577:0:0:0:0:
320,192,135535,128,0,135619:0:0:0:0:
448,192,135577,1,0,0:0:0:0:
64,192,135619,128,0,135703:0:0:0:0:
192,192,135661,128,0,135744:0:0:0:0:
320,192,135703,128,0,135786:0:0:0:0:
448,192,135744,1,0,0:0:0:0:
64,192,135786,128,2,135870:0:0:0:0:
192,192,135828,128,0,135912:0:0:0:0:
320,192,135870,128,0,135954:0:0:0:0:
448,192,135912,1,0,0:0:0:0:
64,192,135954,1,0,0:0:0:0:
192,192,135996,1,0,0:0:0:0:
320,192,136038,1,0,0:0:0:0:
448,192,136080,1,0,0:0:0:0:
64,192,136122,1,0,0:0:0:0:
192,192,136163,1,0,0:0:0:0:
320,192,136205,1,0,0:0:0:0:
64,192,136247,1,0,0:0:0:0:
448,192,136289,1,0,0:0:0:0:
192,192,136331,1,0,0:0:0:0:
320,192,136373,1,0,0:0:0:0:
448,192,136415,1,0,0:0:0:0:
64,192,136457,1,0,0:0:0:0:
192,192,136457,1,4,0:0:0:0:
320,192,136541,1,0,0:0:0:0:
64,192,136624,1,0,0:0:0:0:
320,192,136708,1,0,0:0:0:0:
64,192,136792,1,0,0:0:0:0:
192,192,136792,1,0,0:0:0:0:
448,192,136876,1,0,0:0:0:0:
192,192,136960,1,0,0:0:0:0:
448,192,137043,1,0,0:0:0:0:
320,192,137127,1,2,0:0:0:0:
192,192,137127,1,0,0:0:0:0:
64,192,137127,1,0,0:0:0:0:
448,192,137211,1,0,0:0:0:0:
192,192,137295,1,4,0:0:0:0:
64,192,137295,1,0,0:0:0:0:
448,192,137337,1,0,0:0:0:0:
320,192,137379,1,0,0:0:0:0:
192,192,137420,1,0,0:0:0:0:
448,192,137462,1,4,0:0:0:0:
64,192,137462,1,0,0:0:0:0:
192,192,137546,1,0,0:0:0:0:
64,192,137630,1,0,0:0:0:0:
320,192,137630,1,0,0:0:0:0:
192,192,137714,1,0,0:0:0:0:
320,192,137797,1,0,0:0:0:0:
448,192,137797,1,0,0:0:0:0:
64,192,137881,1,0,0:0:0:0:
320,192,137965,1,4,0:0:0:0:
448,192,137965,1,0,0:0:0:0:
192,192,138049,1,0,0:0:0:0:
64,192,138133,1,2,0:0:0:0:
320,192,138133,1,0,0:0:0:0:
448,192,138133,1,0,0:0:0:0:
192,192,138216,1,0,0:0:0:0:
320,192,138300,1,4,0:0:0:0:
448,192,138300,1,0,0:0:0:0:
448,192,138384,1,0,0:0:0:0:
320,192,138384,1,4,0:0:0:0:
192,192,138468,1,2,0:0:0:0:
64,192,138468,1,0,0:0:0:0:
448,192,138468,1,0,0:0:0:0:
192,192,138635,1,2,0:0:0:0:
64,192,138635,1,0,0:0:0:0:
192,192,138803,1,2,0:0:0:0:
64,192,138803,1,0,0:0:0:0:
448,192,139138,1,4,0:0:0:0:
64,192,139138,1,0,0:0:0:0:
192,192,139138,1,0,0:0:0:0:
448,192,139473,1,0,0:0:0:0:
320,192,139473,1,0,0:0:0:0:
192,192,139641,1,0,0:0:0:0:
448,192,139641,1,0,0:0:0:0:
320,192,139725,1,0,0:0:0:0:
64,192,139809,1,2,0:0:0:0:
192,192,139809,1,0,0:0:0:0:
448,192,139892,1,0,0:0:0:0:
320,192,139976,1,0,0:0:0:0:
64,192,139976,1,0,0:0:0:0:
192,192,140060,1,0,0:0:0:0:
448,192,140144,1,4,0:0:0:0:
64,192,140144,1,0,0:0:0:0:
320,192,140186,1,0,0:0:0:0:
192,192,140228,1,0,0:0:0:0:
64,192,140270,1,0,0:0:0:0:
448,192,140311,1,0,0:0:0:0:
320,192,140353,1,0,0:0:0:0:
192,192,140395,1,0,0:0:0:0:
64,192,140437,1,0,0:0:0:0:
448,192,140479,128,0,140563:0:0:0:0:
320,192,140521,128,0,140605:0:0:0:0:
192,192,140563,128,0,140647:0:0:0:0:
64,192,140605,1,0,0:0:0:0:
448,192,140647,128,4,140730:0:0:0:0:
320,192,140689,128,0,140772:0:0:0:0:
192,192,140730,128,0,140814:0:0:0:0:
64,192,140772,1,0,0:0:0:0:
448,192,140814,128,4,140898:0:0:0:0:
320,192,140856,128,0,140940:0:0:0:0:
192,192,140898,128,0,140982:0:0:0:0:
64,192,140940,1,0,0:0:0:0:
448,192,140982,128,0,141066:0:0:0:0:
320,192,141024,128,0,141108:0:0:0:0:
192,192,141066,128,0,141149:0:0:0:0:
64,192,141108,1,0,0:0:0:0:
448,192,141149,128,2,141233:0:0:0:0:
320,192,141191,128,0,141275:0:0:0:0:
192,192,141233,128,0,141317:0:0:0:0:
64,192,141275,1,0,0:0:0:0:
448,192,141317,1,0,0:0:0:0:
320,192,141359,1,0,0:0:0:0:
192,192,141401,1,0,0:0:0:0:
64,192,141443,1,0,0:0:0:0:
448,192,141485,1,0,0:0:0:0:
320,192,141527,1,0,0:0:0:0:
192,192,141568,1,0,0:0:0:0:
448,192,141610,1,0,0:0:0:0:
64,192,141652,1,0,0:0:0:0:
320,192,141694,1,0,0:0:0:0:
192,192,141736,1,0,0:0:0:0:
64,192,141778,1,0,0:0:0:0:
448,192,141820,1,4,0:0:0:0:
320,192,141820,1,0,0:0:0:0:
192,192,141904,1,0,0:0:0:0:
64,192,141987,1,0,0:0:0:0:
448,192,141987,1,0,0:0:0:0:
320,192,142071,1,0,0:0:0:0:
192,192,142155,1,0,0:0:0:0:
64,192,142155,1,0,0:0:0:0:
448,192,142239,1,0,0:0:0:0:
320,192,142323,1,0,0:0:0:0:
64,192,142323,1,0,0:0:0:0:
192,192,142406,1,0,0:0:0:0:
64,192,142490,1,2,0:0:0:0:
448,192,142490,1,0,0:0:0:0:
320,192,142574,1,0,0:0:0:0:
192,192,142658,1,0,0:0:0:0:
64,192,142658,1,0,0:0:0:0:
448,192,142742,1,0,0:0:0:0:
64,192,142825,1,0,0:0:0:0:
192,192,142825,1,0,0:0:0:0:
320,192,142909,1,0,0:0:0:0:
64,192,142993,128,4,143077:0:0:0:0:
192,192,143035,128,0,143119:0:0:0:0:
320,192,143077,128,0,143161:0:0:0:0:
448,192,143119,1,0,0:0:0:0:
64,192,143161,128,0,143244:0:0:0:0:
192,192,143203,128,0,143286:0:0:0:0:
320,192,143244,128,0,143328:0:0:0:0:
448,192,143286,1,0,0:0:0:0:
64,192,143328,128,4,143412:0:0:0:0:
192,192,143370,128,0,143454:0:0:0:0:
320,192,143412,128,0,143496:0:0:0:0:
448,192,143454,1,0,0:0:0:0:
64,192,143496,128,0,143580:0:0:0:0:
192,192,143538,128,0,143622:0:0:0:0:
320,192,143580,128,0,143663:0:0:0:0:
448,192,143622,1,0,0:0:0:0:
64,192,143663,1,0,0:0:0:0:
192,192,143663,1,4,0:0:0:0:
448,192,143747,1,0,0:0:0:0:
320,192,143747,1,4,0:0:0:0:
448,192,143831,1,0,0:0:0:0:
64,192,143831,1,0,0:0:0:0:
192,192,143831,1,2,0:0:0:0:
192,192,144082,1,0,0:0:0:0:
192,192,144334,1,0,0:0:0:0:
64,192,144501,1,0,0:0:0:0:
192,192,144501,1,0,0:0:0:0:
320,192,144501,1,0,0:0:0:0:
448,192,144501,1,4,0:0:0:0:
192,192,146848,1,0,0:0:0:0:
320,192,147015,1,0,0:0:0:0:
64,192,147183,1,0,0:0:0:0:
448,192,147183,128,0,147518:0:0:0:0:
320,192,147518,128,0,147853:0:0:0:0:
64,192,147686,1,0,0:0:0:0:
192,192,147853,128,0,148021:0:0:0:0:
448,192,148021,128,0,148189:0:0:0:0:
192,192,148189,1,0,0:0:0:0:
320,192,148356,128,0,148524:0:0:0:0:
192,192,148691,1,0,0:0:0:0:
64,192,148691,128,0,148859:0:0:0:0:
320,192,149027,128,0,149362:0:0:0:0:
192,192,149194,1,0,0:0:0:0:
448,192,149362,128,0,149781:0:0:0:0:
448,192,149865,1,0,0:0:0:0:
320,192,149865,128,0,150367:0:0:0:0:
448,192,150367,1,0,0:0:0:0:
64,192,150367,128,0,150786:0:0:0:0:
64,192,150870,128,0,150954:0:0:0:0:
320,192,150870,1,0,0:0:0:0:
64,192,151038,128,0,151205:0:0:0:0:
64,192,151373,128,0,151541:0:0:0:0:
320,192,151373,1,0,0:0:0:0:
320,192,151708,128,0,152043:0:0:0:0:
192,192,151876,1,0,0:0:0:0:
64,192,152043,128,0,152211:0:0:0:0:
192,192,152127,128,0,152295:0:0:0:0:
320,192,152211,128,0,152379:0:0:0:0:
448,192,152211,1,0,0:0:0:0:
64,192,152295,1,0,0:0:0:0:
192,192,152379,1,0,0:0:0:0:
320,192,152462,1,0,0:0:0:0:
448,192,152546,128,0,152881:0:0:0:0:
64,192,152546,1,0,0:0:0:0:
192,192,152881,128,0,153216:0:0:0:0:
320,192,153049,1,0,0:0:0:0:
64,192,153216,128,0,153384:0:0:0:0:
448,192,153384,128,0,153552:0:0:0:0:
64,192,153552,1,0,0:0:0:0:
192,192,153719,128,0,153887:0:0:0:0:
320,192,154054,128,0,154390:0:0:0:0:
64,192,154054,1,0,0:0:0:0:
448,192,154390,128,0,154725:0:0:0:0:
192,192,154557,1,0,0:0:0:0:
320,192,154725,128,0,154976:0:0:0:0:
64,192,154892,1,0,0:0:0:0:
192,192,154976,1,0,0:0:0:0:
448,192,155060,1,0,0:0:0:0:
320,192,155144,1,0,0:0:0:0:
192,192,155228,1,0,0:0:0:0:
64,192,155228,128,0,155730:0:0:0:0:
192,192,155395,1,0,0:0:0:0:
320,192,155479,1,0,0:0:0:0:
320,192,155647,1,0,0:0:0:0:
192,192,155730,1,0,0:0:0:0:
448,192,155730,128,0,156401:0:0:0:0:
64,192,155898,1,0,0:0:0:0:
192,192,155982,1,0,0:0:0:0:
192,192,156149,1,0,0:0:0:0:
64,192,156233,1,0,0:0:0:0:
192,192,156317,1,0,0:0:0:0:
320,192,156401,1,0,0:0:0:0:
448,192,156485,1,0,0:0:0:0:
320,192,156568,1,0,0:0:0:0:
192,192,156568,1,0,0:0:0:0:
64,192,156568,1,4,0:0:0:0:
192,192,156820,1,4,0:0:0:0:
320,192,156820,1,0,0:0:0:0:
448,192,156820,1,0,0:0:0:0:
64,192,157071,1,4,0:0:0:0:
192,192,157071,1,0,0:0:0:0:
448,192,157071,1,0,0:0:0:0:
320,192,157323,1,0,0:0:0:0:
192,192,157323,1,4,0:0:0:0:
448,192,157323,1,0,0:0:0:0:
64,192,157574,5,8,0:0:0:0:
192,192,157574,1,0,0:0:0:0:
320,192,157742,1,0,0:0:0:0:
192,192,157909,1,4,0:0:0:0:
448,192,157909,128,0,158496:0:0:0:0:
64,192,157909,128,0,158496:0:0:0:0:
320,192,158244,128,0,158496:0:0:0:0:
64,192,158580,1,0,0:0:0:0:
320,192,158580,1,2,0:0:0:0:
448,192,158580,1,0,0:0:0:0:
192,192,158663,1,0,0:0:0:0:
448,192,158747,1,0,0:0:0:0:
320,192,158831,1,0,0:0:0:0:
64,192,158915,1,0,0:0:0:0:
320,192,158999,1,0,0:0:0:0:
192,192,159082,1,4,0:0:0:0:
448,192,159082,128,0,159501:0:0:0:0:
64,192,159082,128,0,159501:0:0:0:0:
320,192,159418,128,0,159501:0:0:0:0:
448,192,159585,1,0,0:0:0:0:
320,192,159585,1,2,0:0:0:0:
64,192,159585,1,0,0:0:0:0:
192,192,159753,1,4,0:0:0:0:
448,192,159753,128,0,160172:0:0:0:0:
64,192,159753,128,0,160172:0:0:0:0:
320,192,160088,128,0,160172:0:0:0:0:
320,192,160256,1,0,0:0:0:0:
448,192,160256,1,0,0:0:0:0:
64,192,160256,1,0,0:0:0:0:
192,192,160423,1,0,0:0:0:0:
320,192,160507,1,0,0:0:0:0:
64,192,160591,128,0,161177:0:0:0:0:
192,192,160591,1,4,0:0:0:0:
448,192,160591,128,0,161094:0:0:0:0:
192,192,161094,1,4,0:0:0:0:
320,192,161177,1,4,0:0:0:0:
448,192,161177,1,0,0:0:0:0:
192,192,161261,1,0,0:0:0:0:
64,192,161261,1,2,0:0:0:0:
448,192,161261,128,0,161373:0:0:0:0:
320,192,161317,128,0,161429:0:0:0:0:
192,192,161373,128,0,161485:0:0:0:0:
64,192,161429,128,0,161541:0:0:0:0:
448,192,161485,128,0,161596:0:0:0:0:
320,192,161541,128,0,161652:0:0:0:0:
192,192,161596,128,0,161708:0:0:0:0:
64,192,161652,128,0,161764:0:0:0:0:
192,192,161764,1,4,0:0:0:0:
448,192,161764,128,0,162267:0:0:0:0:
320,192,161764,128,0,162015:0:0:0:0:
320,192,162099,1,2,0:0:0:0:
192,192,162099,1,0,0:0:0:0:
192,192,162267,1,2,0:0:0:0:
64,192,162267,1,0,0:0:0:0:
320,192,162434,1,4,0:0:0:0:
448,192,162434,128,0,162770:0:0:0:0:
64,192,162434,128,0,162770:0:0:0:0:
64,192,162937,1,0,0:0:0:0:
192,192,162937,1,0,0:0:0:0:
320,192,163105,1,0,0:0:0:0:
192,192,163272,1,4,0:0:0:0:
448,192,163272,128,0,163859:0:0:0:0:
64,192,163272,128,0,163859:0:0:0:0:
320,192,163775,128,0,163859:0:0:0:0:
64,192,163943,1,0,0:0:0:0:
448,192,163943,1,0,0:0:0:0:
320,192,163943,1,2,0:0:0:0:
192,192,164027,1,0,0:0:0:0:
448,192,164110,1,0,0:0:0:0:
64,192,164110,1,0,0:0:0:0:
320,192,164194,1,0,0:0:0:0:
64,192,164278,1,0,0:0:0:0:
192,192,164278,1,0,0:0:0:0:
320,192,164446,1,4,0:0:0:0:
448,192,164446,128,0,164865:0:0:0:0:
64,192,164446,128,0,164865:0:0:0:0:
192,192,164781,128,0,164865:0:0:0:0:
64,192,164948,1,0,0:0:0:0:
192,192,164948,1,2,0:0:0:0:
448,192,164948,1,0,0:0:0:0:
320,192,165116,1,4,0:0:0:0:
448,192,165116,128,0,165535:0:0:0:0:
64,192,165116,128,0,165535:0:0:0:0:
192,192,165451,128,0,165535:0:0:0:0:
64,192,165619,1,0,0:0:0:0:
192,192,165619,1,0,0:0:0:0:
448,192,165619,1,0,0:0:0:0:
192,192,165786,1,0,0:0:0:0:
320,192,165786,1,0,0:0:0:0:
64,192,165954,1,4,0:0:0:0:
320,192,165954,1,0,0:0:0:0:
448,192,165954,1,0,0:0:0:0:
192,192,166122,1,0,0:0:0:0:
320,192,166177,1,0,0:0:0:0:
64,192,166233,1,0,0:0:0:0:
448,192,166289,1,0,0:0:0:0:
192,192,166345,1,0,0:0:0:0:
320,192,166401,1,0,0:0:0:0:
448,192,166457,1,0,0:0:0:0:
64,192,166513,1,0,0:0:0:0:
192,192,166568,1,0,0:0:0:0:
320,192,166666,1,0,0:0:0:0:
64,192,166750,1,0,0:0:0:0:
448,192,166834,1,0,0:0:0:0:
320,192,166960,1,0,0:0:0:0:
192,192,167127,1,0,0:0:0:0:
64,192,167379,1,4,0:0:0:0:
448,192,167379,1,0,0:0:0:0:
320,192,167379,1,0,0:0:0:0:
192,192,167630,1,0,0:0:0:0:
64,192,167630,1,4,0:0:0:0:
320,192,167630,1,0,0:0:0:0:
448,192,167797,1,0,0:0:0:0:
64,192,167797,1,4,0:0:0:0:
320,192,167797,1,0,0:0:0:0:
64,192,167965,1,2,0:0:0:0:
192,192,167965,1,0,0:0:0:0:
448,192,167965,1,0,0:0:0:0:
320,192,168133,128,0,168468:0:0:0:0:
192,192,168300,128,0,168468:0:0:0:0:
192,192,168635,1,2,0:0:0:0:
64,192,168635,1,4,0:0:0:0:
448,192,168719,1,0,0:0:0:0:
320,192,168803,1,0,0:0:0:0:
192,192,168803,1,4,0:0:0:0:
448,192,168887,1,0,0:0:0:0:
192,192,168971,1,4,0:0:0:0:
64,192,168971,1,2,0:0:0:0:
448,192,169054,1,0,0:0:0:0:
320,192,169138,1,0,0:0:0:0:
192,192,169138,1,4,0:0:0:0:
448,192,169222,1,0,0:0:0:0:
192,192,169306,1,4,0:0:0:0:
64,192,169306,1,2,0:0:0:0:
448,192,169390,1,0,0:0:0:0:
320,192,169473,1,0,0:0:0:0:
192,192,169473,1,4,0:0:0:0:
448,192,169557,1,0,0:0:0:0:
192,192,169641,1,4,0:0:0:0:
64,192,169641,1,2,0:0:0:0:
448,192,169725,1,0,0:0:0:0:
320,192,169809,1,0,0:0:0:0:
192,192,169809,1,4,0:0:0:0:
64,192,169892,1,0,0:0:0:0:
320,192,169976,1,4,0:0:0:0:
448,192,169976,1,2,0:0:0:0:
64,192,170060,1,0,0:0:0:0:
192,192,170144,1,0,0:0:0:0:
320,192,170144,1,4,0:0:0:0:
64,192,170228,1,0,0:0:0:0:
448,192,170311,1,2,0:0:0:0:
320,192,170311,1,4,0:0:0:0:
64,192,170395,1,0,0:0:0:0:
192,192,170479,1,0,0:0:0:0:
320,192,170479,1,4,0:0:0:0:
64,192,170563,1,0,0:0:0:0:
320,192,170647,1,4,0:0:0:0:
448,192,170647,1,2,0:0:0:0:
64,192,170730,1,0,0:0:0:0:
192,192,170814,1,0,0:0:0:0:
320,192,170814,1,4,0:0:0:0:
64,192,170898,1,0,0:0:0:0:
448,192,170982,1,2,0:0:0:0:
320,192,170982,1,4,0:0:0:0:
320,192,171317,1,4,0:0:0:0:
448,192,171317,1,2,0:0:0:0:
64,192,171401,1,0,0:0:0:0:
192,192,171485,1,0,0:0:0:0:
448,192,171485,1,4,0:0:0:0:
64,192,171568,1,0,0:0:0:0:
320,192,171652,1,4,0:0:0:0:
448,192,171652,1,2,0:0:0:0:
64,192,171736,1,0,0:0:0:0:
192,192,171820,1,0,0:0:0:0:
448,192,171820,1,4,0:0:0:0:
64,192,171904,1,0,0:0:0:0:
320,192,171987,1,4,0:0:0:0:
448,192,171987,1,2,0:0:0:0:
64,192,172071,1,0,0:0:0:0:
192,192,172155,1,0,0:0:0:0:
448,192,172155,1,4,0:0:0:0:
64,192,172239,1,0,0:0:0:0:
320,192,172323,1,4,0:0:0:0:
448,192,172323,1,2,0:0:0:0:
64,192,172406,1,0,0:0:0:0:
192,192,172490,1,0,0:0:0:0:
320,192,172490,1,4,0:0:0:0:
448,192,172574,1,0,0:0:0:0:
192,192,172658,1,4,0:0:0:0:
64,192,172658,1,2,0:0:0:0:
448,192,172742,1,0,0:0:0:0:
320,192,172825,1,0,0:0:0:0:
64,192,172825,1,4,0:0:0:0:
448,192,172909,1,0,0:0:0:0:
64,192,172993,1,2,0:0:0:0:
192,192,172993,1,4,0:0:0:0:
448,192,173077,1,0,0:0:0:0:
320,192,173161,1,0,0:0:0:0:
64,192,173161,1,4,0:0:0:0:
448,192,173244,1,0,0:0:0:0:
64,192,173328,128,0,173412:0:0:0:0:
192,192,173328,128,0,173412:0:0:0:0:
192,192,173496,128,0,173580:0:0:0:0:
320,192,173496,128,0,173580:0:0:0:0:
320,192,173663,128,0,173747:0:0:0:0:
448,192,173663,128,0,173747:0:0:0:0:
448,192,173831,128,0,173915:0:0:0:0:
64,192,173831,128,0,173915:0:0:0:0:
64,192,173999,1,2,0:0:0:0:
192,192,173999,1,4,0:0:0:0:
320,192,174082,1,4,0:0:0:0:
448,192,174082,1,0,0:0:0:0:
192,192,174166,1,4,0:0:0:0:
64,192,174166,1,2,0:0:0:0:
320,192,174250,1,4,0:0:0:0:
448,192,174250,1,0,0:0:0:0:
192,192,174334,1,4,0:0:0:0:
64,192,174334,1,2,0:0:0:0:
320,192,174418,1,4,0:0:0:0:
448,192,174418,1,0,0:0:0:0:
192,192,174501,1,4,0:0:0:0:
64,192,174501,1,2,0:0:0:0:
320,192,174585,1,4,0:0:0:0:
448,192,174585,1,0,0:0:0:0:
64,192,174669,1,2,0:0:0:0:
192,192,174669,1,4,0:0:0:0:
320,192,174753,1,4,0:0:0:0:
448,192,174753,1,0,0:0:0:0:
192,192,174837,1,4,0:0:0:0:
64,192,174837,1,2,0:0:0:0:
320,192,174920,1,4,0:0:0:0:
448,192,174920,1,0,0:0:0:0:
192,192,175004,1,4,0:0:0:0:
64,192,175004,1,2,0:0:0:0:
320,192,175088,1,4,0:0:0:0:
448,192,175088,1,0,0:0:0:0:
192,192,175172,1,4,0:0:0:0:
64,192,175172,1,2,0:0:0:0:
320,192,175256,1,4,0:0:0:0:
448,192,175256,1,0,0:0:0:0:
192,192,175339,1,4,0:0:0:0:
64,192,175339,1,2,0:0:0:0:
64,192,175423,1,0,0:0:0:0:
192,192,175423,1,4,0:0:0:0:
320,192,175507,1,4,0:0:0:0:
448,192,175507,1,2,0:0:0:0:
448,192,175591,1,0,0:0:0:0:
320,192,175591,1,4,0:0:0:0:
192,192,175675,1,4,0:0:0:0:
64,192,175675,1,2,0:0:0:0:
192,192,175758,1,4,0:0:0:0:
64,192,175758,1,0,0:0:0:0:
320,192,175842,1,4,0:0:0:0:
448,192,175842,1,2,0:0:0:0:
448,192,175926,1,0,0:0:0:0:
320,192,175926,1,4,0:0:0:0:
192,192,176010,1,4,0:0:0:0:
64,192,176010,1,2,0:0:0:0:
64,192,176094,1,0,0:0:0:0:
192,192,176094,1,4,0:0:0:0:
448,192,176177,1,2,0:0:0:0:
320,192,176177,1,4,0:0:0:0:
320,192,176261,1,4,0:0:0:0:
448,192,176261,1,0,0:0:0:0:
192,192,176345,1,4,0:0:0:0:
64,192,176345,1,2,0:0:0:0:
192,192,176429,1,4,0:0:0:0:
64,192,176429,1,0,0:0:0:0:
320,192,176513,1,4,0:0:0:0:
448,192,176513,1,2,0:0:0:0:
448,192,176596,1,0,0:0:0:0:
320,192,176596,1,4,0:0:0:0:
64,192,176680,128,4,176764:0:0:0:0:
192,192,176722,1,4,0:0:0:0:
320,192,176764,1,4,0:0:0:0:
448,192,176806,1,4,0:0:0:0:
64,192,176848,128,4,176932:0:0:0:0:
192,192,176890,128,4,176973:0:0:0:0:
320,192,176932,1,4,0:0:0:0:
448,192,176973,1,4,0:0:0:0:
64,192,177015,128,4,177099:0:0:0:0:
192,192,177057,128,4,177141:0:0:0:0:
320,192,177099,128,4,177183:0:0:0:0:
448,192,177141,1,4,0:0:0:0:
64,192,177183,128,4,177267:0:0:0:0:
192,192,177225,128,4,177309:0:0:0:0:
320,192,177267,128,4,177351:0:0:0:0:
448,192,177309,128,4,177392:0:0:0:0:
64,192,177351,128,4,177434:0:0:0:0:
192,192,177392,128,4,177476:0:0:0:0:
320,192,177434,128,4,177518:0:0:0:0:
448,192,177476,128,4,177560:0:0:0:0:
64,192,177518,1,4,0:0:0:0:
192,192,177560,128,4,177644:0:0:0:0:
320,192,177602,128,4,177686:0:0:0:0:
448,192,177644,128,4,177728:0:0:0:0:
64,192,177686,1,4,0:0:0:0:
192,192,177728,1,4,0:0:0:0:
320,192,177770,128,4,177853:0:0:0:0:
448,192,177811,128,4,177895:0:0:0:0:
64,192,177853,1,4,0:0:0:0:
192,192,177895,1,4,0:0:0:0:
320,192,177937,1,4,0:0:0:0:
448,192,177979,128,4,178021:0:0:0:0:
64,192,178021,1,4,0:0:0:0:
192,192,178021,1,4,0:0:0:0:
192,192,179027,1,0,0:0:0:0:
320,192,179027,1,2,0:0:0:0:
64,192,179362,1,4,0:0:0:0:
192,192,179362,1,0,0:0:0:0:
448,192,179362,1,0,0:0:0:70:Cymbal.wav
320,192,179362,1,0,0:0:0:0:
64,192,179697,1,4,0:0:0:0:
192,192,179697,1,2,0:0:0:0:
448,192,179697,1,0,0:0:0:0:
320,192,179697,1,8,0:0:0:0:
64,192,179865,1,0,0:0:0:0:
192,192,179865,1,0,0:0:0:0:
320,192,179948,1,0,0:0:0:0:
448,192,179948,1,0,0:0:0:0:
448,192,180032,1,0,0:0:0:0:
192,192,180032,1,0,0:0:0:0:
64,192,180032,1,4,0:0:0:0:
192,192,180200,1,0,0:0:0:0:
320,192,180200,1,0,0:0:0:0:
448,192,180367,1,0,0:0:0:0:
320,192,180367,1,8,0:0:0:0:
192,192,180367,1,2,0:0:0:0:
64,192,180367,1,4,0:0:0:0:
320,192,180535,1,0,0:0:0:0:
448,192,180535,1,0,0:0:0:0:
192,192,180619,1,0,0:0:0:0:
64,192,180619,1,0,0:0:0:0:
64,192,180703,1,4,0:0:0:0:
320,192,180703,1,0,0:0:0:0:
448,192,180703,1,0,0:0:0:0:
64,192,181038,1,4,0:0:0:0:
448,192,181038,1,10,0:0:0:0:
192,192,181080,1,0,0:0:0:0:
320,192,181122,1,0,0:0:0:0:
64,192,181163,1,0,0:0:0:0:
448,192,181205,1,0,0:0:0:0:
192,192,181247,1,0,0:0:0:0:
320,192,181289,1,0,0:0:0:0:
448,192,181331,1,0,0:0:0:0:
192,192,181373,1,0,0:0:0:0:
64,192,181373,1,4,0:0:0:0:
320,192,181457,1,0,0:0:0:0:
192,192,181541,1,0,0:0:0:0:
320,192,181624,1,0,0:0:0:0:
448,192,181708,1,8,0:0:0:0:
320,192,181708,1,0,0:0:0:0:
192,192,181708,1,2,0:0:0:0:
64,192,181708,1,4,0:0:0:0:
192,192,182043,1,4,0:0:0:0:
320,192,182043,128,0,182148:0:0:0:0:
448,192,182043,128,0,182148:0:0:0:0:
320,192,182211,128,0,182316:0:0:0:0:
448,192,182211,128,0,182316:0:0:0:0:
448,192,182379,1,8,0:0:0:0:
320,192,182379,1,0,0:0:0:0:
192,192,182379,1,4,0:0:0:0:
64,192,182379,1,2,0:0:0:0:
64,192,182546,1,0,0:0:0:0:
192,192,182546,1,0,0:0:0:0:
320,192,182630,1,0,0:0:0:0:
448,192,182630,1,0,0:0:0:0:
448,192,182714,1,0,0:0:0:0:
192,192,182714,1,4,0:0:0:0:
64,192,182714,1,0,0:0:0:0:
192,192,182881,1,0,0:0:0:0:
320,192,182881,1,0,0:0:0:0:
448,192,183049,1,8,0:0:0:0:
320,192,183049,1,0,0:0:0:0:
64,192,183049,1,2,0:0:0:0:
192,192,183049,1,4,0:0:0:0:
192,192,183216,1,0,0:0:0:0:
64,192,183384,1,0,0:0:0:0:
320,192,183384,1,0,0:0:0:0:
448,192,183384,1,4,0:0:0:0:
64,192,183719,1,2,0:0:0:0:
192,192,183719,1,8,0:0:0:0:
320,192,183719,1,0,0:0:0:0:
448,192,183719,1,4,0:0:0:0:
192,192,183887,1,0,0:0:0:0:
320,192,183887,1,0,0:0:0:0:
64,192,184054,1,0,0:0:0:0:
448,192,184054,1,4,0:0:0:0:
192,192,184096,1,0,0:0:0:0:
320,192,184138,1,0,0:0:0:0:
448,192,184180,1,0,0:0:0:0:
64,192,184222,1,0,0:0:0:0:
192,192,184264,1,0,0:0:0:0:
320,192,184306,1,0,0:0:0:0:
64,192,184348,1,0,0:0:0:0:
448,192,184390,1,14,0:0:0:0:
320,192,184432,1,0,0:0:0:0:
192,192,184473,1,0,0:0:0:0:
64,192,184515,1,0,0:0:0:0:
320,192,184557,1,0,0:0:0:0:
448,192,184557,1,0,0:0:0:0:
192,192,184641,1,0,0:0:0:0:
64,192,184725,1,4,0:0:0:0:
448,192,184725,1,0,0:0:0:0:
320,192,184725,1,0,0:0:0:0:
64,192,185060,1,8,0:0:0:0:
192,192,185060,1,0,0:0:0:0:
320,192,185060,1,2,0:0:0:0:
448,192,185060,1,4,0:0:0:0:
320,192,185228,1,0,0:0:0:0:
448,192,185228,1,0,0:0:0:0:
192,192,185311,1,0,0:0:0:0:
64,192,185311,1,0,0:0:0:0:
64,192,185395,1,0,0:0:0:0:
320,192,185395,1,0,0:0:0:0:
448,192,185395,1,4,0:0:0:0:
320,192,185563,1,0,0:0:0:0:
192,192,185563,1,0,0:0:0:0:
64,192,185730,1,8,0:0:0:0:
192,192,185730,1,0,0:0:0:0:
448,192,185730,1,4,0:0:0:0:
320,192,185730,1,2,0:0:0:0:
64,192,185898,1,0,0:0:0:0:
192,192,185898,1,0,0:0:0:0:
320,192,185982,1,0,0:0:0:0:
448,192,185982,1,0,0:0:0:0:
192,192,186066,1,0,0:0:0:0:
64,192,186066,1,0,0:0:0:0:
448,192,186066,1,4,0:0:0:0:
448,192,186401,1,4,0:0:0:0:
64,192,186401,1,10,0:0:0:0:
320,192,186443,1,0,0:0:0:0:
192,192,186485,1,0,0:0:0:0:
448,192,186527,1,0,0:0:0:0:
64,192,186568,1,0,0:0:0:0:
320,192,186610,1,0,0:0:0:0:
192,192,186652,1,0,0:0:0:0:
64,192,186694,1,0,0:0:0:0:
320,192,186736,1,0,0:0:0:0:
448,192,186736,1,4,0:0:0:0:
192,192,186820,1,0,0:0:0:0:
320,192,186904,1,0,0:0:0:0:
64,192,186987,1,0,0:0:0:0:
448,192,187071,1,4,0:0:0:0:
192,192,187071,1,2,0:0:0:0:
64,192,187071,1,8,0:0:0:0:
320,192,187071,1,0,0:0:0:0:
320,192,187155,1,2,0:0:0:0:
448,192,187155,1,0,0:0:0:0:
192,192,187239,1,2,0:0:0:0:
64,192,187239,1,0,0:0:0:0:
320,192,187323,1,2,0:0:0:0:
448,192,187323,1,0,0:0:0:0:
448,192,187406,1,0,0:0:0:0:
192,192,187406,1,0,0:0:0:70:Cymbal.wav
64,192,187406,1,4,0:0:0:0:
320,192,187574,1,0,0:0:0:70:openHH.wav
192,192,187574,1,0,0:0:0:0:
448,192,187742,1,2,0:0:0:0:
320,192,187742,1,0,0:0:0:0:
192,192,187742,1,8,0:0:0:0:
64,192,187742,1,4,0:0:0:0:
320,192,187909,1,0,0:0:0:70:openHH.wav
448,192,187909,1,0,0:0:0:0:
448,192,188077,1,0,0:0:0:0:
192,192,188077,1,0,0:0:0:0:
64,192,188077,1,4,0:0:0:0:
64,192,188244,1,0,0:0:0:0:
320,192,188244,1,0,0:0:0:70:openHH.wav
64,192,188412,1,4,0:0:0:0:
192,192,188412,1,2,0:0:0:0:
320,192,188412,1,0,0:0:0:0:
448,192,188412,1,8,0:0:0:0:
192,192,188580,1,0,0:0:0:70:openHH.wav
448,192,188580,1,0,0:0:0:0:
448,192,188747,1,0,0:0:0:0:
320,192,188747,1,0,0:0:0:0:
64,192,188747,1,4,0:0:0:0:
192,192,188915,1,0,0:0:0:70:openHH.wav
320,192,188915,1,0,0:0:0:0:
448,192,189082,1,8,0:0:0:0:
320,192,189082,1,0,0:0:0:0:
192,192,189082,1,2,0:0:0:0:
64,192,189082,1,4,0:0:0:0:
64,192,189250,1,0,0:0:0:0:
192,192,189250,1,0,0:0:0:70:openHH.wav
192,192,189418,1,0,0:0:0:0:
320,192,189418,1,0,0:0:0:0:
448,192,189418,1,4,0:0:0:0:
448,192,189585,1,0,0:0:0:70:openHH.wav
64,192,189585,1,0,0:0:0:0:
64,192,189753,1,2,0:0:0:0:
192,192,189753,1,0,0:0:0:0:
320,192,189753,1,8,0:0:0:0:
448,192,189753,1,4,0:0:0:0:
192,192,189920,1,0,0:0:0:0:
320,192,189920,1,0,0:0:0:0:
64,192,190088,1,4,0:0:0:0:
192,192,190088,1,0,0:0:0:0:
448,192,190088,1,0,0:0:0:70:Cymbal.wav
320,192,190088,1,0,0:0:0:0:
64,192,190423,1,4,0:0:0:0:
192,192,190423,1,2,0:0:0:0:
448,192,190423,1,8,0:0:0:0:
320,192,190423,1,0,0:0:0:0:
64,192,190591,1,0,0:0:0:0:
192,192,190591,1,0,0:0:0:0:
320,192,190675,1,0,0:0:0:0:
448,192,190675,1,0,0:0:0:0:
448,192,190758,1,0,0:0:0:0:
192,192,190758,1,0,0:0:0:0:
64,192,190758,1,4,0:0:0:0:
192,192,190926,1,0,0:0:0:0:
320,192,190926,1,0,0:0:0:0:
448,192,191094,1,8,0:0:0:0:
320,192,191094,1,0,0:0:0:0:
192,192,191094,1,2,0:0:0:0:
64,192,191094,1,4,0:0:0:0:
320,192,191261,1,0,0:0:0:0:
448,192,191261,1,0,0:0:0:0:
192,192,191345,1,0,0:0:0:0:
64,192,191345,1,0,0:0:0:0:
64,192,191429,1,4,0:0:0:0:
320,192,191429,1,0,0:0:0:0:
448,192,191429,1,0,0:0:0:0:
64,192,191764,1,4,0:0:0:0:
448,192,191764,1,10,0:0:0:0:
192,192,191806,1,0,0:0:0:0:
320,192,191848,1,0,0:0:0:0:
64,192,191890,1,0,0:0:0:0:
448,192,191932,1,0,0:0:0:0:
192,192,191973,1,0,0:0:0:0:
320,192,192015,1,0,0:0:0:0:
448,192,192057,1,0,0:0:0:0:
192,192,192099,1,0,0:0:0:0:
64,192,192099,1,4,0:0:0:0:
320,192,192183,1,0,0:0:0:0:
192,192,192267,1,0,0:0:0:0:
320,192,192351,1,0,0:0:0:0:
448,192,192434,1,8,0:0:0:0:
320,192,192434,1,0,0:0:0:0:
192,192,192434,1,2,0:0:0:0:
64,192,192434,1,4,0:0:0:0:
192,192,192770,1,4,0:0:0:0:
320,192,192770,128,0,192874:0:0:0:0:
448,192,192770,128,0,192874:0:0:0:0:
320,192,192937,128,0,193042:0:0:0:0:
448,192,192937,128,0,193042:0:0:0:0:
448,192,193105,1,8,0:0:0:0:
320,192,193105,1,0,0:0:0:0:
192,192,193105,1,4,0:0:0:0:
64,192,193105,1,2,0:0:0:0:
64,192,193272,1,0,0:0:0:0:
192,192,193272,1,0,0:0:0:0:
320,192,193356,1,0,0:0:0:0:
448,192,193356,1,0,0:0:0:0:
448,192,193440,1,0,0:0:0:0:
192,192,193440,1,4,0:0:0:0:
64,192,193440,1,0,0:0:0:0:
192,192,193608,1,0,0:0:0:0:
320,192,193608,1,0,0:0:0:0:
448,192,193775,1,8,0:0:0:0:
320,192,193775,1,0,0:0:0:0:
64,192,193775,1,2,0:0:0:0:
192,192,193775,1,4,0:0:0:0:
192,192,193943,1,0,0:0:0:0:
64,192,194110,1,0,0:0:0:0:
320,192,194110,1,0,0:0:0:0:
448,192,194110,1,4,0:0:0:0:
320,192,194278,1,4,0:0:0:0:
448,192,194278,1,0,0:0:0:0:
192,192,194362,1,4,0:0:0:0:
64,192,194362,1,0,0:0:0:0:
64,192,194446,1,0,0:0:0:0:
192,192,194446,1,0,0:0:0:0:
320,192,194446,1,2,0:0:0:0:
448,192,194446,1,8,0:0:0:0:
320,192,194529,1,4,0:0:0:0:
448,192,194529,1,0,0:0:0:0:
192,192,194613,1,4,0:0:0:0:
64,192,194613,1,0,0:0:0:0:
448,192,194781,1,4,0:0:0:0:
64,192,194781,1,0,0:0:0:0:
192,192,194823,1,0,0:0:0:0:
320,192,194865,1,0,0:0:0:0:
448,192,194906,1,0,0:0:0:0:
64,192,194948,1,4,0:0:0:0:
192,192,194990,1,0,0:0:0:0:
320,192,195032,1,4,0:0:0:0:
64,192,195074,1,0,0:0:0:0:
448,192,195116,1,10,0:0:0:0:
320,192,195158,1,0,0:0:0:0:
192,192,195200,1,4,0:0:0:0:
64,192,195200,1,0,0:0:0:0:
448,192,195284,1,0,0:0:0:0:
320,192,195284,1,4,0:0:0:0:
192,192,195367,1,4,0:0:0:0:
64,192,195367,1,0,0:0:0:0:
64,192,195451,1,4,0:0:0:0:
320,192,195451,1,0,0:0:0:0:
448,192,195451,1,0,0:0:0:70:Cymbal.wav
320,192,195786,1,0,0:0:0:0:
448,192,195786,1,0,0:0:0:0:
192,192,195870,1,0,0:0:0:0:
320,192,195954,1,0,0:0:0:0:
448,192,195954,1,0,0:0:0:0:
64,192,196038,1,0,0:0:0:0:
192,192,196122,1,2,0:0:0:0:
320,192,196122,1,0,0:0:0:0:
448,192,196122,1,0,0:0:0:0:
64,192,196205,1,0,0:0:0:0:
320,192,196289,1,0,0:0:0:0:
448,192,196289,1,0,0:0:0:0:
192,192,196373,1,0,0:0:0:0:
320,192,196457,1,4,0:0:0:0:
64,192,196457,128,0,196708:0:0:0:0:
448,192,196457,128,0,196708:0:0:0:0:
64,192,196792,1,0,0:0:0:0:
192,192,196792,1,0,0:0:0:0:
448,192,196792,1,0,0:0:0:0:
192,192,196876,1,0,0:0:0:0:
64,192,196876,1,0,0:0:0:0:
320,192,196960,1,4,0:0:0:0:
448,192,196960,1,0,0:0:0:0:
448,192,197127,1,0,0:0:0:0:
192,192,197127,1,4,0:0:0:0:
64,192,197127,1,0,0:0:0:0:
192,192,197295,1,0,0:0:0:0:
320,192,197462,1,2,0:0:0:0:
64,192,197462,128,0,197714:0:0:0:0:
448,192,197462,128,0,197714:0:0:0:0:
448,192,197797,1,0,0:0:0:0:
64,192,197797,128,0,197881:0:0:0:0:
192,192,197881,128,0,197965:0:0:0:0:
320,192,197965,128,0,198049:0:0:0:0:
448,192,198049,128,0,198133:0:0:0:0:
192,192,198133,1,4,0:0:0:0:
64,192,198133,128,0,199390:0:0:0:0:
448,192,198468,1,0,0:0:0:0:
448,192,198635,1,0,0:0:0:0:
448,192,198803,1,0,0:0:0:0:
64,192,199473,1,0,0:0:0:0:
192,192,199473,1,4,0:0:0:0:
448,192,199473,1,0,0:0:0:0:
192,192,199725,1,4,0:0:0:0:
320,192,199725,1,0,0:0:0:0:
448,192,199725,1,0,0:0:0:0:
448,192,199976,1,0,0:0:0:0:
320,192,199976,1,0,0:0:0:0:
192,192,199976,1,4,0:0:0:0:
64,192,200228,1,0,0:0:0:0:
448,192,200228,1,0,0:0:0:0:
192,192,200228,1,4,0:0:0:0:
64,192,200479,1,0,0:0:0:0:
192,192,200479,1,2,0:0:0:0:
320,192,200647,1,0,0:0:0:0:
448,192,200814,1,4,0:0:0:0:
64,192,200814,128,0,201820:0:0:0:0:
320,192,201149,1,0,0:0:0:0:
192,192,201485,1,0,0:0:0:0:
448,192,201652,1,0,0:0:0:0:
64,192,201987,128,4,202239:0:0:0:0:
192,192,201987,128,0,202239:0:0:0:0:
448,192,201987,128,0,202239:0:0:0:0:
320,192,202323,128,0,202574:0:0:0:0:
192,192,202323,128,0,202574:0:0:0:0:
64,192,202323,128,4,202574:0:0:0:0:
192,192,202658,128,4,202825:0:0:0:0:
320,192,202658,128,0,202909:0:0:0:0:
448,192,202658,128,0,202993:0:0:0:0:
64,192,202993,1,0,0:0:0:0:
192,192,202993,1,4,0:0:0:0:
320,192,203077,1,4,0:0:0:0:
448,192,203077,1,0,0:0:0:0:
448,192,203161,1,8,0:0:0:0:
192,192,203161,1,0,0:0:0:0:
64,192,203161,1,2,0:0:0:0:
320,192,203161,1,0,0:0:0:0:
64,192,203496,1,0,0:0:0:70:Cymbal.wav
192,192,203496,1,0,0:0:0:0:
320,192,203496,1,0,0:0:0:0:
448,192,203496,1,4,0:0:0:0:
192,192,203663,1,0,0:0:0:70:openHH.wav
320,192,203663,1,0,0:0:0:0:
64,192,203831,1,8,0:0:0:0:
192,192,203831,1,0,0:0:0:0:
320,192,203831,1,2,0:0:0:0:
448,192,203831,1,4,0:0:0:0:
320,192,203999,1,0,0:0:0:70:openHH.wav
448,192,203999,1,0,0:0:0:0:
192,192,204082,1,0,0:0:0:0:
64,192,204082,1,0,0:0:0:0:
64,192,204166,1,0,0:0:0:0:
320,192,204166,1,0,0:0:0:0:
448,192,204166,1,4,0:0:0:0:
192,192,204334,1,0,0:0:0:70:openHH.wav
64,192,204334,1,0,0:0:0:0:
320,192,204501,1,2,0:0:0:0:
448,192,204501,1,8,0:0:0:0:
192,192,204501,1,0,0:0:0:0:
64,192,204501,1,4,0:0:0:0:
320,192,204669,1,0,0:0:0:70:openHH.wav
448,192,204669,1,0,0:0:0:0:
64,192,204837,1,4,0:0:0:0:
192,192,204837,1,0,0:0:0:0:
448,192,204837,1,0,0:0:0:0:
192,192,205004,1,0,0:0:0:70:openHH.wav
320,192,205004,1,0,0:0:0:0:
64,192,205172,1,4,0:0:0:0:
192,192,205172,1,0,0:0:0:0:
320,192,205172,1,2,0:0:0:0:
448,192,205172,1,8,0:0:0:0:
320,192,205339,1,0,0:0:0:70:openHH.wav
448,192,205339,1,0,0:0:0:0:
448,192,205507,1,0,0:0:0:0:
192,192,205507,1,0,0:0:0:0:
64,192,205507,1,4,0:0:0:0:
320,192,205675,1,0,0:0:0:0:
192,192,205675,1,0,0:0:0:70:openHH.wav
64,192,205842,1,4,0:0:0:0:
192,192,205842,1,0,0:0:0:0:
320,192,205842,1,2,0:0:0:0:
448,192,205842,1,8,0:0:0:0:
192,192,206010,1,0,0:0:0:70:openHH.wav
64,192,206010,1,0,0:0:0:0:
64,192,206177,1,4,0:0:0:0:
448,192,206177,1,0,0:0:0:0:
320,192,206177,1,0,0:0:0:0:
320,192,206345,1,0,0:0:0:70:openHH.wav
192,192,206345,1,0,0:0:0:0:
448,192,206513,1,8,0:0:0:0:
320,192,206513,1,2,0:0:0:0:
192,192,206513,1,0,0:0:0:0:
64,192,206513,1,4,0:0:0:0:
192,192,206680,1,0,0:0:0:70:openHH.wav
64,192,206680,1,0,0:0:0:0:
64,192,206848,1,4,0:0:0:0:
320,192,206848,1,0,0:0:0:0:
448,192,206848,1,0,0:0:0:0:
320,192,207015,1,0,0:0:0:70:openHH.wav
192,192,207015,1,0,0:0:0:0:
64,192,207183,1,4,0:0:0:0:
192,192,207183,1,0,0:0:0:0:
320,192,207183,1,2,0:0:0:0:
448,192,207183,1,8,0:0:0:0:
320,192,207351,1,0,0:0:0:70:openHH.wav
448,192,207351,1,0,0:0:0:0:
320,192,207518,1,0,0:0:0:0:
192,192,207518,1,0,0:0:0:0:
64,192,207518,1,4,0:0:0:0:
192,192,207686,1,0,0:0:0:70:openHH.wav
448,192,207686,1,0,0:0:0:0:
64,192,207853,1,4,0:0:0:0:
192,192,207853,1,0,0:0:0:0:
320,192,207853,1,2,0:0:0:0:
448,192,207853,1,8,0:0:0:0:
320,192,208021,1,0,0:0:0:70:openHH.wav
448,192,208021,1,0,0:0:0:0:
64,192,208189,1,4,0:0:0:0:
192,192,208189,1,0,0:0:0:0:
448,192,208189,1,0,0:0:0:0:
320,192,208356,1,0,0:0:0:70:openHH.wav
64,192,208356,1,0,0:0:0:0:
64,192,208524,1,4,0:0:0:0:
192,192,208524,1,0,0:0:0:0:
320,192,208524,1,2,0:0:0:0:
448,192,208524,1,8,0:0:0:0:
64,192,208691,1,0,0:0:0:0:
192,192,208691,1,0,0:0:0:70:openHH.wav
320,192,208775,1,0,0:0:0:0:
448,192,208859,1,0,0:0:0:0:
192,192,208859,1,0,0:0:0:0:
64,192,208859,1,4,0:0:0:0:
320,192,209027,1,0,0:0:0:70:openHH.wav
192,192,209027,1,0,0:0:0:0:
320,192,209194,1,8,0:0:0:0:
64,192,209194,1,2,0:0:0:0:
448,192,209194,1,0,0:0:0:0:
192,192,209362,1,0,0:0:0:70:openHH.wav
448,192,209362,1,0,0:0:0:0:
320,192,209529,1,0,0:0:0:0:
192,192,209529,1,0,0:0:0:0:
64,192,209529,1,4,0:0:0:0:
64,192,209697,1,4,0:0:0:0:
192,192,209697,1,0,0:0:0:70:openHH.wav
320,192,209697,1,0,0:0:0:0:
448,192,209865,1,8,0:0:0:0:
64,192,209865,1,0,0:0:0:0:
320,192,209865,1,0,0:0:0:0:
192,192,210032,1,0,0:0:0:70:openHH.wav
320,192,210032,1,0,0:0:0:0:
448,192,210200,1,4,0:0:0:0:
192,192,210200,1,0,0:0:0:0:
64,192,210200,1,0,0:0:0:0:
320,192,210284,1,2,0:0:0:0:
192,192,210367,1,0,0:0:0:70:openHH.wav
64,192,210367,1,0,0:0:0:0:
448,192,210451,1,4,0:0:0:0:
320,192,210535,1,0,0:0:0:0:
192,192,210535,1,2,0:0:0:0:
64,192,210535,1,8,0:0:0:0:
64,192,210703,1,0,0:0:0:70:openHH.wav
448,192,210703,1,4,0:0:0:0:
448,192,210870,1,4,0:0:0:0:
320,192,210870,1,0,0:0:0:0:
192,192,210870,1,0,0:0:0:0:
64,192,210954,1,2,0:0:0:0:
192,192,211038,1,0,0:0:0:70:openHH.wav
448,192,211038,1,4,0:0:0:0:
320,192,211122,1,4,0:0:0:0:
192,192,211205,1,2,0:0:0:0:
64,192,211205,1,8,0:0:0:0:
448,192,211205,1,0,0:0:0:0:
448,192,211373,1,0,0:0:0:70:openHH.wav
320,192,211373,1,4,0:0:0:0:
192,192,211457,1,2,0:0:0:0:
64,192,211457,1,0,0:0:0:0:
320,192,211541,1,0,0:0:0:0:
448,192,211541,1,4,0:0:0:0:
64,192,211541,1,0,0:0:0:70:Cymbal.wav
192,192,211708,1,0,0:0:0:0:
320,192,211708,1,0,0:0:0:70:openHH.wav
64,192,211876,1,4,0:0:0:0:
192,192,211876,1,2,0:0:0:0:
320,192,211876,1,0,0:0:0:0:
448,192,211876,1,8,0:0:0:0:
320,192,212043,1,0,0:0:0:70:openHH.wav
448,192,212043,1,0,0:0:0:0:
448,192,212211,1,0,0:0:0:0:
192,192,212211,1,0,0:0:0:0:
64,192,212211,1,4,0:0:0:0:
192,192,212379,1,0,0:0:0:70:openHH.wav
320,192,212379,1,0,0:0:0:0:
448,192,212546,1,8,0:0:0:0:
320,192,212546,1,0,0:0:0:0:
192,192,212546,1,2,0:0:0:0:
64,192,212546,1,4,0:0:0:0:
192,192,212714,1,0,0:0:0:0:
64,192,212714,1,0,0:0:0:70:openHH.wav
192,192,212881,1,0,0:0:0:0:
320,192,212881,1,0,0:0:0:0:
448,192,212881,1,4,0:0:0:0:
320,192,213049,1,0,0:0:0:70:openHH.wav
64,192,213049,1,0,0:0:0:0:
448,192,213216,1,4,0:0:0:0:
320,192,213216,1,8,0:0:0:0:
192,192,213216,1,0,0:0:0:0:
64,192,213216,1,2,0:0:0:0:
192,192,213384,1,0,0:0:0:70:openHH.wav
64,192,213384,1,0,0:0:0:0:
448,192,213552,1,4,0:0:0:0:
320,192,213552,1,0,0:0:0:0:
64,192,213552,1,0,0:0:0:0:
192,192,213719,1,0,0:0:0:70:openHH.wav
448,192,213719,1,0,0:0:0:0:
448,192,213887,1,4,0:0:0:0:
320,192,213887,1,8,0:0:0:0:
192,192,213887,1,0,0:0:0:0:
64,192,213887,1,2,0:0:0:0:
448,192,214054,1,0,0:0:0:0:
320,192,214054,1,0,0:0:0:70:openHH.wav
64,192,214222,1,0,0:0:0:0:
192,192,214222,1,0,0:0:0:0:
448,192,214222,1,4,0:0:0:0:
192,192,214390,1,0,0:0:0:70:openHH.wav
320,192,214390,1,0,0:0:0:0:
64,192,214557,1,4,0:0:0:0:
192,192,214557,1,2,0:0:0:0:
320,192,214557,1,0,0:0:0:0:
448,192,214557,1,8,0:0:0:0:
320,192,214725,1,0,0:0:0:70:openHH.wav
448,192,214725,1,0,0:0:0:0:
64,192,214892,1,4,0:0:0:0:
192,192,214892,1,0,0:0:0:0:
320,192,214892,1,0,0:0:0:0:
64,192,215060,1,0,0:0:0:70:openHH.wav
448,192,215060,1,0,0:0:0:0:
64,192,215228,1,4,0:0:0:0:
192,192,215228,1,8,0:0:0:0:
320,192,215228,1,0,0:0:0:0:
448,192,215228,1,2,0:0:0:0:
64,192,215395,1,0,0:0:0:0:
192,192,215395,1,0,0:0:0:70:openHH.wav
448,192,215563,1,4,0:0:0:0:
192,192,215563,1,0,0:0:0:0:
64,192,215563,1,0,0:0:0:0:
192,192,215730,1,0,0:0:0:0:
320,192,215730,1,0,0:0:0:70:openHH.wav
64,192,215898,1,2,0:0:0:0:
192,192,215898,1,0,0:0:0:0:
320,192,215898,1,8,0:0:0:0:
448,192,215898,1,4,0:0:0:0:
320,192,216066,1,0,0:0:0:0:
448,192,216066,1,0,0:0:0:70:openHH.wav
64,192,216233,1,0,0:0:0:0:
192,192,216233,1,0,0:0:0:0:
448,192,216233,1,4,0:0:0:0:
320,192,216401,1,0,0:0:0:70:openHH.wav
192,192,216401,1,0,0:0:0:0:
448,192,216568,1,4,0:0:0:0:
320,192,216568,1,8,0:0:0:0:
192,192,216568,1,0,0:0:0:0:
64,192,216568,1,2,0:0:0:0:
192,192,216736,1,0,0:0:0:70:openHH.wav
64,192,216736,1,0,0:0:0:0:
64,192,216904,1,4,0:0:0:0:
320,192,216904,1,0,0:0:0:0:
448,192,216904,1,0,0:0:0:0:
192,192,217071,1,0,0:0:0:0:
320,192,217071,1,0,0:0:0:70:openHH.wav
64,192,217239,1,4,0:0:0:0:
192,192,217239,1,2,0:0:0:0:
320,192,217239,1,8,0:0:0:0:
448,192,217239,1,0,0:0:0:0:
448,192,217406,1,0,0:0:0:70:openHH.wav
192,192,217406,1,0,0:0:0:0:
320,192,217574,1,0,0:0:0:0:
448,192,217574,1,0,0:0:0:0:
64,192,217574,1,4,0:0:0:0:
320,192,217742,1,0,0:0:0:0:
192,192,217742,1,0,0:0:0:70:openHH.wav
448,192,217909,1,0,0:0:0:0:
320,192,217909,1,2,0:0:0:0:
192,192,217909,1,8,0:0:0:0:
64,192,217909,1,4,0:0:0:0:
64,192,218077,1,0,0:0:0:70:openHH.wav
320,192,218077,1,0,0:0:0:0:
192,192,218244,1,0,0:0:0:0:
320,192,218244,1,0,0:0:0:0:
448,192,218244,1,4,0:0:0:0:
448,192,218412,1,0,0:0:0:70:openHH.wav
64,192,218412,1,0,0:0:0:0:
448,192,218580,1,4,0:0:0:0:
320,192,218580,1,2,0:0:0:0:
192,192,218580,1,0,0:0:0:0:
64,192,218580,1,8,0:0:0:0:
320,192,218747,1,0,0:0:0:0:
192,192,218747,1,0,0:0:0:70:openHH.wav
64,192,218915,1,0,0:0:0:0:
192,192,218915,1,0,0:0:0:0:
448,192,218915,1,4,0:0:0:0:
192,192,219082,1,0,0:0:0:0:
320,192,219082,1,0,0:0:0:70:openHH.wav
192,192,219250,1,0,0:0:0:0:
64,192,219250,1,2,0:0:0:0:
320,192,219250,1,8,0:0:0:0:
448,192,219250,1,4,0:0:0:0:
320,192,219418,1,0,0:0:0:0:
448,192,219418,1,0,0:0:0:70:openHH.wav
448,192,219585,1,8,0:0:0:0:
192,192,219585,1,2,0:0:0:0:
64,192,219585,1,4,0:0:0:0:
64,192,219753,1,4,0:0:0:0:
192,192,219753,1,0,0:0:0:0:
64,192,219920,1,8,0:0:0:0:
320,192,219920,1,2,0:0:0:0:
448,192,219920,1,4,0:0:0:0:
320,192,220088,1,0,0:0:0:0:
448,192,220088,1,4,0:0:0:0:
448,192,220256,1,8,0:0:0:0:
192,192,220256,1,2,0:0:0:0:
64,192,220256,1,4,0:0:0:0:
64,192,220423,1,4,0:0:0:0:
192,192,220423,1,0,0:0:0:0:
64,192,220591,1,8,0:0:0:0:
320,192,220591,1,2,0:0:0:0:
448,192,220591,1,4,0:0:0:0:
448,192,220758,1,4,0:0:0:0:
320,192,220758,1,0,0:0:0:0:
64,192,220926,1,0,0:0:0:0:
192,192,220926,1,2,0:0:0:0:
320,192,221010,1,2,0:0:0:0:
448,192,221010,1,0,0:0:0:0:
192,192,221094,1,4,0:0:0:0:
64,192,221094,1,0,0:0:0:0:
320,192,221177,1,4,0:0:0:0:
192,192,221261,1,2,0:0:0:0:
64,192,221261,1,0,0:0:0:0:
320,192,221345,1,2,0:0:0:0:
448,192,221345,1,0,0:0:0:0:
192,192,221429,1,4,0:0:0:0:
64,192,221429,1,0,0:0:0:0:
320,192,221513,1,4,0:0:0:0:
192,192,221596,1,2,0:0:0:0:
64,192,221596,1,0,0:0:0:0:
448,192,221596,1,0,0:0:0:0:
320,192,221764,1,0,0:0:0:0:
64,192,221932,1,0,0:0:0:0:
192,192,222099,1,0,0:0:0:0:
320,192,222267,1,4,0:0:0:0:
64,192,222267,128,0,222853:0:0:0:0:
448,192,222267,128,0,222853:0:0:0:0:
320,192,222602,128,0,222770:0:0:0:0:
192,192,222770,128,0,222853:0:0:0:0:
64,192,222937,1,0,0:0:0:0:
448,192,222937,1,0,0:0:0:0:
192,192,222937,1,2,0:0:0:0:
320,192,223105,1,0,0:0:0:0:
448,192,223105,1,0,0:0:0:0:
64,192,223189,1,0,0:0:0:0:
192,192,223272,1,0,0:0:0:0:
320,192,223272,1,0,0:0:0:0:
192,192,223440,1,4,0:0:0:0:
64,192,223440,1,0,0:0:0:0:
448,192,223440,1,0,0:0:0:0:
320,192,223524,1,0,0:0:0:0:
448,192,223566,1,0,0:0:0:0:
64,192,223608,1,0,0:0:0:0:
192,192,223649,1,0,0:0:0:0:
320,192,223691,1,0,0:0:0:0:
448,192,223733,1,0,0:0:0:0:
64,192,223775,1,4,0:0:0:0:
192,192,223817,1,0,0:0:0:0:
448,192,223859,1,0,0:0:0:0:
320,192,223901,1,0,0:0:0:0:
64,192,223943,1,4,0:0:0:0:
192,192,223985,1,0,0:0:0:0:
448,192,224027,1,0,0:0:0:0:
320,192,224068,1,0,0:0:0:0:
192,192,224110,1,0,0:0:0:0:
64,192,224152,1,0,0:0:0:0:
448,192,224194,1,4,0:0:0:0:
320,192,224236,1,0,0:0:0:0:
64,192,224278,1,2,0:0:0:0:
192,192,224320,1,0,0:0:0:0:
448,192,224362,1,0,0:0:0:0:
320,192,224404,1,0,0:0:0:0:
64,192,224446,1,0,0:0:0:0:
192,192,224446,1,4,0:0:0:0:
320,192,224529,1,4,0:0:0:0:
448,192,224529,1,0,0:0:0:0:
192,192,224613,1,2,0:0:0:0:
64,192,224613,128,0,224948:0:0:0:0:
448,192,224697,1,0,0:0:0:0:
320,192,224781,1,0,0:0:0:0:
448,192,224865,1,0,0:0:0:0:
192,192,224948,1,4,0:0:0:0:
320,192,224948,1,0,0:0:0:0:
64,192,225032,1,0,0:0:0:0:
448,192,225032,1,4,0:0:0:0:
320,192,225116,1,0,0:0:0:0:
192,192,225116,1,4,0:0:0:0:
64,192,225284,1,2,0:0:0:0:
192,192,225284,1,0,0:0:0:0:
448,192,225284,128,0,225367:0:0:0:0:
320,192,225367,128,0,225451:0:0:0:0:
192,192,225451,128,0,225535:0:0:0:0:
64,192,225535,128,0,225619:0:0:0:0:
320,192,225619,1,2,0:0:0:0:
448,192,225619,1,0,0:0:0:0:
192,192,225703,1,4,0:0:0:0:
64,192,225703,1,0,0:0:0:0:
192,192,225870,1,0,0:0:0:0:
320,192,225870,1,2,0:0:0:0:
320,192,226122,1,4,0:0:0:0:
64,192,226122,128,0,226457:0:0:0:0:
448,192,226122,128,0,226876:0:0:0:0:
320,192,226457,1,4,0:0:0:0:
192,192,226513,1,0,0:0:0:0:
64,192,226568,1,0,0:0:0:0:
320,192,226624,1,2,0:0:0:0:
64,192,226708,1,0,0:0:0:0:
320,192,226792,1,4,0:0:0:0:
192,192,226876,1,4,0:0:0:0:
64,192,226876,1,0,0:0:0:0:
320,192,226960,1,2,0:0:0:0:
448,192,226960,1,0,0:0:0:0:
64,192,227043,1,0,0:0:0:0:
192,192,227127,1,4,0:0:0:0:
320,192,227127,1,0,0:0:0:0:
64,192,227211,1,0,0:0:0:0:
448,192,227211,1,2,0:0:0:0:
320,192,227295,1,0,0:0:0:0:
192,192,227379,1,4,0:0:0:0:
64,192,227379,1,0,0:0:0:0:
320,192,227462,1,0,0:0:0:0:
448,192,227462,1,2,0:0:0:0:
448,192,227630,1,0,0:0:0:0:
192,192,227630,1,4,0:0:0:0:
64,192,227630,1,0,0:0:0:0:
320,192,227714,1,0,0:0:0:0:
192,192,227797,1,0,0:0:0:0:
64,192,227797,1,0,0:0:0:0:
448,192,227881,1,0,0:0:0:0:
320,192,227965,1,0,0:0:0:0:
64,192,227965,1,0,0:0:0:0:
192,192,228049,1,0,0:0:0:0:
448,192,228133,1,0,0:0:0:0:
320,192,228216,1,0,0:0:0:0:
192,192,228300,1,2,0:0:0:0:
64,192,228300,128,0,228552:0:0:0:0:
448,192,228300,128,0,228552:0:0:0:0:
448,192,228635,1,4,0:0:0:0:
64,192,228635,1,0,0:0:0:0:
192,192,228677,1,0,0:0:0:0:
320,192,228719,1,0,0:0:0:0:
448,192,228761,1,0,0:0:0:0:
64,192,228803,1,0,0:0:0:0:
448,192,228887,1,0,0:0:0:0:
320,192,228887,1,4,0:0:0:0:
320,192,229054,1,4,0:0:0:0:
448,192,229054,1,0,0:0:0:0:
192,192,229138,1,4,0:0:0:0:
64,192,229138,1,0,0:0:0:0:
192,192,229306,1,0,0:0:0:0:
320,192,229306,1,4,0:0:0:0:
320,192,229473,1,0,0:0:0:0:
448,192,229473,1,4,0:0:0:0:
448,192,229641,1,0,0:0:0:0:
64,192,229641,1,2,0:0:0:0:
192,192,229683,1,0,0:0:0:0:
320,192,229725,1,0,0:0:0:0:
448,192,229767,1,0,0:0:0:0:
64,192,229809,1,0,0:0:0:0:
192,192,229851,1,0,0:0:0:0:
448,192,229892,1,0,0:0:0:0:
320,192,229934,1,0,0:0:0:0:
192,192,229976,1,0,0:0:0:0:
64,192,229976,1,4,0:0:0:0:
448,192,230018,1,0,0:0:0:0:
320,192,230060,1,0,0:0:0:0:
192,192,230102,1,0,0:0:0:0:
64,192,230144,1,2,0:0:0:0:
448,192,230144,1,0,0:0:0:0:
320,192,230186,1,0,0:0:0:0:
192,192,230228,1,0,0:0:0:0:
448,192,230270,1,0,0:0:0:0:
64,192,230311,128,0,230982:0:0:0:0:
320,192,230479,1,4,0:0:0:0:
448,192,230535,1,0,0:0:0:0:
192,192,230591,1,0,0:0:0:0:
320,192,230647,1,2,0:0:0:0:
448,192,230730,1,0,0:0:0:0:
192,192,230814,1,0,0:0:0:0:
320,192,230898,1,0,0:0:0:0:
448,192,230982,128,0,231149:0:0:0:0:
192,192,230982,128,0,231066:0:0:0:0:
448,192,231233,128,0,231401:0:0:0:0:
192,192,231233,128,0,231317:0:0:0:0:
448,192,231485,128,0,231652:0:0:0:0:
192,192,231485,128,0,231568:0:0:0:0:
64,192,231652,1,0,0:0:0:0:
192,192,231652,1,4,0:0:0:0:
320,192,231694,1,0,0:0:0:0:
448,192,231736,1,0,0:0:0:0:
64,192,231778,1,0,0:0:0:0:
192,192,231820,1,0,0:0:0:0:
320,192,231862,1,0,0:0:0:0:
448,192,231904,1,0,0:0:0:0:
192,192,231946,1,0,0:0:0:0:
64,192,231987,1,2,0:0:0:0:
320,192,232029,1,0,0:0:0:0:
192,192,232071,1,2,0:0:0:0:
64,192,232113,1,0,0:0:0:0:
448,192,232155,1,0,0:0:0:0:
320,192,232155,1,4,0:0:0:0:
192,192,232197,1,0,0:0:0:0:
64,192,232239,1,0,0:0:0:0:
320,192,232281,1,0,0:0:0:0:
448,192,232323,1,0,0:0:0:0:
64,192,232365,1,0,0:0:0:0:
192,192,232406,1,0,0:0:0:0:
320,192,232448,1,0,0:0:0:0:
448,192,232490,1,2,0:0:0:0:
192,192,232532,1,0,0:0:0:0:
320,192,232574,1,2,0:0:0:0:
448,192,232616,1,0,0:0:0:0:
192,192,232658,1,4,0:0:0:0:
64,192,232658,128,0,233580:0:0:0:0:
448,192,232993,128,0,233328:0:0:0:0:
320,192,233161,128,0,233328:0:0:0:0:
192,192,233496,128,0,233580:0:0:0:0:
64,192,233663,1,0,0:0:0:0:
192,192,233663,1,2,0:0:0:0:
448,192,233663,1,0,0:0:0:0:
320,192,233747,1,0,0:0:0:0:
64,192,233831,1,0,0:0:0:0:
192,192,233915,1,0,0:0:0:0:
320,192,233999,1,0,0:0:0:0:
448,192,233999,1,0,0:0:0:0:
64,192,234082,1,0,0:0:0:0:
192,192,234166,1,0,0:0:0:0:
320,192,234166,1,4,0:0:0:0:
448,192,234166,1,0,0:0:0:0:
64,192,234334,1,0,0:0:0:0:
192,192,234376,1,0,0:0:0:0:
448,192,234418,1,0,0:0:0:0:
320,192,234460,1,0,0:0:0:0:
64,192,234501,1,0,0:0:0:0:
192,192,234543,1,0,0:0:0:0:
320,192,234585,1,0,0:0:0:0:
448,192,234627,1,0,0:0:0:0:
64,192,234669,1,4,0:0:0:0:
192,192,234669,1,0,0:0:0:0:
320,192,234711,1,0,0:0:0:0:
448,192,234753,1,0,0:0:0:0:
192,192,234795,1,0,0:0:0:0:
64,192,234837,1,0,0:0:0:0:
448,192,234879,1,0,0:0:0:0:
320,192,234920,1,0,0:0:0:0:
64,192,234962,1,0,0:0:0:0:
192,192,235004,1,0,0:0:0:0:
320,192,235046,1,0,0:0:0:0:
448,192,235088,1,0,0:0:0:0:
64,192,235130,1,0,0:0:0:0:
192,192,235172,1,0,0:0:0:0:
320,192,235172,1,0,0:0:0:0:
320,192,235339,1,0,0:0:0:0:
448,192,235339,1,0,0:0:0:0:
192,192,235423,1,0,0:0:0:0:
64,192,235423,1,0,0:0:0:0:
448,192,235507,1,0,0:0:0:0:
320,192,235507,1,0,0:0:0:0:
192,192,235591,1,0,0:0:0:0:
64,192,235675,1,0,0:0:0:0:
448,192,235675,1,0,0:0:0:0:
320,192,235758,1,4,0:0:0:0:
192,192,235758,1,0,0:0:0:0:
448,192,236010,1,4,0:0:0:0:
64,192,236010,128,0,236177:0:0:0:0:
192,192,236094,128,0,236261:0:0:0:0:
320,192,236177,128,0,236345:0:0:0:0:
448,192,236261,128,0,236345:0:0:0:0:
192,192,236345,1,0,0:0:0:0:
64,192,236345,1,2,0:0:0:0:
192,192,236596,1,2,0:0:0:0:
320,192,236596,1,0,0:0:0:0:
448,192,236596,1,0,0:0:0:0:
320,192,236848,1,4,0:0:0:0:
64,192,236848,128,0,237183:0:0:0:0:
448,192,236848,128,0,237602:0:0:0:0:
320,192,237183,1,4,0:0:0:0:
192,192,237239,1,0,0:0:0:0:
64,192,237295,1,0,0:0:0:0:
320,192,237351,1,2,0:0:0:0:
64,192,237434,1,0,0:0:0:0:
320,192,237518,1,0,0:0:0:0:
192,192,237602,1,4,0:0:0:0:
64,192,237602,1,0,0:0:0:0:
320,192,237686,1,4,0:0:0:0:
448,192,237686,1,0,0:0:0:0:
192,192,237853,1,4,0:0:0:0:
320,192,237853,1,0,0:0:0:0:
64,192,237937,1,0,0:0:0:0:
320,192,238021,1,2,0:0:0:0:
448,192,238021,128,0,238272:0:0:0:0:
64,192,238105,128,0,238356:0:0:0:0:
192,192,238189,128,0,238356:0:0:0:0:
320,192,238272,128,0,238356:0:0:0:0:
448,192,238356,128,0,238608:0:0:0:0:
64,192,238691,1,4,0:0:0:0:
192,192,238691,1,2,0:0:0:0:
448,192,238691,1,0,0:0:0:0:
320,192,238775,1,4,0:0:0:0:
192,192,238859,1,0,0:0:0:0:
64,192,238859,1,4,0:0:0:0:
448,192,238859,1,0,0:0:0:0:
320,192,238943,1,4,0:0:0:0:
192,192,239027,1,2,0:0:0:0:
64,192,239027,1,4,0:0:0:0:
448,192,239027,1,0,0:0:0:0:
192,192,239194,1,0,0:0:0:0:
320,192,239194,1,0,0:0:0:0:
64,192,239362,1,4,0:0:0:0:
448,192,239362,1,0,0:0:0:0:
320,192,239404,1,0,0:0:0:0:
192,192,239446,1,0,0:0:0:0:
64,192,239487,1,0,0:0:0:0:
320,192,239529,1,0,0:0:0:0:
448,192,239571,1,0,0:0:0:0:
192,192,239613,1,0,0:0:0:0:
64,192,239655,1,0,0:0:0:0:
320,192,239697,1,0,0:0:0:0:
448,192,239739,1,0,0:0:0:0:
192,192,239781,1,0,0:0:0:0:
64,192,239823,1,0,0:0:0:0:
448,192,239865,1,4,0:0:0:0:
320,192,239865,1,0,0:0:0:0:
192,192,239906,1,0,0:0:0:0:
64,192,239948,1,0,0:0:0:0:
320,192,239990,1,0,0:0:0:0:
448,192,240032,1,0,0:0:0:0:
192,192,240032,1,4,0:0:0:0:
64,192,240074,1,0,0:0:0:0:
320,192,240116,1,0,0:0:0:0:
448,192,240158,1,0,0:0:0:0:
64,192,240200,1,0,0:0:0:0:
192,192,240242,1,0,0:0:0:0:
320,192,240284,1,0,0:0:0:0:
448,192,240325,1,0,0:0:0:0:
192,192,240367,1,2,0:0:0:0:
64,192,240367,1,0,0:0:0:0:
320,192,240535,1,0,0:0:0:0:
448,192,240535,1,0,0:0:0:0:
192,192,240619,1,0,0:0:0:0:
64,192,240619,1,0,0:0:0:0:
448,192,240703,1,0,0:0:0:0:
320,192,240703,1,0,0:0:0:0:
320,192,240786,1,0,0:0:0:0:
192,192,240786,1,0,0:0:0:0:
192,192,240870,1,0,0:0:0:0:
64,192,240870,1,0,0:0:0:0:
320,192,241038,1,2,0:0:0:0:
448,192,241038,1,4,0:0:0:0:
64,192,241038,1,0,0:0:0:0:
320,192,241205,1,0,0:0:0:0:
192,192,241205,1,4,0:0:0:0:
192,192,241373,1,4,0:0:0:0:
64,192,241373,1,2,0:0:0:0:
448,192,241373,1,0,0:0:0:0:
320,192,241541,1,4,0:0:0:0:
192,192,241541,1,0,0:0:0:0:
320,192,241708,1,2,0:0:0:0:
448,192,241708,1,4,0:0:0:0:
64,192,241708,1,0,0:0:0:0:
192,192,241876,1,4,0:0:0:0:
320,192,241876,1,0,0:0:0:0:
192,192,242043,1,4,0:0:0:0:
64,192,242043,1,2,0:0:0:0:
448,192,242043,1,0,0:0:0:0:
320,192,242211,1,4,0:0:0:0:
192,192,242211,1,0,0:0:0:0:
320,192,242379,1,4,0:0:0:0:
448,192,242379,1,2,0:0:0:0:
64,192,242379,1,0,0:0:0:0:
320,192,242462,1,0,0:0:0:0:
192,192,242462,1,4,0:0:0:0:
320,192,242714,1,0,0:0:0:0:
64,192,242714,1,4,0:0:0:0:
448,192,242714,1,0,0:0:0:0:
192,192,242881,1,4,0:0:0:0:
320,192,242881,1,0,0:0:0:0:
448,192,243049,1,2,0:0:0:0:
64,192,243049,1,0,0:0:0:0:
192,192,243384,1,0,0:0:0:0:
320,192,243384,1,0,0:0:0:0:
64,192,243719,1,4,0:0:0:0:
192,192,243719,1,0,0:0:0:0:
448,192,243719,1,0,0:0:0:70:Cymbal.wav
320,192,243719,1,0,0:0:0:0:
64,192,244054,1,4,0:0:0:0:
192,192,244054,1,2,0:0:0:0:
448,192,244054,1,8,0:0:0:0:
320,192,244054,1,0,0:0:0:0:
64,192,244222,1,0,0:0:0:0:
192,192,244222,1,0,0:0:0:0:
320,192,244306,1,0,0:0:0:0:
448,192,244306,1,0,0:0:0:0:
448,192,244390,1,0,0:0:0:0:
192,192,244390,1,0,0:0:0:0:
64,192,244390,1,4,0:0:0:0:
192,192,244557,1,0,0:0:0:0:
320,192,244557,1,0,0:0:0:0:
448,192,244725,1,8,0:0:0:0:
320,192,244725,1,0,0:0:0:0:
192,192,244725,1,2,0:0:0:0:
64,192,244725,1,4,0:0:0:0:
320,192,244892,1,0,0:0:0:0:
448,192,244892,1,0,0:0:0:0:
192,192,244976,1,0,0:0:0:0:
64,192,245060,1,4,0:0:0:0:
320,192,245060,1,0,0:0:0:0:
448,192,245060,1,0,0:0:0:0:
64,192,245395,1,4,0:0:0:0:
448,192,245395,1,10,0:0:0:0:
192,192,245437,1,0,0:0:0:0:
320,192,245479,1,0,0:0:0:0:
448,192,245521,1,0,0:0:0:0:
64,192,245563,1,0,0:0:0:0:
192,192,245605,1,0,0:0:0:0:
320,192,245647,1,0,0:0:0:0:
448,192,245689,1,0,0:0:0:0:
192,192,245730,1,0,0:0:0:0:
64,192,245730,1,4,0:0:0:0:
320,192,245814,1,0,0:0:0:0:
192,192,245898,1,0,0:0:0:0:
320,192,245982,1,0,0:0:0:0:
448,192,246066,1,8,0:0:0:0:
320,192,246066,1,0,0:0:0:0:
192,192,246066,1,2,0:0:0:0:
64,192,246066,1,4,0:0:0:0:
192,192,246401,1,4,0:0:0:0:
320,192,246401,128,0,246506:0:0:0:0:
448,192,246401,128,0,246506:0:0:0:0:
320,192,246568,128,0,246673:0:0:0:0:
448,192,246568,128,0,246673:0:0:0:0:
448,192,246736,1,2,0:0:0:0:
320,192,246736,1,8,0:0:0:0:
192,192,246736,1,4,0:0:0:0:
64,192,246736,1,0,0:0:0:0:
64,192,246904,1,0,0:0:0:0:
192,192,246904,1,0,0:0:0:0:
320,192,246987,1,0,0:0:0:0:
448,192,246987,1,0,0:0:0:0:
448,192,247071,1,0,0:0:0:0:
192,192,247071,1,0,0:0:0:0:
64,192,247071,1,4,0:0:0:0:
192,192,247239,1,0,0:0:0:0:
320,192,247239,1,0,0:0:0:0:
448,192,247406,1,8,0:0:0:0:
320,192,247406,1,0,0:0:0:0:
64,192,247406,1,4,0:0:0:0:
192,192,247406,1,2,0:0:0:0:
192,192,247574,1,0,0:0:0:0:
64,192,247742,1,4,0:0:0:0:
320,192,247742,1,0,0:0:0:0:
448,192,247742,1,0,0:0:0:0:
64,192,248077,1,4,0:0:0:0:
192,192,248077,1,2,0:0:0:0:
320,192,248077,1,0,0:0:0:0:
448,192,248077,1,8,0:0:0:0:
192,192,248244,1,0,0:0:0:0:
320,192,248244,1,0,0:0:0:0:
448,192,248412,1,0,0:0:0:0:
64,192,248412,1,2,0:0:0:0:
192,192,248454,1,0,0:0:0:0:
320,192,248496,1,0,0:0:0:0:
448,192,248538,1,0,0:0:0:0:
64,192,248580,1,0,0:0:0:0:
192,192,248580,1,4,0:0:0:0:
448,192,248663,1,0,0:0:0:0:
320,192,248663,1,2,0:0:0:0:
192,192,248747,1,0,0:0:0:0:
448,192,248747,1,2,0:0:0:0:
64,192,248747,1,4,0:0:0:0:
320,192,248915,1,0,0:0:0:0:
192,192,248915,1,2,0:0:0:0:
448,192,249082,1,4,0:0:0:0:
192,192,249082,1,0,0:0:0:0:
64,192,249082,128,0,249669:0:0:0:0:
320,192,249418,1,0,0:0:0:0:
448,192,249418,128,0,250004:0:0:0:0:
192,192,249585,1,4,0:0:0:0:
320,192,249669,1,4,0:0:0:0:
192,192,249753,1,2,0:0:0:0:
64,192,249753,128,0,250339:0:0:0:0:
192,192,249920,1,0,0:0:0:0:
448,192,250088,1,0,0:0:0:0:
320,192,250256,1,0,0:0:0:0:
192,192,250256,1,4,0:0:0:0:
64,192,250423,1,0,0:0:0:0:
320,192,250423,1,0,0:0:0:0:
448,192,250423,1,0,0:0:0:0:
192,192,250591,1,4,0:0:0:0:
320,192,250591,1,0,0:0:0:0:
64,192,250758,128,0,250842:0:0:0:0:
192,192,250758,1,4,0:0:0:0:
320,192,250842,128,0,250926:0:0:0:0:
64,192,250926,128,0,251010:0:0:0:0:
320,192,251010,128,4,251094:0:0:0:0:
448,192,251094,1,0,0:0:0:0:
64,192,251094,128,0,251177:0:0:0:0:
192,192,251094,1,2,0:0:0:0:
320,192,251177,128,0,251261:0:0:0:0:
64,192,251261,128,0,251345:0:0:0:0:
320,192,251345,128,0,251429:0:0:0:0:
64,192,251429,128,0,251513:0:0:0:0:
448,192,251429,1,0,0:0:0:0:
192,192,251513,128,0,251596:0:0:0:0:
320,192,251596,128,0,251680:0:0:0:0:
448,192,251680,128,0,251764:0:0:0:0:
192,192,251764,1,4,0:0:0:0:
64,192,251764,128,0,252351:0:0:0:0:
320,192,252099,1,0,0:0:0:0:
320,192,252267,1,0,0:0:0:0:
320,192,252434,1,2,0:0:0:0:
448,192,252434,128,0,252539:0:0:0:0:
64,192,252434,128,0,252539:0:0:0:0:
64,192,252602,128,0,252707:0:0:0:0:
448,192,252602,128,0,252707:0:0:0:0:
448,192,252770,128,0,252874:0:0:0:0:
64,192,252770,128,0,252874:0:0:0:0:
64,192,252937,1,0,0:0:0:0:
320,192,253021,1,4,0:0:0:0:
448,192,253021,1,0,0:0:0:0:
192,192,253105,1,4,0:0:0:0:
64,192,253105,1,0,0:0:0:0:
448,192,253105,1,0,0:0:0:0:
192,192,253272,1,4,0:0:0:0:
64,192,253272,1,0,0:0:0:0:
320,192,253440,1,2,0:0:0:0:
448,192,253440,1,0,0:0:0:0:
192,192,253608,1,4,0:0:0:0:
64,192,253608,1,0,0:0:0:0:
64,192,253691,1,0,0:0:0:0:
192,192,253691,1,4,0:0:0:0:
64,192,253775,1,0,0:0:0:0:
320,192,253775,1,2,0:0:0:0:
448,192,253775,1,0,0:0:0:0:
448,192,253943,1,0,0:0:0:0:
320,192,253943,1,2,0:0:0:0:
320,192,254110,1,2,0:0:0:0:
448,192,254110,1,0,0:0:0:0:
192,192,254278,1,0,0:0:0:0:
64,192,254446,1,4,0:0:0:0:
320,192,254446,1,0,0:0:0:0:
448,192,254446,1,0,0:0:0:70:Cymbal.wav
64,192,254781,1,4,0:0:0:0:
192,192,254781,1,2,0:0:0:0:
448,192,254781,1,8,0:0:0:0:
320,192,254781,1,0,0:0:0:0:
64,192,254948,1,0,0:0:0:0:
192,192,254948,1,0,0:0:0:0:
320,192,255032,1,0,0:0:0:0:
448,192,255032,1,0,0:0:0:0:
448,192,255116,1,0,0:0:0:0:
192,192,255116,1,0,0:0:0:0:
64,192,255116,1,4,0:0:0:0:
192,192,255284,1,0,0:0:0:0:
320,192,255284,1,0,0:0:0:0:
448,192,255451,1,8,0:0:0:0:
320,192,255451,1,0,0:0:0:0:
192,192,255451,1,2,0:0:0:0:
64,192,255451,1,4,0:0:0:0:
320,192,255619,1,0,0:0:0:0:
448,192,255619,1,0,0:0:0:0:
192,192,255703,1,0,0:0:0:0:
64,192,255786,1,4,0:0:0:0:
320,192,255786,1,0,0:0:0:0:
448,192,255786,1,0,0:0:0:0:
64,192,256122,1,4,0:0:0:0:
448,192,256122,1,10,0:0:0:0:
192,192,256163,1,0,0:0:0:0:
320,192,256205,1,0,0:0:0:0:
448,192,256247,1,0,0:0:0:0:
64,192,256289,1,0,0:0:0:0:
192,192,256331,1,0,0:0:0:0:
448,192,256373,1,0,0:0:0:0:
320,192,256415,1,0,0:0:0:0:
192,192,256457,1,0,0:0:0:0:
64,192,256457,1,4,0:0:0:0:
320,192,256541,1,0,0:0:0:0:
192,192,256624,1,0,0:0:0:0:
320,192,256708,1,0,0:0:0:0:
448,192,256792,1,8,0:0:0:0:
320,192,256792,1,0,0:0:0:0:
192,192,256792,1,2,0:0:0:0:
64,192,256792,1,4,0:0:0:0:
448,192,256960,128,4,257127:0:0:0:0:
320,192,256960,128,0,257211:0:0:0:70:Cymbal.wav
192,192,256960,128,0,257295:0:0:0:0:
64,192,256960,128,0,257295:0:0:0:0:
320,192,257295,1,4,0:0:0:0:
448,192,257295,1,0,0:0:0:0:
192,192,257379,1,4,0:0:0:0:
64,192,257379,1,0,0:0:0:0:
448,192,257462,1,8,0:0:0:0:
320,192,257462,1,4,0:0:0:0:
192,192,257462,1,0,0:0:0:0:
64,192,257462,1,2,0:0:0:0:
320,192,257630,1,0,0:0:0:0:
192,192,257630,1,0,0:0:0:0:
448,192,257797,1,0,0:0:0:0:
192,192,257797,1,0,0:0:0:0:
64,192,257797,1,4,0:0:0:0:
192,192,257965,1,0,0:0:0:0:
320,192,257965,1,0,0:0:0:0:
448,192,258133,1,8,0:0:0:0:
320,192,258133,1,0,0:0:0:0:
64,192,258133,1,4,0:0:0:0:
192,192,258133,1,2,0:0:0:0:
192,192,258300,1,0,0:0:0:0:
64,192,258468,1,4,0:0:0:0:
320,192,258468,1,0,0:0:0:0:
448,192,258468,1,0,0:0:0:0:
192,192,258635,1,4,0:0:0:0:
448,192,258635,1,0,0:0:0:0:
64,192,258803,1,0,0:0:0:0:
192,192,258803,1,0,0:0:0:0:
320,192,258803,1,2,0:0:0:0:
448,192,258803,1,0,0:0:0:0:
64,192,258971,1,0,0:0:0:0:
192,192,258971,1,4,0:0:0:0:
320,192,259054,1,4,0:0:0:0:
448,192,259054,1,0,0:0:0:0:
64,192,259138,1,0,0:0:0:0:
448,192,259138,1,2,0:0:0:0:
192,192,259138,1,0,0:0:0:0:
64,192,259306,1,0,0:0:0:0:
192,192,259306,1,4,0:0:0:0:
448,192,259390,1,0,0:0:0:0:
320,192,259390,1,2,0:0:0:0:
64,192,259390,1,0,0:0:0:0:
192,192,259473,1,0,0:0:0:0:
448,192,259557,1,0,0:0:0:0:
320,192,259557,1,4,0:0:0:0:
64,192,259641,1,0,0:0:0:0:
192,192,259641,1,2,0:0:0:0:
448,192,259641,1,0,0:0:0:0:
320,192,259725,1,4,0:0:0:0:
448,192,259809,1,0,0:0:0:0:
192,192,259809,1,4,0:0:0:0:
64,192,259809,128,0,260395:0:0:0:0:
320,192,260144,1,0,0:0:0:0:
448,192,260144,128,0,260730:0:0:0:0:
192,192,260311,1,0,0:0:0:0:
320,192,260395,1,0,0:0:0:0:
192,192,260479,1,2,0:0:0:0:
64,192,260479,128,0,261066:0:0:0:0:
192,192,260647,1,0,0:0:0:0:
320,192,260814,1,4,0:0:0:0:
448,192,260814,1,0,0:0:0:0:
192,192,260982,1,0,0:0:0:0:
64,192,261149,1,0,0:0:0:0:
320,192,261149,1,0,0:0:0:0:
448,192,261149,1,0,0:0:0:0:
192,192,261317,1,4,0:0:0:0:
320,192,261317,1,0,0:0:0:0:
64,192,261485,128,4,261568:0:0:0:0:
192,192,261485,1,0,0:0:0:0:
320,192,261568,128,4,261652:0:0:0:0:
64,192,261652,128,0,261736:0:0:0:0:
320,192,261736,128,4,261820:0:0:0:0:
448,192,261820,1,2,0:0:0:0:
64,192,261820,128,0,262071:0:0:0:0:
192,192,261820,128,0,262155:0:0:0:0:
64,192,262155,128,0,262239:0:0:0:0:
448,192,262155,1,0,0:0:0:0:
192,192,262239,128,0,262323:0:0:0:0:
320,192,262323,128,0,262406:0:0:0:0:
448,192,262406,128,0,262490:0:0:0:0:
192,192,262490,1,4,0:0:0:0:
64,192,262490,128,0,263077:0:0:0:0:
320,192,262825,1,0,0:0:0:0:
320,192,262993,1,0,0:0:0:0:
320,192,263161,1,2,0:0:0:0:
448,192,263161,128,0,263412:0:0:0:0:
64,192,263161,128,0,263496:0:0:0:0:
192,192,263328,128,0,263496:0:0:0:0:
448,192,263496,128,0,263663:0:0:0:0:
320,192,263496,128,0,263663:0:0:0:0:
64,192,263663,1,0,0:0:0:0:
320,192,263747,1,4,0:0:0:0:
448,192,263747,1,0,0:0:0:0:
192,192,263831,1,4,0:0:0:0:
64,192,263831,1,0,0:0:0:0:
448,192,263831,1,0,0:0:0:0:
192,192,263999,1,4,0:0:0:0:
64,192,263999,1,0,0:0:0:0:
320,192,264166,1,2,0:0:0:0:
448,192,264166,1,0,0:0:0:0:
192,192,264334,1,4,0:0:0:0:
64,192,264334,1,0,0:0:0:0:
64,192,264418,1,0,0:0:0:0:
192,192,264418,1,4,0:0:0:0:
64,192,264501,1,0,0:0:0:0:
320,192,264501,1,2,0:0:0:0:
448,192,264501,1,0,0:0:0:0:
448,192,264669,1,0,0:0:0:0:
320,192,264669,1,2,0:0:0:0:
64,192,264837,1,2,0:0:0:0:
448,192,264837,1,0,0:0:0:0:
192,192,265004,1,0,0:0:0:0:
64,192,265172,1,4,0:0:0:0:
320,192,265172,1,0,0:0:0:0:
448,192,265172,1,0,0:0:0:0:
192,192,265339,1,0,0:0:0:0:
448,192,265507,1,0,0:0:0:0:
64,192,265675,1,0,0:0:0:0:
320,192,265842,128,0,266010:0:0:0:0:
192,192,266010,128,0,266177:0:0:0:0:
64,192,266177,128,0,266345:0:0:0:0:
448,192,266345,128,0,266513:0:0:0:0:
64,192,266513,128,0,266848:0:0:0:0:
320,192,266680,128,0,267015:0:0:0:0:
192,192,266848,128,0,267183:0:0:0:0:
448,192,267015,128,0,267351:0:0:0:0:
64,192,267183,128,0,267770:0:0:0:0:
192,192,267351,128,0,267770:0:0:0:0:
320,192,267518,128,0,267853:0:0:0:0:
448,192,267686,128,0,267853:0:0:0:0:
64,192,267853,1,4,0:0:0:0:
192,192,267853,1,0,0:0:0:0:
448,192,267937,1,0,0:0:0:0:
320,192,267979,1,0,0:0:0:0:
192,192,268021,1,0,0:0:0:0:
448,192,268063,1,0,0:0:0:0:
64,192,268105,1,0,0:0:0:0:
320,192,268147,1,0,0:0:0:0:
192,192,268189,1,0,0:0:0:0:
64,192,268244,1,0,0:0:0:0:
448,192,268300,1,0,0:0:0:0:
192,192,268356,1,0,0:0:0:0:
320,192,268440,1,0,0:0:0:0:
64,192,268524,1,0,0:0:0:0:
448,192,268608,1,0,0:0:0:0:
192,192,268691,1,0,0:0:0:0:
64,192,268803,1,0,0:0:0:0:
320,192,268915,1,0,0:0:0:0:
192,192,269047,1,0,0:0:0:0:
64,192,269194,1,0,0:0:0:0:
448,192,269362,1,0,0:0:0:0:
192,192,269571,1,0,0:0:0:0:
320,192,269865,1,0,0:0:0:0:
64,192,270200,128,0,270367:0:0:0:0:
