osu file format v14

[General]
AudioFilename: audio.mp3
AudioLeadIn: 0
PreviewTime: 177917
Countdown: 0
SampleSet: Soft
StackLeniency: 0.7
Mode: 3
LetterboxInBreaks: 0
SpecialStyle: 0
WidescreenStoryboard: 1

[Editor]
DistanceSpacing: 0.8
BeatDivisor: 8
GridSize: 16
TimelineZoom: 2.2

[Metadata]
Title:Bassdrop Freaks (2018 "Redrop" ver.)
TitleUnicode:べィスドロップ・フリークス (2018 "Redrop" ver.)
Artist:Camellia feat. Nanahira
ArtistUnicode:かめりあ feat. ななひら
Creator:PianoLuigi
Version:Insane
Source:beatmania IIDX 22 PENDUAL
Tags:Galaxy Burst dnb drum and bass drumstep
BeatmapID:1587867
BeatmapSetID:753845

[Difficulty]
HPDrainRate:8
CircleSize:4
OverallDifficulty:8
ApproachRate:5
SliderMultiplier:1.4
SliderTickRate:1

[Events]
//Background and Video events
0,0,"bg.jpg",0,0
//Break Periods
//Storyboard Layer 0 (Background)
//Storyboard Layer 1 (Fail)
//Storyboard Layer 2 (Pass)
//Storyboard Layer 3 (Foreground)
//Storyboard Sound Samples

[TimingPoints]
1039,335.195530726257,4,2,1,75,1,0
2379,335.195530726257,4,2,1,75,1,0
11763,-71.4285714285714,4,2,1,75,0,0
11826,-166.666666666667,4,2,1,75,0,0
11951,-71.4285714285714,4,2,1,75,0,0
12077,-166.666666666667,4,2,1,75,0,0
12203,-71.4285714285714,4,2,1,75,0,0
12328,-166.666666666667,4,2,1,75,0,0
12454,-71.4285714285714,4,2,1,75,0,0
12517,-100,4,2,1,75,0,0
13775,-83.3333333333333,4,2,1,75,0,0
13859,-125,4,2,1,75,0,0
13943,-83.3333333333333,4,2,1,75,0,0
14026,-125,4,2,1,75,0,0
14110,-83.3333333333333,4,2,1,75,0,0
14194,-125,4,2,1,75,0,0
14278,-100,4,2,1,75,0,0
16456,-83.3333333333333,4,2,1,75,0,0
16540,-125,4,2,1,75,0,0
16624,-83.3333333333333,4,2,1,75,0,0
16708,-125,4,2,1,75,0,0
16792,-83.3333333333333,4,2,1,75,0,0
16875,-125,4,2,1,75,0,0
16959,-100,4,2,1,75,0,0
17127,-74.0740740740741,4,2,1,75,0,0
17211,-153.846153846154,4,2,1,75,0,0
17294,-74.0740740740741,4,2,1,75,0,0
17378,-153.846153846154,4,2,1,75,0,0
17462,-74.0740740740741,4,2,1,75,0,0
17546,-153.846153846154,4,2,1,75,0,0
17630,-74.0740740740741,4,2,1,75,0,0
17672,-153.846153846154,4,2,1,75,0,0
17713,-74.0740740740741,4,2,1,75,0,0
17755,-153.846153846154,4,2,1,75,0,0
17797,-74.0740740740741,4,2,1,75,0,0
17881,-153.846153846154,4,2,1,75,0,0
17965,-74.0740740740741,4,2,1,75,0,0
18049,-153.846153846154,4,2,1,75,0,0
18132,-100,4,2,1,75,0,0
21820,-86.9565217391305,4,2,1,75,0,0
21903,-117.647058823529,4,2,1,75,0,0
22071,-86.9565217391305,4,2,1,75,0,0
22155,-100,4,2,1,75,0,0
22322,-90.9090909090909,4,2,1,75,0,0
22388,-111.111111111111,4,2,1,75,0,0
22507,-133.333333333333,4,2,1,75,0,0
22574,-100,4,2,1,75,0,0
23831,-74.0740740740741,4,2,1,75,0,0
23956,-111.111111111111,4,2,1,75,0,0
26177,-90.9090909090909,4,2,1,75,0,0
26303,-142.857142857143,4,2,1,75,0,0
26512,-90.9090909090909,4,2,1,75,0,0
26680,-142.857142857143,4,2,1,75,0,0
26848,-111.111111111111,4,2,1,75,0,0
28524,-90.9090909090909,4,2,1,75,0,0
28649,-142.857142857143,4,2,1,75,0,0
28859,-90.9090909090909,4,2,1,75,0,0
28984,-142.857142857143,4,2,1,75,0,0
29194,-90.9090909090909,4,2,1,75,0,0
29362,-142.857142857143,4,2,1,75,0,0
29529,-105.263157894737,4,2,1,75,0,0
31540,-90.9090909090909,4,2,1,75,0,0
31666,-125,4,2,1,75,0,0
31792,-105.263157894737,4,2,1,75,0,0
31875,-90.9090909090909,4,2,1,75,0,0
32001,-125,4,2,1,75,0,0
32127,-105.263157894737,4,2,1,75,0,0
32211,-100,4,2,1,75,0,0
34054,-71.4285714285714,4,2,1,75,0,0
34096,-166.666666666667,4,2,1,75,0,0
34138,-66.6666666666667,4,2,1,75,0,0
34180,-200,4,2,1,75,0,0
34222,-62.5,4,2,1,75,0,0
34264,-250,4,2,1,75,0,0
34306,-58.8235294117647,4,2,1,75,0,0
34348,-333.333333333333,4,2,1,75,0,0
34389,-55.5555555555556,4,2,1,75,0,0
34431,-500,4,2,1,75,0,0
34473,-52.6315789473684,4,2,1,75,0,0
34515,-1000,4,2,1,75,0,0
34557,-100,4,2,1,75,0,0
43943,-10,4,2,1,75,0,0
44613,-10000,4,2,1,75,0,0
44892,-33.3333333333333,4,2,1,75,0,0
44948,-52.6315789473684,4,2,1,75,0,0
45032,-1000,4,2,1,75,0,0
45200,-52.6315789473684,4,2,1,75,0,0
45284,-71.4285714285714,4,2,1,75,0,1
45367,-166.666666666667,4,2,1,75,0,1
45535,-71.4285714285714,4,2,1,75,0,1
45619,-100,4,2,1,75,0,1
45954,-40,4,2,1,75,0,1
45975,-200,4,2,1,75,0,1
46038,-100,4,2,1,75,0,1
46624,-52.6315789473684,4,2,1,75,0,1
46666,-1000,4,2,1,75,0,1
46708,-52.6315789473684,4,2,1,75,0,1
46750,-1000,4,2,1,75,0,1
46792,-100,4,2,1,75,0,1
49306,-74.0740740740741,4,2,1,75,0,1
49389,-153.846153846154,4,2,1,75,0,1
49473,-74.0740740740741,4,2,1,75,0,1
49557,-153.846153846154,4,2,1,75,0,1
49641,-74.0740740740741,4,2,1,75,0,1
49725,-153.846153846154,4,2,1,75,0,1
49808,-74.0740740740741,4,2,1,75,0,1
49850,-153.846153846154,4,2,1,75,0,1
49892,-74.0740740740741,4,2,1,75,0,1
49934,-153.846153846154,4,2,1,75,0,1
49976,-74.0740740740741,4,2,1,75,0,1
50060,-153.846153846154,4,2,1,75,0,1
50144,-74.0740740740741,4,2,1,75,0,1
50227,-153.846153846154,4,2,1,75,0,1
50311,-58.8235294117647,4,2,1,75,0,1
50395,-333.333333333333,4,2,1,75,0,1
50563,-58.8235294117647,4,2,1,75,0,1
50646,-62.5,4,2,1,75,0,1
50730,-250,4,2,1,75,0,1
50898,-62.5,4,2,1,75,0,1
50982,-100,4,2,1,75,0,1
51317,-40,4,2,1,75,0,1
51338,-200,4,2,1,75,0,1
51401,-100,4,2,1,75,0,1
51987,-52.6315789473684,4,2,1,75,0,1
52029,-1000,4,2,1,75,0,1
52071,-52.6315789473684,4,2,1,75,0,1
52113,-1000,4,2,1,75,0,1
52155,-100,4,2,1,75,0,1
56010,-62.5,4,2,1,75,0,1
56093,-250,4,2,1,75,0,1
56261,-62.5,4,2,1,75,0,1
56345,-100,4,2,1,75,0,1
56680,-40,4,2,1,75,0,1
56701,-200,4,2,1,75,0,1
56764,-100,4,2,1,75,0,1
57350,-52.6315789473684,4,2,1,75,0,1
57392,-1000,4,2,1,75,0,1
57434,-52.6315789473684,4,2,1,75,0,1
57476,-1000,4,2,1,75,0,1
57518,-100,4,2,1,75,0,1
60032,-74.0740740740741,4,2,1,75,0,1
60116,-153.846153846154,4,2,1,75,0,1
60200,-74.0740740740741,4,2,1,75,0,1
60283,-153.846153846154,4,2,1,75,0,1
60367,-74.0740740740741,4,2,1,75,0,1
60451,-153.846153846154,4,2,1,75,0,1
60535,-74.0740740740741,4,2,1,75,0,1
60577,-153.846153846154,4,2,1,75,0,1
60619,-74.0740740740741,4,2,1,75,0,1
60660,-153.846153846154,4,2,1,75,0,1
60702,-74.0740740740741,4,2,1,75,0,1
60786,-153.846153846154,4,2,1,75,0,1
60870,-74.0740740740741,4,2,1,75,0,1
60954,-153.846153846154,4,2,1,75,0,1
61038,-74.0740740740741,4,2,1,75,0,1
61121,-153.846153846154,4,2,1,75,0,1
61205,-74.0740740740741,4,2,1,75,0,1
61289,-153.846153846154,4,2,1,75,0,1
61373,-100,4,2,1,75,0,1
62043,-86.9565217391305,4,2,1,75,0,1
62127,-117.647058823529,4,2,1,75,0,1
62294,-80,4,2,1,75,0,1
62378,-100,4,2,1,75,0,1
64054,-100,4,2,1,75,0,0
65395,-66.6666666666667,4,2,1,75,0,0
65479,-133.333333333333,4,2,1,75,0,0
65646,-66.6666666666667,4,2,1,75,0,0
65730,-133.333333333333,4,2,1,75,0,0
65898,-66.6666666666667,4,2,1,75,0,0
65982,-133.333333333333,4,2,1,75,0,0
66149,-66.6666666666667,4,2,1,75,0,0
66233,-133.333333333333,4,2,1,75,0,0
66401,-100,4,2,1,75,0,0
70758,-74.0740740740741,4,2,1,75,0,0
70842,-153.846153846154,4,2,1,75,0,0
70926,-74.0740740740741,4,2,1,75,0,0
71010,-153.846153846154,4,2,1,75,0,0
71093,-74.0740740740741,4,2,1,75,0,0
71177,-153.846153846154,4,2,1,75,0,0
71261,-74.0740740740741,4,2,1,75,0,0
71303,-153.846153846154,4,2,1,75,0,0
71345,-74.0740740740741,4,2,1,75,0,0
71387,-153.846153846154,4,2,1,75,0,0
71429,-74.0740740740741,4,2,1,75,0,0
71512,-153.846153846154,4,2,1,75,0,0
71596,-74.0740740740741,4,2,1,75,0,0
71680,-153.846153846154,4,2,1,75,0,0
71764,-100,4,2,1,75,0,0
74781,-86.9565217391305,4,2,1,75,0,0
74864,-117.647058823529,4,2,1,75,0,0
74948,-86.9565217391305,4,2,1,75,0,0
75032,-117.647058823529,4,2,1,75,0,0
75116,-86.9565217391305,4,2,1,75,0,0
75200,-117.647058823529,4,2,1,75,0,0
75367,-86.9565217391305,4,2,1,75,0,0
75535,-117.647058823529,4,2,1,75,0,0
75619,-86.9565217391305,4,2,1,75,0,0
75702,-117.647058823529,4,2,1,75,0,0
75786,-86.9565217391305,4,2,1,75,0,0
75870,-117.647058823529,4,2,1,75,0,0
76038,-86.9565217391305,4,2,1,75,0,0
76121,-100,4,2,1,75,0,0
89362,-66.6666666666667,4,2,1,75,0,0
89445,-200,4,2,1,75,0,0
89613,-66.6666666666667,4,2,1,75,0,0
89697,-100,4,2,1,75,0,0
96233,-111.111111111111,4,2,1,75,0,0
96903,-105.263157894737,4,2,1,75,0,0
97574,-100,4,2,1,75,0,0
102937,-76.9230769230769,4,2,1,75,0,0
103021,-142.857142857143,4,2,1,75,0,0
103105,-76.9230769230769,4,2,1,75,0,0
103188,-142.857142857143,4,2,1,75,0,0
103272,-76.9230769230769,4,2,1,75,0,0
103356,-142.857142857143,4,2,1,75,0,0
103440,-76.9230769230769,4,2,1,75,0,0
103482,-142.857142857143,4,2,1,75,0,0
103524,-76.9230769230769,4,2,1,75,0,0
103565,-142.857142857143,4,2,1,75,0,0
103607,-100,4,2,1,75,0,0
108384,-86.9565217391305,4,2,1,75,0,0
108440,-117.647058823529,4,2,1,75,0,0
108579,-86.9565217391305,4,2,1,75,0,0
108635,-100,4,2,1,75,0,0
121708,-10,4,2,1,75,0,0
122378,-10000,4,2,1,75,0,0
122658,-33.3333333333333,4,2,1,75,0,0
122713,-52.6315789473684,4,2,1,75,0,0
122797,-1000,4,2,1,75,0,0
122965,-52.6315789473684,4,2,1,75,0,0
123049,-62.5,4,2,1,75,0,1
123132,-250,4,2,1,75,0,1
123300,-62.5,4,2,1,75,0,1
123384,-100,4,2,1,75,0,1
127741,-74.0740740740741,4,2,1,75,0,1
127825,-153.846153846154,4,2,1,75,0,1
127909,-74.0740740740741,4,2,1,75,0,1
127993,-153.846153846154,4,2,1,75,0,1
128077,-62.5,4,2,1,75,0,1
128160,-250,4,2,1,75,0,1
128328,-62.5,4,2,1,75,0,1
128496,-250,4,2,1,75,0,1
128663,-62.5,4,2,1,75,0,1
128747,-100,4,2,1,75,0,1
138468,-74.0740740740741,4,2,1,75,0,1
138551,-153.846153846154,4,2,1,75,0,1
138635,-74.0740740740741,4,2,1,75,0,1
138719,-153.846153846154,4,2,1,75,0,1
138803,-62.5,4,2,1,75,0,1
138887,-250,4,2,1,75,0,1
139054,-62.5,4,2,1,75,0,1
139222,-250,4,2,1,75,0,1
139389,-62.5,4,2,1,75,0,1
139473,-100,4,2,1,75,0,1
144501,-100,4,2,1,75,0,0
145842,-116.279069767442,4,2,1,45,0,0
152545,-116.279069767442,4,2,1,75,0,0
154892,-113.636363636364,4,2,1,75,0,0
155227,-111.111111111111,4,2,1,75,0,0
155730,-107.52688172043,4,2,1,75,0,0
156149,-105.263157894737,4,2,1,75,0,0
156401,-102.040816326531,4,2,1,75,0,0
156568,-71.4285714285714,4,2,1,75,0,0
156630,-166.666666666667,4,2,1,75,0,0
156756,-71.4285714285714,4,2,1,75,0,0
156881,-166.666666666667,4,2,1,75,0,0
157007,-71.4285714285714,4,2,1,75,0,0
157133,-166.666666666667,4,2,1,75,0,0
157259,-71.4285714285714,4,2,1,75,0,0
157384,-166.666666666667,4,2,1,75,0,0
157510,-71.4285714285714,4,2,1,75,0,0
157573,-100,4,2,1,75,0,0
167127,-66.6666666666667,4,2,1,75,0,0
167211,-133.333333333333,4,2,1,75,0,0
167378,-100,4,2,1,75,0,0
170982,-66.6666666666667,4,2,1,75,0,0
171065,-200,4,2,1,75,0,0
171233,-66.6666666666667,4,2,1,75,0,0
171317,-100,4,2,1,75,0,0
178021,-10,4,2,1,75,0,0
178691,-10000,4,2,1,75,0,0
178970,-33.3333333333333,4,2,1,75,0,0
179026,-52.6315789473684,4,2,1,75,0,0
179110,-1000,4,2,1,75,0,0
179278,-52.6315789473684,4,2,1,75,0,0
179362,-66.6666666666667,4,2,1,75,0,1
179445,-200,4,2,1,75,0,1
179613,-66.6666666666667,4,2,1,75,0,1
179697,-100,4,2,1,75,0,1
180032,-80,4,2,1,75,0,1
180074,-133.333333333333,4,2,1,75,0,1
180158,-80,4,2,1,75,0,1
180241,-133.333333333333,4,2,1,75,0,1
180325,-80,4,2,1,75,0,1
180367,-100,4,2,1,75,0,1
181708,-66.6666666666667,4,2,1,75,0,1
181792,-200,4,2,1,75,0,1
181959,-66.6666666666667,4,2,1,75,0,1
182043,-100,4,2,1,75,0,1
182713,-80,4,2,1,75,0,1
182755,-133.333333333333,4,2,1,75,0,1
182839,-80,4,2,1,75,0,1
182923,-133.333333333333,4,2,1,75,0,1
183007,-80,4,2,1,75,0,1
183049,-100,4,2,1,75,0,1
183384,-133.333333333333,4,2,1,75,0,1
183468,-80,4,2,1,75,0,1
183635,-133.333333333333,4,2,1,75,0,1
183719,-100,4,2,1,75,0,1
184725,-66.6666666666667,4,2,1,75,0,1
184808,-200,4,2,1,75,0,1
184976,-66.6666666666667,4,2,1,75,0,1
185060,-100,4,2,1,75,0,1
185395,-80,4,2,1,75,0,1
185437,-133.333333333333,4,2,1,75,0,1
185521,-80,4,2,1,75,0,1
185604,-133.333333333333,4,2,1,75,0,1
185688,-80,4,2,1,75,0,1
185730,-100,4,2,1,75,0,1
187406,-83.3333333333333,4,2,1,75,0,1
187448,-125,4,2,1,75,0,1
187532,-83.3333333333333,4,2,1,75,0,1
187616,-125,4,2,1,75,0,1
187700,-83.3333333333333,4,2,1,75,0,1
187783,-125,4,2,1,75,0,1
187867,-83.3333333333333,4,2,1,75,0,1
187951,-125,4,2,1,75,0,1
188035,-83.3333333333333,4,2,1,75,0,1
188119,-125,4,2,1,75,0,1
188202,-83.3333333333333,4,2,1,75,0,1
188286,-125,4,2,1,75,0,1
188370,-83.3333333333333,4,2,1,75,0,1
188454,-125,4,2,1,75,0,1
188538,-83.3333333333333,4,2,1,75,0,1
188621,-125,4,2,1,75,0,1
188705,-83.3333333333333,4,2,1,75,0,1
188789,-125,4,2,1,75,0,1
188873,-83.3333333333333,4,2,1,75,0,1
188956,-125,4,2,1,75,0,1
189040,-83.3333333333333,4,2,1,75,0,1
189124,-125,4,2,1,75,0,1
189208,-83.3333333333333,4,2,1,75,0,1
189292,-125,4,2,1,75,0,1
189375,-83.3333333333333,4,2,1,75,0,1
189459,-125,4,2,1,75,0,1
189543,-83.3333333333333,4,2,1,75,0,1
189627,-125,4,2,1,75,0,1
189711,-83.3333333333333,4,2,1,75,0,1
189753,-66.6666666666667,4,2,1,75,0,1
189836,-200,4,2,1,75,0,1
189919,-66.6666666666667,4,2,1,75,0,1
190003,-200,4,2,1,75,0,1
190087,-66.6666666666667,4,2,1,75,0,1
190171,-200,4,2,1,75,0,1
190339,-66.6666666666667,4,2,1,75,0,1
190423,-100,4,2,1,75,0,1
190758,-80,4,2,1,75,0,1
190800,-133.333333333333,4,2,1,75,0,1
190884,-80,4,2,1,75,0,1
190967,-133.333333333333,4,2,1,75,0,1
191051,-80,4,2,1,75,0,1
191093,-100,4,2,1,75,0,1
192434,-66.6666666666667,4,2,1,75,0,1
192518,-200,4,2,1,75,0,1
192685,-66.6666666666667,4,2,1,75,0,1
192769,-100,4,2,1,75,0,1
193439,-80,4,2,1,75,0,1
193481,-133.333333333333,4,2,1,75,0,1
193565,-80,4,2,1,75,0,1
193649,-133.333333333333,4,2,1,75,0,1
193733,-80,4,2,1,75,0,1
193774,-100,4,2,1,75,0,1
195451,-66.6666666666667,4,2,1,75,0,0
195534,-200,4,2,1,75,0,0
195702,-66.6666666666667,4,2,1,75,0,0
195786,-100,4,2,1,75,0,0
199472,-71.4285714285714,4,2,1,75,0,0
199535,-166.666666666667,4,2,1,75,0,0
199661,-71.4285714285714,4,2,1,75,0,0
199787,-166.666666666667,4,2,1,75,0,0
199912,-71.4285714285714,4,2,1,75,0,0
200038,-166.666666666667,4,2,1,75,0,0
200164,-71.4285714285714,4,2,1,75,0,0
200226,-100,4,2,1,75,0,0
203159,-66.6666666666667,4,2,1,75,0,0
203243,-200,4,2,1,75,0,0
203411,-66.6666666666667,4,2,1,75,0,0
203496,-80,4,2,1,75,0,1
203538,-133.333333333333,4,2,1,75,0,1
203620,-80,4,2,1,75,0,1
203704,-133.333333333333,4,2,1,75,0,1
203788,-80,4,2,1,75,0,1
203830,-100,4,2,1,75,0,1
204165,-80,4,2,1,75,0,1
204207,-133.333333333333,4,2,1,75,0,1
204291,-80,4,2,1,75,0,1
204374,-133.333333333333,4,2,1,75,0,1
204458,-80,4,2,1,75,0,1
204542,-133.333333333333,4,2,1,75,0,1
204626,-80,4,2,1,75,0,1
204710,-133.333333333333,4,2,1,75,0,1
204793,-80,4,2,1,75,0,1
204877,-133.333333333333,4,2,1,75,0,1
204961,-80,4,2,1,75,0,1
205045,-133.333333333333,4,2,1,75,0,1
205129,-80,4,2,1,75,0,1
205212,-133.333333333333,4,2,1,75,0,1
205296,-80,4,2,1,75,0,1
205380,-133.333333333333,4,2,1,75,0,1
205464,-80,4,2,1,75,0,1
205548,-133.333333333333,4,2,1,75,0,1
205631,-80,4,2,1,75,0,1
205715,-133.333333333333,4,2,1,75,0,1
205799,-80,4,2,1,75,0,1
205883,-133.333333333333,4,2,1,75,0,1
205967,-80,4,2,1,75,0,1
206050,-133.333333333333,4,2,1,75,0,1
206134,-80,4,2,1,75,0,1
206218,-133.333333333333,4,2,1,75,0,1
206302,-80,4,2,1,75,0,1
206386,-133.333333333333,4,2,1,75,0,1
206469,-80,4,2,1,75,0,1
206553,-133.333333333333,4,2,1,75,0,1
206637,-80,4,2,1,75,0,1
206721,-133.333333333333,4,2,1,75,0,1
206805,-80,4,2,1,75,0,1
206888,-133.333333333333,4,2,1,75,0,1
206972,-80,4,2,1,75,0,1
207056,-133.333333333333,4,2,1,75,0,1
207140,-80,4,2,1,75,0,1
207224,-133.333333333333,4,2,1,75,0,1
207307,-80,4,2,1,75,0,1
207391,-133.333333333333,4,2,1,75,0,1
207475,-80,4,2,1,75,0,1
207559,-133.333333333333,4,2,1,75,0,1
207643,-80,4,2,1,75,0,1
207726,-133.333333333333,4,2,1,75,0,1
207810,-80,4,2,1,75,0,1
207894,-133.333333333333,4,2,1,75,0,1
207978,-80,4,2,1,75,0,1
208062,-133.333333333333,4,2,1,75,0,1
208145,-80,4,2,1,75,0,1
208229,-133.333333333333,4,2,1,75,0,1
208313,-80,4,2,1,75,0,1
208397,-133.333333333333,4,2,1,75,0,1
208481,-80,4,2,1,75,0,1
208523,-100,4,2,1,75,0,1
211539,-80,4,2,1,75,0,1
211581,-133.333333333333,4,2,1,75,0,1
211665,-80,4,2,1,75,0,1
211749,-133.333333333333,4,2,1,75,0,1
211833,-80,4,2,1,75,0,1
211916,-133.333333333333,4,2,1,75,0,1
212000,-80,4,2,1,75,0,1
212084,-133.333333333333,4,2,1,75,0,1
212168,-80,4,2,1,75,0,1
212252,-133.333333333333,4,2,1,75,0,1
212335,-80,4,2,1,75,0,1
212419,-133.333333333333,4,2,1,75,0,1
212503,-80,4,2,1,75,0,1
212587,-133.333333333333,4,2,1,75,0,1
212671,-80,4,2,1,75,0,1
212754,-133.333333333333,4,2,1,75,0,1
212838,-80,4,2,1,75,0,1
212922,-133.333333333333,4,2,1,75,0,1
213006,-80,4,2,1,75,0,1
213090,-133.333333333333,4,2,1,75,0,1
213173,-80,4,2,1,75,0,1
213257,-133.333333333333,4,2,1,75,0,1
213341,-80,4,2,1,75,0,1
213425,-133.333333333333,4,2,1,75,0,1
213509,-80,4,2,1,75,0,1
213592,-133.333333333333,4,2,1,75,0,1
213676,-80,4,2,1,75,0,1
213760,-133.333333333333,4,2,1,75,0,1
213844,-80,4,2,1,75,0,1
213928,-133.333333333333,4,2,1,75,0,1
214011,-80,4,2,1,75,0,1
214095,-133.333333333333,4,2,1,75,0,1
214179,-80,4,2,1,75,0,1
214263,-133.333333333333,4,2,1,75,0,1
214347,-80,4,2,1,75,0,1
214430,-133.333333333333,4,2,1,75,0,1
214514,-80,4,2,1,75,0,1
214598,-133.333333333333,4,2,1,75,0,1
214682,-80,4,2,1,75,0,1
214766,-133.333333333333,4,2,1,75,0,1
214849,-80,4,2,1,75,0,1
214933,-133.333333333333,4,2,1,75,0,1
215017,-80,4,2,1,75,0,1
215101,-133.333333333333,4,2,1,75,0,1
215185,-80,4,2,1,75,0,1
215268,-133.333333333333,4,2,1,75,0,1
215352,-80,4,2,1,75,0,1
215436,-133.333333333333,4,2,1,75,0,1
215520,-80,4,2,1,75,0,1
215604,-133.333333333333,4,2,1,75,0,1
215687,-80,4,2,1,75,0,1
215771,-133.333333333333,4,2,1,75,0,1
215855,-80,4,2,1,75,0,1
215939,-133.333333333333,4,2,1,75,0,1
216023,-80,4,2,1,75,0,1
216106,-133.333333333333,4,2,1,75,0,1
216190,-80,4,2,1,75,0,1
216274,-133.333333333333,4,2,1,75,0,1
216358,-80,4,2,1,75,0,1
216442,-133.333333333333,4,2,1,75,0,1
216525,-80,4,2,1,75,0,1
216609,-133.333333333333,4,2,1,75,0,1
216693,-80,4,2,1,75,0,1
216777,-133.333333333333,4,2,1,75,0,1
216861,-80,4,2,1,75,0,1
216944,-133.333333333333,4,2,1,75,0,1
217028,-80,4,2,1,75,0,1
217112,-133.333333333333,4,2,1,75,0,1
217196,-80,4,2,1,75,0,1
217280,-133.333333333333,4,2,1,75,0,1
217363,-80,4,2,1,75,0,1
217447,-133.333333333333,4,2,1,75,0,1
217531,-80,4,2,1,75,0,1
217615,-133.333333333333,4,2,1,75,0,1
217699,-80,4,2,1,75,0,1
217782,-133.333333333333,4,2,1,75,0,1
217866,-80,4,2,1,75,0,1
217950,-133.333333333333,4,2,1,75,0,1
218034,-80,4,2,1,75,0,1
218118,-133.333333333333,4,2,1,75,0,1
218201,-80,4,2,1,75,0,1
218285,-133.333333333333,4,2,1,75,0,1
218369,-80,4,2,1,75,0,1
218453,-133.333333333333,4,2,1,75,0,1
218537,-80,4,2,1,75,0,1
218620,-133.333333333333,4,2,1,75,0,1
218704,-80,4,2,1,75,0,1
218788,-133.333333333333,4,2,1,75,0,1
218872,-80,4,2,1,75,0,1
218955,-133.333333333333,4,2,1,75,0,1
219039,-80,4,2,1,75,0,1
219123,-133.333333333333,4,2,1,75,0,1
219207,-80,4,2,1,75,0,1
219291,-133.333333333333,4,2,1,75,0,1
219374,-80,4,2,1,75,0,1
219458,-133.333333333333,4,2,1,75,0,1
219542,-80,4,2,1,75,0,1
219585,-100,4,2,1,75,0,0
243719,-66.6666666666667,4,2,1,75,0,1
243801,-200,4,2,1,75,0,1
243969,-66.6666666666667,4,2,1,75,0,1
244053,-100,4,2,1,75,0,1
244388,-80,4,2,1,75,0,1
244430,-133.333333333333,4,2,1,75,0,1
244514,-80,4,2,1,75,0,1
244597,-133.333333333333,4,2,1,75,0,1
244681,-80,4,2,1,75,0,1
244723,-100,4,2,1,75,0,1
246064,-66.6666666666667,4,2,1,75,0,1
246148,-200,4,2,1,75,0,1
246315,-66.6666666666667,4,2,1,75,0,1
246399,-100,4,2,1,75,0,1
247069,-80,4,2,1,75,0,1
247111,-133.333333333333,4,2,1,75,0,1
247195,-80,4,2,1,75,0,1
247279,-133.333333333333,4,2,1,75,0,1
247363,-80,4,2,1,75,0,1
247405,-100,4,2,1,75,0,1
247740,-133.333333333333,4,2,1,75,0,1
247824,-80,4,2,1,75,0,1
247991,-133.333333333333,4,2,1,75,0,1
248075,-100,4,2,1,75,0,1
249081,-66.6666666666667,4,2,1,75,0,1
249164,-200,4,2,1,75,0,1
249332,-66.6666666666667,4,2,1,75,0,1
249416,-100,4,2,1,75,0,1
253104,-74.0740740740741,4,2,1,75,0,1
253187,-153.846153846154,4,2,1,75,0,1
253271,-74.0740740740741,4,2,1,75,0,1
253355,-153.846153846154,4,2,1,75,0,1
253439,-74.0740740740741,4,2,1,75,0,1
253523,-153.846153846154,4,2,1,75,0,1
253606,-74.0740740740741,4,2,1,75,0,1
253648,-153.846153846154,4,2,1,75,0,1
253690,-74.0740740740741,4,2,1,75,0,1
253732,-153.846153846154,4,2,1,75,0,1
253774,-74.0740740740741,4,2,1,75,0,1
253858,-153.846153846154,4,2,1,75,0,1
253942,-74.0740740740741,4,2,1,75,0,1
254025,-153.846153846154,4,2,1,75,0,1
254109,-100,4,2,1,75,0,1
254444,-66.6666666666667,4,2,1,75,0,1
254527,-200,4,2,1,75,0,1
254695,-66.6666666666667,4,2,1,75,0,1
254779,-100,4,2,1,75,0,1
255114,-80,4,2,1,75,0,1
255156,-133.333333333333,4,2,1,75,0,1
255240,-80,4,2,1,75,0,1
255323,-133.333333333333,4,2,1,75,0,1
255407,-80,4,2,1,75,0,1
255449,-100,4,2,1,75,0,1
256958,-66.6666666666667,4,2,1,75,0,1
257042,-200,4,2,1,75,0,1
257210,-66.6666666666667,4,2,1,75,0,1
257293,-100,4,2,1,75,0,1
259807,-66.6666666666667,4,2,1,75,0,1
259890,-200,4,2,1,75,0,1
260058,-66.6666666666667,4,2,1,75,0,1
260142,-100,4,2,1,75,0,1
263830,-74.0740740740741,4,2,1,75,0,1
263914,-153.846153846154,4,2,1,75,0,1
263997,-74.0740740740741,4,2,1,75,0,1
264081,-153.846153846154,4,2,1,75,0,1
264165,-74.0740740740741,4,2,1,75,0,1
264249,-153.846153846154,4,2,1,75,0,1
264333,-74.0740740740741,4,2,1,75,0,1
264374,-153.846153846154,4,2,1,75,0,1
264416,-74.0740740740741,4,2,1,75,0,1
264458,-153.846153846154,4,2,1,75,0,1
264500,-74.0740740740741,4,2,1,75,0,1
264584,-153.846153846154,4,2,1,75,0,1
264668,-74.0740740740741,4,2,1,75,0,1
264752,-153.846153846154,4,2,1,75,0,1
264835,-100,4,2,1,75,0,1
265172,-100,4,2,1,75,0,0

[HitObjects]
64,192,2044,5,8,0:0:0:0:
192,192,2044,1,0,0:0:0:0:
320,192,2212,1,0,0:0:0:0:
192,192,2379,1,4,0:0:0:0:
64,192,2379,128,0,2965:0:0:0:0:
448,192,2379,1,0,0:0:0:0:
448,192,2714,128,0,2965:0:0:0:0:
64,192,3049,1,2,0:0:0:0:
320,192,3049,1,0,0:0:0:0:
448,192,3049,1,0,0:0:0:0:
192,192,3133,1,0,0:0:0:0:
320,192,3216,1,0,0:0:0:0:
64,192,3300,1,0,0:0:0:0:
192,192,3384,1,0,0:0:0:0:
320,192,3468,1,0,0:0:0:0:
192,192,3552,1,4,0:0:0:0:
448,192,3552,128,0,3971:0:0:0:0:
64,192,3552,1,0,0:0:0:0:
192,192,3887,1,0,0:0:0:0:
448,192,4054,1,2,0:0:0:0:
320,192,4054,1,0,0:0:0:0:
64,192,4054,1,0,0:0:0:0:
192,192,4222,1,4,0:0:0:0:
448,192,4222,128,0,4641:0:0:0:0:
64,192,4222,1,0,0:0:0:0:
192,192,4557,1,0,0:0:0:0:
320,192,4725,1,2,0:0:0:0:
448,192,4725,1,0,0:0:0:0:
64,192,4725,1,0,0:0:0:0:
192,192,4892,1,0,0:0:0:0:
320,192,4976,1,0,0:0:0:0:
64,192,5060,128,4,5542:0:0:0:0:
192,192,5060,1,0,0:0:0:0:
448,192,5060,1,0,0:0:0:0:
320,192,5563,1,4,0:0:0:0:
448,192,5563,1,0,0:0:0:0:
64,192,5647,1,4,0:0:0:0:
192,192,5647,1,0,0:0:0:0:
320,192,5730,1,2,0:0:0:0:
448,192,5730,1,0,0:0:0:0:
192,192,5786,1,0,0:0:0:0:
64,192,5842,1,0,0:0:0:0:
448,192,5898,1,0,0:0:0:0:
320,192,5954,1,0,0:0:0:0:
192,192,6010,1,0,0:0:0:0:
64,192,6066,1,0,0:0:0:0:
320,192,6122,1,0,0:0:0:0:
64,192,6233,128,4,6736:0:0:0:0:
192,192,6233,1,0,0:0:0:0:
448,192,6233,1,0,0:0:0:0:
448,192,6568,1,2,0:0:0:0:
320,192,6568,1,0,0:0:0:0:
320,192,6736,1,2,0:0:0:0:
192,192,6736,1,0,0:0:0:0:
192,192,6904,1,4,0:0:0:0:
448,192,6904,128,0,7239:0:0:0:0:
64,192,6904,1,0,0:0:0:0:
64,192,7406,1,0,0:0:0:0:
192,192,7406,1,0,0:0:0:0:
320,192,7574,1,0,0:0:0:0:
192,192,7742,1,4,0:0:0:0:
64,192,7742,128,0,8328:0:0:0:0:
448,192,7742,1,0,0:0:0:0:
448,192,8077,128,0,8328:0:0:0:0:
64,192,8412,1,0,0:0:0:0:
448,192,8412,1,2,0:0:0:0:
320,192,8412,1,0,0:0:0:0:
192,192,8496,1,0,0:0:0:0:
448,192,8580,1,0,0:0:0:0:
320,192,8663,1,0,0:0:0:0:
192,192,8747,128,0,8915:0:0:0:0:
320,192,8915,1,4,0:0:0:0:
448,192,8915,128,0,9334:0:0:0:0:
64,192,8915,1,0,0:0:0:0:
320,192,9250,1,0,0:0:0:0:
64,192,9418,1,2,0:0:0:0:
192,192,9418,1,0,0:0:0:0:
448,192,9418,1,0,0:0:0:0:
320,192,9585,1,4,0:0:0:0:
64,192,9585,128,0,10004:0:0:0:0:
448,192,9585,1,0,0:0:0:0:
320,192,9920,1,0,0:0:0:0:
64,192,10088,1,0,0:0:0:0:
192,192,10088,1,0,0:0:0:0:
448,192,10088,1,0,0:0:0:0:
192,192,10256,1,0,0:0:0:0:
320,192,10256,1,0,0:0:0:0:
64,192,10423,1,4,0:0:0:0:
320,192,10423,1,0,0:0:0:0:
448,192,10423,1,0,0:0:0:0:
192,192,10591,1,0,0:0:0:0:
64,192,10647,1,0,0:0:0:0:
448,192,10703,1,0,0:0:0:0:
320,192,10758,1,0,0:0:0:0:
64,192,10814,1,0,0:0:0:0:
192,192,10870,1,0,0:0:0:0:
320,192,10926,1,0,0:0:0:0:
448,192,10982,1,0,0:0:0:0:
64,192,11038,1,0,0:0:0:0:
192,192,11135,1,0,0:0:0:0:
320,192,11219,1,0,0:0:0:0:
448,192,11303,1,0,0:0:0:0:
320,192,11429,1,0,0:0:0:0:
192,192,11596,1,0,0:0:0:0:
64,192,11764,1,4,0:0:0:0:
320,192,11764,1,0,0:0:0:0:
448,192,11764,1,0,0:0:0:0:
448,192,12015,1,4,0:0:0:0:
192,192,12015,1,0,0:0:0:0:
320,192,12015,1,0,0:0:0:0:
320,192,12267,1,0,0:0:0:0:
64,192,12267,1,4,0:0:0:0:
192,192,12267,1,0,0:0:0:0:
320,192,12518,1,4,0:0:0:0:
192,192,12518,1,0,0:0:0:0:
448,192,12518,1,0,0:0:0:0:
320,192,12770,1,0,0:0:0:0:
448,192,12770,128,0,13105:0:0:0:0:
320,192,13105,1,4,0:0:0:0:
64,192,13105,128,0,13691:0:0:0:0:
192,192,13105,1,0,0:0:0:0:
448,192,13440,128,0,13691:0:0:0:0:
448,192,13775,1,2,0:0:0:0:
320,192,13775,1,0,0:0:0:0:
64,192,13775,1,0,0:0:0:0:
64,192,13943,1,0,0:0:0:0:
320,192,13943,1,0,0:0:0:0:
320,192,14110,1,0,0:0:0:0:
64,192,14110,1,0,0:0:0:0:
448,192,14278,128,0,14948:0:0:0:0:
192,192,14446,1,4,0:0:0:0:
64,192,14446,1,0,0:0:0:0:
320,192,14613,128,0,14948:0:0:0:0:
192,192,14948,1,0,0:0:0:0:
320,192,15032,1,4,0:0:0:0:
448,192,15032,1,0,0:0:0:0:
192,192,15116,1,2,0:0:0:0:
64,192,15116,1,0,0:0:0:0:
320,192,15284,1,0,0:0:0:0:
64,192,15451,128,0,15563:0:0:0:0:
448,192,15451,128,0,15563:0:0:0:0:
64,192,15619,128,0,15730:0:0:0:0:
448,192,15619,128,0,15730:0:0:0:0:
448,192,15786,128,4,16373:0:0:0:0:
320,192,15786,1,0,0:0:0:0:
64,192,15786,1,0,0:0:0:0:
64,192,16289,1,0,0:0:0:0:
192,192,16373,1,0,0:0:0:0:
320,192,16457,1,2,0:0:0:0:
448,192,16457,1,0,0:0:0:0:
320,192,16624,1,0,0:0:0:0:
448,192,16624,1,0,0:0:0:0:
320,192,16792,1,0,0:0:0:0:
448,192,16792,1,0,0:0:0:0:
192,192,16960,1,0,0:0:0:0:
320,192,17043,1,4,0:0:0:0:
448,192,17043,1,0,0:0:0:0:
192,192,17127,1,4,0:0:0:0:
64,192,17127,1,0,0:0:0:0:
64,192,17295,1,0,0:0:0:0:
192,192,17295,1,4,0:0:0:0:
320,192,17462,1,2,0:0:0:0:
448,192,17462,1,0,0:0:0:0:
320,192,17630,1,4,0:0:0:0:
448,192,17630,1,0,0:0:0:0:
64,192,17714,1,0,0:0:0:0:
192,192,17714,1,4,0:0:0:0:
320,192,17797,1,2,0:0:0:0:
448,192,17797,1,0,0:0:0:0:
448,192,17965,1,2,0:0:0:0:
320,192,17965,1,0,0:0:0:0:
320,192,18133,1,2,0:0:0:0:
448,192,18133,128,0,18384:0:0:0:0:
192,192,18300,1,0,0:0:0:0:
448,192,18468,128,4,19054:0:0:0:0:
64,192,18468,1,0,0:0:0:0:
320,192,18468,1,0,0:0:0:0:
192,192,18971,1,0,0:0:0:0:
320,192,19138,1,2,0:0:0:0:
448,192,19138,1,0,0:0:0:0:
64,192,19138,1,0,0:0:0:0:
192,192,19306,1,0,0:0:0:0:
64,192,19473,128,0,19809:0:0:0:0:
192,192,19641,128,0,19809:0:0:0:0:
320,192,19809,1,4,0:0:0:0:
448,192,19809,128,0,20395:0:0:0:0:
320,192,20311,1,0,0:0:0:0:
64,192,20395,1,0,0:0:0:0:
192,192,20395,1,4,0:0:0:0:
320,192,20479,1,2,0:0:0:0:
448,192,20479,1,0,0:0:0:0:
192,192,20647,1,0,0:0:0:0:
320,192,20814,1,0,0:0:0:0:
64,192,20814,1,0,0:0:0:0:
192,192,20982,1,0,0:0:0:0:
64,192,21149,1,4,0:0:0:0:
448,192,21149,1,0,0:0:0:0:
320,192,21149,1,0,0:0:0:0:
320,192,21485,1,0,0:0:0:0:
64,192,21568,1,0,0:0:0:0:
192,192,21568,1,2,0:0:0:0:
320,192,21652,1,4,0:0:0:0:
448,192,21652,1,0,0:0:0:0:
448,192,21820,1,0,0:0:0:0:
192,192,21820,1,2,0:0:0:0:
64,192,21820,1,0,0:0:0:0:
320,192,22155,1,4,0:0:0:0:
448,192,22155,1,0,0:0:0:0:
64,192,22155,1,0,0:0:0:0:
64,192,22323,1,0,0:0:0:0:
192,192,22323,1,4,0:0:0:0:
448,192,22323,1,0,0:0:0:0:
64,192,22574,1,4,0:0:0:0:
192,192,22574,1,0,0:0:0:0:
320,192,22574,1,0,0:0:0:0:
192,192,22825,1,4,0:0:0:0:
320,192,22825,1,0,0:0:0:0:
448,192,22825,1,0,0:0:0:0:
448,192,22993,1,4,0:0:0:0:
192,192,22993,1,0,0:0:0:0:
64,192,22993,1,0,0:0:0:0:
320,192,23161,1,2,0:0:0:0:
192,192,23161,1,0,0:0:0:0:
64,192,23328,128,0,23747:0:0:0:0:
448,192,23496,128,0,23747:0:0:0:0:
64,192,23831,1,4,0:0:0:70:Cymbal.wav
192,192,23831,1,0,0:0:0:0:
448,192,23831,1,0,0:0:0:0:
320,192,23831,1,4,0:0:0:0:
64,192,24166,1,2,0:0:0:0:
320,192,24166,1,0,0:0:0:0:
192,192,24334,1,0,0:0:0:0:
64,192,24669,1,4,0:0:0:0:
192,192,24669,1,0,0:0:0:0:
320,192,24837,1,2,0:0:0:0:
448,192,24837,1,0,0:0:0:0:
64,192,25004,128,0,25339:0:0:0:0:
448,192,25172,1,0,0:0:0:0:
192,192,25339,1,4,0:0:0:0:
320,192,25507,1,2,0:0:0:0:
448,192,25507,1,0,0:0:0:0:
64,192,25675,1,0,0:0:0:0:
448,192,25842,1,0,0:0:0:0:
192,192,26010,1,4,0:0:0:0:
320,192,26010,1,0,0:0:0:0:
64,192,26177,128,0,26429:0:0:0:0:
320,192,26177,128,2,26429:0:0:0:0:
448,192,26177,128,0,26429:0:0:0:0:
192,192,26513,128,4,26848:0:0:0:0:
64,192,26513,128,0,26848:0:0:0:0:
448,192,26513,128,0,26848:0:0:0:0:
320,192,26848,1,2,0:0:0:0:
64,192,27015,1,0,0:0:0:0:
192,192,27099,1,0,0:0:0:0:
320,192,27183,1,0,0:0:0:0:
448,192,27267,1,0,0:0:0:0:
64,192,27351,1,4,0:0:0:0:
192,192,27351,1,0,0:0:0:0:
320,192,27518,1,2,0:0:0:0:
448,192,27518,1,0,0:0:0:0:
320,192,27853,1,0,0:0:0:0:
64,192,27853,1,4,0:0:0:0:
192,192,28021,1,0,0:0:0:0:
448,192,28189,1,0,0:0:0:0:
320,192,28189,1,2,0:0:0:0:
64,192,28356,1,0,0:0:0:0:
192,192,28356,1,0,0:0:0:0:
320,192,28440,1,0,0:0:0:0:
64,192,28524,128,0,28775:0:0:0:0:
192,192,28524,128,0,28775:0:0:0:0:
448,192,28524,128,0,28775:0:0:0:0:
64,192,28859,128,2,29110:0:0:0:0:
320,192,28859,128,0,29110:0:0:0:0:
448,192,28859,128,0,29110:0:0:0:0:
64,192,29194,128,4,29446:0:0:0:0:
192,192,29194,128,0,29446:0:0:0:0:
448,192,29194,128,0,29529:0:0:0:0:
192,192,29529,1,2,0:0:0:0:
64,192,29529,1,0,0:0:0:0:
192,192,29697,1,0,0:0:0:0:
448,192,29781,1,0,0:0:0:0:
64,192,29865,1,0,0:0:0:0:
320,192,29865,1,0,0:0:0:0:
192,192,29948,1,0,0:0:0:0:
448,192,30032,1,4,0:0:0:0:
320,192,30032,1,0,0:0:0:0:
192,192,30200,1,2,0:0:0:0:
64,192,30200,1,0,0:0:0:0:
448,192,30367,128,0,30703:0:0:0:0:
192,192,30535,1,0,0:0:0:0:
64,192,30535,1,4,0:0:0:0:
320,192,30703,1,0,0:0:0:0:
64,192,30870,1,0,0:0:0:0:
448,192,30870,1,2,0:0:0:0:
64,192,31038,1,0,0:0:0:0:
192,192,31038,1,0,0:0:0:0:
448,192,31122,1,0,0:0:0:0:
320,192,31205,1,0,0:0:0:0:
64,192,31205,1,0,0:0:0:0:
192,192,31289,1,0,0:0:0:0:
448,192,31373,1,4,0:0:0:0:
320,192,31373,1,0,0:0:0:0:
64,192,31541,128,2,31792:0:0:0:0:
192,192,31541,128,0,31792:0:0:0:0:
448,192,31541,128,0,31792:0:0:0:0:
448,192,31876,128,4,32127:0:0:0:0:
64,192,31876,128,0,32127:0:0:0:0:
320,192,31876,128,0,32127:0:0:0:0:
64,192,32211,1,2,0:0:0:0:
448,192,32211,1,0,0:0:0:0:
320,192,32211,1,0,0:0:0:0:
192,192,32379,1,0,0:0:0:0:
64,192,32379,1,0,0:0:0:0:
320,192,32462,1,0,0:0:0:0:
64,192,32546,1,0,0:0:0:0:
448,192,32546,1,0,0:0:0:0:
192,192,32630,1,0,0:0:0:0:
320,192,32714,1,4,0:0:0:0:
448,192,32714,1,0,0:0:0:0:
64,192,32881,1,2,0:0:0:0:
448,192,32881,1,0,0:0:0:0:
192,192,32881,1,0,0:0:0:0:
192,192,33049,1,0,0:0:0:0:
448,192,33216,1,4,0:0:0:0:
320,192,33216,1,0,0:0:0:0:
64,192,33384,1,0,0:0:0:0:
192,192,33552,1,2,0:0:0:0:
448,192,33552,1,0,0:0:0:0:
64,192,33552,1,0,0:0:0:0:
320,192,33719,1,0,0:0:0:0:
448,192,33719,1,0,0:0:0:0:
64,192,33803,1,0,0:0:0:0:
192,192,33887,1,4,0:0:0:0:
320,192,33887,1,0,0:0:0:0:
448,192,34054,1,0,0:0:0:0:
192,192,34138,1,0,0:0:0:0:
448,192,34222,1,0,0:0:0:0:
192,192,34306,1,0,0:0:0:0:
448,192,34390,1,0,0:0:0:0:
192,192,34473,1,0,0:0:0:0:
320,192,34557,1,4,0:0:0:70:Cymbal.wav
64,192,34557,1,4,0:0:0:0:
448,192,34557,1,0,0:0:0:0:
320,192,34725,1,0,0:0:0:0:
192,192,34892,1,2,0:0:0:0:
64,192,34892,1,0,0:0:0:0:
448,192,34892,1,0,0:0:0:0:
320,192,35060,1,0,0:0:0:0:
192,192,35144,1,0,0:0:0:0:
64,192,35228,1,0,0:0:0:0:
448,192,35311,1,0,0:0:0:0:
320,192,35395,1,4,0:0:0:0:
192,192,35395,1,0,0:0:0:0:
64,192,35563,1,2,0:0:0:0:
192,192,35563,1,0,0:0:0:0:
448,192,35563,1,0,0:0:0:0:
320,192,35730,1,0,0:0:0:0:
192,192,35814,1,0,0:0:0:0:
64,192,35898,1,0,0:0:0:0:
448,192,35898,1,0,0:0:0:0:
320,192,35982,1,0,0:0:0:0:
192,192,36066,1,0,0:0:0:0:
64,192,36066,1,4,0:0:0:0:
192,192,36233,1,2,0:0:0:0:
320,192,36233,1,0,0:0:0:0:
448,192,36233,1,0,0:0:0:0:
64,192,36401,1,0,0:0:0:0:
192,192,36485,1,0,0:0:0:0:
448,192,36568,1,0,0:0:0:0:
320,192,36568,1,0,0:0:0:0:
192,192,36736,1,4,0:0:0:0:
64,192,36736,1,0,0:0:0:0:
64,192,36904,1,2,0:0:0:0:
320,192,36904,1,0,0:0:0:0:
448,192,36904,1,0,0:0:0:0:
192,192,37071,1,0,0:0:0:0:
64,192,37239,1,0,0:0:0:0:
320,192,37239,1,4,0:0:0:0:
448,192,37239,1,0,0:0:0:0:
192,192,37406,1,0,0:0:0:0:
320,192,37448,1,0,0:0:0:0:
448,192,37490,1,0,0:0:0:0:
192,192,37574,1,2,0:0:0:0:
64,192,37574,1,0,0:0:0:0:
320,192,37742,1,0,0:0:0:0:
64,192,37909,1,0,0:0:0:0:
192,192,37993,1,0,0:0:0:0:
448,192,38077,1,4,0:0:0:0:
320,192,38077,1,0,0:0:0:0:
64,192,38244,1,2,0:0:0:0:
192,192,38244,1,0,0:0:0:0:
320,192,38244,1,0,0:0:0:0:
448,192,38412,1,0,0:0:0:0:
320,192,38496,1,0,0:0:0:0:
192,192,38580,1,0,0:0:0:0:
64,192,38580,1,0,0:0:0:0:
320,192,38747,1,0,0:0:0:0:
448,192,38747,1,4,0:0:0:0:
192,192,38915,1,2,0:0:0:0:
64,192,38915,1,0,0:0:0:0:
448,192,38915,1,0,0:0:0:0:
320,192,39082,1,0,0:0:0:0:
192,192,39166,1,0,0:0:0:0:
64,192,39250,128,0,39501:0:0:0:0:
448,192,39250,128,0,39501:0:0:0:0:
320,192,39418,1,4,0:0:0:0:
64,192,39585,128,2,39837:0:0:0:0:
448,192,39585,128,0,39837:0:0:0:0:
192,192,39585,1,0,0:0:0:0:
448,192,39920,1,6,0:0:0:70:Cymbal.wav
192,192,39920,1,2,0:0:0:0:
64,192,39920,1,4,0:0:0:0:
192,192,40088,1,4,0:0:0:0:
320,192,40256,1,4,0:0:0:0:
448,192,40256,1,2,0:0:0:0:
64,192,40256,1,0,0:0:0:0:
320,192,40423,1,4,0:0:0:0:
192,192,40591,1,4,0:0:0:0:
64,192,40591,1,2,0:0:0:0:
448,192,40591,1,0,0:0:0:0:
192,192,40758,1,4,0:0:0:0:
64,192,40926,1,2,0:0:0:0:
320,192,40926,1,4,0:0:0:0:
448,192,40926,1,0,0:0:0:0:
320,192,41094,1,4,0:0:0:0:
448,192,41261,1,4,0:0:0:0:
192,192,41261,1,2,0:0:0:0:
64,192,41261,1,0,0:0:0:0:
64,192,41429,1,4,0:0:0:0:
192,192,41596,1,4,0:0:0:0:
320,192,41596,1,2,0:0:0:0:
448,192,41596,1,0,0:0:0:0:
448,192,41764,1,4,0:0:0:0:
320,192,41932,1,4,0:0:0:0:
192,192,41932,1,2,0:0:0:0:
64,192,41932,1,0,0:0:0:0:
64,192,42099,1,4,0:0:0:0:
192,192,42267,1,2,0:0:0:0:
320,192,42267,1,4,0:0:0:0:
448,192,42267,1,0,0:0:0:0:
448,192,42434,1,4,0:0:0:0:
64,192,42602,1,0,0:0:0:0:
192,192,42602,1,4,0:0:0:0:
320,192,42686,1,4,0:0:0:0:
64,192,42770,1,0,0:0:0:0:
192,192,42770,1,4,0:0:0:0:
320,192,42853,1,4,0:0:0:0:
192,192,42937,1,4,0:0:0:0:
64,192,42937,1,0,0:0:0:0:
320,192,43021,1,4,0:0:0:0:
192,192,43105,1,4,0:0:0:0:
64,192,43105,1,0,0:0:0:0:
320,192,43189,1,4,0:0:0:0:
192,192,43272,1,4,0:0:0:0:
64,192,43272,1,0,0:0:0:0:
320,192,43356,1,4,0:0:0:0:
448,192,43356,1,0,0:0:0:0:
192,192,43440,1,4,0:0:0:0:
64,192,43440,1,0,0:0:0:0:
320,192,43524,1,4,0:0:0:0:
448,192,43524,1,0,0:0:0:0:
192,192,43608,1,4,0:0:0:0:
64,192,43608,1,0,0:0:0:0:
448,192,43691,1,0,0:0:0:0:
320,192,43691,1,4,0:0:0:0:
192,192,43775,1,4,0:0:0:0:
64,192,43775,1,0,0:0:0:0:
320,192,43859,1,4,0:0:0:0:
448,192,43859,1,0,0:0:0:0:
192,192,43943,1,4,0:0:0:0:
64,192,43943,1,0,0:0:0:0:
192,192,44948,1,2,0:0:0:0:
320,192,44948,1,0,0:0:0:0:
64,192,45284,1,0,0:0:0:70:Cymbal.wav
320,192,45284,1,0,0:0:0:0:
448,192,45284,1,4,0:0:0:0:
192,192,45619,1,0,0:0:0:0:
448,192,45619,1,0,0:0:0:0:
64,192,45619,1,0,0:0:0:0:
64,192,45786,1,0,0:0:0:0:
192,192,45870,1,0,0:0:0:0:
320,192,45954,1,2,0:0:0:0:
448,192,45954,128,0,46289:0:0:0:0:
192,192,46122,1,0,0:0:0:0:
64,192,46122,128,0,46289:0:0:0:0:
320,192,46289,1,0,0:0:0:0:
192,192,46457,1,0,0:0:0:0:
64,192,46457,128,0,46792:0:0:0:0:
448,192,46624,128,4,46792:0:0:0:0:
320,192,46624,128,0,46792:0:0:0:0:
448,192,46960,1,0,0:0:0:0:
320,192,47001,1,0,0:0:0:0:
192,192,47043,1,0,0:0:0:0:
64,192,47085,1,0,0:0:0:0:
448,192,47127,1,0,0:0:0:0:
320,192,47169,1,0,0:0:0:0:
192,192,47211,1,4,0:0:0:0:
64,192,47211,1,0,0:0:0:0:
320,192,47295,1,2,0:0:0:0:
448,192,47295,1,0,0:0:0:0:
64,192,47379,1,0,0:0:0:0:
192,192,47462,1,0,0:0:0:0:
320,192,47546,1,0,0:0:0:0:
64,192,47630,128,0,47881:0:0:0:0:
448,192,47630,128,0,47881:0:0:0:0:
320,192,47965,128,4,48077:0:0:0:0:
448,192,47965,128,0,48077:0:0:0:0:
64,192,47965,1,0,0:0:0:0:
448,192,48133,128,0,48244:0:0:0:0:
320,192,48133,128,0,48244:0:0:0:0:
320,192,48300,128,0,48412:0:0:0:0:
448,192,48300,128,0,48412:0:0:0:0:
64,192,48468,1,0,0:0:0:0:
448,192,48468,1,0,0:0:0:0:
320,192,48552,1,0,0:0:0:0:
192,192,48552,1,0,0:0:0:0:
64,192,48635,128,2,48971:0:0:0:0:
448,192,48635,1,0,0:0:0:0:
320,192,48803,1,0,0:0:0:0:
448,192,48803,128,0,48971:0:0:0:0:
192,192,48971,1,0,0:0:0:0:
320,192,49138,1,0,0:0:0:0:
64,192,49222,1,0,0:0:0:0:
192,192,49222,1,4,0:0:0:0:
320,192,49306,1,4,0:0:0:0:
448,192,49306,1,0,0:0:0:0:
320,192,49473,1,4,0:0:0:0:
448,192,49473,1,0,0:0:0:0:
192,192,49641,1,2,0:0:0:0:
64,192,49641,1,0,0:0:0:0:
64,192,49809,1,0,0:0:0:0:
192,192,49809,1,4,0:0:0:0:
320,192,49892,1,4,0:0:0:0:
448,192,49892,1,0,0:0:0:0:
192,192,49976,1,2,0:0:0:0:
64,192,49976,1,0,0:0:0:0:
64,192,50144,1,0,0:0:0:0:
192,192,50144,1,2,0:0:0:0:
64,192,50311,1,0,0:0:0:0:
192,192,50311,1,2,0:0:0:0:
448,192,50647,1,0,0:0:0:70:Cymbal.wav
192,192,50647,1,4,0:0:0:0:
64,192,50647,1,0,0:0:0:0:
320,192,50982,1,0,0:0:0:0:
64,192,50982,1,0,0:0:0:0:
448,192,50982,1,0,0:0:0:0:
448,192,51149,1,0,0:0:0:0:
320,192,51233,1,0,0:0:0:0:
192,192,51317,1,2,0:0:0:0:
64,192,51317,128,0,51652:0:0:0:0:
320,192,51485,1,0,0:0:0:0:
448,192,51485,128,0,51652:0:0:0:0:
192,192,51652,1,0,0:0:0:0:
320,192,51820,1,0,0:0:0:0:
448,192,51820,128,0,52155:0:0:0:0:
64,192,51987,128,4,52155:0:0:0:0:
192,192,51987,128,0,52155:0:0:0:0:
64,192,52323,1,0,0:0:0:0:
192,192,52365,1,0,0:0:0:0:
320,192,52406,1,0,0:0:0:0:
448,192,52448,1,0,0:0:0:0:
64,192,52490,1,0,0:0:0:0:
192,192,52532,1,0,0:0:0:0:
320,192,52574,1,4,0:0:0:0:
448,192,52574,1,0,0:0:0:0:
192,192,52658,1,2,0:0:0:0:
64,192,52658,1,0,0:0:0:0:
448,192,52742,1,0,0:0:0:0:
320,192,52825,1,0,0:0:0:0:
192,192,52909,1,0,0:0:0:0:
64,192,52993,1,0,0:0:0:0:
448,192,52993,1,0,0:0:0:0:
192,192,53077,1,0,0:0:0:0:
320,192,53161,1,0,0:0:0:0:
448,192,53244,1,0,0:0:0:0:
64,192,53328,1,4,0:0:0:0:
192,192,53328,1,0,0:0:0:0:
64,192,53663,1,2,0:0:0:0:
320,192,53663,1,0,0:0:0:0:
448,192,53663,1,0,0:0:0:0:
320,192,53831,1,0,0:0:0:0:
64,192,53999,128,0,54110:0:0:0:0:
192,192,53999,1,0,0:0:0:0:
64,192,54166,128,0,54250:0:0:0:0:
448,192,54166,1,4,0:0:0:0:
192,192,54166,1,0,0:0:0:0:
64,192,54334,128,0,54418:0:0:0:0:
320,192,54334,1,2,0:0:0:0:
192,192,54334,1,0,0:0:0:0:
448,192,54501,128,0,54837:0:0:0:0:
64,192,54501,128,0,54837:0:0:0:0:
192,192,54837,1,4,0:0:0:0:
320,192,54837,1,0,0:0:0:0:
64,192,55004,1,0,0:0:0:0:
192,192,55004,1,2,0:0:0:0:
448,192,55004,1,0,0:0:0:0:
320,192,55172,128,0,55507:0:0:0:0:
192,192,55172,128,0,55507:0:0:0:0:
64,192,55507,1,4,0:0:0:0:
448,192,55507,1,0,0:0:0:0:
320,192,55675,128,2,55842:0:0:0:0:
448,192,55675,128,0,55842:0:0:0:0:
192,192,55842,128,0,55954:0:0:0:0:
64,192,55842,128,0,55954:0:0:0:0:
448,192,56010,1,0,0:0:0:70:Cymbal.wav
192,192,56010,1,4,0:0:0:0:
64,192,56010,1,0,0:0:0:0:
320,192,56345,1,0,0:0:0:0:
64,192,56345,1,0,0:0:0:0:
448,192,56345,1,0,0:0:0:0:
192,192,56513,1,0,0:0:0:0:
320,192,56596,1,0,0:0:0:0:
448,192,56680,1,2,0:0:0:0:
64,192,56680,128,0,57015:0:0:0:0:
320,192,56848,1,0,0:0:0:0:
448,192,56848,128,0,57015:0:0:0:0:
192,192,57015,1,0,0:0:0:0:
448,192,57183,128,0,57518:0:0:0:0:
320,192,57183,1,0,0:0:0:0:
64,192,57351,128,4,57518:0:0:0:0:
192,192,57351,128,0,57518:0:0:0:0:
64,192,57686,1,0,0:0:0:0:
192,192,57728,1,0,0:0:0:0:
448,192,57770,1,0,0:0:0:0:
320,192,57811,1,0,0:0:0:0:
192,192,57853,1,0,0:0:0:0:
64,192,57895,1,0,0:0:0:0:
448,192,57937,1,4,0:0:0:0:
320,192,57937,1,0,0:0:0:0:
64,192,58021,1,2,0:0:0:0:
192,192,58021,1,0,0:0:0:0:
448,192,58105,1,0,0:0:0:0:
320,192,58189,1,0,0:0:0:0:
192,192,58272,1,0,0:0:0:0:
448,192,58356,128,0,58608:0:0:0:0:
64,192,58356,128,0,58608:0:0:0:0:
64,192,58691,128,4,58803:0:0:0:0:
320,192,58691,1,0,0:0:0:0:
192,192,58691,128,0,58803:0:0:0:0:
192,192,58859,128,0,58971:0:0:0:0:
64,192,58859,128,0,58971:0:0:0:0:
64,192,59027,128,0,59138:0:0:0:0:
192,192,59027,128,0,59138:0:0:0:0:
448,192,59194,1,0,0:0:0:0:
64,192,59194,1,0,0:0:0:0:
192,192,59278,1,0,0:0:0:0:
320,192,59278,1,0,0:0:0:0:
448,192,59362,128,2,59697:0:0:0:0:
64,192,59362,1,0,0:0:0:0:
192,192,59529,1,0,0:0:0:0:
64,192,59529,128,0,59697:0:0:0:0:
320,192,59697,1,0,0:0:0:0:
192,192,59865,1,0,0:0:0:0:
448,192,59948,1,0,0:0:0:0:
320,192,59948,1,4,0:0:0:0:
192,192,60032,1,4,0:0:0:0:
64,192,60032,1,0,0:0:0:0:
192,192,60200,1,4,0:0:0:0:
64,192,60200,1,0,0:0:0:0:
320,192,60367,1,2,0:0:0:0:
448,192,60367,1,0,0:0:0:0:
320,192,60535,1,4,0:0:0:0:
448,192,60535,1,0,0:0:0:0:
192,192,60619,1,4,0:0:0:0:
64,192,60619,1,0,0:0:0:0:
320,192,60703,1,2,0:0:0:0:
448,192,60703,1,0,0:0:0:0:
448,192,60870,1,0,0:0:0:0:
320,192,60870,1,2,0:0:0:0:
448,192,61038,1,0,0:0:0:0:
320,192,61038,1,2,0:0:0:0:
320,192,61205,1,2,0:0:0:0:
448,192,61205,1,0,0:0:0:0:
64,192,61373,1,4,0:0:0:0:
192,192,61415,1,0,0:0:0:0:
320,192,61457,1,0,0:0:0:0:
448,192,61499,1,0,0:0:0:0:
64,192,61541,1,0,0:0:0:0:
192,192,61624,1,0,0:0:0:0:
320,192,61708,1,0,0:0:0:0:
448,192,61708,1,0,0:0:0:0:
192,192,61876,1,0,0:0:0:0:
320,192,61876,1,0,0:0:0:0:
448,192,62043,1,0,0:0:0:70:Cymbal.wav
192,192,62043,1,0,0:0:0:0:
64,192,62043,1,2,0:0:0:0:
320,192,62379,1,0,0:0:0:0:
448,192,62379,128,0,62714:0:0:0:0:
64,192,62714,1,4,0:0:0:0:
192,192,62714,128,0,63049:0:0:0:0:
320,192,63049,1,0,0:0:0:0:
448,192,63049,1,0,0:0:0:0:
192,192,63216,1,0,0:0:0:0:
320,192,63300,1,0,0:0:0:0:
448,192,63300,1,4,0:0:0:0:
192,192,63384,1,2,0:0:0:0:
64,192,63384,1,0,0:0:0:0:
320,192,63552,1,0,0:0:0:0:
448,192,63635,1,0,0:0:0:0:
192,192,63719,1,0,0:0:0:0:
64,192,63803,1,0,0:0:0:0:
448,192,63887,1,0,0:0:0:0:
192,192,63971,1,0,0:0:0:0:
64,192,64054,1,4,0:0:0:0:
320,192,64054,1,0,0:0:0:0:
448,192,64138,1,0,0:0:0:0:
192,192,64222,1,0,0:0:0:0:
320,192,64306,1,0,0:0:0:0:
448,192,64390,1,0,0:0:0:0:
64,192,64390,1,0,0:0:0:0:
320,192,64473,1,0,0:0:0:0:
64,192,64557,1,0,0:0:0:0:
192,192,64557,1,0,0:0:0:0:
448,192,64641,1,0,0:0:0:0:
320,192,64725,1,0,0:0:0:0:
64,192,64725,1,0,0:0:0:0:
192,192,64809,1,0,0:0:0:0:
448,192,64892,1,0,0:0:0:0:
320,192,64976,1,0,0:0:0:0:
192,192,65060,1,0,0:0:0:0:
64,192,65144,1,0,0:0:0:0:
448,192,65228,1,0,0:0:0:0:
320,192,65311,1,0,0:0:0:0:
448,192,65395,1,4,0:0:0:0:
192,192,65395,1,0,0:0:0:0:
64,192,65395,1,0,0:0:0:0:
192,192,65647,1,4,0:0:0:0:
64,192,65647,1,0,0:0:0:0:
448,192,65647,1,0,0:0:0:0:
448,192,65898,1,4,0:0:0:0:
320,192,65898,1,0,0:0:0:0:
192,192,65898,1,0,0:0:0:0:
320,192,66149,1,0,0:0:0:0:
192,192,66149,1,4,0:0:0:0:
448,192,66149,1,0,0:0:0:0:
64,192,66401,1,2,0:0:0:0:
192,192,66401,1,0,0:0:0:0:
320,192,66568,1,0,0:0:0:0:
192,192,66736,1,4,0:0:0:0:
64,192,66736,128,0,67323:0:0:0:0:
448,192,66736,1,0,0:0:0:0:
320,192,67071,128,0,67323:0:0:0:0:
64,192,67406,1,2,0:0:0:0:
320,192,67406,1,0,0:0:0:0:
448,192,67406,1,0,0:0:0:0:
320,192,67574,1,0,0:0:0:0:
64,192,67574,1,0,0:0:0:0:
64,192,67742,1,0,0:0:0:0:
320,192,67742,1,0,0:0:0:0:
448,192,67909,128,0,68580:0:0:0:0:
192,192,68077,1,4,0:0:0:0:
64,192,68077,1,0,0:0:0:0:
320,192,68244,128,0,68580:0:0:0:0:
192,192,68580,1,0,0:0:0:0:
320,192,68663,1,4,0:0:0:0:
448,192,68663,1,0,0:0:0:0:
192,192,68747,1,2,0:0:0:0:
64,192,68747,1,0,0:0:0:0:
320,192,68915,1,0,0:0:0:0:
64,192,69082,1,0,0:0:0:0:
192,192,69082,1,0,0:0:0:0:
192,192,69250,1,0,0:0:0:0:
64,192,69250,1,0,0:0:0:0:
320,192,69418,1,4,0:0:0:0:
448,192,69418,128,0,69753:0:0:0:0:
64,192,69418,1,0,0:0:0:0:
192,192,69753,128,0,70088:0:0:0:0:
320,192,69920,128,0,70088:0:0:0:0:
64,192,70088,128,2,70200:0:0:0:0:
448,192,70088,128,0,70200:0:0:0:0:
448,192,70256,128,0,70367:0:0:0:0:
64,192,70256,128,0,70367:0:0:0:0:
64,192,70423,128,0,70535:0:0:0:0:
448,192,70423,128,0,70535:0:0:0:0:
192,192,70591,1,0,0:0:0:0:
64,192,70591,1,0,0:0:0:0:
320,192,70675,1,4,0:0:0:0:
448,192,70675,1,0,0:0:0:0:
192,192,70758,1,4,0:0:0:0:
64,192,70758,1,0,0:0:0:0:
64,192,70926,1,0,0:0:0:0:
192,192,70926,1,4,0:0:0:0:
320,192,71094,1,2,0:0:0:0:
448,192,71094,1,0,0:0:0:0:
320,192,71261,1,4,0:0:0:0:
448,192,71261,1,0,0:0:0:0:
64,192,71345,1,0,0:0:0:0:
192,192,71345,1,4,0:0:0:0:
320,192,71429,1,2,0:0:0:0:
448,192,71429,1,0,0:0:0:0:
448,192,71596,1,0,0:0:0:0:
320,192,71596,1,2,0:0:0:0:
320,192,71764,1,2,0:0:0:0:
448,192,71764,1,0,0:0:0:0:
192,192,71932,1,0,0:0:0:0:
320,192,72099,1,4,0:0:0:0:
64,192,72099,128,0,72686:0:0:0:0:
448,192,72099,1,0,0:0:0:0:
192,192,72434,128,0,72686:0:0:0:0:
192,192,72770,1,2,0:0:0:0:
448,192,72770,1,0,0:0:0:0:
64,192,72770,128,0,73272:0:0:0:0:
320,192,72937,128,0,73272:0:0:0:0:
448,192,73272,128,0,73943:0:0:0:0:
192,192,73440,1,4,0:0:0:0:
64,192,73440,1,0,0:0:0:0:
320,192,73608,128,0,73943:0:0:0:0:
192,192,73943,1,0,0:0:0:0:
320,192,74027,1,4,0:0:0:0:
448,192,74027,1,0,0:0:0:0:
192,192,74110,1,2,0:0:0:0:
64,192,74110,1,0,0:0:0:0:
320,192,74278,1,0,0:0:0:0:
192,192,74446,1,0,0:0:0:0:
64,192,74446,128,0,74781:0:0:0:0:
448,192,74781,1,4,0:0:0:0:
320,192,74781,1,0,0:0:0:0:
192,192,74948,1,0,0:0:0:0:
64,192,75116,1,0,0:0:0:0:
320,192,75116,1,2,0:0:0:0:
448,192,75116,1,0,0:0:0:0:
192,192,75451,1,0,0:0:0:0:
64,192,75451,1,4,0:0:0:0:
320,192,75619,1,0,0:0:0:0:
64,192,75786,1,0,0:0:0:0:
192,192,75786,1,2,0:0:0:0:
448,192,75786,1,0,0:0:0:0:
320,192,76122,1,4,0:0:0:0:
448,192,76122,1,0,0:0:0:0:
64,192,76122,1,0,0:0:0:0:
192,192,76205,1,0,0:0:0:0:
320,192,76289,1,0,0:0:0:0:
192,192,76457,1,2,0:0:0:0:
64,192,76457,1,0,0:0:0:0:
448,192,76457,1,0,0:0:0:0:
320,192,76624,1,0,0:0:0:0:
192,192,76708,1,2,0:0:0:0:
320,192,76792,1,4,0:0:0:0:
448,192,76792,1,0,0:0:0:0:
192,192,76876,1,2,0:0:0:0:
64,192,76876,1,0,0:0:0:0:
320,192,76960,1,4,0:0:0:0:
448,192,76960,1,0,0:0:0:0:
192,192,77127,1,2,0:0:0:0:
64,192,77127,1,0,0:0:0:0:
320,192,77295,1,0,0:0:0:0:
192,192,77379,1,2,0:0:0:0:
64,192,77462,1,0,0:0:0:70:Cymbal.wav
320,192,77462,1,0,0:0:0:0:
448,192,77462,1,4,0:0:0:0:
192,192,77546,1,0,0:0:0:0:
320,192,77630,1,0,0:0:0:0:
448,192,77714,1,0,0:0:0:0:
192,192,77797,1,2,0:0:0:0:
64,192,77797,1,0,0:0:0:0:
448,192,77881,1,0,0:0:0:0:
320,192,77965,1,0,0:0:0:0:
64,192,78049,1,0,0:0:0:0:
192,192,78133,1,0,0:0:0:0:
320,192,78216,1,0,0:0:0:0:
64,192,78300,1,4,0:0:0:0:
192,192,78300,1,0,0:0:0:0:
448,192,78384,1,0,0:0:0:0:
320,192,78468,1,2,0:0:0:0:
64,192,78468,1,0,0:0:0:0:
192,192,78552,1,0,0:0:0:0:
320,192,78635,1,0,0:0:0:0:
448,192,78719,1,0,0:0:0:0:
192,192,78803,1,0,0:0:0:0:
448,192,78887,1,0,0:0:0:0:
320,192,78971,1,4,0:0:0:0:
64,192,78971,1,0,0:0:0:0:
192,192,79054,1,0,0:0:0:0:
64,192,79138,1,2,0:0:0:0:
448,192,79138,1,0,0:0:0:0:
320,192,79222,1,0,0:0:0:0:
64,192,79306,1,0,0:0:0:0:
192,192,79390,1,0,0:0:0:0:
320,192,79473,1,0,0:0:0:0:
192,192,79557,1,0,0:0:0:0:
64,192,79641,1,0,0:0:0:0:
448,192,79641,1,4,0:0:0:0:
320,192,79725,1,0,0:0:0:0:
64,192,79809,1,0,0:0:0:0:
192,192,79809,1,2,0:0:0:0:
448,192,79892,1,0,0:0:0:0:
192,192,79976,1,0,0:0:0:0:
320,192,80060,1,0,0:0:0:0:
192,192,80144,1,4,0:0:0:0:
64,192,80144,1,0,0:0:0:0:
448,192,80228,1,0,0:0:0:0:
320,192,80311,1,0,0:0:0:0:
64,192,80395,1,0,0:0:0:0:
192,192,80479,1,2,0:0:0:0:
448,192,80479,1,0,0:0:0:0:
320,192,80563,1,0,0:0:0:0:
192,192,80647,1,0,0:0:0:0:
64,192,80730,1,0,0:0:0:0:
320,192,80814,1,0,0:0:0:0:
64,192,80898,1,0,0:0:0:0:
192,192,80982,1,4,0:0:0:0:
448,192,80982,1,0,0:0:0:0:
320,192,81066,1,0,0:0:0:0:
448,192,81149,1,2,0:0:0:0:
64,192,81149,1,0,0:0:0:0:
192,192,81233,1,0,0:0:0:0:
448,192,81317,1,0,0:0:0:0:
320,192,81401,1,0,0:0:0:0:
192,192,81485,1,0,0:0:0:0:
448,192,81568,1,0,0:0:0:0:
320,192,81652,1,0,0:0:0:0:
192,192,81652,1,4,0:0:0:0:
64,192,81736,1,0,0:0:0:0:
192,192,81820,1,2,0:0:0:0:
448,192,81820,1,0,0:0:0:0:
320,192,81904,1,0,0:0:0:0:
64,192,81987,1,0,0:0:0:0:
192,192,82071,1,0,0:0:0:0:
320,192,82155,1,0,0:0:0:0:
192,192,82239,1,0,0:0:0:0:
64,192,82323,1,4,0:0:0:0:
448,192,82323,1,0,0:0:0:0:
320,192,82406,1,0,0:0:0:0:
192,192,82490,1,2,0:0:0:0:
64,192,82490,1,0,0:0:0:0:
448,192,82574,1,0,0:0:0:0:
320,192,82658,1,0,0:0:0:0:
192,192,82742,1,0,0:0:0:0:
448,192,82825,1,0,0:0:0:0:
64,192,82825,1,4,0:0:0:0:
320,192,82909,1,0,0:0:0:0:
192,192,82993,1,0,0:0:0:0:
448,192,83077,1,0,0:0:0:0:
320,192,83161,1,2,0:0:0:0:
64,192,83161,1,0,0:0:0:0:
192,192,83244,1,0,0:0:0:0:
320,192,83328,1,0,0:0:0:0:
448,192,83412,1,0,0:0:0:0:
192,192,83496,1,0,0:0:0:0:
448,192,83580,1,0,0:0:0:0:
320,192,83663,1,4,0:0:0:0:
64,192,83663,1,0,0:0:0:0:
192,192,83747,1,0,0:0:0:0:
448,192,83831,1,2,0:0:0:0:
64,192,83831,1,0,0:0:0:0:
320,192,83915,1,0,0:0:0:0:
64,192,83999,1,0,0:0:0:0:
192,192,84082,1,0,0:0:0:0:
320,192,84166,1,0,0:0:0:0:
192,192,84250,1,0,0:0:0:0:
64,192,84334,1,0,0:0:0:0:
320,192,84334,1,4,0:0:0:0:
448,192,84418,1,0,0:0:0:0:
192,192,84501,1,0,0:0:0:0:
64,192,84501,1,2,0:0:0:0:
320,192,84585,1,0,0:0:0:0:
448,192,84669,1,0,0:0:0:0:
64,192,84753,1,0,0:0:0:0:
192,192,84837,1,0,0:0:0:0:
448,192,84920,1,0,0:0:0:0:
320,192,85004,1,4,0:0:0:0:
64,192,85004,1,0,0:0:0:0:
192,192,85088,1,0,0:0:0:0:
320,192,85172,1,0,0:0:0:0:
448,192,85172,1,2,0:0:0:0:
64,192,85256,1,0,0:0:0:0:
192,192,85339,1,0,0:0:0:0:
320,192,85423,1,0,0:0:0:0:
64,192,85507,1,4,0:0:0:0:
448,192,85507,1,0,0:0:0:0:
448,192,85675,1,0,0:0:0:0:
64,192,85675,1,4,0:0:0:0:
192,192,85842,1,0,0:0:0:0:
320,192,85926,1,2,0:0:0:0:
448,192,85926,1,0,0:0:0:0:
192,192,86010,1,4,0:0:0:0:
64,192,86010,1,0,0:0:0:0:
320,192,86177,1,2,0:0:0:0:
448,192,86177,1,0,0:0:0:0:
320,192,86345,1,4,0:0:0:0:
192,192,86345,1,0,0:0:0:0:
448,192,86513,1,2,0:0:0:0:
64,192,86513,1,0,0:0:0:0:
320,192,86596,1,2,0:0:0:0:
192,192,86596,1,0,0:0:0:0:
448,192,86680,1,2,0:0:0:0:
64,192,86680,1,0,0:0:0:0:
320,192,86764,1,2,0:0:0:0:
192,192,86764,1,0,0:0:0:0:
448,192,86932,1,0,0:0:0:0:
64,192,86932,1,4,0:0:0:0:
192,192,86932,1,0,0:0:0:0:
320,192,87183,1,4,0:0:0:0:
192,192,87183,1,0,0:0:0:0:
448,192,87183,1,0,0:0:0:0:
320,192,87351,1,4,0:0:0:0:
192,192,87351,1,0,0:0:0:0:
64,192,87351,1,0,0:0:0:0:
64,192,87518,1,2,0:0:0:0:
448,192,87518,1,0,0:0:0:0:
192,192,87686,1,0,0:0:0:0:
448,192,87853,1,0,0:0:0:0:
320,192,88021,1,0,0:0:0:0:
448,192,88189,128,0,88691:0:0:0:70:Cymbal.wav
192,192,88189,128,0,88775:0:0:0:0:
64,192,88189,128,4,88859:0:0:0:0:
320,192,88859,1,2,0:0:0:0:
448,192,88859,1,0,0:0:0:0:
64,192,88943,1,0,0:0:0:0:
192,192,89027,1,0,0:0:0:0:
448,192,89027,1,0,0:0:0:0:
320,192,89110,1,0,0:0:0:0:
64,192,89194,1,0,0:0:0:0:
192,192,89194,1,0,0:0:0:0:
448,192,89362,1,2,0:0:0:0:
320,192,89362,1,0,0:0:0:0:
192,192,89697,1,4,0:0:0:0:
320,192,89697,1,0,0:0:0:0:
64,192,89865,128,2,90200:0:0:0:0:
448,192,89865,128,0,90200:0:0:0:0:
320,192,89865,1,0,0:0:0:0:
320,192,90200,1,4,0:0:0:0:
192,192,90200,1,0,0:0:0:0:
64,192,90367,128,2,90619:0:0:0:0:
448,192,90367,128,0,90619:0:0:0:0:
192,192,90367,1,0,0:0:0:0:
448,192,90703,128,4,91038:0:0:0:0:
320,192,90703,128,0,91038:0:0:0:0:
64,192,90703,1,0,0:0:0:0:
64,192,91038,1,0,0:0:0:0:
192,192,91038,1,4,0:0:0:0:
320,192,91205,1,4,0:0:0:0:
448,192,91205,1,0,0:0:0:0:
64,192,91373,1,4,0:0:0:0:
192,192,91373,1,0,0:0:0:0:
320,192,91541,1,2,0:0:0:0:
64,192,91541,128,0,91792:0:0:0:0:
448,192,91541,128,0,91792:0:0:0:0:
192,192,91792,1,0,0:0:0:0:
64,192,92043,1,4,0:0:0:0:
320,192,92043,1,0,0:0:0:0:
448,192,92043,128,0,92379:0:0:0:0:
64,192,92379,1,4,0:0:0:0:
192,192,92420,1,0,0:0:0:0:
320,192,92462,1,0,0:0:0:0:
448,192,92504,1,0,0:0:0:0:
64,192,92546,1,2,0:0:0:0:
448,192,92630,1,0,0:0:0:0:
320,192,92714,1,4,0:0:0:0:
192,192,92797,1,4,0:0:0:0:
64,192,92881,1,2,0:0:0:0:
320,192,92881,1,0,0:0:0:0:
448,192,92881,1,0,0:0:0:0:
192,192,93133,1,2,0:0:0:0:
320,192,93133,1,0,0:0:0:0:
64,192,93133,1,0,0:0:0:0:
320,192,93384,1,4,0:0:0:0:
64,192,93384,128,0,93803:0:0:0:0:
448,192,93384,128,0,93887:0:0:0:0:
64,192,93887,1,0,0:0:0:0:
192,192,93887,1,4,0:0:0:0:
320,192,93971,1,4,0:0:0:0:
448,192,93971,1,0,0:0:0:0:
192,192,94054,1,4,0:0:0:0:
64,192,94054,1,0,0:0:0:0:
320,192,94138,1,4,0:0:0:0:
64,192,94222,1,0,0:0:0:70:Cymbal.wav
448,192,94222,128,0,94557:0:0:0:0:
192,192,94222,1,4,0:0:0:0:
192,192,94557,128,0,94725:0:0:0:0:
320,192,94725,1,4,0:0:0:0:
64,192,94725,128,0,95060:0:0:0:0:
448,192,94725,128,0,95060:0:0:0:0:
192,192,95060,1,4,0:0:0:0:
320,192,95060,1,0,0:0:0:0:
64,192,95228,1,4,0:0:0:0:
192,192,95228,1,0,0:0:0:0:
320,192,95311,1,0,0:0:0:0:
448,192,95395,1,0,0:0:0:0:
64,192,95395,1,0,0:0:0:0:
320,192,95563,1,0,0:0:0:0:
192,192,95563,1,2,0:0:0:0:
64,192,95898,1,2,0:0:0:0:
448,192,95898,1,0,0:0:0:0:
64,192,96066,1,2,0:0:0:0:
192,192,96066,1,0,0:0:0:0:
448,192,96149,1,2,0:0:0:0:
320,192,96149,1,0,0:0:0:0:
192,192,96233,1,4,0:0:0:0:
64,192,96233,128,0,97574:0:0:0:0:
320,192,96485,1,0,0:0:0:0:
448,192,96736,1,0,0:0:0:0:
192,192,96904,1,2,0:0:0:0:
320,192,96904,1,0,0:0:0:0:
192,192,97071,1,0,0:0:0:0:
448,192,97071,1,4,0:0:0:0:
448,192,97239,1,4,0:0:0:0:
320,192,97239,1,0,0:0:0:0:
192,192,97323,1,0,0:0:0:0:
320,192,97406,1,0,0:0:0:0:
448,192,97490,1,0,0:0:0:0:
192,192,97574,1,2,0:0:0:0:
320,192,97574,1,0,0:0:0:0:
64,192,97742,1,4,0:0:0:0:
448,192,97742,1,0,0:0:0:0:
320,192,97909,1,2,0:0:0:0:
192,192,97909,1,0,0:0:0:0:
64,192,98077,1,4,0:0:0:0:
448,192,98077,1,0,0:0:0:0:
192,192,98244,1,2,0:0:0:0:
320,192,98244,1,0,0:0:0:0:
64,192,98328,1,0,0:0:0:0:
448,192,98412,1,0,0:0:0:0:
320,192,98496,1,0,0:0:0:0:
64,192,98496,1,0,0:0:0:0:
192,192,98580,1,0,0:0:0:0:
320,192,98663,1,0,0:0:0:0:
192,192,98831,1,0,0:0:0:0:
64,192,98915,1,4,0:0:0:0:
448,192,98915,128,0,99250:0:0:0:0:
192,192,99082,128,0,99250:0:0:0:0:
64,192,99250,1,2,0:0:0:0:
320,192,99418,128,0,99585:0:0:0:0:
64,192,99585,1,2,0:0:0:0:
192,192,99585,1,0,0:0:0:0:
448,192,99585,1,0,0:0:0:0:
320,192,99753,1,0,0:0:0:0:
64,192,99920,1,0,0:0:0:0:
192,192,100088,1,4,0:0:0:0:
320,192,100088,128,0,100339:0:0:0:0:
448,192,100088,128,0,100339:0:0:0:0:
64,192,100423,1,0,0:0:0:0:
320,192,100423,1,4,0:0:0:0:
448,192,100423,1,0,0:0:0:0:
192,192,100591,1,0,0:0:0:0:
320,192,100675,1,0,0:0:0:0:
64,192,100758,1,4,0:0:0:0:
448,192,100758,1,0,0:0:0:0:
192,192,100842,1,4,0:0:0:0:
448,192,100926,1,2,0:0:0:0:
320,192,100968,1,0,0:0:0:0:
192,192,101010,1,0,0:0:0:0:
64,192,101052,1,0,0:0:0:0:
448,192,101094,1,0,0:0:0:0:
192,192,101177,1,2,0:0:0:0:
64,192,101177,1,0,0:0:0:0:
64,192,101429,1,2,0:0:0:0:
448,192,101429,1,0,0:0:0:0:
192,192,101471,1,0,0:0:0:0:
320,192,101513,1,0,0:0:0:0:
64,192,101596,1,0,0:0:0:0:
192,192,101596,1,0,0:0:0:0:
320,192,101680,1,0,0:0:0:0:
64,192,101764,1,0,0:0:0:0:
320,192,101848,1,0,0:0:0:0:
64,192,101932,128,4,102183:0:0:0:70:Cymbal.wav
448,192,101932,128,4,102183:0:0:0:0:
448,192,102267,1,2,0:0:0:0:
64,192,102267,1,0,0:0:0:0:
192,192,102351,1,0,0:0:0:0:
448,192,102434,1,0,0:0:0:0:
320,192,102434,1,0,0:0:0:0:
64,192,102518,1,2,0:0:0:0:
192,192,102602,1,0,0:0:0:0:
448,192,102602,1,0,0:0:0:0:
320,192,102770,1,0,0:0:0:0:
192,192,102853,1,4,0:0:0:0:
64,192,102853,1,0,0:0:0:0:
320,192,102937,1,4,0:0:0:0:
448,192,102937,1,0,0:0:0:0:
320,192,103105,1,4,0:0:0:0:
448,192,103105,1,0,0:0:0:0:
192,192,103272,1,2,0:0:0:0:
64,192,103272,1,0,0:0:0:0:
64,192,103440,1,4,0:0:0:0:
192,192,103440,1,0,0:0:0:0:
448,192,103524,1,4,0:0:0:0:
320,192,103524,1,0,0:0:0:0:
192,192,103608,1,2,0:0:0:0:
64,192,103608,128,0,103943:0:0:0:0:
320,192,103943,1,0,0:0:0:0:
448,192,103943,128,0,104194:0:0:0:0:
192,192,104278,1,4,0:0:0:0:
64,192,104278,128,0,104529:0:0:0:0:
448,192,104278,128,0,104529:0:0:0:0:
320,192,104613,1,4,0:0:0:70:Cymbal.wav
64,192,104613,128,2,104948:0:0:0:0:
448,192,104613,128,4,104948:0:0:0:0:
192,192,104948,1,0,0:0:0:0:
320,192,104948,1,2,0:0:0:0:
448,192,105032,1,0,0:0:0:0:
64,192,105116,1,0,0:0:0:0:
192,192,105200,1,0,0:0:0:0:
448,192,105284,1,0,0:0:0:0:
320,192,105284,1,0,0:0:0:0:
192,192,105451,1,4,0:0:0:0:
448,192,105451,128,0,105703:0:0:0:0:
64,192,105451,128,0,105703:0:0:0:0:
192,192,105786,1,4,0:0:0:0:
64,192,105786,1,0,0:0:0:0:
448,192,105786,1,0,0:0:0:0:
320,192,105954,1,4,0:0:0:0:
448,192,105954,1,0,0:0:0:0:
64,192,106038,1,0,0:0:0:0:
192,192,106122,1,0,0:0:0:0:
320,192,106122,1,0,0:0:0:0:
192,192,106289,1,2,0:0:0:0:
64,192,106289,128,0,106876:0:0:0:0:
320,192,106624,1,0,0:0:0:0:
448,192,106624,128,0,106876:0:0:0:0:
192,192,106960,1,2,0:0:0:0:
64,192,106960,1,4,0:0:0:0:
448,192,106960,1,0,0:0:0:0:
320,192,107127,1,4,0:0:0:0:
64,192,107127,1,0,0:0:0:0:
320,192,107295,1,4,0:0:0:0:
448,192,107295,1,2,0:0:0:0:
192,192,107295,1,0,0:0:0:0:
64,192,107462,1,4,0:0:0:0:
192,192,107462,1,0,0:0:0:0:
320,192,107630,1,2,0:0:0:0:
448,192,107630,1,4,0:0:0:0:
64,192,107630,1,0,0:0:0:0:
320,192,107797,1,4,0:0:0:0:
192,192,107797,1,0,0:0:0:0:
192,192,107965,1,4,0:0:0:0:
64,192,107965,1,2,0:0:0:0:
448,192,107965,1,0,0:0:0:0:
448,192,108133,1,4,0:0:0:0:
320,192,108133,1,0,0:0:0:0:
64,192,108300,1,2,0:0:0:0:
192,192,108300,1,4,0:0:0:0:
320,192,108384,1,4,0:0:0:0:
448,192,108384,1,0,0:0:0:0:
192,192,108635,5,4,0:0:0:0:
320,192,108635,1,0,0:0:0:0:
64,192,108803,1,0,0:0:0:0:
192,192,108803,1,4,0:0:0:0:
192,192,108971,1,2,0:0:0:0:
64,192,108971,128,0,109557:0:0:0:0:
320,192,109306,128,0,109557:0:0:0:0:
448,192,109306,128,0,109557:0:0:0:0:
64,192,109641,128,0,109892:0:0:0:70:Cymbal.wav
320,192,109641,128,0,109892:0:0:0:0:
448,192,109641,1,4,0:0:0:0:
64,192,109976,1,0,0:0:0:0:
320,192,109976,1,0,0:0:0:0:
64,192,110144,1,0,0:0:0:0:
320,192,110144,1,0,0:0:0:0:
64,192,110311,1,0,0:0:0:0:
320,192,110311,1,0,0:0:0:0:
64,192,110479,1,0,0:0:0:0:
320,192,110479,1,0,0:0:0:0:
64,192,110647,1,0,0:0:0:0:
320,192,110647,1,0,0:0:0:0:
64,192,110814,1,0,0:0:0:0:
320,192,110814,1,0,0:0:0:0:
64,192,110982,1,0,0:0:0:0:
320,192,110982,1,0,0:0:0:0:
64,192,111149,1,0,0:0:0:0:
320,192,111149,1,0,0:0:0:0:
64,192,111317,1,0,0:0:0:0:
320,192,111317,1,0,0:0:0:0:
64,192,111485,1,0,0:0:0:0:
320,192,111485,1,0,0:0:0:0:
64,192,111652,1,0,0:0:0:0:
320,192,111652,1,0,0:0:0:0:
64,192,111820,1,0,0:0:0:0:
320,192,111820,1,0,0:0:0:0:
64,192,111987,1,0,0:0:0:0:
192,192,112029,1,0,0:0:0:0:
448,192,112071,1,0,0:0:0:0:
320,192,112113,1,0,0:0:0:0:
64,192,112155,1,0,0:0:0:0:
192,192,112197,1,0,0:0:0:0:
448,192,112239,1,0,0:0:0:0:
320,192,112281,1,0,0:0:0:0:
192,192,112323,1,0,0:0:0:70:Cymbal.wav
64,192,112323,1,4,0:0:0:0:
192,192,112490,1,0,0:0:0:0:
320,192,112658,1,2,0:0:0:0:
448,192,112658,1,0,0:0:0:0:
64,192,112658,1,0,0:0:0:0:
192,192,112825,1,0,0:0:0:0:
320,192,112909,1,0,0:0:0:0:
448,192,112993,1,0,0:0:0:0:
64,192,113077,1,0,0:0:0:0:
192,192,113161,1,4,0:0:0:0:
448,192,113161,1,0,0:0:0:0:
448,192,113328,1,0,0:0:0:0:
320,192,113328,1,2,0:0:0:0:
64,192,113328,1,0,0:0:0:0:
192,192,113496,1,0,0:0:0:0:
320,192,113580,1,0,0:0:0:0:
448,192,113663,1,0,0:0:0:0:
64,192,113663,1,0,0:0:0:0:
192,192,113747,1,0,0:0:0:0:
320,192,113831,1,4,0:0:0:0:
448,192,113831,1,0,0:0:0:0:
320,192,113999,1,2,0:0:0:0:
192,192,113999,1,0,0:0:0:0:
64,192,113999,1,0,0:0:0:0:
448,192,114166,1,0,0:0:0:0:
320,192,114250,1,0,0:0:0:0:
64,192,114334,1,0,0:0:0:0:
192,192,114334,1,0,0:0:0:0:
320,192,114501,1,4,0:0:0:0:
448,192,114501,1,0,0:0:0:0:
448,192,114669,1,2,0:0:0:0:
192,192,114669,1,0,0:0:0:0:
64,192,114669,1,0,0:0:0:0:
320,192,114837,1,0,0:0:0:0:
448,192,115004,1,4,0:0:0:0:
192,192,115004,1,0,0:0:0:0:
64,192,115004,1,0,0:0:0:0:
320,192,115172,1,0,0:0:0:0:
192,192,115214,1,0,0:0:0:0:
64,192,115256,1,0,0:0:0:0:
320,192,115339,1,2,0:0:0:0:
448,192,115339,1,0,0:0:0:0:
192,192,115507,1,0,0:0:0:0:
448,192,115675,1,0,0:0:0:0:
320,192,115758,1,0,0:0:0:0:
64,192,115842,1,0,0:0:0:0:
192,192,115842,1,4,0:0:0:0:
448,192,116010,1,0,0:0:0:0:
320,192,116010,1,2,0:0:0:0:
192,192,116010,1,0,0:0:0:0:
64,192,116177,1,0,0:0:0:0:
192,192,116261,1,0,0:0:0:0:
320,192,116345,1,0,0:0:0:0:
448,192,116345,1,0,0:0:0:0:
192,192,116513,1,4,0:0:0:0:
64,192,116513,1,0,0:0:0:0:
320,192,116680,1,2,0:0:0:0:
448,192,116680,1,0,0:0:0:0:
64,192,116680,1,0,0:0:0:0:
192,192,116848,1,0,0:0:0:0:
320,192,116932,1,0,0:0:0:0:
448,192,117015,128,0,117267:0:0:0:0:
64,192,117015,128,0,117267:0:0:0:0:
192,192,117183,1,4,0:0:0:0:
448,192,117351,128,2,117602:0:0:0:0:
64,192,117351,128,0,117602:0:0:0:0:
320,192,117351,1,0,0:0:0:0:
64,192,117686,1,0,0:0:0:70:Cymbal.wav
320,192,117686,1,2,0:0:0:0:
448,192,117686,1,4,0:0:0:0:
320,192,117853,1,4,0:0:0:0:
192,192,118021,1,4,0:0:0:0:
64,192,118021,1,2,0:0:0:0:
448,192,118021,1,0,0:0:0:0:
192,192,118189,1,4,0:0:0:0:
320,192,118356,1,4,0:0:0:0:
448,192,118356,1,2,0:0:0:0:
64,192,118356,1,0,0:0:0:0:
320,192,118524,1,4,0:0:0:0:
448,192,118691,1,0,0:0:0:0:
192,192,118691,1,4,0:0:0:0:
64,192,118691,1,2,0:0:0:0:
192,192,118859,1,4,0:0:0:0:
64,192,119027,1,4,0:0:0:0:
320,192,119027,1,2,0:0:0:0:
448,192,119027,1,0,0:0:0:0:
448,192,119194,1,4,0:0:0:0:
320,192,119362,1,4,0:0:0:0:
192,192,119362,1,2,0:0:0:0:
64,192,119362,1,0,0:0:0:0:
64,192,119529,1,4,0:0:0:0:
192,192,119697,1,4,0:0:0:0:
320,192,119697,1,2,0:0:0:0:
448,192,119697,1,0,0:0:0:0:
448,192,119865,1,4,0:0:0:0:
320,192,120032,1,2,0:0:0:0:
192,192,120032,1,4,0:0:0:0:
64,192,120032,1,0,0:0:0:0:
64,192,120200,1,4,0:0:0:0:
448,192,120367,1,0,0:0:0:0:
320,192,120367,1,4,0:0:0:0:
192,192,120451,1,4,0:0:0:0:
448,192,120535,1,0,0:0:0:0:
320,192,120535,1,4,0:0:0:0:
192,192,120619,1,4,0:0:0:0:
320,192,120703,1,4,0:0:0:0:
448,192,120703,1,0,0:0:0:0:
192,192,120786,1,4,0:0:0:0:
320,192,120870,1,4,0:0:0:0:
448,192,120870,1,0,0:0:0:0:
192,192,120954,1,4,0:0:0:0:
320,192,121038,1,4,0:0:0:0:
448,192,121038,1,0,0:0:0:0:
192,192,121122,1,4,0:0:0:0:
64,192,121122,1,0,0:0:0:0:
320,192,121205,1,4,0:0:0:0:
448,192,121205,1,0,0:0:0:0:
192,192,121289,1,4,0:0:0:0:
64,192,121289,1,0,0:0:0:0:
320,192,121373,1,4,0:0:0:0:
448,192,121373,1,0,0:0:0:0:
64,192,121457,1,0,0:0:0:0:
192,192,121457,1,4,0:0:0:0:
320,192,121541,1,4,0:0:0:0:
448,192,121541,1,0,0:0:0:0:
192,192,121624,1,4,0:0:0:0:
64,192,121624,1,0,0:0:0:0:
320,192,121708,1,4,0:0:0:0:
448,192,121708,1,0,0:0:0:0:
192,192,122714,1,2,0:0:0:0:
320,192,122714,1,0,0:0:0:0:
448,192,123049,1,0,0:0:0:70:Cymbal.wav
192,192,123049,1,0,0:0:0:0:
64,192,123049,1,4,0:0:0:0:
320,192,123384,1,0,0:0:0:0:
448,192,123384,1,0,0:0:0:0:
64,192,123552,1,0,0:0:0:0:
192,192,123552,1,0,0:0:0:0:
320,192,123635,1,0,0:0:0:0:
448,192,123719,1,2,0:0:0:0:
64,192,123719,1,0,0:0:0:0:
192,192,123803,1,0,0:0:0:0:
448,192,123887,1,0,0:0:0:0:
320,192,123887,1,0,0:0:0:0:
64,192,123971,1,0,0:0:0:0:
192,192,124054,1,4,0:0:0:0:
320,192,124054,1,0,0:0:0:0:
448,192,124138,1,0,0:0:0:0:
64,192,124222,1,0,0:0:0:0:
192,192,124222,1,0,0:0:0:0:
320,192,124306,1,0,0:0:0:0:
192,192,124390,1,0,0:0:0:0:
64,192,124390,128,0,124473:0:0:0:0:
448,192,124473,1,0,0:0:0:0:
192,192,124557,1,4,0:0:0:0:
64,192,124557,128,0,124641:0:0:0:0:
448,192,124641,1,0,0:0:0:0:
192,192,124725,1,4,0:0:0:0:
64,192,124725,128,0,124809:0:0:0:0:
448,192,124809,1,0,0:0:0:0:
192,192,124892,1,0,0:0:0:0:
64,192,124892,128,0,124976:0:0:0:0:
448,192,124976,1,0,0:0:0:0:
192,192,125060,1,2,0:0:0:0:
64,192,125060,128,0,125144:0:0:0:0:
448,192,125144,1,0,0:0:0:0:
64,192,125228,1,0,0:0:0:0:
192,192,125228,1,0,0:0:0:0:
448,192,125311,1,0,0:0:0:0:
320,192,125395,1,0,0:0:0:0:
64,192,125395,1,0,0:0:0:0:
192,192,125479,1,0,0:0:0:0:
64,192,125563,1,0,0:0:0:0:
448,192,125563,1,0,0:0:0:0:
320,192,125647,1,0,0:0:0:0:
64,192,125730,1,0,0:0:0:0:
192,192,125730,1,4,0:0:0:0:
320,192,125814,1,0,0:0:0:0:
448,192,125898,1,0,0:0:0:0:
192,192,125982,1,0,0:0:0:0:
320,192,126066,1,0,0:0:0:0:
64,192,126066,1,0,0:0:0:0:
448,192,126149,1,0,0:0:0:0:
192,192,126233,1,0,0:0:0:0:
64,192,126317,1,0,0:0:0:0:
320,192,126401,1,2,0:0:0:0:
448,192,126401,1,0,0:0:0:0:
192,192,126485,1,0,0:0:0:0:
448,192,126568,1,4,0:0:0:0:
64,192,126568,1,0,0:0:0:0:
320,192,126652,1,0,0:0:0:0:
192,192,126736,1,4,0:0:0:0:
64,192,126736,1,0,0:0:0:0:
320,192,126820,1,0,0:0:0:0:
64,192,126904,1,0,0:0:0:0:
448,192,126904,1,0,0:0:0:0:
192,192,126987,1,0,0:0:0:0:
320,192,127071,1,0,0:0:0:0:
448,192,127071,1,0,0:0:0:0:
192,192,127155,1,0,0:0:0:0:
64,192,127239,1,4,0:0:0:0:
320,192,127239,1,0,0:0:0:0:
448,192,127323,1,0,0:0:0:0:
64,192,127406,1,2,0:0:0:0:
192,192,127406,1,0,0:0:0:0:
320,192,127490,1,0,0:0:0:0:
192,192,127574,1,4,0:0:0:0:
64,192,127574,1,0,0:0:0:0:
320,192,127658,1,4,0:0:0:0:
448,192,127658,1,0,0:0:0:0:
192,192,127742,1,2,0:0:0:0:
64,192,127742,1,0,0:0:0:0:
320,192,127909,1,2,0:0:0:0:
448,192,127909,1,0,0:0:0:0:
192,192,128077,1,2,0:0:0:0:
64,192,128077,1,0,0:0:0:0:
64,192,128412,1,0,0:0:0:70:Cymbal.wav
320,192,128412,1,4,0:0:0:0:
448,192,128412,1,0,0:0:0:0:
192,192,128747,1,0,0:0:0:0:
64,192,128747,1,0,0:0:0:0:
320,192,128915,1,0,0:0:0:0:
448,192,128915,1,0,0:0:0:0:
192,192,128999,1,0,0:0:0:0:
448,192,129082,1,2,0:0:0:0:
64,192,129082,1,0,0:0:0:0:
320,192,129166,1,0,0:0:0:0:
192,192,129250,1,0,0:0:0:0:
64,192,129250,1,0,0:0:0:0:
448,192,129334,1,0,0:0:0:0:
320,192,129418,1,0,0:0:0:0:
192,192,129418,1,4,0:0:0:0:
64,192,129501,1,0,0:0:0:0:
320,192,129585,1,0,0:0:0:0:
448,192,129585,1,0,0:0:0:0:
192,192,129669,1,0,0:0:0:0:
448,192,129753,128,0,129837:0:0:0:0:
320,192,129753,1,0,0:0:0:0:
64,192,129837,1,0,0:0:0:0:
448,192,129920,128,4,130004:0:0:0:0:
320,192,129920,1,0,0:0:0:0:
64,192,130004,1,0,0:0:0:0:
448,192,130088,128,4,130172:0:0:0:0:
320,192,130088,1,0,0:0:0:0:
64,192,130172,1,0,0:0:0:0:
320,192,130256,1,0,0:0:0:0:
448,192,130256,128,0,130339:0:0:0:0:
64,192,130339,1,0,0:0:0:0:
448,192,130423,128,0,130507:0:0:0:0:
320,192,130423,1,2,0:0:0:0:
64,192,130507,1,0,0:0:0:0:
320,192,130591,1,0,0:0:0:0:
448,192,130591,1,0,0:0:0:0:
192,192,130675,1,0,0:0:0:0:
448,192,130758,1,0,0:0:0:0:
64,192,130758,1,0,0:0:0:0:
320,192,130842,1,0,0:0:0:0:
448,192,130926,1,0,0:0:0:0:
192,192,130926,1,0,0:0:0:0:
320,192,131010,1,0,0:0:0:0:
192,192,131094,1,4,0:0:0:0:
64,192,131094,128,0,131429:0:0:0:0:
448,192,131429,128,0,131764:0:0:0:0:
320,192,131596,128,0,131764:0:0:0:0:
64,192,131764,1,2,0:0:0:0:
192,192,131764,1,0,0:0:0:0:
448,192,131932,128,0,132267:0:0:0:0:
192,192,132099,128,0,132267:0:0:0:0:
320,192,132267,1,4,0:0:0:0:
64,192,132267,128,0,132602:0:0:0:0:
448,192,132602,128,4,132770:0:0:0:0:
320,192,132602,1,0,0:0:0:0:
192,192,132770,1,0,0:0:0:0:
320,192,132937,1,4,0:0:0:0:
448,192,132937,1,0,0:0:0:0:
192,192,133021,1,4,0:0:0:0:
64,192,133021,1,0,0:0:0:0:
320,192,133105,1,2,0:0:0:0:
448,192,133105,1,0,0:0:0:0:
64,192,133272,1,4,0:0:0:0:
192,192,133272,1,0,0:0:0:0:
320,192,133356,1,2,0:0:0:0:
448,192,133356,1,0,0:0:0:0:
64,192,133524,1,4,0:0:0:0:
192,192,133524,1,0,0:0:0:0:
320,192,133608,1,2,0:0:0:0:
448,192,133608,1,0,0:0:0:0:
192,192,133691,1,4,0:0:0:0:
64,192,133775,1,2,0:0:0:0:
320,192,133775,1,0,0:0:0:0:
448,192,133775,128,0,133859:0:0:0:0:
192,192,133943,1,0,0:0:0:0:
320,192,133943,128,0,134027:0:0:0:0:
64,192,134110,1,0,0:0:0:0:
192,192,134110,128,0,134194:0:0:0:0:
448,192,134278,1,0,0:0:0:0:
64,192,134278,128,0,134362:0:0:0:0:
320,192,134446,1,2,0:0:0:0:
448,192,134446,1,0,0:0:0:0:
64,192,134529,1,0,0:0:0:0:
192,192,134613,1,0,0:0:0:0:
448,192,134613,1,0,0:0:0:0:
320,192,134697,1,0,0:0:0:0:
64,192,134781,1,4,0:0:0:0:
192,192,134781,1,0,0:0:0:0:
448,192,134865,1,0,0:0:0:0:
64,192,134948,1,0,0:0:0:0:
320,192,134948,1,0,0:0:0:0:
192,192,135032,1,0,0:0:0:0:
448,192,135116,128,0,135200:0:0:0:0:
320,192,135116,128,0,135200:0:0:0:0:
64,192,135200,1,0,0:0:0:0:
448,192,135284,128,4,135367:0:0:0:0:
320,192,135284,128,0,135367:0:0:0:0:
64,192,135367,1,0,0:0:0:0:
448,192,135451,128,4,135535:0:0:0:0:
320,192,135451,128,0,135535:0:0:0:0:
64,192,135535,1,0,0:0:0:0:
448,192,135619,128,0,135703:0:0:0:0:
320,192,135619,128,0,135703:0:0:0:0:
64,192,135703,1,0,0:0:0:0:
448,192,135786,128,2,135870:0:0:0:0:
320,192,135786,128,0,135870:0:0:0:0:
64,192,135870,1,0,0:0:0:0:
448,192,135954,1,0,0:0:0:0:
320,192,135954,1,0,0:0:0:0:
64,192,136038,1,0,0:0:0:0:
192,192,136122,1,0,0:0:0:0:
448,192,136122,1,0,0:0:0:0:
320,192,136205,1,0,0:0:0:0:
448,192,136289,1,0,0:0:0:0:
64,192,136289,1,0,0:0:0:0:
192,192,136373,1,0,0:0:0:0:
448,192,136457,1,0,0:0:0:0:
320,192,136457,1,4,0:0:0:0:
192,192,136541,1,0,0:0:0:0:
64,192,136624,1,0,0:0:0:0:
320,192,136708,1,0,0:0:0:0:
448,192,136792,1,0,0:0:0:0:
192,192,136792,1,0,0:0:0:0:
64,192,136876,1,0,0:0:0:0:
320,192,136960,1,0,0:0:0:0:
448,192,137043,1,0,0:0:0:0:
64,192,137127,1,2,0:0:0:0:
192,192,137127,1,0,0:0:0:0:
320,192,137211,1,0,0:0:0:0:
448,192,137295,1,4,0:0:0:0:
64,192,137295,1,0,0:0:0:0:
192,192,137379,1,0,0:0:0:0:
448,192,137462,1,4,0:0:0:0:
320,192,137462,1,0,0:0:0:0:
192,192,137546,1,0,0:0:0:0:
64,192,137630,1,0,0:0:0:0:
448,192,137630,1,0,0:0:0:0:
320,192,137714,1,0,0:0:0:0:
64,192,137797,1,0,0:0:0:0:
192,192,137797,1,0,0:0:0:0:
320,192,137881,1,0,0:0:0:0:
192,192,137965,1,4,0:0:0:0:
448,192,137965,1,0,0:0:0:0:
64,192,138049,1,0,0:0:0:0:
320,192,138133,1,2,0:0:0:0:
448,192,138133,1,0,0:0:0:0:
192,192,138216,1,0,0:0:0:0:
448,192,138300,1,4,0:0:0:0:
320,192,138300,1,0,0:0:0:0:
64,192,138384,1,0,0:0:0:0:
192,192,138384,1,4,0:0:0:0:
448,192,138468,1,2,0:0:0:0:
320,192,138468,1,0,0:0:0:0:
64,192,138635,1,2,0:0:0:0:
192,192,138635,1,0,0:0:0:0:
448,192,138803,1,2,0:0:0:0:
320,192,138803,1,0,0:0:0:0:
448,192,139138,1,4,0:0:0:0:
192,192,139138,1,0,0:0:0:0:
64,192,139138,1,0,0:0:0:0:
320,192,139473,1,0,0:0:0:0:
448,192,139473,1,0,0:0:0:0:
192,192,139641,1,0,0:0:0:0:
64,192,139641,1,0,0:0:0:0:
320,192,139725,1,0,0:0:0:0:
448,192,139809,1,2,0:0:0:0:
192,192,139809,1,0,0:0:0:0:
64,192,139892,1,0,0:0:0:0:
448,192,139976,1,0,0:0:0:0:
320,192,139976,1,0,0:0:0:0:
192,192,140060,1,0,0:0:0:0:
64,192,140144,1,4,0:0:0:0:
320,192,140144,1,0,0:0:0:0:
448,192,140228,1,0,0:0:0:0:
192,192,140311,1,0,0:0:0:0:
64,192,140311,1,0,0:0:0:0:
320,192,140395,1,0,0:0:0:0:
64,192,140479,128,0,140563:0:0:0:0:
192,192,140479,128,0,140563:0:0:0:0:
448,192,140563,1,0,0:0:0:0:
64,192,140647,128,4,140730:0:0:0:0:
192,192,140647,128,0,140730:0:0:0:0:
448,192,140730,1,0,0:0:0:0:
64,192,140814,128,4,140898:0:0:0:0:
192,192,140814,128,0,140898:0:0:0:0:
448,192,140898,1,0,0:0:0:0:
64,192,140982,128,0,141066:0:0:0:0:
192,192,140982,128,0,141066:0:0:0:0:
448,192,141066,1,0,0:0:0:0:
192,192,141149,1,0,0:0:0:0:
64,192,141149,1,2,0:0:0:0:
320,192,141233,1,0,0:0:0:0:
192,192,141317,1,0,0:0:0:0:
448,192,141317,1,0,0:0:0:0:
64,192,141401,1,0,0:0:0:0:
320,192,141485,1,0,0:0:0:0:
448,192,141485,1,0,0:0:0:0:
192,192,141568,1,0,0:0:0:0:
448,192,141652,1,0,0:0:0:0:
64,192,141652,1,0,0:0:0:0:
320,192,141736,1,0,0:0:0:0:
64,192,141820,1,4,0:0:0:0:
192,192,141820,1,0,0:0:0:0:
448,192,141904,1,0,0:0:0:0:
320,192,141987,1,0,0:0:0:0:
64,192,142071,1,0,0:0:0:0:
192,192,142155,1,0,0:0:0:0:
448,192,142155,1,0,0:0:0:0:
320,192,142239,1,0,0:0:0:0:
64,192,142323,1,0,0:0:0:0:
192,192,142323,1,0,0:0:0:0:
448,192,142406,1,0,0:0:0:0:
320,192,142490,1,2,0:0:0:0:
64,192,142490,1,0,0:0:0:0:
192,192,142574,1,0,0:0:0:0:
320,192,142658,1,0,0:0:0:0:
448,192,142658,1,0,0:0:0:0:
64,192,142742,1,0,0:0:0:0:
448,192,142825,1,0,0:0:0:0:
192,192,142825,1,0,0:0:0:0:
320,192,142909,1,0,0:0:0:0:
64,192,142993,128,4,143077:0:0:0:0:
192,192,142993,128,0,143077:0:0:0:0:
448,192,143077,1,0,0:0:0:0:
64,192,143161,128,0,143244:0:0:0:0:
192,192,143161,128,0,143244:0:0:0:0:
448,192,143244,1,0,0:0:0:0:
64,192,143328,128,4,143412:0:0:0:0:
192,192,143328,128,0,143412:0:0:0:0:
448,192,143412,1,0,0:0:0:0:
64,192,143496,128,0,143580:0:0:0:0:
192,192,143496,128,0,143580:0:0:0:0:
448,192,143580,1,0,0:0:0:0:
64,192,143663,1,0,0:0:0:0:
192,192,143663,1,4,0:0:0:0:
320,192,143747,1,4,0:0:0:0:
448,192,143747,1,0,0:0:0:0:
192,192,143831,1,2,0:0:0:0:
64,192,143831,1,0,0:0:0:0:
320,192,144082,1,0,0:0:0:0:
192,192,144334,1,0,0:0:0:0:
64,192,144501,1,4,0:0:0:0:
320,192,144501,1,0,0:0:0:0:
448,192,144501,1,0,0:0:0:0:
64,192,146848,128,0,147015:0:0:0:0:
320,192,147015,128,0,147183:0:0:0:0:
64,192,147183,1,0,0:0:0:0:
448,192,147183,128,0,147518:0:0:0:0:
320,192,147518,128,0,147853:0:0:0:0:
64,192,147686,1,0,0:0:0:0:
192,192,147853,128,0,148021:0:0:0:0:
448,192,148021,128,0,148189:0:0:0:0:
64,192,148189,1,0,0:0:0:0:
320,192,148356,128,0,148524:0:0:0:0:
64,192,148691,1,0,0:0:0:0:
192,192,148691,128,0,148859:0:0:0:0:
320,192,149027,128,0,149362:0:0:0:0:
192,192,149194,1,0,0:0:0:0:
448,192,149362,128,0,149697:0:0:0:0:
64,192,149865,1,0,0:0:0:0:
320,192,149865,128,0,150367:0:0:0:0:
448,192,150367,1,0,0:0:0:0:
64,192,150367,128,0,150703:0:0:0:0:
320,192,150870,1,0,0:0:0:0:
64,192,150870,128,0,151038:0:0:0:0:
448,192,151038,128,0,151205:0:0:0:0:
192,192,151373,1,0,0:0:0:0:
64,192,151373,128,0,151541:0:0:0:0:
192,192,151708,128,0,151876:0:0:0:0:
448,192,151876,1,0,0:0:0:0:
320,192,152043,1,0,0:0:0:0:
448,192,152127,1,0,0:0:0:0:
192,192,152211,1,0,0:0:0:0:
320,192,152295,1,0,0:0:0:0:
64,192,152379,1,0,0:0:0:0:
192,192,152462,1,0,0:0:0:0:
320,192,152546,1,0,0:0:0:0:
448,192,152546,128,0,152881:0:0:0:0:
192,192,152881,128,0,153049:0:0:0:0:
320,192,153049,1,0,0:0:0:0:
64,192,153216,128,0,153384:0:0:0:0:
448,192,153384,128,0,153552:0:0:0:0:
64,192,153552,1,0,0:0:0:0:
192,192,153719,128,0,153887:0:0:0:0:
320,192,154054,1,0,0:0:0:0:
64,192,154054,128,0,154390:0:0:0:0:
448,192,154390,128,0,154725:0:0:0:0:
192,192,154557,1,0,0:0:0:0:
320,192,154725,128,0,154892:0:0:0:0:
64,192,154892,1,0,0:0:0:0:
192,192,154976,1,0,0:0:0:0:
320,192,155060,1,0,0:0:0:0:
448,192,155144,1,0,0:0:0:0:
192,192,155228,1,0,0:0:0:0:
64,192,155228,128,0,155730:0:0:0:0:
320,192,155479,1,0,0:0:0:0:
192,192,155730,1,0,0:0:0:0:
448,192,155730,128,0,156401:0:0:0:0:
320,192,155982,1,0,0:0:0:0:
64,192,156149,1,0,0:0:0:0:
192,192,156233,1,0,0:0:0:0:
320,192,156317,1,0,0:0:0:0:
64,192,156401,1,0,0:0:0:0:
192,192,156485,1,0,0:0:0:0:
320,192,156568,1,4,0:0:0:0:
64,192,156568,1,0,0:0:0:0:
448,192,156568,1,0,0:0:0:0:
192,192,156820,1,4,0:0:0:0:
448,192,156820,1,0,0:0:0:0:
320,192,156820,1,0,0:0:0:0:
64,192,157071,1,4,0:0:0:0:
192,192,157071,1,0,0:0:0:0:
320,192,157071,1,0,0:0:0:0:
320,192,157323,1,4,0:0:0:0:
192,192,157323,1,0,0:0:0:0:
448,192,157323,1,0,0:0:0:0:
64,192,157574,5,8,0:0:0:0:
192,192,157574,1,0,0:0:0:0:
320,192,157742,1,0,0:0:0:0:
192,192,157909,1,4,0:0:0:0:
64,192,157909,128,0,158496:0:0:0:0:
448,192,157909,1,0,0:0:0:0:
320,192,158244,128,0,158496:0:0:0:0:
64,192,158580,1,0,0:0:0:0:
320,192,158580,1,2,0:0:0:0:
448,192,158580,1,0,0:0:0:0:
192,192,158663,1,0,0:0:0:0:
320,192,158747,1,0,0:0:0:0:
64,192,158831,1,0,0:0:0:0:
192,192,158915,1,0,0:0:0:0:
320,192,158999,1,0,0:0:0:0:
64,192,159082,1,4,0:0:0:0:
448,192,159082,128,0,159501:0:0:0:0:
192,192,159082,1,0,0:0:0:0:
192,192,159418,1,0,0:0:0:0:
448,192,159585,1,0,0:0:0:0:
320,192,159585,1,2,0:0:0:0:
64,192,159585,1,0,0:0:0:0:
192,192,159753,1,4,0:0:0:0:
448,192,159753,128,0,160172:0:0:0:0:
64,192,159753,1,0,0:0:0:0:
192,192,160088,1,0,0:0:0:0:
448,192,160256,1,0,0:0:0:0:
64,192,160256,1,0,0:0:0:0:
192,192,160423,1,0,0:0:0:0:
320,192,160507,1,0,0:0:0:0:
64,192,160591,128,4,161094:0:0:0:0:
192,192,160591,1,0,0:0:0:0:
448,192,160591,1,0,0:0:0:0:
320,192,161094,1,4,0:0:0:0:
192,192,161177,1,4,0:0:0:0:
64,192,161177,1,0,0:0:0:0:
448,192,161261,1,2,0:0:0:0:
320,192,161261,1,0,0:0:0:0:
192,192,161317,1,0,0:0:0:0:
64,192,161373,1,0,0:0:0:0:
448,192,161429,1,0,0:0:0:0:
320,192,161485,1,0,0:0:0:0:
192,192,161541,1,0,0:0:0:0:
64,192,161596,1,0,0:0:0:0:
320,192,161652,1,0,0:0:0:0:
64,192,161764,128,4,162267:0:0:0:0:
192,192,161764,1,0,0:0:0:0:
448,192,161764,1,0,0:0:0:0:
192,192,162099,1,2,0:0:0:0:
320,192,162099,1,0,0:0:0:0:
320,192,162267,1,2,0:0:0:0:
448,192,162267,1,0,0:0:0:0:
192,192,162434,1,4,0:0:0:0:
448,192,162434,128,0,162770:0:0:0:0:
64,192,162434,1,0,0:0:0:0:
64,192,162937,1,0,0:0:0:0:
192,192,162937,1,0,0:0:0:0:
320,192,163105,1,0,0:0:0:0:
192,192,163272,1,4,0:0:0:0:
64,192,163272,128,0,163859:0:0:0:0:
448,192,163272,1,0,0:0:0:0:
192,192,163775,1,0,0:0:0:0:
64,192,163943,1,2,0:0:0:0:
448,192,163943,1,0,0:0:0:0:
320,192,163943,1,0,0:0:0:0:
192,192,164027,1,0,0:0:0:0:
448,192,164110,1,0,0:0:0:0:
320,192,164194,1,0,0:0:0:0:
64,192,164278,1,0,0:0:0:0:
192,192,164278,1,0,0:0:0:0:
320,192,164446,1,4,0:0:0:0:
448,192,164446,128,0,164865:0:0:0:0:
64,192,164446,1,0,0:0:0:0:
64,192,164948,1,0,0:0:0:0:
192,192,164948,1,2,0:0:0:0:
448,192,164948,1,0,0:0:0:0:
320,192,165116,1,4,0:0:0:0:
64,192,165116,128,0,165535:0:0:0:0:
448,192,165116,1,0,0:0:0:0:
64,192,165619,1,0,0:0:0:0:
192,192,165619,1,0,0:0:0:0:
448,192,165619,1,0,0:0:0:0:
192,192,165786,1,0,0:0:0:0:
64,192,165954,1,4,0:0:0:0:
320,192,165954,1,0,0:0:0:0:
448,192,165954,1,0,0:0:0:0:
192,192,166122,1,0,0:0:0:0:
64,192,166177,1,0,0:0:0:0:
448,192,166233,1,0,0:0:0:0:
320,192,166289,1,0,0:0:0:0:
64,192,166345,1,0,0:0:0:0:
192,192,166401,1,0,0:0:0:0:
320,192,166457,1,0,0:0:0:0:
448,192,166513,1,0,0:0:0:0:
64,192,166568,1,0,0:0:0:0:
192,192,166666,1,0,0:0:0:0:
320,192,166750,1,0,0:0:0:0:
448,192,166834,1,0,0:0:0:0:
320,192,166960,1,0,0:0:0:0:
192,192,167127,1,0,0:0:0:0:
64,192,167379,1,4,0:0:0:0:
320,192,167379,1,0,0:0:0:0:
448,192,167379,1,0,0:0:0:0:
320,192,167630,1,4,0:0:0:0:
192,192,167630,1,0,0:0:0:0:
64,192,167630,1,0,0:0:0:0:
320,192,167797,1,0,0:0:0:0:
448,192,167797,1,4,0:0:0:0:
192,192,167797,1,0,0:0:0:0:
64,192,167965,1,2,0:0:0:0:
448,192,167965,1,0,0:0:0:0:
320,192,168133,128,0,168635:0:0:0:0:
448,192,168300,128,0,168635:0:0:0:0:
64,192,168635,1,2,0:0:0:0:
192,192,168635,1,4,0:0:0:0:
448,192,168719,1,0,0:0:0:0:
320,192,168803,1,4,0:0:0:0:
192,192,168887,1,0,0:0:0:0:
64,192,168971,1,2,0:0:0:0:
448,192,168971,1,4,0:0:0:0:
320,192,169054,1,0,0:0:0:0:
192,192,169138,1,4,0:0:0:0:
64,192,169222,1,0,0:0:0:0:
320,192,169306,1,2,0:0:0:0:
448,192,169306,1,4,0:0:0:0:
64,192,169390,1,0,0:0:0:0:
192,192,169473,1,4,0:0:0:0:
320,192,169557,1,0,0:0:0:0:
448,192,169641,1,2,0:0:0:0:
64,192,169641,1,4,0:0:0:0:
192,192,169725,1,0,0:0:0:0:
320,192,169809,1,4,0:0:0:0:
448,192,169892,1,0,0:0:0:0:
192,192,169976,1,2,0:0:0:0:
64,192,169976,1,4,0:0:0:0:
448,192,170060,1,0,0:0:0:0:
320,192,170144,1,4,0:0:0:0:
192,192,170228,1,0,0:0:0:0:
64,192,170311,1,2,0:0:0:0:
448,192,170311,1,4,0:0:0:0:
320,192,170395,1,0,0:0:0:0:
192,192,170479,1,4,0:0:0:0:
64,192,170563,1,0,0:0:0:0:
320,192,170647,1,2,0:0:0:0:
448,192,170647,1,4,0:0:0:0:
64,192,170730,1,0,0:0:0:0:
192,192,170814,1,4,0:0:0:0:
320,192,170898,1,0,0:0:0:0:
448,192,170982,1,2,0:0:0:0:
64,192,170982,1,4,0:0:0:0:
64,192,171317,1,4,0:0:0:0:
192,192,171317,1,2,0:0:0:0:
448,192,171401,1,0,0:0:0:0:
320,192,171485,1,4,0:0:0:0:
192,192,171568,1,0,0:0:0:0:
448,192,171652,1,4,0:0:0:0:
320,192,171652,1,2,0:0:0:0:
64,192,171736,1,0,0:0:0:0:
192,192,171820,1,4,0:0:0:0:
320,192,171904,1,0,0:0:0:0:
192,192,171987,1,4,0:0:0:0:
64,192,171987,1,2,0:0:0:0:
448,192,172071,1,0,0:0:0:0:
320,192,172155,1,4,0:0:0:0:
192,192,172239,1,0,0:0:0:0:
320,192,172323,1,4,0:0:0:0:
448,192,172323,1,2,0:0:0:0:
64,192,172406,1,0,0:0:0:0:
192,192,172490,1,4,0:0:0:0:
320,192,172574,1,0,0:0:0:0:
192,192,172658,1,4,0:0:0:0:
64,192,172658,1,2,0:0:0:0:
448,192,172742,1,0,0:0:0:0:
320,192,172825,1,4,0:0:0:0:
192,192,172909,1,0,0:0:0:0:
64,192,172993,1,2,0:0:0:0:
448,192,172993,1,4,0:0:0:0:
192,192,173077,1,0,0:0:0:0:
320,192,173161,1,4,0:0:0:0:
448,192,173244,1,0,0:0:0:0:
64,192,173328,1,0,0:0:0:0:
192,192,173328,1,0,0:0:0:0:
192,192,173496,1,0,0:0:0:0:
320,192,173496,1,0,0:0:0:0:
320,192,173663,1,0,0:0:0:0:
448,192,173663,1,0,0:0:0:0:
448,192,173831,1,0,0:0:0:0:
64,192,173831,1,0,0:0:0:0:
64,192,173999,1,2,0:0:0:0:
192,192,173999,1,4,0:0:0:0:
448,192,174082,1,4,0:0:0:0:
320,192,174166,1,4,0:0:0:0:
192,192,174166,1,2,0:0:0:0:
448,192,174250,1,4,0:0:0:0:
192,192,174334,1,4,0:0:0:0:
64,192,174334,1,2,0:0:0:0:
448,192,174418,1,4,0:0:0:0:
320,192,174501,1,4,0:0:0:0:
192,192,174501,1,2,0:0:0:0:
448,192,174585,1,4,0:0:0:0:
192,192,174669,1,2,0:0:0:0:
64,192,174669,1,4,0:0:0:0:
448,192,174753,1,4,0:0:0:0:
320,192,174837,1,4,0:0:0:0:
192,192,174837,1,2,0:0:0:0:
448,192,174920,1,4,0:0:0:0:
192,192,175004,1,4,0:0:0:0:
64,192,175004,1,2,0:0:0:0:
448,192,175088,1,4,0:0:0:0:
320,192,175172,1,4,0:0:0:0:
192,192,175172,1,2,0:0:0:0:
64,192,175256,1,4,0:0:0:0:
320,192,175339,1,4,0:0:0:0:
448,192,175339,1,2,0:0:0:0:
64,192,175423,1,4,0:0:0:0:
192,192,175507,1,4,0:0:0:0:
320,192,175507,1,2,0:0:0:0:
64,192,175591,1,4,0:0:0:0:
320,192,175675,1,4,0:0:0:0:
448,192,175675,1,2,0:0:0:0:
64,192,175758,1,4,0:0:0:0:
192,192,175842,1,4,0:0:0:0:
320,192,175842,1,2,0:0:0:0:
64,192,175926,1,4,0:0:0:0:
320,192,176010,1,4,0:0:0:0:
448,192,176010,1,2,0:0:0:0:
64,192,176094,1,4,0:0:0:0:
192,192,176177,1,2,0:0:0:0:
320,192,176177,1,4,0:0:0:0:
64,192,176261,1,4,0:0:0:0:
320,192,176345,1,4,0:0:0:0:
448,192,176345,1,2,0:0:0:0:
64,192,176429,1,4,0:0:0:0:
192,192,176513,1,4,0:0:0:0:
320,192,176513,1,2,0:0:0:0:
448,192,176596,1,4,0:0:0:0:
64,192,176680,1,4,0:0:0:0:
192,192,176722,1,4,0:0:0:0:
320,192,176764,1,4,0:0:0:0:
448,192,176806,1,4,0:0:0:0:
64,192,176848,1,4,0:0:0:0:
192,192,176890,1,4,0:0:0:0:
320,192,176932,1,4,0:0:0:0:
448,192,176973,1,4,0:0:0:0:
64,192,177015,1,4,0:0:0:0:
192,192,177057,1,4,0:0:0:0:
320,192,177099,1,4,0:0:0:0:
448,192,177141,1,4,0:0:0:0:
64,192,177183,1,4,0:0:0:0:
192,192,177225,1,4,0:0:0:0:
320,192,177267,1,4,0:0:0:0:
448,192,177309,1,4,0:0:0:0:
64,192,177351,1,4,0:0:0:0:
192,192,177392,1,4,0:0:0:0:
320,192,177434,1,4,0:0:0:0:
448,192,177476,1,4,0:0:0:0:
64,192,177518,1,4,0:0:0:0:
192,192,177560,1,4,0:0:0:0:
320,192,177602,1,4,0:0:0:0:
448,192,177644,1,4,0:0:0:0:
64,192,177686,1,4,0:0:0:0:
192,192,177728,1,4,0:0:0:0:
320,192,177770,1,4,0:0:0:0:
448,192,177811,1,4,0:0:0:0:
64,192,177853,1,4,0:0:0:0:
192,192,177895,1,4,0:0:0:0:
320,192,177937,1,4,0:0:0:0:
448,192,177979,1,4,0:0:0:0:
192,192,178021,1,4,0:0:0:0:
64,192,178021,1,0,0:0:0:0:
192,192,179027,1,2,0:0:0:0:
320,192,179027,1,0,0:0:0:0:
64,192,179362,1,0,0:0:0:70:Cymbal.wav
192,192,179362,1,0,0:0:0:0:
448,192,179362,1,4,0:0:0:0:
320,192,179362,1,0,0:0:0:0:
64,192,179697,1,4,0:0:0:0:
192,192,179697,1,2,0:0:0:0:
448,192,179697,1,8,0:0:0:0:
320,192,179697,1,0,0:0:0:0:
64,192,179865,1,0,0:0:0:0:
192,192,179865,1,0,0:0:0:0:
320,192,179948,1,0,0:0:0:0:
448,192,179948,1,0,0:0:0:0:
192,192,180032,1,4,0:0:0:0:
64,192,180032,1,0,0:0:0:0:
192,192,180200,1,0,0:0:0:0:
320,192,180200,1,0,0:0:0:0:
448,192,180367,1,2,0:0:0:0:
320,192,180367,1,8,0:0:0:0:
192,192,180367,1,4,0:0:0:0:
64,192,180367,1,0,0:0:0:0:
320,192,180535,1,0,0:0:0:0:
448,192,180535,1,0,0:0:0:0:
192,192,180619,1,0,0:0:0:0:
64,192,180619,1,0,0:0:0:0:
320,192,180703,1,4,0:0:0:0:
448,192,180703,1,0,0:0:0:0:
64,192,181038,1,14,0:0:0:0:
192,192,181080,1,0,0:0:0:0:
320,192,181122,1,0,0:0:0:0:
448,192,181163,1,0,0:0:0:0:
64,192,181205,1,0,0:0:0:0:
192,192,181247,1,0,0:0:0:0:
320,192,181289,1,0,0:0:0:0:
448,192,181331,1,0,0:0:0:0:
192,192,181373,5,0,0:0:0:0:
64,192,181373,1,4,0:0:0:0:
320,192,181457,1,0,0:0:0:0:
192,192,181541,1,0,0:0:0:0:
320,192,181624,1,0,0:0:0:0:
448,192,181708,1,8,0:0:0:0:
192,192,181708,1,2,0:0:0:0:
64,192,181708,1,4,0:0:0:0:
192,192,182043,1,4,0:0:0:0:
320,192,182043,128,0,182155:0:0:0:0:
448,192,182043,128,0,182155:0:0:0:0:
320,192,182211,128,0,182323:0:0:0:0:
448,192,182211,128,0,182323:0:0:0:0:
448,192,182379,1,4,0:0:0:0:
320,192,182379,1,8,0:0:0:0:
192,192,182379,1,2,0:0:0:0:
64,192,182379,1,0,0:0:0:0:
64,192,182546,1,0,0:0:0:0:
192,192,182546,1,0,0:0:0:0:
320,192,182630,1,0,0:0:0:0:
448,192,182630,1,0,0:0:0:0:
192,192,182714,1,4,0:0:0:0:
64,192,182714,1,0,0:0:0:0:
192,192,182881,1,0,0:0:0:0:
320,192,182881,1,0,0:0:0:0:
448,192,183049,1,8,0:0:0:0:
320,192,183049,1,4,0:0:0:0:
64,192,183049,1,2,0:0:0:0:
192,192,183049,1,0,0:0:0:0:
320,192,183216,1,0,0:0:0:0:
64,192,183384,1,4,0:0:0:0:
448,192,183384,1,0,0:0:0:0:
192,192,183384,1,0,0:0:0:0:
64,192,183719,1,2,0:0:0:0:
192,192,183719,1,8,0:0:0:0:
320,192,183719,1,4,0:0:0:0:
448,192,183719,1,0,0:0:0:0:
192,192,183887,1,0,0:0:0:0:
320,192,183887,1,0,0:0:0:0:
64,192,184054,1,4,0:0:0:0:
192,192,184096,1,0,0:0:0:0:
320,192,184138,1,0,0:0:0:0:
448,192,184180,1,0,0:0:0:0:
64,192,184222,1,0,0:0:0:0:
192,192,184264,1,0,0:0:0:0:
448,192,184306,1,0,0:0:0:0:
320,192,184348,1,0,0:0:0:0:
64,192,184390,1,14,0:0:0:0:
192,192,184432,1,0,0:0:0:0:
448,192,184473,1,0,0:0:0:0:
320,192,184515,1,0,0:0:0:0:
192,192,184557,1,0,0:0:0:0:
320,192,184641,1,0,0:0:0:0:
448,192,184725,1,0,0:0:0:70:Cymbal.wav
192,192,184725,1,0,0:0:0:0:
64,192,184725,1,4,0:0:0:0:
64,192,185060,1,8,0:0:0:0:
192,192,185060,1,4,0:0:0:0:
320,192,185060,1,2,0:0:0:0:
448,192,185060,1,0,0:0:0:0:
320,192,185228,1,0,0:0:0:0:
448,192,185228,1,0,0:0:0:0:
192,192,185311,1,0,0:0:0:0:
64,192,185311,1,0,0:0:0:0:
320,192,185395,1,4,0:0:0:0:
448,192,185395,1,0,0:0:0:0:
320,192,185563,1,0,0:0:0:0:
192,192,185563,1,0,0:0:0:0:
64,192,185730,1,8,0:0:0:0:
192,192,185730,1,0,0:0:0:0:
448,192,185730,1,2,0:0:0:0:
320,192,185730,1,4,0:0:0:0:
64,192,185898,1,0,0:0:0:0:
192,192,185898,1,0,0:0:0:0:
320,192,185982,1,0,0:0:0:0:
448,192,185982,1,0,0:0:0:0:
192,192,186066,1,4,0:0:0:0:
64,192,186066,1,0,0:0:0:0:
448,192,186401,1,14,0:0:0:0:
320,192,186443,1,0,0:0:0:0:
192,192,186485,1,0,0:0:0:0:
64,192,186527,1,0,0:0:0:0:
448,192,186568,1,0,0:0:0:0:
320,192,186610,1,0,0:0:0:0:
192,192,186652,1,0,0:0:0:0:
64,192,186694,1,0,0:0:0:0:
320,192,186736,1,4,0:0:0:0:
448,192,186736,1,0,0:0:0:0:
192,192,186820,1,0,0:0:0:0:
320,192,186904,1,0,0:0:0:0:
192,192,186987,1,0,0:0:0:0:
448,192,187071,1,8,0:0:0:0:
64,192,187071,1,2,0:0:0:0:
320,192,187071,1,4,0:0:0:0:
192,192,187155,1,2,0:0:0:0:
320,192,187239,1,2,0:0:0:0:
448,192,187239,1,0,0:0:0:0:
192,192,187323,1,2,0:0:0:0:
64,192,187406,1,0,0:0:0:70:Cymbal.wav
320,192,187406,1,0,0:0:0:0:
448,192,187406,1,4,0:0:0:0:
192,192,187574,1,0,0:0:0:70:openHH.wav
448,192,187742,1,2,0:0:0:0:
320,192,187742,1,4,0:0:0:0:
192,192,187742,1,8,0:0:0:0:
64,192,187742,1,0,0:0:0:0:
320,192,187909,1,0,0:0:0:70:openHH.wav
448,192,188077,1,4,0:0:0:0:
192,192,188077,1,0,0:0:0:0:
64,192,188077,1,0,0:0:0:0:
320,192,188244,1,0,0:0:0:70:openHH.wav
64,192,188412,1,4,0:0:0:0:
192,192,188412,1,2,0:0:0:0:
320,192,188412,1,8,0:0:0:0:
448,192,188412,1,0,0:0:0:0:
192,192,188580,1,0,0:0:0:70:openHH.wav
448,192,188747,1,4,0:0:0:0:
320,192,188747,1,0,0:0:0:0:
64,192,188747,1,0,0:0:0:0:
192,192,188915,1,0,0:0:0:70:openHH.wav
448,192,189082,1,2,0:0:0:0:
320,192,189082,1,8,0:0:0:0:
192,192,189082,1,4,0:0:0:0:
64,192,189082,1,0,0:0:0:0:
64,192,189250,1,0,0:0:0:70:openHH.wav
192,192,189418,1,4,0:0:0:0:
320,192,189418,1,0,0:0:0:0:
448,192,189418,1,0,0:0:0:0:
64,192,189585,1,0,0:0:0:70:openHH.wav
64,192,189753,1,2,0:0:0:0:
192,192,189753,1,4,0:0:0:0:
320,192,189753,1,8,0:0:0:0:
448,192,189753,1,0,0:0:0:0:
192,192,189920,1,0,0:0:0:0:
320,192,189920,1,0,0:0:0:0:
64,192,190088,1,0,0:0:0:70:Cymbal.wav
192,192,190088,1,0,0:0:0:0:
448,192,190088,1,4,0:0:0:0:
320,192,190088,1,0,0:0:0:0:
64,192,190423,1,8,0:0:0:0:
192,192,190423,1,2,0:0:0:0:
448,192,190423,1,0,0:0:0:0:
320,192,190423,1,4,0:0:0:0:
64,192,190591,1,0,0:0:0:0:
192,192,190591,1,0,0:0:0:0:
320,192,190675,1,0,0:0:0:0:
448,192,190675,1,0,0:0:0:0:
192,192,190758,1,4,0:0:0:0:
64,192,190758,1,0,0:0:0:0:
192,192,190926,1,0,0:0:0:0:
320,192,190926,1,0,0:0:0:0:
448,192,191094,1,2,0:0:0:0:
320,192,191094,1,4,0:0:0:0:
192,192,191094,1,8,0:0:0:0:
64,192,191094,1,0,0:0:0:0:
320,192,191261,1,0,0:0:0:0:
448,192,191261,1,0,0:0:0:0:
192,192,191345,1,0,0:0:0:0:
64,192,191345,1,0,0:0:0:0:
320,192,191429,1,4,0:0:0:0:
448,192,191429,1,0,0:0:0:0:
64,192,191764,1,14,0:0:0:0:
192,192,191806,1,0,0:0:0:0:
448,192,191848,1,0,0:0:0:0:
320,192,191890,1,0,0:0:0:0:
64,192,191932,1,0,0:0:0:0:
192,192,191973,1,0,0:0:0:0:
448,192,192015,1,0,0:0:0:0:
320,192,192057,1,0,0:0:0:0:
192,192,192099,1,0,0:0:0:0:
64,192,192099,1,4,0:0:0:0:
320,192,192183,1,0,0:0:0:0:
192,192,192267,1,0,0:0:0:0:
320,192,192351,1,0,0:0:0:0:
448,192,192434,1,2,0:0:0:0:
192,192,192434,1,4,0:0:0:0:
64,192,192434,1,8,0:0:0:0:
192,192,192770,1,4,0:0:0:0:
320,192,192770,128,0,192881:0:0:0:0:
448,192,192770,128,0,192881:0:0:0:0:
320,192,192937,128,0,193049:0:0:0:0:
448,192,192937,128,0,193049:0:0:0:0:
448,192,193105,1,4,0:0:0:0:
320,192,193105,1,2,0:0:0:0:
192,192,193105,1,8,0:0:0:0:
64,192,193105,1,0,0:0:0:0:
64,192,193272,1,0,0:0:0:0:
192,192,193272,1,0,0:0:0:0:
320,192,193356,1,0,0:0:0:0:
448,192,193356,1,0,0:0:0:0:
192,192,193440,1,4,0:0:0:0:
64,192,193440,1,0,0:0:0:0:
192,192,193608,1,0,0:0:0:0:
320,192,193608,1,0,0:0:0:0:
448,192,193775,1,2,0:0:0:0:
320,192,193775,1,4,0:0:0:0:
64,192,193775,1,0,0:0:0:0:
192,192,193775,1,8,0:0:0:0:
320,192,193943,1,0,0:0:0:0:
64,192,194110,1,4,0:0:0:0:
320,192,194110,1,0,0:0:0:0:
448,192,194110,1,0,0:0:0:0:
192,192,194278,1,4,0:0:0:0:
64,192,194278,1,0,0:0:0:0:
320,192,194362,1,4,0:0:0:0:
64,192,194446,1,8,0:0:0:0:
192,192,194446,1,2,0:0:0:0:
320,192,194529,1,4,0:0:0:0:
448,192,194529,1,0,0:0:0:0:
320,192,194697,1,4,0:0:0:0:
448,192,194697,1,0,0:0:0:0:
64,192,194781,1,4,0:0:0:0:
192,192,194823,1,0,0:0:0:0:
320,192,194865,1,0,0:0:0:0:
448,192,194906,1,0,0:0:0:0:
64,192,194948,1,4,0:0:0:0:
192,192,194948,1,0,0:0:0:0:
448,192,195032,1,4,0:0:0:0:
320,192,195032,1,0,0:0:0:0:
64,192,195116,1,10,0:0:0:0:
192,192,195158,5,0,0:0:0:0:
448,192,195200,1,4,0:0:0:0:
320,192,195242,1,0,0:0:0:0:
64,192,195284,1,4,0:0:0:0:
192,192,195284,1,0,0:0:0:0:
320,192,195367,1,4,0:0:0:0:
448,192,195451,1,0,0:0:0:70:Cymbal.wav
192,192,195451,1,0,0:0:0:0:
64,192,195451,1,4,0:0:0:0:
320,192,195786,1,0,0:0:0:0:
448,192,195786,1,0,0:0:0:0:
192,192,195870,1,0,0:0:0:0:
64,192,195954,1,0,0:0:0:0:
448,192,195954,1,0,0:0:0:0:
320,192,196038,1,0,0:0:0:0:
192,192,196122,1,2,0:0:0:0:
64,192,196122,1,0,0:0:0:0:
320,192,196205,1,0,0:0:0:0:
64,192,196289,1,0,0:0:0:0:
448,192,196289,1,0,0:0:0:0:
192,192,196373,1,0,0:0:0:0:
320,192,196457,1,4,0:0:0:0:
64,192,196457,128,0,196708:0:0:0:0:
448,192,196457,128,0,196708:0:0:0:0:
64,192,196792,1,0,0:0:0:0:
448,192,196792,1,0,0:0:0:0:
192,192,196876,1,0,0:0:0:0:
320,192,196876,1,0,0:0:0:0:
64,192,196960,1,4,0:0:0:0:
448,192,196960,1,0,0:0:0:0:
448,192,197127,1,4,0:0:0:0:
192,192,197127,1,0,0:0:0:0:
64,192,197127,1,0,0:0:0:0:
320,192,197295,1,0,0:0:0:0:
192,192,197462,1,2,0:0:0:0:
64,192,197462,128,0,197714:0:0:0:0:
448,192,197462,128,0,197714:0:0:0:0:
448,192,197797,1,0,0:0:0:0:
64,192,197797,1,0,0:0:0:0:
192,192,197881,1,0,0:0:0:0:
320,192,197965,1,0,0:0:0:0:
448,192,198049,1,0,0:0:0:0:
192,192,198133,1,4,0:0:0:0:
64,192,198133,128,0,199390:0:0:0:0:
448,192,198468,1,0,0:0:0:0:
192,192,198635,1,0,0:0:0:0:
320,192,198803,1,0,0:0:0:0:
64,192,199473,1,4,0:0:0:0:
192,192,199473,1,0,0:0:0:0:
448,192,199473,1,0,0:0:0:0:
192,192,199725,1,4,0:0:0:0:
320,192,199725,1,0,0:0:0:0:
448,192,199725,1,0,0:0:0:0:
448,192,199976,1,4,0:0:0:0:
192,192,199976,1,0,0:0:0:0:
320,192,199976,1,0,0:0:0:0:
448,192,200228,1,4,0:0:0:0:
192,192,200228,1,0,0:0:0:0:
64,192,200228,1,0,0:0:0:0:
64,192,200479,1,2,0:0:0:0:
320,192,200479,1,0,0:0:0:0:
192,192,200647,1,0,0:0:0:0:
448,192,200814,1,4,0:0:0:0:
64,192,200814,128,0,201820:0:0:0:0:
192,192,201149,1,0,0:0:0:0:
320,192,201485,1,0,0:0:0:0:
448,192,201652,1,0,0:0:0:0:
64,192,201987,128,4,202239:0:0:0:0:
192,192,201987,128,0,202239:0:0:0:0:
448,192,201987,128,0,202239:0:0:0:0:
448,192,202323,128,4,202574:0:0:0:0:
192,192,202323,128,0,202574:0:0:0:0:
64,192,202323,128,0,202574:0:0:0:0:
64,192,202658,128,4,202825:0:0:0:0:
192,192,202658,128,0,202825:0:0:0:0:
448,192,202658,128,0,202825:0:0:0:0:
64,192,202993,1,0,0:0:0:0:
192,192,202993,1,4,0:0:0:0:
320,192,203077,1,4,0:0:0:0:
448,192,203077,1,0,0:0:0:0:
448,192,203161,1,2,0:0:0:0:
192,192,203161,1,0,0:0:0:0:
64,192,203161,1,8,0:0:0:0:
320,192,203161,1,0,0:0:0:0:
64,192,203496,1,0,0:0:0:70:Cymbal.wav
320,192,203496,1,4,0:0:0:0:
448,192,203496,1,0,0:0:0:0:
320,192,203663,1,0,0:0:0:70:openHH.wav
64,192,203831,1,8,0:0:0:0:
192,192,203831,1,2,0:0:0:0:
448,192,203831,1,4,0:0:0:0:
320,192,203831,1,0,0:0:0:0:
192,192,203999,1,0,0:0:0:70:openHH.wav
320,192,204082,1,0,0:0:0:0:
448,192,204166,1,4,0:0:0:0:
64,192,204166,1,0,0:0:0:0:
192,192,204166,1,0,0:0:0:0:
64,192,204334,1,0,0:0:0:70:openHH.wav
320,192,204501,1,2,0:0:0:0:
448,192,204501,1,8,0:0:0:0:
192,192,204501,1,4,0:0:0:0:
64,192,204501,1,0,0:0:0:0:
320,192,204669,1,0,0:0:0:70:openHH.wav
64,192,204837,1,4,0:0:0:0:
192,192,204837,1,0,0:0:0:0:
448,192,204837,1,0,0:0:0:0:
192,192,205004,1,0,0:0:0:70:openHH.wav
64,192,205172,1,2,0:0:0:0:
192,192,205172,1,4,0:0:0:0:
320,192,205172,1,8,0:0:0:0:
448,192,205172,1,0,0:0:0:0:
320,192,205339,1,0,0:0:0:70:openHH.wav
448,192,205507,1,4,0:0:0:0:
192,192,205507,1,0,0:0:0:0:
64,192,205507,1,0,0:0:0:0:
448,192,205675,1,0,0:0:0:70:openHH.wav
64,192,205842,1,2,0:0:0:0:
192,192,205842,1,4,0:0:0:0:
320,192,205842,1,8,0:0:0:0:
448,192,205842,1,0,0:0:0:0:
192,192,206010,1,0,0:0:0:70:openHH.wav
64,192,206177,1,4,0:0:0:0:
448,192,206177,1,0,0:0:0:0:
320,192,206177,1,0,0:0:0:0:
320,192,206345,1,0,0:0:0:70:openHH.wav
448,192,206513,1,8,0:0:0:0:
320,192,206513,1,2,0:0:0:0:
192,192,206513,1,4,0:0:0:0:
64,192,206513,1,0,0:0:0:0:
64,192,206680,1,0,0:0:0:70:openHH.wav
320,192,206848,1,4,0:0:0:0:
448,192,206848,1,0,0:0:0:0:
192,192,206848,1,0,0:0:0:0:
320,192,207015,1,0,0:0:0:70:openHH.wav
64,192,207183,1,2,0:0:0:0:
192,192,207183,1,4,0:0:0:0:
320,192,207183,1,8,0:0:0:0:
448,192,207183,1,0,0:0:0:0:
448,192,207351,1,0,0:0:0:70:openHH.wav
320,192,207518,1,4,0:0:0:0:
192,192,207518,1,0,0:0:0:0:
64,192,207518,1,0,0:0:0:0:
192,192,207686,1,0,0:0:0:70:openHH.wav
64,192,207853,1,2,0:0:0:0:
192,192,207853,1,8,0:0:0:0:
320,192,207853,1,4,0:0:0:0:
448,192,207853,1,0,0:0:0:0:
320,192,208021,1,0,0:0:0:70:openHH.wav
64,192,208189,1,4,0:0:0:0:
192,192,208189,1,0,0:0:0:0:
448,192,208189,1,0,0:0:0:0:
64,192,208356,1,0,0:0:0:70:openHH.wav
64,192,208524,1,2,0:0:0:0:
192,192,208524,1,4,0:0:0:0:
320,192,208524,1,8,0:0:0:0:
448,192,208524,1,0,0:0:0:0:
192,192,208691,1,0,0:0:0:70:openHH.wav
320,192,208775,1,0,0:0:0:0:
448,192,208859,1,4,0:0:0:0:
192,192,208859,1,0,0:0:0:0:
64,192,208859,1,0,0:0:0:0:
320,192,209027,1,0,0:0:0:70:openHH.wav
192,192,209027,1,0,0:0:0:0:
64,192,209194,1,2,0:0:0:0:
320,192,209194,1,0,0:0:0:0:
448,192,209194,1,8,0:0:0:0:
192,192,209362,1,0,0:0:0:0:
320,192,209362,1,0,0:0:0:70:openHH.wav
192,192,209529,1,0,0:0:0:0:
64,192,209529,1,4,0:0:0:0:
448,192,209529,1,0,0:0:0:0:
64,192,209697,1,4,0:0:0:0:
192,192,209697,1,0,0:0:0:70:openHH.wav
320,192,209865,1,2,0:0:0:0:
448,192,209865,1,8,0:0:0:0:
64,192,209865,1,0,0:0:0:0:
448,192,210032,1,0,0:0:0:0:
192,192,210032,1,0,0:0:0:70:openHH.wav
64,192,210200,1,4,0:0:0:0:
320,192,210200,1,0,0:0:0:0:
448,192,210200,1,0,0:0:0:0:
192,192,210284,1,2,0:0:0:0:
320,192,210367,1,0,0:0:0:70:openHH.wav
64,192,210451,1,4,0:0:0:0:
192,192,210535,1,8,0:0:0:0:
320,192,210535,1,2,0:0:0:0:
448,192,210535,1,0,0:0:0:0:
64,192,210703,1,4,0:0:0:70:openHH.wav
192,192,210703,1,4,0:0:0:0:
448,192,210870,1,4,0:0:0:0:
192,192,210870,1,0,0:0:0:0:
320,192,210870,1,0,0:0:0:0:
64,192,210954,1,2,0:0:0:0:
320,192,211038,1,4,0:0:0:70:openHH.wav
192,192,211122,1,4,0:0:0:0:
320,192,211205,1,2,0:0:0:0:
448,192,211205,1,8,0:0:0:0:
64,192,211205,1,0,0:0:0:0:
64,192,211373,1,0,0:0:0:70:openHH.wav
192,192,211373,1,4,0:0:0:0:
320,192,211457,1,2,0:0:0:0:
448,192,211457,1,0,0:0:0:0:
192,192,211541,1,0,0:0:0:70:Cymbal.wav
64,192,211541,1,4,0:0:0:0:
192,192,211708,1,0,0:0:0:70:openHH.wav
64,192,211876,1,4,0:0:0:0:
192,192,211876,1,2,0:0:0:0:
320,192,211876,1,8,0:0:0:0:
448,192,211876,1,0,0:0:0:0:
320,192,212043,1,0,0:0:0:70:openHH.wav
448,192,212211,1,4,0:0:0:0:
192,192,212211,1,0,0:0:0:0:
64,192,212211,1,0,0:0:0:0:
192,192,212379,1,0,0:0:0:70:openHH.wav
448,192,212546,1,2,0:0:0:0:
320,192,212546,1,8,0:0:0:0:
192,192,212546,1,4,0:0:0:0:
64,192,212546,1,0,0:0:0:0:
64,192,212714,1,0,0:0:0:70:openHH.wav
192,192,212881,1,4,0:0:0:0:
320,192,212881,1,0,0:0:0:0:
448,192,212881,1,0,0:0:0:0:
320,192,213049,1,0,0:0:0:70:openHH.wav
448,192,213216,1,4,0:0:0:0:
320,192,213216,1,8,0:0:0:0:
192,192,213216,1,2,0:0:0:0:
64,192,213216,1,0,0:0:0:0:
448,192,213384,1,0,0:0:0:70:openHH.wav
320,192,213552,1,4,0:0:0:0:
64,192,213552,1,0,0:0:0:0:
192,192,213552,1,0,0:0:0:0:
192,192,213719,1,0,0:0:0:70:openHH.wav
448,192,213887,1,4,0:0:0:0:
320,192,213887,1,8,0:0:0:0:
192,192,213887,1,2,0:0:0:0:
64,192,213887,1,0,0:0:0:0:
320,192,214054,1,0,0:0:0:70:openHH.wav
64,192,214222,1,4,0:0:0:0:
192,192,214222,1,0,0:0:0:0:
448,192,214222,1,0,0:0:0:0:
64,192,214390,1,0,0:0:0:70:openHH.wav
64,192,214557,1,4,0:0:0:0:
192,192,214557,1,2,0:0:0:0:
320,192,214557,1,8,0:0:0:0:
448,192,214557,1,0,0:0:0:0:
448,192,214725,1,0,0:0:0:70:openHH.wav
64,192,214892,1,4,0:0:0:0:
192,192,214892,1,0,0:0:0:0:
320,192,214892,1,0,0:0:0:0:
320,192,215060,1,0,0:0:0:70:openHH.wav
64,192,215228,1,4,0:0:0:0:
192,192,215228,1,8,0:0:0:0:
320,192,215228,1,2,0:0:0:0:
448,192,215228,1,0,0:0:0:0:
192,192,215395,1,0,0:0:0:70:openHH.wav
448,192,215563,1,4,0:0:0:0:
64,192,215563,1,0,0:0:0:0:
320,192,215563,1,0,0:0:0:0:
448,192,215730,1,0,0:0:0:70:openHH.wav
64,192,215898,1,2,0:0:0:0:
192,192,215898,1,8,0:0:0:0:
320,192,215898,1,4,0:0:0:0:
448,192,215898,1,0,0:0:0:0:
192,192,216066,1,0,0:0:0:70:openHH.wav
64,192,216233,1,4,0:0:0:0:
320,192,216233,1,0,0:0:0:0:
448,192,216233,1,0,0:0:0:0:
320,192,216401,1,0,0:0:0:70:openHH.wav
448,192,216568,1,4,0:0:0:0:
320,192,216568,1,8,0:0:0:0:
192,192,216568,1,2,0:0:0:0:
64,192,216568,1,0,0:0:0:0:
64,192,216736,1,0,0:0:0:70:openHH.wav
64,192,216904,1,4,0:0:0:0:
448,192,216904,1,0,0:0:0:0:
320,192,216904,1,0,0:0:0:0:
320,192,217071,1,0,0:0:0:70:openHH.wav
64,192,217239,1,4,0:0:0:0:
192,192,217239,1,2,0:0:0:0:
320,192,217239,1,8,0:0:0:0:
448,192,217239,1,0,0:0:0:0:
192,192,217406,1,0,0:0:0:70:openHH.wav
320,192,217574,1,4,0:0:0:0:
448,192,217574,1,0,0:0:0:0:
64,192,217574,1,0,0:0:0:0:
448,192,217742,1,0,0:0:0:70:openHH.wav
448,192,217909,1,8,0:0:0:0:
320,192,217909,1,2,0:0:0:0:
192,192,217909,1,4,0:0:0:0:
64,192,217909,1,0,0:0:0:0:
64,192,218077,1,0,0:0:0:70:openHH.wav
192,192,218244,1,4,0:0:0:0:
320,192,218244,1,0,0:0:0:0:
448,192,218244,1,0,0:0:0:0:
320,192,218412,1,0,0:0:0:70:openHH.wav
448,192,218580,1,4,0:0:0:0:
320,192,218580,1,2,0:0:0:0:
192,192,218580,1,8,0:0:0:0:
64,192,218580,1,0,0:0:0:0:
192,192,218747,1,0,0:0:0:70:openHH.wav
64,192,218915,1,4,0:0:0:0:
192,192,218915,1,0,0:0:0:0:
448,192,218915,1,0,0:0:0:0:
448,192,219082,1,0,0:0:0:70:openHH.wav
192,192,219250,1,8,0:0:0:0:
64,192,219250,1,2,0:0:0:0:
320,192,219250,1,4,0:0:0:0:
448,192,219250,1,0,0:0:0:0:
64,192,219418,1,0,0:0:0:70:openHH.wav
448,192,219585,1,4,0:0:0:0:
192,192,219585,1,2,0:0:0:0:
64,192,219585,1,8,0:0:0:0:
192,192,219753,1,4,0:0:0:0:
320,192,219753,1,0,0:0:0:0:
64,192,219920,1,4,0:0:0:0:
320,192,219920,1,2,0:0:0:0:
448,192,219920,1,8,0:0:0:0:
192,192,220088,1,0,0:0:0:0:
320,192,220088,1,4,0:0:0:0:
448,192,220256,1,4,0:0:0:0:
192,192,220256,1,2,0:0:0:0:
64,192,220256,1,8,0:0:0:0:
192,192,220423,1,4,0:0:0:0:
320,192,220423,1,0,0:0:0:0:
64,192,220591,1,4,0:0:0:0:
320,192,220591,1,2,0:0:0:0:
448,192,220591,1,8,0:0:0:0:
320,192,220758,1,4,0:0:0:0:
192,192,220758,1,0,0:0:0:0:
64,192,220926,1,0,0:0:0:0:
192,192,220926,1,2,0:0:0:0:
320,192,221010,1,2,0:0:0:0:
448,192,221010,1,0,0:0:0:0:
64,192,221094,1,4,0:0:0:0:
192,192,221177,1,4,0:0:0:0:
320,192,221261,1,2,0:0:0:0:
448,192,221261,1,0,0:0:0:0:
192,192,221345,1,2,0:0:0:0:
64,192,221345,1,0,0:0:0:0:
448,192,221429,1,4,0:0:0:0:
320,192,221513,1,4,0:0:0:0:
192,192,221596,1,2,0:0:0:0:
64,192,221596,1,0,0:0:0:0:
448,192,221596,1,0,0:0:0:0:
320,192,221764,1,0,0:0:0:0:
64,192,221932,1,0,0:0:0:0:
192,192,222099,1,0,0:0:0:0:
320,192,222267,1,4,0:0:0:0:
64,192,222267,128,0,222770:0:0:0:0:
448,192,222267,128,0,222770:0:0:0:0:
320,192,222602,1,0,0:0:0:0:
192,192,222770,1,0,0:0:0:0:
64,192,222937,1,2,0:0:0:0:
448,192,222937,1,0,0:0:0:0:
192,192,222937,1,0,0:0:0:0:
320,192,223105,1,0,0:0:0:0:
448,192,223105,1,0,0:0:0:0:
64,192,223189,1,0,0:0:0:0:
192,192,223272,1,0,0:0:0:0:
320,192,223272,1,0,0:0:0:0:
192,192,223440,1,4,0:0:0:0:
64,192,223440,1,0,0:0:0:0:
448,192,223440,1,0,0:0:0:0:
64,192,223775,1,4,0:0:0:0:
192,192,223775,1,0,0:0:0:0:
448,192,223775,1,0,0:0:0:0:
448,192,223943,1,4,0:0:0:0:
320,192,223943,1,0,0:0:0:0:
64,192,224027,1,0,0:0:0:0:
320,192,224110,1,0,0:0:0:0:
192,192,224194,1,4,0:0:0:0:
448,192,224278,1,2,0:0:0:0:
64,192,224278,1,0,0:0:0:0:
192,192,224446,1,4,0:0:0:0:
64,192,224446,1,0,0:0:0:0:
320,192,224529,1,4,0:0:0:0:
448,192,224529,1,0,0:0:0:0:
192,192,224613,1,2,0:0:0:0:
64,192,224613,128,0,224948:0:0:0:0:
448,192,224948,1,4,0:0:0:0:
320,192,224948,1,0,0:0:0:0:
192,192,225032,1,4,0:0:0:0:
320,192,225116,1,4,0:0:0:0:
448,192,225116,1,0,0:0:0:0:
64,192,225284,1,2,0:0:0:0:
192,192,225284,1,0,0:0:0:0:
448,192,225284,128,0,225367:0:0:0:0:
320,192,225367,128,0,225451:0:0:0:0:
192,192,225451,128,0,225535:0:0:0:0:
64,192,225535,128,0,225619:0:0:0:0:
320,192,225619,1,2,0:0:0:0:
448,192,225619,1,0,0:0:0:0:
192,192,225703,1,4,0:0:0:0:
64,192,225703,1,0,0:0:0:0:
320,192,225870,1,2,0:0:0:0:
64,192,226122,128,0,226457:0:0:0:0:
192,192,226122,1,0,0:0:0:0:
448,192,226122,1,4,0:0:0:0:
448,192,226457,1,4,0:0:0:0:
320,192,226499,1,0,0:0:0:0:
192,192,226541,1,0,0:0:0:0:
64,192,226582,1,0,0:0:0:0:
448,192,226624,1,2,0:0:0:0:
64,192,226708,1,0,0:0:0:0:
192,192,226792,1,4,0:0:0:0:
320,192,226876,1,4,0:0:0:0:
448,192,226960,1,0,0:0:0:0:
64,192,226960,1,2,0:0:0:0:
192,192,227127,1,4,0:0:0:0:
64,192,227127,1,0,0:0:0:0:
320,192,227211,1,2,0:0:0:0:
448,192,227211,1,0,0:0:0:0:
192,192,227379,1,4,0:0:0:0:
64,192,227379,1,0,0:0:0:0:
320,192,227462,1,2,0:0:0:0:
448,192,227462,1,0,0:0:0:0:
448,192,227630,1,0,0:0:0:0:
192,192,227630,1,4,0:0:0:0:
64,192,227630,1,0,0:0:0:0:
192,192,227797,1,0,0:0:0:0:
64,192,227797,1,0,0:0:0:0:
320,192,227881,1,0,0:0:0:0:
448,192,227965,1,0,0:0:0:0:
192,192,227965,1,0,0:0:0:0:
64,192,228049,1,0,0:0:0:0:
448,192,228133,1,0,0:0:0:0:
320,192,228216,1,0,0:0:0:0:
192,192,228300,1,2,0:0:0:0:
64,192,228300,128,0,228552:0:0:0:0:
448,192,228300,128,0,228552:0:0:0:0:
64,192,228635,1,4,0:0:0:0:
192,192,228677,1,0,0:0:0:0:
320,192,228719,1,0,0:0:0:0:
448,192,228761,1,0,0:0:0:0:
64,192,228803,1,0,0:0:0:0:
192,192,228803,1,0,0:0:0:0:
448,192,228887,1,0,0:0:0:0:
320,192,228887,1,4,0:0:0:0:
192,192,229054,1,4,0:0:0:0:
64,192,229054,1,0,0:0:0:0:
320,192,229138,1,4,0:0:0:0:
448,192,229138,1,0,0:0:0:0:
192,192,229306,1,4,0:0:0:0:
320,192,229306,1,0,0:0:0:0:
64,192,229473,1,4,0:0:0:0:
448,192,229473,1,0,0:0:0:0:
448,192,229641,1,2,0:0:0:0:
320,192,229641,1,0,0:0:0:0:
64,192,229641,128,0,229976:0:0:0:0:
192,192,229809,128,0,229976:0:0:0:0:
320,192,229976,1,4,0:0:0:0:
448,192,229976,1,0,0:0:0:0:
192,192,230144,1,2,0:0:0:0:
320,192,230144,1,0,0:0:0:0:
64,192,230311,128,0,230982:0:0:0:0:
192,192,230479,1,4,0:0:0:0:
320,192,230535,1,0,0:0:0:0:
448,192,230591,1,0,0:0:0:0:
192,192,230647,1,2,0:0:0:0:
320,192,230730,1,0,0:0:0:0:
448,192,230814,1,0,0:0:0:0:
192,192,230898,1,0,0:0:0:0:
448,192,230982,128,0,231149:0:0:0:0:
320,192,230982,128,0,231066:0:0:0:0:
64,192,231233,128,0,231401:0:0:0:0:
192,192,231233,128,0,231317:0:0:0:0:
448,192,231485,128,0,231652:0:0:0:0:
320,192,231485,128,0,231568:0:0:0:0:
64,192,231652,1,4,0:0:0:0:
192,192,231652,1,0,0:0:0:0:
320,192,231652,1,0,0:0:0:0:
448,192,231987,1,2,0:0:0:0:
320,192,231987,1,0,0:0:0:0:
192,192,232071,1,2,0:0:0:0:
64,192,232071,1,0,0:0:0:0:
320,192,232155,1,4,0:0:0:0:
448,192,232155,1,0,0:0:0:0:
64,192,232155,1,0,0:0:0:0:
64,192,232490,1,2,0:0:0:0:
192,192,232490,1,0,0:0:0:0:
320,192,232574,1,2,0:0:0:0:
448,192,232574,1,0,0:0:0:0:
192,192,232658,1,4,0:0:0:0:
64,192,232658,128,0,232993:0:0:0:0:
448,192,232658,1,0,0:0:0:0:
448,192,232993,128,0,233328:0:0:0:0:
320,192,233161,128,0,233328:0:0:0:0:
192,192,233496,128,0,233580:0:0:0:0:
64,192,233663,1,0,0:0:0:0:
192,192,233663,1,2,0:0:0:0:
448,192,233663,1,0,0:0:0:0:
320,192,233747,1,0,0:0:0:0:
64,192,233831,1,0,0:0:0:0:
192,192,233915,1,0,0:0:0:0:
448,192,233999,1,0,0:0:0:0:
320,192,234082,1,0,0:0:0:0:
192,192,234166,1,4,0:0:0:0:
64,192,234166,1,0,0:0:0:0:
448,192,234166,1,0,0:0:0:0:
192,192,234501,1,0,0:0:0:0:
320,192,234669,1,4,0:0:0:0:
64,192,234669,1,0,0:0:0:0:
448,192,234669,1,0,0:0:0:0:
192,192,234753,1,0,0:0:0:0:
320,192,234837,1,0,0:0:0:0:
64,192,235004,1,2,0:0:0:0:
192,192,235172,1,4,0:0:0:0:
320,192,235172,1,0,0:0:0:0:
320,192,235339,1,0,0:0:0:0:
448,192,235339,1,2,0:0:0:0:
64,192,235423,1,4,0:0:0:0:
448,192,235507,1,0,0:0:0:0:
192,192,235507,1,2,0:0:0:0:
320,192,235591,1,0,0:0:0:0:
64,192,235675,1,0,0:0:0:0:
192,192,235675,1,0,0:0:0:0:
448,192,235758,1,4,0:0:0:0:
448,192,236010,1,4,0:0:0:0:
64,192,236010,128,0,236094:0:0:0:0:
192,192,236094,128,0,236177:0:0:0:0:
320,192,236177,128,0,236261:0:0:0:0:
448,192,236261,128,0,236345:0:0:0:0:
192,192,236345,1,0,0:0:0:0:
64,192,236345,1,2,0:0:0:0:
192,192,236596,1,2,0:0:0:0:
320,192,236596,1,0,0:0:0:0:
320,192,236848,1,4,0:0:0:0:
64,192,236848,128,0,237183:0:0:0:0:
448,192,236848,128,0,237602:0:0:0:0:
320,192,237183,1,4,0:0:0:0:
192,192,237239,1,0,0:0:0:0:
64,192,237295,1,0,0:0:0:0:
320,192,237351,1,2,0:0:0:0:
192,192,237434,1,0,0:0:0:0:
64,192,237518,1,0,0:0:0:0:
192,192,237602,1,4,0:0:0:0:
320,192,237686,1,4,0:0:0:0:
448,192,237686,1,0,0:0:0:0:
64,192,237853,1,4,0:0:0:0:
192,192,237853,1,0,0:0:0:0:
320,192,237937,1,0,0:0:0:0:
192,192,238021,1,2,0:0:0:0:
448,192,238021,1,0,0:0:0:0:
64,192,238105,1,0,0:0:0:0:
320,192,238189,1,0,0:0:0:0:
448,192,238356,128,0,238691:0:0:0:0:
64,192,238691,1,4,0:0:0:0:
192,192,238691,1,2,0:0:0:0:
320,192,238775,1,0,0:0:0:0:
448,192,238775,1,4,0:0:0:0:
192,192,238859,1,0,0:0:0:0:
64,192,238859,1,4,0:0:0:0:
320,192,238943,1,0,0:0:0:0:
448,192,238943,1,4,0:0:0:0:
192,192,239027,1,2,0:0:0:0:
64,192,239027,1,4,0:0:0:0:
192,192,239194,1,0,0:0:0:0:
320,192,239194,1,0,0:0:0:0:
64,192,239362,1,4,0:0:0:0:
320,192,239362,1,0,0:0:0:0:
448,192,239362,128,0,239865:0:0:0:0:
192,192,239865,1,4,0:0:0:0:
64,192,239865,1,0,0:0:0:0:
320,192,240032,1,4,0:0:0:0:
448,192,240032,1,0,0:0:0:0:
64,192,240116,1,0,0:0:0:0:
192,192,240200,1,0,0:0:0:0:
320,192,240200,1,0,0:0:0:0:
192,192,240367,1,2,0:0:0:0:
64,192,240367,1,0,0:0:0:0:
320,192,240535,1,0,0:0:0:0:
448,192,240535,1,0,0:0:0:0:
192,192,240619,1,0,0:0:0:0:
64,192,240619,1,0,0:0:0:0:
448,192,240703,1,0,0:0:0:0:
320,192,240703,1,0,0:0:0:0:
192,192,240786,1,0,0:0:0:0:
64,192,240786,1,0,0:0:0:0:
320,192,240870,1,0,0:0:0:0:
448,192,240870,1,0,0:0:0:0:
320,192,241038,1,2,0:0:0:0:
448,192,241038,1,4,0:0:0:0:
192,192,241038,1,0,0:0:0:0:
64,192,241205,1,4,0:0:0:0:
448,192,241205,1,0,0:0:0:0:
192,192,241373,1,4,0:0:0:0:
64,192,241373,1,2,0:0:0:0:
320,192,241373,1,0,0:0:0:0:
448,192,241541,1,4,0:0:0:0:
320,192,241541,1,0,0:0:0:0:
192,192,241708,1,2,0:0:0:0:
64,192,241708,1,4,0:0:0:0:
448,192,241708,1,0,0:0:0:0:
192,192,241876,1,4,0:0:0:0:
320,192,241876,1,0,0:0:0:0:
320,192,242043,1,4,0:0:0:0:
448,192,242043,1,2,0:0:0:0:
64,192,242043,1,0,0:0:0:0:
64,192,242211,1,4,0:0:0:0:
192,192,242211,1,0,0:0:0:0:
320,192,242379,1,4,0:0:0:0:
448,192,242379,1,2,0:0:0:0:
192,192,242462,1,0,0:0:0:0:
64,192,242462,1,4,0:0:0:0:
192,192,242714,1,0,0:0:0:0:
64,192,242714,1,4,0:0:0:0:
192,192,242881,1,4,0:0:0:0:
320,192,242881,1,0,0:0:0:0:
320,192,243049,1,2,0:0:0:0:
448,192,243049,1,0,0:0:0:0:
192,192,243384,1,0,0:0:0:0:
64,192,243719,1,0,0:0:0:70:Cymbal.wav
192,192,243719,1,0,0:0:0:0:
448,192,243719,1,4,0:0:0:0:
320,192,243719,1,0,0:0:0:0:
64,192,244054,1,8,0:0:0:0:
192,192,244054,1,2,0:0:0:0:
448,192,244054,1,0,0:0:0:0:
320,192,244054,1,4,0:0:0:0:
64,192,244222,1,0,0:0:0:0:
192,192,244222,1,0,0:0:0:0:
320,192,244306,1,0,0:0:0:0:
448,192,244306,1,0,0:0:0:0:
192,192,244390,1,4,0:0:0:0:
64,192,244390,1,0,0:0:0:0:
192,192,244557,1,0,0:0:0:0:
320,192,244557,1,0,0:0:0:0:
448,192,244725,1,2,0:0:0:0:
320,192,244725,1,8,0:0:0:0:
192,192,244725,1,4,0:0:0:0:
64,192,244725,1,0,0:0:0:0:
320,192,244892,1,0,0:0:0:0:
448,192,244892,1,0,0:0:0:0:
192,192,244976,1,0,0:0:0:0:
64,192,245060,1,4,0:0:0:0:
448,192,245060,1,0,0:0:0:0:
64,192,245395,1,14,0:0:0:0:
192,192,245437,1,0,0:0:0:0:
320,192,245479,1,0,0:0:0:0:
448,192,245521,1,0,0:0:0:0:
64,192,245563,1,0,0:0:0:0:
192,192,245605,1,0,0:0:0:0:
320,192,245647,1,0,0:0:0:0:
448,192,245689,1,0,0:0:0:0:
192,192,245730,1,0,0:0:0:0:
64,192,245730,1,4,0:0:0:0:
320,192,245814,1,0,0:0:0:0:
192,192,245898,1,0,0:0:0:0:
320,192,245982,1,0,0:0:0:0:
448,192,246066,1,2,0:0:0:0:
192,192,246066,1,8,0:0:0:0:
64,192,246066,1,4,0:0:0:0:
192,192,246401,1,4,0:0:0:0:
320,192,246401,128,0,246513:0:0:0:0:
448,192,246401,128,0,246513:0:0:0:0:
320,192,246568,128,0,246680:0:0:0:0:
448,192,246568,128,0,246680:0:0:0:0:
448,192,246736,1,2,0:0:0:0:
320,192,246736,1,8,0:0:0:0:
192,192,246736,1,4,0:0:0:0:
64,192,246736,1,0,0:0:0:0:
64,192,246904,1,0,0:0:0:0:
192,192,246904,1,0,0:0:0:0:
320,192,246987,1,0,0:0:0:0:
448,192,246987,1,0,0:0:0:0:
192,192,247071,1,4,0:0:0:0:
64,192,247071,1,0,0:0:0:0:
192,192,247239,1,0,0:0:0:0:
320,192,247239,1,0,0:0:0:0:
448,192,247406,1,8,0:0:0:0:
320,192,247406,1,2,0:0:0:0:
64,192,247406,1,4,0:0:0:0:
192,192,247406,1,0,0:0:0:0:
320,192,247574,1,0,0:0:0:0:
64,192,247742,1,4,0:0:0:0:
448,192,247742,1,0,0:0:0:0:
192,192,247742,1,0,0:0:0:0:
64,192,248077,1,4,0:0:0:0:
192,192,248077,1,2,0:0:0:0:
320,192,248077,1,8,0:0:0:0:
448,192,248077,1,0,0:0:0:0:
192,192,248244,1,0,0:0:0:0:
320,192,248244,1,0,0:0:0:0:
64,192,248412,1,2,0:0:0:0:
192,192,248454,1,0,0:0:0:0:
320,192,248496,1,0,0:0:0:0:
448,192,248538,1,0,0:0:0:0:
64,192,248580,1,4,0:0:0:0:
192,192,248622,1,0,0:0:0:0:
448,192,248663,1,2,0:0:0:0:
320,192,248705,1,0,0:0:0:0:
192,192,248747,1,4,0:0:0:0:
64,192,248747,1,10,0:0:0:0:
448,192,248915,1,0,0:0:0:0:
320,192,248915,1,2,0:0:0:0:
448,192,249082,1,4,0:0:0:0:
192,192,249082,1,0,0:0:0:0:
64,192,249082,1,0,0:0:0:0:
320,192,249418,1,0,0:0:0:0:
192,192,249418,1,0,0:0:0:0:
448,192,249585,1,4,0:0:0:0:
320,192,249669,1,4,0:0:0:0:
192,192,249753,1,2,0:0:0:0:
64,192,249753,128,0,250088:0:0:0:0:
320,192,249920,1,0,0:0:0:0:
448,192,249920,128,0,250088:0:0:0:0:
192,192,250088,1,0,0:0:0:0:
320,192,250256,1,4,0:0:0:0:
448,192,250256,128,0,250423:0:0:0:0:
192,192,250423,128,0,250591:0:0:0:0:
64,192,250423,128,0,250591:0:0:0:0:
320,192,250591,1,4,0:0:0:0:
448,192,250591,1,0,0:0:0:0:
64,192,250758,128,4,250842:0:0:0:0:
192,192,250758,1,0,0:0:0:0:
448,192,250842,128,0,250926:0:0:0:0:
192,192,250926,128,0,251010:0:0:0:0:
448,192,251010,128,4,251094:0:0:0:0:
64,192,251094,128,2,251177:0:0:0:0:
448,192,251177,128,0,251261:0:0:0:0:
192,192,251261,128,0,251345:0:0:0:0:
448,192,251345,128,0,251429:0:0:0:0:
64,192,251429,128,0,251513:0:0:0:0:
192,192,251513,128,0,251596:0:0:0:0:
320,192,251596,128,0,251680:0:0:0:0:
448,192,251680,128,0,251764:0:0:0:0:
192,192,251764,1,4,0:0:0:0:
64,192,251764,128,0,252267:0:0:0:0:
320,192,252099,1,0,0:0:0:0:
320,192,252267,1,0,0:0:0:0:
448,192,252434,128,2,252546:0:0:0:0:
192,192,252434,128,0,252546:0:0:0:0:
192,192,252602,128,0,252714:0:0:0:0:
448,192,252602,128,0,252714:0:0:0:0:
448,192,252770,128,0,252881:0:0:0:0:
192,192,252770,128,0,252881:0:0:0:0:
64,192,252937,1,0,0:0:0:0:
320,192,253021,1,4,0:0:0:0:
448,192,253021,1,0,0:0:0:0:
192,192,253105,1,4,0:0:0:0:
64,192,253105,1,0,0:0:0:0:
192,192,253272,1,4,0:0:0:0:
64,192,253272,1,0,0:0:0:0:
320,192,253440,1,2,0:0:0:0:
448,192,253440,1,0,0:0:0:0:
320,192,253608,1,4,0:0:0:0:
448,192,253608,1,0,0:0:0:0:
64,192,253691,1,0,0:0:0:0:
192,192,253691,1,4,0:0:0:0:
320,192,253775,1,2,0:0:0:0:
448,192,253775,1,0,0:0:0:0:
448,192,253943,1,0,0:0:0:0:
320,192,253943,1,2,0:0:0:0:
320,192,254110,1,2,0:0:0:0:
448,192,254110,1,0,0:0:0:0:
192,192,254278,1,0,0:0:0:0:
64,192,254446,1,0,0:0:0:70:Cymbal.wav
320,192,254446,1,4,0:0:0:0:
448,192,254446,1,0,0:0:0:0:
64,192,254781,1,8,0:0:0:0:
192,192,254781,1,2,0:0:0:0:
448,192,254781,1,0,0:0:0:0:
320,192,254781,1,4,0:0:0:0:
64,192,254948,1,0,0:0:0:0:
192,192,254948,1,0,0:0:0:0:
320,192,255032,1,0,0:0:0:0:
448,192,255032,1,0,0:0:0:0:
192,192,255116,1,4,0:0:0:0:
64,192,255116,1,0,0:0:0:0:
192,192,255284,1,0,0:0:0:0:
320,192,255284,1,0,0:0:0:0:
448,192,255451,1,2,0:0:0:0:
320,192,255451,1,4,0:0:0:0:
192,192,255451,1,8,0:0:0:0:
64,192,255451,1,0,0:0:0:0:
320,192,255619,1,0,0:0:0:0:
448,192,255619,1,0,0:0:0:0:
192,192,255703,1,0,0:0:0:0:
64,192,255786,1,4,0:0:0:0:
448,192,255786,1,0,0:0:0:0:
64,192,256122,1,14,0:0:0:0:
192,192,256163,1,0,0:0:0:0:
448,192,256205,1,0,0:0:0:0:
320,192,256247,1,0,0:0:0:0:
64,192,256289,1,0,0:0:0:0:
192,192,256331,1,0,0:0:0:0:
448,192,256373,1,0,0:0:0:0:
320,192,256415,1,0,0:0:0:0:
192,192,256457,1,4,0:0:0:0:
64,192,256457,1,0,0:0:0:0:
320,192,256541,1,0,0:0:0:0:
192,192,256624,1,0,0:0:0:0:
320,192,256708,1,0,0:0:0:0:
448,192,256792,1,2,0:0:0:0:
192,192,256792,1,4,0:0:0:0:
64,192,256792,1,8,0:0:0:0:
192,192,256960,128,0,257295:0:0:0:70:Cymbal.wav
64,192,256960,128,0,257295:0:0:0:0:
320,192,256960,1,4,0:0:0:0:
448,192,256960,1,0,0:0:0:0:
320,192,257295,1,4,0:0:0:0:
448,192,257295,1,0,0:0:0:0:
192,192,257379,1,4,0:0:0:0:
64,192,257379,1,0,0:0:0:0:
448,192,257462,1,10,0:0:0:0:
320,192,257462,1,4,0:0:0:0:
320,192,257630,1,0,0:0:0:0:
192,192,257630,1,0,0:0:0:0:
448,192,257797,1,4,0:0:0:0:
192,192,257797,1,0,0:0:0:0:
64,192,257797,1,0,0:0:0:0:
192,192,257965,1,0,0:0:0:0:
320,192,257965,1,0,0:0:0:0:
448,192,258133,1,8,0:0:0:0:
320,192,258133,1,4,0:0:0:0:
64,192,258133,1,2,0:0:0:0:
192,192,258133,1,0,0:0:0:0:
192,192,258300,1,0,0:0:0:0:
64,192,258468,1,4,0:0:0:0:
320,192,258468,1,0,0:0:0:0:
448,192,258468,1,0,0:0:0:0:
448,192,258635,1,4,0:0:0:0:
320,192,258635,1,0,0:0:0:0:
64,192,258803,1,2,0:0:0:0:
192,192,258803,1,12,0:0:0:0:
320,192,258971,1,4,0:0:0:0:
448,192,258971,1,0,0:0:0:0:
192,192,259054,1,4,0:0:0:0:
64,192,259138,1,0,0:0:0:0:
320,192,259138,1,2,0:0:0:0:
448,192,259138,1,0,0:0:0:0:
64,192,259306,1,0,0:0:0:0:
192,192,259306,1,4,0:0:0:0:
320,192,259390,1,2,0:0:0:0:
448,192,259390,1,0,0:0:0:0:
64,192,259557,1,0,0:0:0:0:
192,192,259557,1,4,0:0:0:0:
320,192,259641,1,2,0:0:0:0:
448,192,259641,1,0,0:0:0:0:
192,192,259725,1,4,0:0:0:0:
448,192,259809,1,0,0:0:0:0:
64,192,259809,1,4,0:0:0:0:
320,192,259809,1,0,0:0:0:0:
320,192,260144,1,0,0:0:0:0:
448,192,260144,1,0,0:0:0:0:
192,192,260311,1,0,0:0:0:0:
320,192,260395,1,0,0:0:0:0:
192,192,260479,1,2,0:0:0:0:
64,192,260479,128,0,260814:0:0:0:0:
320,192,260647,1,0,0:0:0:0:
448,192,260647,128,0,260814:0:0:0:0:
192,192,260814,1,4,0:0:0:0:
448,192,260982,128,0,261149:0:0:0:0:
64,192,261149,128,0,261317:0:0:0:0:
192,192,261149,128,0,261317:0:0:0:0:
320,192,261317,1,0,0:0:0:0:
448,192,261317,1,4,0:0:0:0:
64,192,261485,128,4,261568:0:0:0:0:
192,192,261485,1,0,0:0:0:0:
448,192,261568,128,4,261652:0:0:0:0:
192,192,261652,128,0,261736:0:0:0:0:
448,192,261736,128,4,261820:0:0:0:0:
64,192,261820,128,2,262155:0:0:0:0:
192,192,261820,128,0,262155:0:0:0:0:
448,192,262155,128,0,262239:0:0:0:0:
192,192,262239,128,0,262323:0:0:0:0:
320,192,262323,128,0,262406:0:0:0:0:
448,192,262406,128,0,262490:0:0:0:0:
192,192,262490,1,4,0:0:0:0:
64,192,262490,128,0,263161:0:0:0:0:
320,192,262825,1,0,0:0:0:0:
320,192,262993,1,0,0:0:0:0:
192,192,263161,128,2,263328:0:0:0:0:
448,192,263161,128,0,263663:0:0:0:0:
320,192,263328,128,0,263663:0:0:0:0:
192,192,263496,128,0,263663:0:0:0:0:
64,192,263663,1,0,0:0:0:0:
320,192,263747,1,4,0:0:0:0:
448,192,263747,1,0,0:0:0:0:
192,192,263831,1,4,0:0:0:0:
64,192,263831,1,0,0:0:0:0:
192,192,263999,1,4,0:0:0:0:
64,192,263999,1,0,0:0:0:0:
320,192,264166,1,2,0:0:0:0:
448,192,264166,1,0,0:0:0:0:
320,192,264334,1,4,0:0:0:0:
448,192,264334,1,0,0:0:0:0:
64,192,264418,1,0,0:0:0:0:
192,192,264418,1,4,0:0:0:0:
320,192,264501,1,2,0:0:0:0:
448,192,264501,1,0,0:0:0:0:
448,192,264669,1,0,0:0:0:0:
320,192,264669,1,2,0:0:0:0:
64,192,264837,1,2,0:0:0:0:
448,192,264837,1,0,0:0:0:0:
192,192,265004,1,0,0:0:0:0:
64,192,265172,1,4,0:0:0:0:
320,192,265172,1,0,0:0:0:0:
448,192,265172,1,0,0:0:0:0:
192,192,265339,1,0,0:0:0:0:
320,192,265507,1,0,0:0:0:0:
448,192,265675,1,0,0:0:0:0:
64,192,265842,1,0,0:0:0:0:
320,192,266010,1,0,0:0:0:0:
192,192,266177,1,0,0:0:0:0:
448,192,266345,1,0,0:0:0:0:
64,192,266513,128,0,266848:0:0:0:0:
192,192,266680,128,0,266848:0:0:0:0:
448,192,266848,128,0,267183:0:0:0:0:
320,192,267015,128,0,267183:0:0:0:0:
64,192,267183,128,0,267770:0:0:0:0:
192,192,267351,128,0,267770:0:0:0:0:
320,192,267518,128,0,267853:0:0:0:0:
448,192,267686,128,0,267853:0:0:0:0:
192,192,267853,1,4,0:0:0:0:
64,192,267853,128,0,270367:0:0:0:0:
