osu file format v14

[General]
AudioFilename: audio.mp3
AudioLeadIn: 0
PreviewTime: 43849
Countdown: 0
SampleSet: Soft
StackLeniency: 0.5
Mode: 0
LetterboxInBreaks: 0
WidescreenStoryboard: 1

[Editor]
Bookmarks: 23779,45231,66684,88136,109589,122997,144449,157857,168583,179310,200762,222215,243667,265120,270452
DistanceSpacing: 1
BeatDivisor: 4
GridSize: 32
TimelineZoom: 1.33

[Metadata]
Title:Bassdrop Freaks (2018 "Redrop" ver.)
TitleUnicode:べィスドロップ・フリークス (2018 "Redrop" ver.)
Artist:Camellia feat. Nanahira
ArtistUnicode:かめりあ feat. ななひら
Creator:Mir
Version:Normal
Source:beatmania IIDX 22 PENDUAL
Tags:Galaxy Burst dnb drum and bass drumstep lasse lmt lcfc lowcombofc
BeatmapID:1694296
BeatmapSetID:806859

[Difficulty]
HPDrainRate:2
CircleSize:3
OverallDifficulty:4
ApproachRate:6
SliderMultiplier:0.999999999999999
SliderTickRate:1

[Events]
//Background and Video events
0,0,"bassdroppu.jpg",0,0
//Break Periods
2,24031,33508
2,147191,155519
//Storyboard Layer 0 (Background)
//Storyboard Layer 1 (Fail)
//Storyboard Layer 2 (Pass)
//Storyboard Layer 3 (Foreground)
//Storyboard Sound Samples

[TimingPoints]
1039,335.195530726257,4,2,1,70,1,0
2379,-100,4,2,1,70,0,0
3050,-100,4,2,1,70,0,0
3552,-100,4,2,1,70,0,0
5564,-100,4,2,1,70,0,0
10089,-100,4,2,1,70,0,0
10424,-100,4,2,1,70,0,0
10927,-100,4,2,1,70,0,0
11765,-100,4,2,1,70,0,0
13106,-100,4,2,1,70,0,0
15452,-100,4,2,1,70,0,0
15787,-100,4,2,1,70,0,0
18133,-100,4,2,1,70,0,0
18469,-100,4,2,1,70,0,0
19139,-100,4,2,1,70,0,0
19809,-100,4,2,1,70,0,0
20815,-100,4,2,1,70,0,0
21150,-100,4,2,1,70,0,0
22156,-100,4,2,1,70,0,0
23161,-100,4,2,1,70,0,0
33888,-100,4,2,1,70,0,0
43944,-100,4,2,1,70,0,0
44614,-100,4,2,1,70,0,0
44782,-100,4,2,1,70,0,0
44949,-100,4,2,1,70,0,0
45284,-100,4,2,1,90,0,1
46122,-100,4,2,1,90,0,1
46457,-100,4,2,1,90,0,1
48804,-100,4,2,1,90,0,1
49307,-100,4,2,1,90,0,1
51485,-100,4,2,1,90,0,1
51821,-100,4,2,1,90,0,1
52994,-100,4,2,1,90,0,1
53036,-100,4,2,1,90,0,1
53078,-100,4,2,1,90,0,1
53203,-100,4,2,1,90,0,1
53245,-100,4,2,1,90,0,1
53329,-100,4,2,1,90,0,1
53999,-100,4,2,1,90,0,1
54502,-100,4,2,1,90,0,1
55675,-100,4,2,1,90,0,1
55927,-100,4,2,1,70,0,1
56011,-100,4,2,1,90,0,1
56849,-100,4,2,1,90,0,1
57184,-100,4,2,1,90,0,1
59530,-100,4,2,1,90,0,1
59865,-100,4,2,1,90,0,1
61709,-100,4,2,1,90,0,1
62044,-100,4,2,1,90,0,1
62379,-100,4,2,1,90,0,1
62714,-100,4,2,1,90,0,1
63720,-100,4,2,1,90,0,1
64055,-100,4,2,1,70,0,1
65396,-100,4,2,1,90,0,1
66150,-100,4,2,1,90,0,1
66402,-100,4,2,1,70,0,1
66737,-100,4,2,1,70,0,0
68748,-100,4,2,1,70,0,0
69083,-100,4,2,1,70,0,0
70089,-100,4,2,1,70,0,0
70759,-100,4,2,1,70,0,0
71765,-100,4,2,1,70,0,0
72100,-100,4,2,1,70,0,0
72770,-100,4,2,1,70,0,0
73273,-100,4,2,1,70,0,0
74446,-100,4,2,1,70,0,0
74782,-100,4,2,1,70,0,0
77128,-100,4,2,1,70,0,0
79809,-100,4,2,1,70,0,0
80145,-100,4,2,1,70,0,0
80647,-100,4,2,1,70,0,0
81318,-100,4,2,1,70,0,0
83329,-100,4,2,1,70,0,0
83497,-100,4,2,1,70,0,0
83999,-100,4,2,1,70,0,0
85675,-100,4,2,1,70,0,0
86765,-100,4,2,1,70,0,0
87184,-100,4,2,1,70,0,0
87854,-100,4,2,1,70,0,0
88189,-100,4,2,1,90,0,1
88860,-100,4,2,1,90,0,1
89363,-100,4,2,1,90,0,1
89865,-100,4,2,1,90,0,1
90201,-100,4,2,1,90,0,1
90368,-100,4,2,1,90,0,1
90620,-100,4,2,1,90,0,1
90703,-100,4,2,1,90,0,1
91039,-100,4,2,1,90,0,1
91541,-100,4,2,1,90,0,1
93133,-100,4,2,1,90,0,1
93301,-100,4,2,1,90,0,1
93385,-100,4,2,1,90,0,1
93888,-100,4,2,1,90,0,1
94223,-100,4,2,1,90,0,1
94558,-100,4,2,1,90,0,1
94726,-100,4,2,1,90,0,1
95564,-100,4,2,1,90,0,1
96234,-100,4,2,1,90,0,1
97575,-100,4,2,1,90,0,1
98245,-100,4,2,1,90,0,1
100089,-100,4,2,1,90,0,1
101430,-100,4,2,1,90,0,1
101932,-100,4,2,1,90,0,1
102603,-100,4,2,1,90,0,1
102938,-100,4,2,1,90,0,1
104279,-100,4,2,1,90,0,1
104614,-100,4,2,1,90,0,1
104865,-100,4,2,1,90,0,1
105201,-100,4,2,1,90,0,1
105452,-100,4,2,1,90,0,1
106290,-100,4,2,1,90,0,1
106625,-100,4,2,1,90,0,1
106960,-100,4,2,1,90,0,1
108971,-100,4,2,1,90,0,0
109642,-100,4,2,1,70,0,0
109726,-100,4,2,99,5,0,0
109809,-100,4,2,1,70,0,0
109893,-100,4,2,99,5,0,0
109976,-100,4,2,1,70,0,0
110061,-100,4,2,99,5,0,0
110144,-100,4,2,1,70,0,0
110228,-100,4,2,99,5,0,0
110311,-100,4,2,1,70,0,0
110396,-100,4,2,99,5,0,0
110479,-100,4,2,1,70,0,0
110564,-100,4,2,99,5,0,0
110647,-100,4,2,1,70,0,0
110731,-100,4,2,99,5,0,0
110814,-100,4,2,1,70,0,0
110899,-100,4,2,99,5,0,0
110982,-100,4,2,1,70,0,0
111066,-100,4,2,99,5,0,0
111149,-100,4,2,1,70,0,0
111234,-100,4,2,99,5,0,0
111317,-100,4,2,1,70,0,0
111402,-100,4,2,99,5,0,0
111485,-100,4,2,1,70,0,0
111569,-100,4,2,99,5,0,0
111652,-100,4,2,1,70,0,0
111737,-100,4,2,99,5,0,0
111820,-100,4,2,1,70,0,0
111904,-100,4,2,99,5,0,0
111987,-100,4,2,1,70,0,0
112659,-100,4,2,1,70,0,0
115005,-100,4,2,1,70,0,0
115340,-100,4,2,1,70,0,0
122212,-100,4,2,1,70,0,0
122379,-100,4,2,1,70,0,0
122547,-100,4,2,1,90,0,0
123385,-100,4,2,1,90,0,0
124055,-100,4,2,1,90,0,1
125270,-100,4,2,1,90,0,1
125312,-100,4,2,1,90,0,1
125438,-100,4,2,1,90,0,1
125480,-100,4,2,1,90,0,1
125606,-100,4,2,1,90,0,1
125648,-100,4,2,1,90,0,1
125731,-100,4,2,1,90,0,1
126066,-100,4,2,1,90,0,1
126402,-100,4,2,1,90,0,1
126485,-100,4,2,1,90,0,1
126569,-100,4,2,1,90,0,1
126821,-100,4,2,1,90,0,1
126905,-100,4,2,1,90,0,1
127156,-100,4,2,1,90,0,1
127240,-100,4,2,1,90,0,1
128329,-100,4,2,1,90,0,1
128413,-100,4,2,1,90,0,1
128748,-100,4,2,1,90,0,1
129418,-100,4,2,1,90,0,1
130424,-100,4,2,1,90,0,1
131094,-100,4,2,1,90,0,1
131765,-100,4,2,1,90,0,1
132268,-100,4,2,1,90,0,1
133692,-100,4,2,1,90,0,1
133776,-100,4,2,1,90,0,1
134111,-100,4,2,1,90,0,0
134782,-100,4,2,1,90,0,1
135117,-100,4,2,1,90,0,1
135997,-100,4,2,1,90,0,1
136039,-100,4,2,1,90,0,1
136164,-100,4,2,1,90,0,1
136206,-100,4,2,1,90,0,1
136332,-100,4,2,1,90,0,1
136374,-100,4,2,1,90,0,1
136457,-100,4,2,1,90,0,1
136793,-100,4,2,1,90,0,1
137128,-100,4,2,1,90,0,1
137212,-100,4,2,1,90,0,1
137296,-100,4,2,1,90,0,1
137547,-100,4,2,1,90,0,1
137631,-100,4,2,1,90,0,1
137882,-100,4,2,1,90,0,1
137966,-100,4,2,1,90,0,1
139139,-100,4,2,1,90,0,1
139474,-100,4,2,1,90,0,1
140145,-100,4,2,1,90,0,1
140480,-100,4,2,1,90,0,1
141150,-100,4,2,1,90,0,1
141821,-100,4,2,1,90,0,1
142491,-100,4,2,1,90,0,1
142994,-100,4,2,1,90,0,1
143832,-100,4,2,1,70,0,0
147184,-100,4,2,1,40,0,0
156569,-100,4,2,1,70,0,0
157575,-100,4,2,1,70,0,0
157910,-100,4,2,1,70,0,0
166457,-100,4,2,1,70,0,0
166960,-100,4,2,1,70,0,0
167379,-100,4,2,1,70,0,0
167966,-100,4,2,1,70,0,0
168301,-100,4,2,1,70,0,0
169977,-100,4,2,1,70,0,0
170983,-100,4,2,1,70,0,0
171318,-100,4,2,1,70,0,0
175340,-100,4,2,1,70,0,0
177351,-100,4,2,1,70,0,0
177519,-100,4,2,1,70,0,0
178357,-100,4,2,1,70,0,0
179363,-100,4,2,1,90,0,1
179698,-100,4,2,1,90,0,1
180703,-100,4,2,1,90,0,1
184055,-100,4,2,1,90,0,1
185061,-100,4,2,1,90,0,1
186066,-100,4,2,1,90,0,1
188078,-100,4,2,1,90,0,1
188580,-100,4,2,1,90,0,1
189754,-100,4,2,1,90,0,1
190005,-100,4,2,1,90,0,1
190089,-100,4,2,1,90,0,1
190424,-100,4,2,1,90,0,1
191430,-100,4,2,1,90,0,1
194698,-100,4,2,1,90,0,1
195452,-100,4,2,1,90,0,1
195787,-100,4,2,1,90,0,1
196457,-100,4,2,1,90,0,1
196793,-100,4,2,1,90,0,1
197128,-100,4,2,1,90,0,1
197463,-100,4,2,1,70,0,1
198133,-100,4,2,1,70,0,0
198469,-100,4,2,1,70,0,0
198804,-100,4,2,1,70,0,0
199139,-100,4,2,1,70,0,0
199474,-100,4,2,1,70,0,0
200480,-100,4,2,1,70,0,0
202072,-100,4,2,1,70,0,0
202156,-100,4,2,1,70,0,0
202407,-100,4,2,1,70,0,0
202491,-100,4,2,1,70,0,0
202659,-100,4,2,1,70,0,0
203497,-100,4,2,1,70,0,0
205843,-100,4,2,1,70,0,0
206178,-100,4,2,1,70,0,0
206849,-100,4,2,1,70,0,0
207184,-100,4,2,1,70,0,0
211457,-100,4,2,1,70,0,0
211541,-100,4,2,1,70,0,0
211876,-100,4,2,1,70,0,0
213720,-100,4,2,1,70,0,0
214055,-100,4,2,1,70,0,0
214097,-100,4,2,1,70,0,0
214139,-100,4,2,1,70,0,0
214223,-100,4,2,1,70,0,0
217240,-100,4,2,1,70,0,0
217575,-100,4,2,1,70,0,0
221639,-100,4,2,1,70,0,0
221681,-100,4,2,1,70,0,0
221807,-100,4,2,1,70,0,0
221849,-100,4,2,1,70,0,0
221932,-100,4,2,1,70,0,0
222184,-100,4,2,1,70,0,0
222268,-100,4,2,1,90,0,1
222938,-100,4,2,1,90,0,1
223441,-100,4,2,1,90,0,1
223944,-100,4,2,1,90,0,1
224279,-100,4,2,1,90,0,1
225284,-100,4,2,1,90,0,1
225620,-100,4,2,1,90,0,1
225787,-100,4,2,1,90,0,1
225829,-100,4,2,1,90,0,1
225871,-100,4,2,1,90,0,1
226122,-100,4,2,1,90,0,1
226457,-100,4,2,1,90,0,1
226625,-100,4,2,1,90,0,1
227631,-100,4,2,1,90,0,1
227966,-100,4,2,1,90,0,1
228301,-100,4,2,1,90,0,1
228636,-100,4,2,1,90,0,1
228888,-100,4,2,1,90,0,1
229307,-100,4,2,1,90,0,1
229642,-100,4,2,1,90,0,1
229977,-100,4,2,1,90,0,1
230145,-100,4,2,1,90,0,1
230480,-100,4,2,1,90,0,1
230647,-100,4,2,1,90,0,1
230983,-100,4,2,1,90,0,1
231485,-100,4,2,1,90,0,1
231653,-100,4,2,1,90,0,1
232072,-100,4,2,1,90,0,1
232156,-100,4,2,1,90,0,1
232575,-100,4,2,1,90,0,1
232659,-100,4,2,1,90,0,1
232994,-100,4,2,1,90,0,1
233664,-100,4,2,1,90,0,1
233999,-100,4,2,1,90,0,1
234167,-100,4,2,1,90,0,1
235173,-100,4,2,1,90,0,1
235592,-100,4,2,1,90,0,1
235843,-100,4,2,1,90,0,1
236011,-100,4,2,1,90,0,1
236346,-100,4,2,1,90,0,1
237687,-100,4,2,1,90,0,1
238106,-100,4,2,1,90,0,1
238692,-100,4,2,1,90,0,1
239027,-100,4,2,1,90,0,1
239363,-100,4,2,1,90,0,1
240368,-100,4,2,1,90,0,1
240703,-100,4,2,1,90,0,1
241039,-100,4,2,1,90,0,1
242379,-100,4,2,1,90,0,1
243050,-100,4,2,1,90,0,0
243720,-100,4,2,1,90,0,1
244055,-100,4,2,1,90,0,1
245061,-100,4,2,1,90,0,1
246066,-100,4,2,1,90,0,1
246402,-100,4,2,1,90,0,1
246569,-100,4,2,1,90,0,1
246737,-100,4,2,1,90,0,1
246904,-100,4,2,1,90,0,1
248413,-100,4,2,1,90,0,1
249083,-100,4,2,1,90,0,1
249754,-100,4,2,1,90,0,1
251430,-100,4,2,1,90,0,1
251765,-100,4,2,1,90,0,1
252435,-100,4,2,1,90,0,1
252477,-100,4,2,1,90,0,1
252519,-100,4,2,1,90,0,1
252645,-100,4,2,1,90,0,1
252687,-100,4,2,1,90,0,1
252812,-100,4,2,1,90,0,1
252854,-100,4,2,1,90,0,1
253273,-100,4,2,1,90,0,1
253776,-100,4,2,1,90,0,1
254111,-100,4,2,1,90,0,1
254446,-100,4,2,1,90,0,1
254782,-100,4,2,1,90,0,1
255787,-100,4,2,1,90,0,1
256122,-100,4,2,1,90,0,1
256793,-100,4,2,1,90,0,1
256960,-100,4,2,1,90,0,1
257463,-100,4,2,1,90,0,1
257631,-100,4,2,1,90,0,1
257798,-100,4,2,1,90,0,1
257966,-100,4,2,1,90,0,1
258133,-100,4,2,1,90,0,1
258301,-100,4,2,1,90,0,1
259809,-100,4,2,1,90,0,1
260480,-100,4,2,1,90,0,1
261821,-100,4,2,1,90,0,1
262491,-100,4,2,1,90,0,1
262826,-100,4,2,1,90,0,1
263832,-100,4,2,1,90,0,1
264837,-100,4,2,1,90,0,1
265173,-100,4,2,1,90,0,0
267854,-100,4,2,1,100,0,0
267896,-100,4,2,99,5,0,0

[Colours]
Combo1 : 150,252,208
Combo2 : 169,209,254
Combo3 : 247,166,233
Combo4 : 166,244,255

[HitObjects]
31,95,2379,6,0,L|149:87,1,99.9999999999999,6|0,3:2|0:0,0:0:0:0:
230,78,3050,2,0,P|239:130|228:193,1,99.9999999999999,8|0,0:2|0:2,0:0:0:0:
204,217,3552,2,0,B|264:212|264:212|291:219|291:219|362:212,1,150,6|8,3:2|0:2,0:0:0:0:
334,259,4223,2,0,B|394:254|394:254|421:261|421:261|482:254,1,150,6|0,3:2|0:2,0:0:0:0:
501,156,5061,6,0,P|478:94|353:101,1,200,6|8,3:2|0:2,0:0:0:0:
259,205,6234,2,0,L|151:193,1,99.9999999999999,6|8,3:2|0:2,0:0:0:0:
146,145,6737,1,8,0:2:0:0:
146,145,6904,2,0,P|75:159|41:240,1,150,6|0,3:2|0:2,0:0:0:0:
88,311,7742,6,0,L|294:291,1,200,6|2,3:2|0:2,0:0:0:0:
437,296,8916,2,0,P|422:218|426:137,1,150,6|8,3:2|0:2,0:0:0:0:
436,99,9586,2,0,P|386:115|281:83,1,150,6|0,3:2|0:2,0:0:0:0:
213,31,10424,5,6,3:2:0:0:
175,215,11765,6,0,B|140:211|140:211|127:216|127:216|87:207,3,74.9999999999999,6|6|6|6,3:2|3:2|3:2|3:2,0:0:0:0:
45,160,12770,2,0,P|63:119|73:102,1,50,2|0,0:2|0:2,0:0:0:0:
73,63,13106,6,0,P|142:81|228:65,1,150,6|0,3:2|0:2,0:0:0:0:
268,64,13776,2,0,P|281:14|282:4,2,50,10|2|2,0:2|0:2|0:2,0:0:0:0:
257,112,14279,1,0,0:0:0:0:
257,112,14446,2,0,B|245:159|245:159|265:223,1,99.9999999999999,0|0,3:2|0:2,0:0:0:0:
336,282,15117,2,0,B|348:329|348:329|332:378,1,99.9999999999999,8|0,0:2|0:2,0:0:0:0:
235,356,15787,6,0,P|168:347|84:353,1,150,6|2,3:2|0:2,0:0:0:0:
45,322,16457,2,0,P|14:352|0:367,2,50,8|0|2,0:2|0:2|0:2,0:0:0:0:
71,279,16960,1,0,0:0:0:0:
71,279,17128,2,0,P|79:217|78:209,1,50,2|0,3:2|3:2,0:0:0:0:
81,179,17463,1,10,0:2:0:0:
134,94,17798,2,0,P|127:69|125:45,2,50,10|10|10,0:2|0:2|0:2,0:0:0:0:
221,137,18469,6,0,P|301:116|385:121,1,150,4|0,3:2|0:2,0:0:0:0:
403,152,19139,2,0,B|412:200|412:200|389:228|389:228|411:299,1,150,10|2,0:2|0:2,0:0:0:0:
417,339,19809,2,0,P|331:331|307:338,1,99.9999999999999,6|0,3:2|0:2,0:0:0:0:
218,337,20480,2,0,P|195:368|187:387,2,50,8|0|2,0:2|0:2|0:2,0:0:0:0:
247,241,21150,6,0,P|250:184|231:142,1,99.9999999999999,6|0,3:2|3:2,0:0:0:0:
206,102,21653,1,0,3:2:0:0:
206,102,21821,2,0,L|95:96,1,99.9999999999999,10|0,0:2|3:2,0:0:0:0:
65,124,22323,1,0,3:2:0:0:
68,274,22826,2,0,L|60:328,1,50,0|0,3:2|3:2,0:0:0:0:
66,373,23161,6,0,B|148:327|169:398|271:329,1,200,10|6,0:2|3:2,0:0:0:0:
454,126,34558,6,0,P|386:157|270:107,1,200,4|0,3:2|0:2,0:0:0:0:
258,66,35396,1,0,3:2:0:0:
258,66,35564,1,8,0:2:0:0:
111,36,36066,1,0,3:2:0:0:
111,36,36234,2,0,P|115:83|111:157,1,99.9999999999999,8|0,0:2|0:2,0:0:0:0:
100,184,36737,1,0,3:2:0:0:
100,184,36904,1,8,0:2:0:0:
147,272,37240,6,0,P|221:258|259:265,1,99.9999999999999,0|8,3:2|0:2,0:0:0:0:
379,327,38078,1,0,3:2:0:0:
379,327,38245,2,0,P|369:283|366:212,1,99.9999999999999,8|0,0:2|0:2,0:0:0:0:
341,184,38748,1,0,3:2:0:0:
341,184,38915,2,0,P|342:138|358:69,1,99.9999999999999,8|0,0:2|0:2,0:0:0:0:
390,51,39418,1,0,3:2:0:0:
390,51,39586,1,8,0:2:0:0:
296,16,39921,6,0,P|216:9|174:14,1,99.9999999999999,10|10,0:2|0:2,0:0:0:0:
137,91,40592,2,0,P|87:92|37:85,1,99.9999999999999,10|10,0:2|0:2,0:0:0:0:
49,184,41262,2,0,L|64:296,1,99.9999999999999,10|10,0:2|0:2,0:0:0:0:
154,320,41932,2,0,L|167:220,1,99.9999999999999,10|10,0:2|0:2,0:0:0:0:
256,192,42603,12,0,43944,3:2:0:0:
87,72,45284,6,0,B|137:80|159:131|159:131|211:91|277:104,1,200,4|8,3:2|0:2,0:0:0:0:
295,129,46122,1,0,0:2:0:0:
387,91,46457,1,0,0:2:0:0:
387,91,46625,2,0,P|395:152|369:202,1,99.9999999999999,0|2,3:2|0:2,0:0:0:0:
290,228,47295,2,0,P|282:289|308:339,1,99.9999999999999,10|0,0:2|0:2,0:0:0:0:
395,336,47966,6,0,P|388:373|374:396,2,50,0|0|0,3:2|0:2|0:2,0:0:0:0:
469,268,48636,1,8,0:2:0:0:
469,268,48804,2,0,B|482:211|482:211|464:150,1,99.9999999999999,0|0,0:2|3:2,0:0:0:0:
447,126,49307,2,0,L|380:117,1,50,0|0,3:2|3:2,0:0:0:0:
348,108,49642,1,8,0:2:0:0:
247,92,49977,2,0,P|232:62|229:31,2,50,8|8|10,0:2|0:2|0:2,0:0:0:0:
287,183,50647,6,0,B|299:234|299:234|250:385,1,200,4|8,3:2|0:2,0:0:0:0:
204,362,51485,1,0,0:2:0:0:
111,322,51821,1,0,0:2:0:0:
111,322,51988,2,0,P|94:283|94:220,1,99.9999999999999,0|2,3:2|0:2,0:0:0:0:
19,157,52659,2,0,P|18:107|37:61,1,99.9999999999999,10|2,0:2|0:2,0:0:0:0:
135,78,53329,6,0,B|199:99|199:99|255:85|255:85|330:108,1,200,4|0,3:2|0:2,0:0:0:0:
442,202,54502,2,0,B|394:217|394:217|353:207|353:207|298:224,1,150,4|8,3:2|0:2,0:0:0:0:
250,240,55173,2,0,B|219:287|219:287|224:346,1,99.9999999999999,4|0,3:2|3:2,0:0:0:0:
228,380,55675,1,8,0:2:0:0:
132,348,56011,6,0,B|82:322|82:322|36:328|36:328|12:313|1:287|13:222,1,200,4|8,3:2|0:2,0:0:0:0:
39,203,56849,1,0,0:2:0:0:
57,104,57184,1,0,0:2:0:0:
57,104,57351,2,0,L|166:92,1,99.9999999999999,0|2,3:2|0:2,0:0:0:0:
236,33,58022,2,0,L|335:43,1,99.9999999999999,10|0,0:2|0:2,0:0:0:0:
407,113,58692,6,0,L|431:70,2,50,0|0|0,3:2|0:2|0:2,0:0:0:0:
312,145,59362,1,8,0:2:0:0:
312,145,59530,2,0,P|309:196|318:265,1,99.9999999999999,0|0,0:2|3:2,0:0:0:0:
333,290,60033,2,0,P|368:302|386:304,1,50,0|0,3:2|3:2,0:0:0:0:
429,292,60368,1,8,0:2:0:0:
454,195,60703,2,0,L|461:133,2,50,8|8|10,0:2|0:2|0:2,0:0:0:0:
488,231,61206,1,10,0:2:0:0:
488,231,61374,5,0,3:2:0:0:
345,90,62044,2,0,B|272:80|272:80|235:97,1,99.9999999999999,12|0,0:2|0:2,0:0:0:0:
155,129,62714,2,0,P|87:119|54:83,1,99.9999999999999,4|0,3:2|0:2,0:0:0:0:
63,49,63217,1,0,3:2:0:0:
63,49,63385,2,0,P|103:21|153:19,1,99.9999999999999,12|0,0:2|0:2,0:0:0:0:
240,69,64055,5,0,3:2:0:0:
351,178,65396,6,0,B|355:215|355:215|364:226|364:226|366:259,3,74.9999999999999,4|4|4|4,3:2|3:2|3:2|3:2,0:0:0:0:
354,323,66402,1,8,0:2:0:0:
270,271,66737,6,0,B|228:258|228:258|127:260|127:260|68:239,1,200,4|10,3:2|0:2,0:0:0:0:
56,195,67575,2,0,P|59:157|66:134,1,50,2|2,0:2|0:2,0:0:0:0:
88,103,67910,1,0,0:2:0:0:
88,103,68078,2,0,P|163:112|203:95,1,99.9999999999999,0|0,3:2|0:2,0:0:0:0:
241,22,68748,2,0,P|289:31|337:20,1,99.9999999999999,8|2,0:2|0:2,0:0:0:0:
416,81,69418,6,0,B|443:142|443:142|412:240,1,150,0|0,3:2|0:2,0:0:0:0:
405,270,70089,2,0,P|416:309|426:334,2,50,10|2|2,0:2|0:2|0:2,0:0:0:0:
315,225,70759,2,0,P|261:221|208:243,1,99.9999999999999,0|8,3:2|0:2,0:0:0:0:
134,290,71430,2,0,P|126:325|122:344,2,50,10|10|10,0:2|0:2|0:2,0:0:0:0:
218,236,72100,6,0,B|230:191|230:191|203:86,1,150,4|0,3:2|0:2,0:0:0:0:
188,43,72770,2,0,P|146:31|51:95,1,150,8|0,0:2|0:2,0:0:0:0:
46,128,73441,2,0,L|61:248,1,99.9999999999999,0|0,3:2|0:2,0:0:0:0:
82,324,74111,1,8,0:2:0:0:
176,355,74446,1,0,0:2:0:0:
229,270,74782,6,0,L|334:265,1,99.9999999999999,6|8,3:2|0:2,0:0:0:0:
393,188,75452,2,0,L|498:183,1,99.9999999999999,0|10,3:2|0:2,0:0:0:0:
458,89,76122,2,0,L|353:84,1,99.9999999999999,6|8,3:2|0:2,0:0:0:0:
257,79,76793,1,0,3:2:0:0:
157,72,77128,1,10,0:2:0:0:
196,164,77463,6,0,B|214:200|214:200|195:271,1,99.9999999999999,6|8,3:2|0:2,0:0:0:0:
100,371,78301,2,0,L|49:358,1,50,0|8,3:2|0:2,0:0:0:0:
13,325,78636,2,0,B|-5:289|-5:289|14:218,1,99.9999999999999,0|0,0:2|3:2,0:0:0:0:
26,183,79139,1,8,0:2:0:0:
26,183,79307,2,0,L|136:169,1,99.9999999999999,0|0,0:2|3:2,0:0:0:0:
174,161,79809,1,8,0:2:0:0:
235,240,80145,6,0,P|284:253|344:224,1,99.9999999999999,0|8,3:2|0:2,0:0:0:0:
360,198,80647,2,0,L|370:93,1,99.9999999999999,0|0,0:2|3:2,0:0:0:0:
345,54,81150,1,8,0:2:0:0:
345,54,81318,1,0,0:2:0:0:
249,25,81653,1,0,3:2:0:0:
161,72,81988,2,0,P|109:78|49:60,1,99.9999999999999,0|0,0:2|3:2,0:0:0:0:
26,32,82491,1,8,0:2:0:0:
1,128,82826,6,0,B|-5:181|-5:181|16:243,1,99.9999999999999,0|8,3:2|0:2,0:0:0:0:
34,268,83329,1,0,0:2:0:0:
34,268,83497,2,0,P|95:264|149:276,1,99.9999999999999,0|8,0:2|0:2,0:0:0:0:
178,359,84167,2,0,L|296:351,1,99.9999999999999,0|8,0:0|0:2,0:0:0:0:
319,324,84670,2,0,P|328:272|303:211,1,99.9999999999999,0|0,3:2|3:2,0:0:0:0:
275,196,85173,1,8,0:2:0:0:
177,175,85508,5,0,3:2:0:0:
309,25,86178,1,8,0:2:0:0:
139,36,86765,1,8,0:2:0:0:
139,36,86932,2,0,P|86:47|51:66,1,74.9999999999999,0|0,3:2|3:2,0:0:0:0:
54,104,87351,1,0,3:2:0:0:
54,104,87519,2,0,L|50:172,1,50,8|0,0:2|3:2,0:0:0:0:
12,185,87854,2,0,L|16:253,1,50,8|0,0:2|0:0,0:0:0:0:
26,283,88189,6,0,B|109:245|119:325|227:272,1,200,6|10,3:2|0:2,0:0:0:0:
366,73,89698,1,0,3:2:0:0:
366,73,89865,2,0,P|329:71|257:87,1,99.9999999999999,12|0,0:2|3:2,0:0:0:0:
227,113,90368,1,12,0:2:0:0:
139,63,90703,2,0,L|117:167,1,99.9999999999999,6|2,3:2|3:2,0:0:0:0:
100,207,91206,2,0,P|127:217|170:224,1,50,2|2,3:2|3:2,0:0:0:0:
197,213,91541,6,0,P|251:209|306:246,1,99.9999999999999,14|0,0:2|0:2,0:0:0:0:
319,270,92044,2,0,L|303:380,1,99.9999999999999,6|2,3:2|3:2,0:0:0:0:
254,366,92547,1,10,0:2:0:0:
162,326,92882,2,0,P|100:340|77:363,1,74.9999999999999,10|10,0:2|0:2,0:0:0:0:
25,381,93385,6,0,L|23:213,1,150,6|0,3:2|3:2,0:0:0:0:
65,140,94223,2,0,P|119:146|170:133,1,99.9999999999999,14|0,0:2|0:2,0:0:0:0:
209,117,94726,2,0,L|228:7,1,99.9999999999999,4|2,3:2|3:2,0:0:0:0:
273,4,95228,1,2,3:2:0:0:
354,62,95564,1,10,0:2:0:0:
446,23,95899,1,2,0:2:0:0:
498,107,96234,6,0,L|464:325,1,200,2|8,3:2|0:2,0:0:0:0:
376,346,97240,1,2,3:2:0:0:
321,262,97575,6,0,L|255:246,1,50,14|0,0:2|3:2,0:0:0:0:
250,295,97910,2,0,L|184:279,1,50,14|0,0:2|3:2,0:0:0:0:
170,322,98245,1,10,0:2:0:0:
87,139,98916,6,0,P|85:110|93:77,2,50,2|2|10,3:2|0:2|0:2,0:0:0:0:
131,228,99586,2,0,P|192:204|238:207,1,99.9999999999999,10|2,0:2|0:2,0:0:0:0:
267,232,100089,6,0,L|284:113,2,99.9999999999999,6|2|2,3:2|3:2|3:2,0:0:0:0:
280,280,100927,2,0,P|328:302|370:301,1,74.9999999999999,10|10,0:2|0:2,0:0:0:0:
404,251,101430,2,0,P|448:257|496:296,1,99.9999999999999,6|0,3:2|0:0,0:0:0:0:
485,339,101932,1,2,3:2:0:0:
388,366,102268,2,0,L|282:351,1,99.9999999999999,0|8,3:2|0:2,0:0:0:0:
219,280,102938,6,0,B|184:306|184:306|174:368,1,99.9999999999999,0|8,3:2|0:2,0:0:0:0:
75,361,103608,2,0,B|66:305|66:305|31:279,1,99.9999999999999,8|2,0:2|0:2,0:0:0:0:
83,193,104279,2,0,B|126:214|126:214|176:191,2,99.9999999999999,0|4|2,3:2|3:2|3:2,0:0:0:0:
44,48,105452,6,0,L|152:37,1,99.9999999999999,4|2,3:2|3:2,0:0:0:0:
184,66,105955,1,2,3:2:0:0:
267,11,106290,2,0,P|285:64|273:118,1,99.9999999999999,10|0,0:2|0:2,0:0:0:0:
225,191,106960,5,8,0:2:0:0:
300,256,107295,1,8,0:2:0:0:
231,329,107631,1,8,0:2:0:0:
156,262,107966,1,8,0:2:0:0:
225,191,108301,5,8,0:2:0:0:
299,257,108636,2,0,P|329:267|359:268,1,50,0|0,3:2|3:2,0:0:0:0:
395,255,108971,2,0,L|405:147,1,99.9999999999999,12|0,0:2|0:0,0:0:0:0:
349,71,109642,1,6,3:2:0:0:
256,192,109809,12,2,112323,0:2:0:0:
354,158,113161,5,0,3:2:0:0:
354,158,113328,2,0,P|299:160|250:141,1,99.9999999999999,8|0,0:2|0:0,0:0:0:0:
216,115,113831,1,0,3:2:0:0:
216,115,113999,2,0,L|97:113,1,99.9999999999999,8|2,0:2|0:2,0:0:0:0:
74,140,114502,1,2,3:2:0:0:
74,140,114670,1,10,0:2:0:0:
27,228,115005,6,0,B|17:280|17:280|53:336,1,99.9999999999999,4|8,3:2|0:2,0:0:0:0:
187,356,115843,1,0,3:2:0:0:
187,356,116011,2,0,L|294:344,1,99.9999999999999,8|0,0:2|0:2,0:0:0:0:
296,296,116513,1,0,3:2:0:0:
296,296,116681,2,0,L|403:308,2,99.9999999999999,10|2|8,0:2|0:2|0:2,0:0:0:0:
217,234,117687,5,12,0:2:0:0:
172,144,118022,1,8,0:2:0:0:
269,122,118357,5,8,0:2:0:0:
292,24,118692,1,8,0:2:0:0:
391,22,119027,5,8,0:2:0:0:
414,120,119362,1,8,0:2:0:0:
508,153,119698,5,8,0:2:0:0:
485,251,120033,1,8,0:2:0:0:
385,259,120368,5,8,3:2:0:0:
256,192,120536,12,0,121709,3:2:0:0:
87,147,123050,6,0,B|162:138|162:138|205:147|205:147|301:133,1,200,4|8,3:2|0:2,0:0:0:0:
349,59,124055,6,0,P|377:97|381:170,1,99.9999999999999,2|2,3:2|0:2,0:0:0:0:
363,193,124558,1,2,3:2:0:0:
363,193,124726,2,0,L|370:254,1,50,2|2,3:2|0:2,0:0:0:0:
405,277,125061,2,0,L|398:338,2,50,10|2|2,0:2|0:2|0:2,0:0:0:0:
307,297,125731,6,0,P|228:338|203:339,1,99.9999999999999,2|0,3:2|0:2,0:0:0:0:
124,305,126402,1,10,0:2:0:0:
194,234,126737,1,2,3:2:0:0:
137,151,127072,1,2,0:2:0:0:
191,67,127407,2,0,P|236:54|253:52,1,50,10|0,0:2|3:2,0:0:0:0:
278,23,127742,2,0,P|302:28|326:36,2,50,8|8|8,0:2|0:2|0:2,0:0:0:0:
278,123,128413,6,0,B|304:160|304:160|278:216,1,99.9999999999999,4|0,3:2|0:2,0:0:0:0:
194,259,129083,1,8,0:2:0:0:
272,321,129418,6,0,L|387:305,1,99.9999999999999,2|2,3:2|0:2,0:0:0:0:
401,267,129921,1,2,3:2:0:0:
401,267,130089,2,0,P|450:264|467:269,2,50,2|2|10,3:2|0:2|0:2,0:0:0:0:
211,204,131094,6,0,B|183:145|183:145|244:23,1,200,6|8,3:2|0:2,0:0:0:0:
375,95,132268,2,0,P|432:99|486:74,2,99.9999999999999,4|0|0,3:2|3:2|3:2,0:0:0:0:
341,132,133106,2,0,P|330:181|332:216,2,74.9999999999999,8|8|8,0:2|0:2|0:2,0:0:0:0:
338,81,133776,5,4,3:2:0:0:
139,57,134446,1,8,0:2:0:0:
86,142,134782,5,6,3:2:0:0:
144,223,135117,2,0,L|211:214,1,50,2|2,0:2|3:2,0:0:0:0:
233,246,135452,2,0,L|300:237,1,50,2|2,3:2|0:2,0:0:0:0:
324,266,135787,2,0,L|391:257,2,50,10|2|2,0:2|0:2|0:2,0:0:0:0:
263,345,136457,6,0,B|232:365|232:365|159:337,1,99.9999999999999,4|0,3:2|0:2,0:0:0:0:
86,291,137128,1,10,0:2:0:0:
153,216,137463,1,2,3:2:0:0:
94,134,137798,1,2,0:2:0:0:
168,67,138133,2,0,P|210:59|236:57,1,50,10|0,0:2|3:2,0:0:0:0:
257,27,138469,2,0,P|281:30|306:35,2,50,8|8|8,0:2|0:2|0:2,0:0:0:0:
274,125,139139,5,0,3:2:0:0:
291,223,139474,1,0,0:2:0:0:
111,311,140145,5,6,3:2:0:0:
208,331,140480,2,0,L|274:344,1,50,2|2,0:2|3:2,0:0:0:0:
299,313,140815,2,0,L|366:308,1,50,2|2,3:2|0:2,0:0:0:0:
378,269,141150,2,0,L|441:247,2,50,10|2|2,0:2|0:2|0:2,0:0:0:0:
305,199,141821,6,0,B|274:163|274:163|265:93,1,99.9999999999999,0|0,3:2|0:2,0:0:0:0:
284,12,142491,1,10,0:2:0:0:
165,103,142994,6,0,L|163:166,1,50,6|2,3:2|0:2,0:0:0:0:
133,193,143329,2,0,L|135:256,1,50,2|2,3:2|0:2,0:0:0:0:
105,283,143664,1,0,3:2:0:0:
105,283,143832,6,0,P|155:311|179:339,2,74.9999999999999,8|8|4,0:2|0:3|0:3,0:0:0:0:
63,311,144502,1,0,3:2:0:0:
268,202,156569,6,0,B|238:197|238:197|220:204|220:204|178:194,3,74.9999999999999,6|2|2|2,3:2|3:2|3:2|3:2,0:0:0:0:
124,224,157575,2,0,P|120:259|119:287,1,50,10|0,0:2|0:0,0:0:0:0:
124,326,157910,6,0,L|330:342,1,200,4|8,3:2|0:2,0:0:0:0:
418,227,159083,2,0,B|360:226|360:226|340:241|340:241|274:236,1,150,4|8,3:2|0:2,0:0:0:0:
233,206,159754,2,0,P|228:150|268:102,1,99.9999999999999,4|0,3:2|0:2,0:0:0:0:
295,94,160256,1,0,0:2:0:0:
218,29,160592,6,0,B|142:21|142:21|109:39,1,99.9999999999999,4|0,3:2|0:2,0:0:0:0:
60,111,161262,2,0,L|73:216,1,99.9999999999999,8|0,0:2|0:2,0:0:0:0:
85,258,161765,2,0,P|130:256|193:282,1,99.9999999999999,4|8,3:2|0:2,0:0:0:0:
202,319,162268,1,8,0:2:0:0:
202,319,162435,2,0,P|248:336|298:334,1,99.9999999999999,4|0,3:2|0:2,0:0:0:0:
340,307,162938,1,2,0:2:0:0:
285,223,163273,6,0,B|263:180|263:180|276:116,1,99.9999999999999,4|0,3:2|0:2,0:0:0:0:
292,30,163944,2,0,L|398:43,1,99.9999999999999,8|0,0:2|0:2,0:0:0:0:
438,59,164446,2,0,P|459:110|459:175,1,99.9999999999999,4|0,3:2|0:2,0:0:0:0:
472,203,164949,1,8,0:2:0:0:
472,203,165117,2,0,P|467:252|448:298,1,99.9999999999999,4|0,3:2|0:2,0:0:0:0:
410,331,165620,1,0,0:2:0:0:
327,275,165955,5,6,3:2:0:0:
256,192,166122,12,0,167379,0:0:0:0:
341,114,168636,6,0,L|224:103,1,99.9999999999999,12|8,3:2|3:2,0:0:0:0:
161,44,169307,2,0,L|44:33,1,99.9999999999999,8|8,3:2|3:2,0:0:0:0:
52,134,169977,2,0,L|169:145,1,99.9999999999999,8|8,3:2|3:2,0:0:0:0:
231,203,170647,1,8,3:2:0:0:
315,148,170983,1,0,3:2:0:0:
315,148,171318,6,0,P|336:186|322:252,1,99.9999999999999,8|8,3:2|3:2,0:0:0:0:
266,318,171988,2,0,P|228:339|161:325,1,99.9999999999999,8|8,3:2|3:2,0:0:0:0:
100,263,172659,2,0,P|79:225|92:158,1,99.9999999999999,8|8,3:2|3:2,0:0:0:0:
132,82,173329,2,0,L|199:77,1,50,10|2,0:2|0:2,0:0:0:0:
217,42,173664,2,0,L|266:45,1,50,2|2,0:2|0:2,0:0:0:0:
314,61,173999,6,0,P|347:110|347:167,1,99.9999999999999,8|8,3:2|3:2,0:0:0:0:
250,147,174670,2,0,P|217:196|217:253,1,99.9999999999999,8|8,3:2|3:2,0:0:0:0:
269,318,175340,1,8,3:2:0:0:
348,257,175675,1,8,3:2:0:0:
422,323,176011,1,8,3:2:0:0:
493,253,176346,1,8,3:2:0:0:
256,192,176681,12,0,178022,3:2:0:0:
89,83,179363,6,0,L|205:102,1,99.9999999999999,4|8,3:2|3:2,0:0:0:0:
230,73,179865,1,0,0:2:0:0:
230,73,180033,2,0,L|298:65,1,50,0|0,3:2|0:2,0:0:0:0:
329,63,180368,2,0,L|397:55,1,50,8|0,3:2|0:2,0:0:0:0:
428,50,180703,6,0,B|442:84|442:84|426:167,1,99.9999999999999,0|10,3:2|0:2,0:0:0:0:
384,235,181374,1,2,3:2:0:0:
294,191,181709,2,0,P|246:187|189:213,1,99.9999999999999,10|0,3:2|3:2,0:0:0:0:
130,278,182379,1,8,3:2:0:0:
54,212,182714,2,0,L|66:104,1,99.9999999999999,0|8,3:2|3:2,0:0:0:0:
115,26,183385,6,0,B|161:24|161:24|226:54,1,99.9999999999999,0|8,3:2|3:2,0:0:0:0:
295,98,184055,1,0,3:2:0:0:
385,54,184390,1,8,3:2:0:0:
387,154,184726,6,0,B|389:199|389:199|385:212|385:212|390:271,1,99.9999999999999,4|8,3:2|3:2,0:0:0:0:
302,304,185396,2,0,B|257:278|257:278|193:272,1,99.9999999999999,0|8,3:2|3:2,0:0:0:0:
137,203,186066,2,0,B|111:248|111:248|105:312,1,99.9999999999999,0|10,3:2|3:2,0:0:0:0:
179,364,186737,1,2,3:2:0:0:
209,273,187072,2,0,L|229:221,1,50,8|0,3:2|3:2,0:0:0:0:
247,180,187407,6,0,P|230:134|241:62,1,99.9999999999999,4|8,3:2|3:2,0:0:0:0:
308,18,188078,2,0,L|368:28,2,50,0|0|8,3:2|0:2|3:2,0:0:0:0:
256,9,188580,2,0,L|193:-3,1,50,0|0,0:2|3:2,0:0:0:0:
112,25,189083,1,8,3:2:0:0:
112,25,189251,2,0,P|88:66|77:127,1,99.9999999999999,0|0,0:2|0:2,0:0:0:0:
110,154,189754,2,0,P|112:203|107:223,1,50,8|0,3:2|0:2,0:0:0:0:
85,246,190089,6,0,L|206:238,1,99.9999999999999,4|8,3:2|3:2,0:0:0:0:
238,155,190759,2,0,L|337:161,1,99.9999999999999,0|8,3:2|3:2,0:0:0:0:
383,181,191262,1,0,0:2:0:0:
383,181,191430,2,0,P|393:235|378:291,1,99.9999999999999,0|10,3:2|3:2,0:0:0:0:
309,345,192100,2,0,L|247:350,1,50,2|2,3:2|0:2,0:0:0:0:
219,318,192435,1,8,3:2:0:0:
170,230,192770,6,0,P|146:245|129:278,2,50,0|0|8,3:2|0:2|3:2,0:0:0:0:
219,224,193273,1,0,0:2:0:0:
219,224,193441,2,0,L|227:118,1,99.9999999999999,0|8,3:2|3:2,0:0:0:0:
203,27,194111,2,0,P|267:31|304:63,1,99.9999999999999,0|8,3:2|0:2,0:0:0:0:
381,100,194782,2,0,L|389:157,1,50,0|2,0:0|3:3,0:0:0:0:
398,198,195117,2,0,L|406:255,1,50,8|2,0:2|3:3,0:0:0:0:
413,296,195452,5,0,3:2:0:0:
213,306,196122,1,10,0:2:0:0:
145,232,196457,6,0,L|84:239,1,50,4|0,3:2|0:2,0:0:0:0:
50,214,196793,1,2,0:2:0:0:
24,117,197128,1,2,3:2:0:0:
100,52,197463,2,0,P|152:94|245:98,1,150,10|0,0:2|0:0,0:0:0:0:
272,70,198133,5,0,3:2:0:0:
375,69,199474,6,0,B|359:95|359:95|361:108|361:108|351:154,3,74.9999999999999,4|4|4|4,3:2|3:2|3:2|3:2,0:0:0:0:
375,212,200480,2,0,L|383:270,1,50,8|8,0:2|0:2,0:0:0:0:
391,310,200815,5,0,3:2:0:0:
102,111,201988,2,0,P|65:151|58:215,2,99.9999999999999,12|12|12,0:2|0:2|0:2,0:0:0:0:
234,41,203161,1,8,0:2:0:0:
316,98,203497,6,0,B|326:151|326:151|302:208,1,99.9999999999999,4|8,3:2|3:2,0:0:0:0:
212,220,204167,2,0,B|202:273|202:273|226:330,1,99.9999999999999,0|8,3:2|3:2,0:0:0:0:
255,350,204670,2,0,L|370:338,1,99.9999999999999,0|0,0:2|0:2,0:0:0:0:
402,352,205173,1,8,3:2:0:0:
402,352,205340,2,0,B|419:309|419:309|409:256,1,99.9999999999999,0|0,0:2|0:2,0:0:0:0:
392,209,205843,1,8,3:2:0:0:
361,113,206178,6,0,P|298:130|254:106,1,99.9999999999999,0|8,3:2|3:2,0:0:0:0:
184,62,206849,2,0,B|135:52|135:52|80:69,1,99.9999999999999,0|8,3:2|3:2,0:0:0:0:
87,116,207351,2,0,L|111:224,1,99.9999999999999,0|0,0:2|0:2,0:0:0:0:
208,219,208022,2,0,L|184:327,1,99.9999999999999,0|0,0:2|0:2,0:0:0:0:
218,355,208525,1,8,3:2:0:0:
309,315,208860,6,0,B|375:294|375:294|418:311,1,99.9999999999999,0|8,3:2|3:2,0:0:0:0:
440,212,209530,2,0,B|374:191|374:191|331:208,1,99.9999999999999,0|8,3:2|0:2,0:0:0:0:
311,107,210201,2,0,B|377:86|377:86|420:103,1,99.9999999999999,0|8,3:2|0:2,0:0:0:0:
482,33,210871,2,0,L|541:33,2,50,0|8|8,3:2|0:2|0:2,0:0:0:0:
405,97,211541,6,0,P|349:99|295:69,1,99.9999999999999,4|8,3:2|3:2,0:0:0:0:
219,38,212212,2,0,L|198:152,1,99.9999999999999,2|10,3:2|3:2,0:0:0:0:
216,183,212714,2,0,P|179:211|110:232,1,99.9999999999999,0|0,0:2|0:2,0:0:0:0:
81,213,213217,1,8,3:2:0:0:
81,213,213385,2,0,L|102:327,1,99.9999999999999,0|0,0:2|0:2,0:0:0:0:
107,360,213888,1,8,3:2:0:0:
196,316,214223,6,0,P|249:288|305:289,1,99.9999999999999,0|8,3:2|3:2,0:0:0:0:
328,315,214726,2,0,L|440:313,1,99.9999999999999,0|0,0:2|0:2,0:0:0:0:
469,285,215228,1,8,3:2:0:0:
469,285,215396,1,0,0:2:0:0:
427,194,215731,1,0,0:2:0:0:
473,105,216066,2,0,P|481:50|455:-6,1,99.9999999999999,0|0,0:2|0:2,0:0:0:0:
416,5,216569,1,8,0:2:0:0:
336,65,216904,6,0,B|281:48|281:48|229:69,1,99.9999999999999,0|8,3:2|3:2,0:0:0:0:
200,92,217407,2,0,L|206:203,1,99.9999999999999,0|2,0:0|0:2,0:0:0:0:
210,241,217910,1,10,3:2:0:0:
301,281,218245,6,0,P|291:300|205:337,1,99.9999999999999,2|8,3:2|3:2,0:0:0:0:
175,332,218748,2,0,P|156:322|118:236,1,99.9999999999999,0|0,0:2|0:2,0:0:0:0:
120,206,219251,2,0,P|129:185|159:157,1,50,10|2,3:2|0:2,0:0:0:0:
188,137,219586,6,0,L|200:14,1,99.9999999999999,8|8,0:2|0:2,0:0:0:0:
297,31,220256,2,0,L|306:130,1,99.9999999999999,8|8,0:2|0:2,0:0:0:0:
384,194,220927,2,0,L|489:179,1,99.9999999999999,8|8,0:2|0:2,0:0:0:0:
461,277,221597,2,0,L|400:286,1,50,10|2,0:2|0:2,0:0:0:0:
362,293,221932,1,0,0:2:0:0:
275,335,222268,6,0,P|262:264|308:207,1,150,4|0,3:2|0:2,0:0:0:0:
343,171,222938,1,8,0:2:0:0:
292,84,223273,1,2,0:2:0:0:
292,84,223441,6,0,L|176:72,1,99.9999999999999,4|0,3:2|3:2,0:0:0:0:
144,88,223944,1,0,3:2:0:0:
45,72,224279,2,0,L|56:145,1,50,8|0,0:2|3:2,0:0:0:0:
63,170,224614,2,0,L|74:243,1,50,8|0,0:2|0:0,0:0:0:0:
85,267,224949,1,0,3:2:0:0:
180,236,225284,6,0,P|247:231|296:254,1,99.9999999999999,6|10,3:2|0:2,0:0:0:0:
316,305,225871,1,10,0:2:0:0:
386,281,226122,2,0,L|404:169,1,99.9999999999999,6|2,3:2|3:2,0:0:0:0:
366,146,226625,2,0,L|356:82,1,50,10|2,0:2|3:2,0:0:0:0:
354,46,226960,2,0,P|399:42|436:47,2,74.9999999999999,10|10|10,0:2|0:2|0:2,0:0:0:0:
103,37,228301,6,0,P|128:104|131:151,1,99.9999999999999,12|0,0:2|3:2,0:0:0:0:
111,204,228888,2,0,P|99:251|103:295,1,74.9999999999999,2|2,3:2|3:2,0:0:0:0:
118,323,229307,1,2,3:2:0:0:
118,323,229474,1,2,3:2:0:0:
166,334,229642,6,0,P|230:335|273:350,1,99.9999999999999,14|0,0:2|3:2,0:0:0:0:
287,301,230145,2,0,P|335:287|384:289,1,99.9999999999999,14|2,0:2|3:2,0:0:0:0:
405,243,230647,2,0,P|454:241|502:254,1,99.9999999999999,10|0,0:2|3:2,0:0:0:0:
397,84,231653,6,0,B|348:73|348:73|278:90,1,99.9999999999999,6|8,3:2|0:2,0:0:0:0:
251,100,232156,2,0,B|202:111|202:111|132:94,1,99.9999999999999,6|8,3:2|0:2,0:0:0:0:
106,83,232659,1,6,3:2:0:0:
35,153,232994,6,0,B|35:206|35:206|8:239|8:239|37:306,1,150,2|0,3:2|0:0,0:0:0:0:
55,331,233664,2,0,P|97:323|160:321,1,99.9999999999999,14|0,0:2|0:2,0:0:0:0:
195,348,234167,2,0,L|212:236,1,99.9999999999999,6|2,3:2|0:2,0:0:0:0:
252,223,234670,2,0,L|235:111,1,99.9999999999999,2|2,3:2|0:2,0:0:0:0:
221,76,235173,1,12,0:2:0:0:
349,229,235843,1,0,3:2:0:0:
349,229,236011,6,0,P|307:244|241:246,1,99.9999999999999,0|12,3:2|0:2,0:0:0:0:
193,201,236597,1,12,0:2:0:0:
121,224,236849,2,0,L|111:308,2,74.9999999999999,2|0|10,3:2|3:2|0:2,0:0:0:0:
52,192,237603,2,0,L|42:108,1,74.9999999999999,2|0,3:2|3:0,0:0:0:0:
33,68,238022,6,0,B|86:55|115:127|197:92,1,150,8|0,0:2|0:0,0:0:0:0:
208,60,238692,2,0,L|192:2,2,50,8|0|8,3:2|3:2|0:2,0:0:0:0:
241,154,239363,6,0,P|311:152|372:208,1,150,4|2,3:2|3:2,0:0:0:0:
377,251,240033,2,0,L|361:362,2,99.9999999999999,2|10|2,3:2|0:2|0:2,0:0:0:0:
457,191,241039,6,0,L|470:83,1,99.9999999999999,12|8,0:2|2:2,0:0:0:0:
374,58,241709,2,0,L|362:157,1,99.9999999999999,8|8,0:2|2:2,0:0:0:0:
268,193,242379,2,0,P|196:212|161:211,1,99.9999999999999,8|0,0:2|3:2,0:0:0:0:
124,192,242882,1,0,3:2:0:0:
124,192,243050,1,8,0:2:0:0:
29,367,243720,6,0,P|84:364|132:325,1,99.9999999999999,4|8,3:2|3:2,0:0:0:0:
153,302,244223,1,0,0:2:0:0:
153,302,244390,2,0,L|223:307,1,50,0|0,3:2|0:2,0:0:0:0:
252,313,244726,1,8,3:2:0:0:
346,279,245061,6,0,B|351:241|351:241|320:167,1,99.9999999999999,0|8,3:2|3:2,0:0:0:0:
305,139,245564,1,0,0:2:0:0:
305,139,245731,2,0,L|375:144,1,50,0|0,3:2|0:2,0:0:0:0:
404,143,246066,1,8,3:2:0:0:
464,222,246402,6,0,P|471:279|442:324,1,99.9999999999999,0|8,3:2|3:2,0:0:0:0:
406,337,246904,1,0,0:2:0:0:
406,337,247072,2,0,L|299:323,1,99.9999999999999,0|8,3:2|3:2,0:0:0:0:
267,293,247575,1,0,0:2:0:0:
267,293,247742,6,0,B|224:291|224:291|153:322,1,99.9999999999999,0|8,3:2|3:2,0:0:0:0:
83,361,248413,1,8,0:2:0:0:
80,261,248748,1,0,3:2:0:0:
80,161,249083,1,4,3:2:0:0:
240,40,249754,5,8,0:2:0:0:
240,40,249921,2,0,P|218:96|207:152,1,99.9999999999999,0|0,0:2|3:2,0:0:0:0:
235,177,250424,2,0,P|294:172|345:200,1,99.9999999999999,0|0,0:2|3:2,0:0:0:0:
384,271,251094,1,8,0:2:0:0:
329,355,251430,1,0,0:2:0:0:
427,374,251765,6,0,B|461:363|500:364|500:364|534:323|510:223,1,200,4|8,3:2|0:2,0:0:0:0:
475,211,252603,2,0,L|459:151,2,50,0|0|0,0:2|0:2|3:2,0:0:0:0:
427,228,253106,6,0,P|350:243|316:235,1,99.9999999999999,0|8,3:2|0:2,0:0:0:0:
298,200,253608,1,0,3:2:0:0:
298,200,253776,2,0,L|246:231,2,50,8|8|8,0:2|0:2|0:2,0:0:0:0:
352,116,254446,6,0,L|251:97,1,99.9999999999999,4|8,3:2|3:2,0:0:0:0:
203,93,254949,1,0,0:2:0:0:
203,93,255117,2,0,L|152:88,1,50,0|0,3:2|0:2,0:0:0:0:
103,83,255452,1,8,3:2:0:0:
39,160,255787,6,0,P|26:221|35:278,1,99.9999999999999,0|8,3:2|3:2,0:0:0:0:
96,332,256457,2,0,P|145:334|194:322,1,99.9999999999999,0|8,3:2|3:2,0:0:0:0:
172,277,256960,6,0,P|247:277|284:349,1,150,4|8,3:2|3:2,0:0:0:0:
383,322,257798,2,0,L|404:255,1,50,0|0,3:2|0:2,0:0:0:0:
354,249,258133,2,0,L|333:182,1,50,8|0,3:2|0:2,0:0:0:0:
323,153,258469,1,0,3:2:0:0:
378,69,258804,1,8,0:2:0:0:
280,47,259139,2,0,L|190:59,2,74.9999999999999,8|8|8,0:2|0:2|0:2,0:0:0:0:
317,13,259809,5,0,3:2:0:0:
167,146,260480,2,0,L|159:215,1,50,8|0,0:2|0:2,0:0:0:0:
156,245,260815,2,0,P|212:231|257:249,1,99.9999999999999,4|0,3:2|0:2,0:0:0:0:
285,279,261318,1,0,3:2:0:0:
285,279,261485,1,0,3:2:0:0:
377,240,261821,6,0,L|399:78,1,150,8|0,0:2|0:0,0:0:0:0:
399,41,262491,6,0,P|347:80|223:44,1,200,4|8,3:2|0:2,0:0:0:0:
79,80,263664,1,8,0:2:0:0:
79,80,263832,2,0,P|107:113|120:134,1,50,0|0,3:2|3:2,0:0:0:0:
122,167,264167,1,8,0:2:0:0:
148,263,264502,2,0,P|133:283|116:301,2,50,8|8|0,0:2|0:2|3:2,0:0:0:0:
229,204,265173,5,4,3:2:0:0:
256,192,265340,12,0,267854,3:0:0:0:
256,192,267938,12,0,270452,0:0:0:0:
