osu file format v14

[General]
AudioFilename: audio.mp3
AudioLeadIn: 0
PreviewTime: 43893
Countdown: 0
SampleSet: Soft
StackLeniency: 0.2
Mode: 0
LetterboxInBreaks: 0
WidescreenStoryboard: 0

[Editor]
Bookmarks: 270485
DistanceSpacing: 3.8
BeatDivisor: 4
GridSize: 4
TimelineZoom: 2.7

[Metadata]
Title:Bassdrop Freaks (2018 "Redrop" ver.)
TitleUnicode:べィスドロップ・フリークス (2018 "Redrop" ver.)
Artist:Camellia feat. Nanahira
ArtistUnicode:かめりあ feat.ななひら
Creator:[ Drop ]
Version:Extra
Source:
Tags:
BeatmapID:1592996
BeatmapSetID:757190

[Difficulty]
HPDrainRate:5
CircleSize:4
OverallDifficulty:8
ApproachRate:9.7
SliderMultiplier:2
SliderTickRate:1

[Events]
//Background and Video events
0,0,"Konachan.com - 261582 2girls brown_eyes brown_hair car long_hair original pantyhose paper short_hair skirt swav.png",0,0
//Break Periods
2,23981,28649
2,147133,154347
//Storyboard Layer 0 (Background)
//Storyboard Layer 1 (Fail)
//Storyboard Layer 2 (Pass)
//Storyboard Layer 3 (Foreground)
//Storyboard Sound Samples

[TimingPoints]
2329,335.195530726257,4,2,0,52,1,0
2329,-100,4,2,0,52,0,0
3502,-83.3333333333333,4,2,0,52,0,0
4675,-66.6666666666667,4,2,0,52,0,0
4842,-100,4,2,0,52,0,0
5010,-90.9090909090909,4,2,0,52,0,0
6016,-100,4,2,0,52,0,0
6183,-83.3333333333333,4,2,0,52,0,0
6518,-66.6666666666667,4,2,0,52,0,0
6854,-83.3333333333333,4,2,0,52,0,0
7356,-133.333333333333,4,2,0,52,0,0
7692,-83.3333333333333,4,2,0,52,0,0
8362,-100,4,2,0,52,0,0
8865,-83.3333333333333,4,2,0,52,0,0
10038,-50,4,2,0,52,0,0
10373,-200,4,2,0,52,0,0
11714,-50,4,2,0,52,0,0
12720,-133.333333333333,4,2,0,52,0,0
13055,-100,4,2,0,52,0,0
13725,-66.6666666666667,4,2,0,52,0,0
14396,-83.3333333333333,4,2,0,52,0,0
15401,-133.333333333333,4,2,0,52,0,0
15736,-83.3333333333333,4,2,0,52,0,0
16407,-90.9090909090909,4,2,0,52,0,0
17077,-66.6666666666667,4,2,0,52,0,0
17747,-58.8235294117647,4,2,0,52,0,0
18083,-50,4,2,0,52,0,0
18418,-83.3333333333333,4,2,0,52,0,0
19088,-133.333333333333,4,2,0,52,0,0
19759,-83.3333333333333,4,2,0,52,0,0
20429,-66.6666666666667,4,2,0,52,0,0
20764,-50,4,2,0,52,0,0
21099,-66.6666666666667,4,2,0,52,0,0
23781,-100,4,2,0,52,0,0
40206,-90.9090909090909,4,2,0,52,0,0
40541,-83.3333333333333,4,2,0,52,0,0
40876,-76.9230769230769,4,2,0,52,0,0
41211,-71.4285714285714,4,2,0,52,0,0
41546,-66.6666666666667,4,2,0,52,0,0
41882,-62.5,4,2,0,52,0,0
42217,-58.8235294117647,4,2,0,52,0,0
42552,-100,4,2,0,52,0,0
43893,-66.6666666666667,4,2,0,52,0,0
45234,-55.5555555555556,4,2,0,52,0,0
45736,-66.6666666666667,4,2,0,52,0,0
46574,-83.3333333333333,4,2,0,52,0,0
46910,-100,4,2,0,52,0,0
47580,-50,4,2,0,52,0,0
47915,-66.6666666666667,4,2,0,52,0,0
49256,-71.4285714285714,4,2,0,52,0,0
49926,-62.5,4,2,0,52,0,0
50597,-55.5555555555556,4,2,0,52,0,0
51099,-66.6666666666667,4,2,0,52,0,0
51937,-83.3333333333333,4,2,0,52,0,0
52273,-100,4,2,0,52,0,0
53278,-83.3333333333333,4,2,0,52,0,0
55960,-55.5555555555556,4,2,0,52,0,0
56462,-66.6666666666667,4,2,0,52,0,0
57300,-83.3333333333333,4,2,0,52,0,0
57636,-100,4,2,0,52,0,0
58306,-50,4,2,0,52,0,0
58641,-66.6666666666667,4,2,0,52,0,0
59982,-71.4285714285714,4,2,0,52,0,0
60652,-62.5,4,2,0,52,0,0
61323,-200,4,2,0,52,0,0
61993,-55.5555555555556,4,2,0,52,0,0
62329,-66.6666666666667,4,2,0,52,0,0
62664,-50,4,2,0,52,0,0
62999,-66.6666666666667,4,2,0,52,0,0
63334,-55.5555555555556,4,2,0,52,0,0
64004,-200,4,2,0,52,0,0
65345,-50,4,2,0,52,0,0
66351,-100,4,2,0,52,0,0
66686,-83.3333333333333,4,2,0,52,0,0
67356,-66.6666666666667,4,2,0,52,0,0
68027,-83.3333333333333,4,2,0,52,0,0
69032,-133.333333333333,4,2,0,52,0,0
69367,-83.3333333333333,4,2,0,52,0,0
69703,-50,4,2,0,52,0,0
70038,-66.6666666666667,4,2,0,52,0,0
71379,-58.8235294117647,4,2,0,52,0,0
71715,-50,4,2,0,52,0,0
72049,-83.3333333333333,4,2,0,52,0,0
72720,-125,4,2,0,52,0,0
73390,-83.3333333333333,4,2,0,52,0,0
74060,-58.8235294117647,4,2,0,52,0,0
74396,-50,4,2,0,52,0,0
74731,-83.3333333333333,4,2,0,52,0,0
76072,-71.4285714285714,4,2,0,52,0,0
77077,-133.333333333333,4,2,0,52,0,0
77412,-76.9230769230769,4,2,0,52,0,0
85122,-66.6666666666667,4,2,0,52,0,0
85457,-133.333333333333,4,2,0,52,0,0
86463,-66.6666666666667,4,2,0,52,0,0
88139,-200,4,2,0,52,0,0
88809,-100,4,2,0,52,0,0
89647,-66.6666666666667,4,2,0,52,0,0
90653,-83.3333333333333,4,2,0,52,0,0
90988,-66.6666666666667,4,2,0,52,0,0
91491,-83.3333333333333,4,2,0,52,0,0
92831,-58.8235294117647,4,2,0,52,0,0
93334,-83.3333333333333,4,2,0,52,0,0
94172,-111.111111111111,4,2,0,52,0,0
94675,-66.6666666666667,4,2,0,52,0,0
95513,-58.8235294117647,4,2,0,52,0,0
95848,-66.6666666666667,4,2,0,52,0,0
96183,-133.333333333333,4,2,0,52,0,0
97524,-50,4,2,0,52,0,0
98194,-200,4,2,0,52,0,0
99535,-66.6666666666667,4,2,0,52,0,0
100038,-83.3333333333333,4,2,0,52,0,0
100876,-50,4,2,0,52,0,0
101379,-133.333333333333,4,2,0,52,0,0
101882,-66.6666666666667,4,2,0,52,0,0
102217,-83.3333333333333,4,2,0,52,0,0
102887,-66.6666666666667,4,2,0,52,0,0
103558,-83.3333333333333,4,2,0,52,0,0
103893,-66.6666666666667,4,2,0,52,0,0
104228,-200,4,2,0,52,0,0
104563,-83.3333333333333,4,2,0,52,0,0
105401,-66.6666666666667,4,2,0,52,0,0
106574,-50,4,2,0,52,0,0
108250,-66.6666666666667,4,2,0,52,0,0
108921,-133.333333333333,4,2,0,52,0,0
109591,-55.5555555555556,4,2,0,52,0,0
111937,-133.333333333333,4,2,0,52,0,0
112273,-100,4,2,0,52,0,0
117971,-90.9090909090909,4,2,0,52,0,0
118306,-83.3333333333333,4,2,0,52,0,0
118641,-76.9230769230769,4,2,0,52,0,0
118976,-71.4285714285714,4,2,0,52,0,0
119311,-66.6666666666667,4,2,0,52,0,0
119647,-62.5,4,2,0,52,0,0
119982,-58.8235294117647,4,2,0,52,0,0
120317,-100,4,2,0,52,0,0
121658,-66.6666666666667,4,2,0,52,0,0
122999,-55.5555555555556,4,2,0,52,0,0
123502,-83.3333333333333,4,2,0,52,0,0
125178,-66.6666666666667,4,2,0,52,0,0
125680,-55.5555555555556,4,2,0,52,0,0
126351,-50,4,2,0,52,0,0
127356,-62.5,4,2,0,52,0,0
128362,-55.5555555555556,4,2,0,52,0,0
128865,-83.3333333333333,4,2,0,52,0,0
130541,-66.6666666666667,4,2,0,52,0,0
131044,-83.3333333333333,4,2,0,52,0,0
131714,-133.333333333333,4,2,0,52,0,0
132217,-71.4285714285714,4,2,0,52,0,0
133725,-142.857142857143,4,2,0,52,0,0
133893,-125,4,2,0,52,0,0
134060,-111.111111111111,4,2,0,52,0,0
134228,-100,4,2,0,52,0,0
134396,-90.9090909090909,4,2,0,52,0,0
134731,-83.3333333333333,4,2,0,52,0,0
135904,-66.6666666666667,4,2,0,52,0,0
136406,-55.5555555555556,4,2,0,52,0,0
137077,-50,4,2,0,52,0,0
138083,-62.5,4,2,0,52,0,0
139088,-133.333333333333,4,2,0,52,0,0
140094,-83.3333333333333,4,2,0,52,0,0
141267,-66.6666666666667,4,2,0,52,0,0
141770,-200,4,2,0,52,0,0
142440,-83.3333333333333,4,2,0,52,0,0
143781,-1000,4,2,0,52,0,0
154842,-200,4,2,0,52,0,0
156518,-50,4,2,0,52,0,0
157524,-200,4,2,0,52,0,0
157859,-83.3333333333333,4,2,0,52,0,0
160206,-66.6666666666667,4,2,0,52,0,0
160373,-100,4,2,0,52,0,0
160541,-90.9090909090909,4,2,0,52,0,0
161546,-100,4,2,0,52,0,0
161714,-83.3333333333333,4,2,0,52,0,0
162049,-66.6666666666667,4,2,0,52,0,0
162384,-83.3333333333333,4,2,0,52,0,0
162887,-133.333333333333,4,2,0,52,0,0
163222,-83.3333333333333,4,2,0,52,0,0
163893,-100,4,2,0,52,0,0
164396,-83.3333333333333,4,2,0,52,0,0
165569,-50,4,2,0,52,0,0
165904,-200,4,2,0,52,0,0
166910,-66.6666666666667,4,2,0,52,0,0
168585,-100,4,2,0,52,0,0
170932,-58.8235294117647,4,2,0,52,0,0
171267,-83.3333333333333,4,2,0,52,0,0
173278,-58.8235294117647,4,2,0,52,0,0
173446,-55.5555555555556,4,2,0,52,0,0
173613,-52.6315789473684,4,2,0,52,0,0
173781,-50,4,2,0,52,0,0
173949,-100,4,2,0,52,0,0
174284,-90.9090909090909,4,2,0,52,0,0
174619,-83.3333333333333,4,2,0,52,0,0
174954,-76.9230769230769,4,2,0,52,0,0
175289,-71.4285714285714,4,2,0,52,0,0
175624,-66.6666666666667,4,2,0,52,0,0
175960,-62.5,4,2,0,52,0,0
176295,-58.8235294117647,4,2,0,52,0,0
176630,-50,4,2,0,52,0,0
177971,-66.6666666666667,4,2,0,52,0,0
179312,-55.5555555555556,4,2,0,52,0,1
179815,-83.3333333333333,4,2,0,52,0,1
180150,-200,4,2,0,52,0,1
180317,-133.333333333333,4,2,0,52,0,1
180485,-66.6666666666667,4,2,0,52,0,1
180653,-83.3333333333333,4,2,0,52,0,1
180988,-100,4,2,0,52,0,1
181658,-50,4,2,0,52,0,1
181993,-66.6666666666667,4,2,0,52,0,1
182496,-83.3333333333333,4,2,0,52,0,1
182664,-125,4,2,0,52,0,1
182999,-83.3333333333333,4,2,0,52,0,1
183334,-50,4,2,0,52,0,1
183669,-83.3333333333333,4,2,0,52,0,1
183837,-66.6666666666667,4,2,0,52,0,1
184004,-62.5,4,2,0,52,0,1
184675,-55.5555555555556,4,2,0,52,0,1
185178,-83.3333333333333,4,2,0,52,0,1
185513,-200,4,2,0,52,0,1
185680,-133.333333333333,4,2,0,52,0,1
185848,-66.6666666666667,4,2,0,52,0,1
186016,-83.3333333333333,4,2,0,52,0,1
187356,-83.3333333333333,4,2,0,52,0,1
190038,-55.5555555555556,4,2,0,52,0,1
190541,-83.3333333333333,4,2,0,52,0,1
190876,-200,4,2,0,52,0,1
191043,-133.333333333333,4,2,0,52,0,1
191211,-66.6666666666667,4,2,0,52,0,1
191379,-83.3333333333333,4,2,0,52,0,1
191714,-100,4,2,0,52,0,1
192384,-50,4,2,0,52,0,1
192719,-66.6666666666667,4,2,0,52,0,1
193222,-83.3333333333333,4,2,0,52,0,1
193390,-125,4,2,0,52,0,1
193725,-83.3333333333333,4,2,0,52,0,1
194060,-66.6666666666667,4,2,0,52,0,1
194731,-62.5,4,2,0,52,0,1
195401,-200,4,2,0,52,0,1
196407,-66.6666666666667,4,2,0,52,0,1
196742,-83.3333333333333,4,2,0,52,0,1
197077,-66.6666666666667,4,2,0,52,0,1
197412,-55.5555555555556,4,2,0,52,0,1
198082,-200,4,2,0,52,0,0
199423,-50,4,2,0,52,0,0
200429,-200,4,2,0,52,0,0
201937,-50,4,2,0,52,0,0
202608,-100,4,2,0,52,0,0
203446,-76.9230769230769,4,2,0,52,0,0
221546,-66.6666666666667,4,2,0,52,0,0
222217,-125,4,2,0,52,0,0
222887,-100,4,2,0,52,0,0
223390,-66.6666666666667,4,2,0,52,0,0
224563,-200,4,2,0,52,0,0
225234,-83.3333333333333,4,2,0,52,0,0
225904,-100,4,2,0,52,0,0
226072,-66.6666666666667,4,2,0,52,0,0
227580,-100,4,2,0,52,0,0

[Colours]
Combo1 : 0,255,255
Combo2 : 128,255,255

[HitObjects]
176,120,2329,6,0,P|88:52|120:204,1,350
176,248,2999,5,0,0:0:0:0:
184,224,3083,1,0,0:0:0:0:
272,220,3166,5,0,0:0:0:0:
280,196,3250,1,0,0:0:0:0:
368,196,3334,5,0,0:0:0:0:
376,172,3418,1,0,0:0:0:0:
464,168,3502,6,0,B|436:108|448:-8|448:-8|416:56|342:97,1,299.999990844727
336,4,4004,1,0,0:0:0:0:
512,248,4172,6,0,B|408:260|408:260|352:328|352:328|244:344,1,299.999990844727
232,224,4675,6,0,P|268:219|308:271,1,75.0000028610231
112,364,4842,6,0,L|78:371,1,25
104,352,4926,2,0,L|70:359,1,25
52,264,5010,6,0,B|0:216|0:216|156:180|156:180|128:276,1,330.000010070801
124,288,5597,1,0,0:0:0:0:
44,120,5680,5,0,0:0:0:0:
48,96,5764,1,0,0:0:0:0:
136,96,5848,5,0,0:0:0:0:
140,72,5932,1,0,0:0:0:0:
228,72,6016,6,0,L|240:-8,1,50
424,72,6183,6,0,B|468:32|468:32|344:56,1,179.999994506836
208,152,6518,6,0,B|248:157|248:157|292:129,1,75.0000028610231
416,168,6686,2,0,B|456:163|456:163|485:181,1,75.0000028610231
432,308,6854,6,0,B|264:248|320:388|140:324,1,299.999990844727
64,360,7356,6,0,L|52:304,1,56.2500021457673
45,313,7524,2,0,L|56:368,1,56.2500021457673
12,196,7692,6,0,B|115:207|115:207|164:252|164:252|228:196|228:196|276:236|276:236|392:252,1,419.999987182618
512,304,8362,5,0,0:0:0:0:
435,327,8446,1,0,0:0:0:0:
362,295,8530,1,0,0:0:0:0:
328,223,8613,1,0,0:0:0:0:
349,147,8697,2,0,P|376:128|416:116,1,50
200,48,8865,6,0,P|243:-11|216:88,1,299.999990844727
172,124,9368,1,0,0:0:0:0:
0,176,9535,6,0,B|168:128|121:268|290:223,1,299.999990844727
392,244,10038,6,0,B|304:300|304:300|336:76,1,300
292,32,10373,6,0,P|328:28|355:18,1,50
456,112,10625,2,0,P|441:145|436:173,1,50
304,214,10876,2,0,P|282:184|260:166,1,50
328,16,11127,2,0,P|352:22|377:24,1,50
344,112,11379,5,0,0:0:0:0:
259,104,11463,1,0,0:0:0:0:
175,96,11546,1,0,0:0:0:0:
91,89,11630,1,0,0:0:0:0:
7,81,11714,6,0,B|38:107|46:165|46:165|105:129|160:140,1,200
168,352,11965,6,0,B|199:326|207:268|207:268|256:304|306:295,1,200
364,32,12217,6,0,P|269:21|318:109,1,200
452,368,12468,6,0,B|465:294|465:294|442:247|442:247|458:176,1,200
472,64,12720,6,0,P|494:91|465:67,1,112.500004291535
457,176,13055,6,0,B|384:160|316:88|316:88|308:200|236:276,1,350
388,320,13725,6,0,P|379:283|366:248,1,75.0000028610231
216,96,13893,2,0,P|207:132|194:167,1,75.0000028610231
120,372,14060,2,0,P|111:335|98:300,1,75.0000028610231
8,216,14228,1,0,0:0:0:0:
256,252,14396,6,0,B|312:176|312:176|88:216,1,299.999990844727
100,224,14982,5,0,0:0:0:0:
76,320,15066,2,0,B|197:341|197:341|163:296,1,179.999994506836
100,224,15401,6,0,P|92:192|87:161,1,56.2500021457673
104,156,15569,2,0,P|97:183|92:210,1,56.2500021457673
24,160,15736,6,0,P|128:76|45:208,1,419.999987182618
104,156,16407,6,0,L|120:64,1,55.0000016784668
216,132,16574,2,0,L|232:40,1,55.0000016784668
328,108,16742,2,0,L|344:16,2,55.0000016784668
440,84,16993,5,0,0:0:0:0:
448,232,17077,2,0,B|460:200|460:200|440:140,1,75.0000028610231
440,84,17245,2,0,B|427:45|427:45|439:13,1,75.0000028610231
496,304,17412,6,0,B|512:344|512:344|380:312,1,150.000005722046
388,312,17664,1,0,0:0:0:0:
316,232,17747,6,0,P|268:232|220:268,1,85.0000016212464
128,360,17915,2,0,P|80:360|32:324,1,85.0000016212464
44,56,18083,6,0,B|152:96|152:96|96:304,1,300
52,148,18418,6,0,B|100:124|137:75|137:75|169:145|169:145|238:102|238:102|244:184|295:238,1,419.999987182618
428,108,19088,6,0,P|380:168|404:72,1,262.500010013581
504,236,19759,6,0,B|388:255|388:255|330:366|330:366|205:385,1,359.999989013672
196,380,20345,1,0,0:0:0:0:
208,280,20429,6,0,B|245:267|245:267|273:294,1,75.0000028610231
32,360,20597,2,0,B|69:372|69:372|94:347,1,75.0000028610231
172,172,20764,6,0,P|52:148|116:252,1,300
316,20,21099,6,0,B|344:88|344:88|172:52,1,225.000008583069
176,52,21435,1,0,0:0:0:0:
412,20,21518,2,0,P|432:52|416:132,1,75.0000028610231
276,176,21770,6,0,P|279:139|299:107,1,75.0000028610231
207,239,21937,2,0,P|188:208|183:171,1,75.0000028610231
448,328,22105,5,0,0:0:0:0:
368,334,22189,1,0,0:0:0:0:
288,340,22273,1,0,0:0:0:0:
208,348,22356,1,0,0:0:0:0:
84,336,22524,6,0,B|132:300|132:300|248:340,1,150.000005722046
296,84,22775,6,0,L|196:96,1,75.0000028610231
76,108,22943,2,0,L|-24:120,1,75.0000028610231
140,16,23111,5,0,0:0:0:0:
140,16,23278,2,0,P|144:56|160:104,1,75.0000028610231
208,272,23446,2,0,B|167:288|140:316|140:316|167:248|174:176,1,225.000008583069
228,40,23781,5,0,0:0:0:0:
256,192,29144,12,0,33669,0:0:0:0:
116,240,33837,5,0,0:0:0:0:
113,254,33921,1,0,0:0:0:0:
110,268,34004,1,0,0:0:0:0:
108,282,34088,1,0,0:0:0:0:
106,296,34172,1,0,0:0:0:0:
103,310,34256,1,0,0:0:0:0:
101,324,34340,1,0,0:0:0:0:
99,338,34423,1,0,0:0:0:0:
32,264,34507,6,0,B|148:228|128:316|244:276,1,200
275,166,35010,2,0,P|243:195|184:195,1,100
189,197,35345,1,0,0:0:0:0:
189,197,35513,1,0,0:0:0:0:
360,268,35680,6,0,B|328:160|412:184|376:72,1,200
272,36,36183,5,0,0:0:0:0:
296,116,36351,1,0,0:0:0:0:
448,224,36518,5,0,0:0:0:0:
472,144,36686,1,0,0:0:0:0:
236,216,36854,5,0,0:0:0:0:
260,296,37021,1,0,0:0:0:0:
456,344,37189,5,0,0:0:0:0:
199,378,37356,1,0,0:0:0:0:
199,378,37440,1,0,0:0:0:0:
199,378,37524,2,0,P|244:338|335:358,1,150
328,352,37859,6,0,L|340:252,1,100
328,272,38111,2,0,L|340:172,1,100
328,192,38362,2,0,L|340:92,1,100
340,92,38697,1,0,0:0:0:0:
176,80,38865,2,0,B|248:68|248:68|268:16|268:16|364:0,2,200
488,192,39870,6,0,L|500:116,1,50
512,40,40038,1,0,0:0:0:0:
396,192,40206,6,0,L|404:246,1,55.0000016784668
420,352,40373,1,0,0:0:0:0:
312,192,40541,6,0,P|315:162|332:128,1,59.9999981689454
336,32,40708,1,0,0:0:0:0:
228,192,40876,6,0,P|243:224|248:256,1,64.9999970245363
252,352,41044,1,0,0:0:0:0:
148,193,41211,6,0,L|132:108,1,69.9999978637696
160,12,41379,1,0,0:0:0:0:
68,192,41546,6,0,L|53:267,1,75.0000028610231
79,372,41714,1,0,0:0:0:0:
8,120,41882,6,0,P|-7:82|6:15,1,80
76,64,42049,1,0,0:0:0:0:
220,272,42217,6,0,P|205:310|218:377,1,85.0000016212464
288,328,42384,1,0,0:0:0:0:
368,120,42552,5,0,0:0:0:0:
359,95,42636,1,0,0:0:0:0:
336,104,42720,1,0,0:0:0:0:
344,127,42803,1,0,0:0:0:0:
416,24,42887,5,0,0:0:0:0:
356,0,42971,1,0,0:0:0:0:
293,12,43055,1,0,0:0:0:0:
253,64,43139,1,0,0:0:0:0:
288,196,43222,5,0,0:0:0:0:
347,223,43306,1,0,0:0:0:0:
410,207,43390,1,0,0:0:0:0:
450,155,43474,1,0,0:0:0:0:
352,112,43558,5,0,0:0:0:0:
277,103,43641,1,0,0:0:0:0:
202,95,43725,1,0,0:0:0:0:
128,87,43809,1,0,0:0:0:0:
53,79,43893,6,0,B|128:44|128:44|72:224,1,225.000008583069
36,240,44228,6,0,P|12:211|8:174,1,75.0000028610231
85,179,44396,2,0,P|85:141|105:111,1,75.0000028610231
248,252,44563,6,0,P|224:280|220:317,1,75.0000028610231
297,313,44731,2,0,P|297:350|317:380,1,75.0000028610231
432,228,44898,5,0,0:0:0:0:
427,203,44982,1,0,0:0:0:0:
423,178,45066,1,0,0:0:0:0:
419,154,45150,1,0,0:0:0:0:
460,56,45234,6,0,B|500:128|500:128|296:84,1,269.999991760254
256,40,45569,2,0,P|301:41|342:17,1,89.9999972534181
144,144,45736,6,0,L|80:156,1,37.5000014305115
132,136,45820,2,0,L|68:148,1,37.5000014305115
100,60,45904,6,0,B|140:51|140:51|180:71,1,75.0000028610231
292,212,46072,6,0,P|206:174|240:260,1,225.000008583069
376,220,46407,2,0,B|336:211|336:211|296:231,1,75.0000028610231
100,340,46574,6,0,B|164:332|164:332|196:352|196:352|304:340,1,179.999994506836
412,376,46910,6,0,L|420:343,1,25
424,332,46993,2,0,L|432:299,1,25
436,288,47077,2,0,L|444:255,1,25
448,244,47161,2,0,L|456:211,1,25
480,92,47245,6,0,P|477:124|491:154,2,66.6666666666667
266,47,47580,6,0,B|464:8|464:8|412:28|389:79,1,300
272,128,47915,6,0,P|220:120|192:76,1,75.0000028610231
120,256,48083,2,0,P|152:214|205:212,1,75.0000028610231
85,60,48250,2,0,P|104:109|79:155,1,75.0000028610231
28,352,48418,6,0,L|20:311,1,37.5000014305115
44,348,48502,2,0,L|36:307,1,37.5000014305115
120,360,48585,6,0,P|168:356|196:356,1,75.0000028610231
408,308,48753,6,0,B|352:292|320:260|320:260|312:316|272:376,1,225.000008583069
404,208,49088,2,0,P|452:212|480:212,1,75.0000028610231
428,28,49256,6,0,L|324:40,1,69.9999978637696
272,48,49423,2,0,L|168:60,1,69.9999978637696
116,68,49591,2,0,L|12:80,1,69.9999978637696
24,216,49759,5,0,0:0:0:0:
20,204,49842,1,0,0:0:0:0:
16,192,49926,2,0,P|64:188|112:228,1,80
168,372,50094,2,0,P|216:376|264:336,1,80
456,156,50261,6,0,B|376:176|376:176|344:248|344:248|260:272,1,240
188,100,50597,6,0,P|277:71|208:164,1,269.999991760254
112,136,50932,2,0,B|96:96|96:96|124:32,1,89.9999972534181
384,16,51099,6,0,L|432:20,1,37.5000014305115
392,32,51183,2,0,L|440:36,1,37.5000014305115
384,112,51267,6,0,P|420:110|458:104,1,75.0000028610231
252,264,51435,6,0,B|296:264|328:276|328:276|368:216|368:216|409:229|452:228,1,225.000008583069
416,340,51770,2,0,P|452:341|490:347,1,75.0000028610231
160,252,51937,6,0,P|112:304|188:316,1,179.999994506836
264,160,52273,6,0,L|232:156,1,25
216,152,52356,2,0,L|184:148,1,25
168,144,52440,2,0,L|136:140,1,25
120,136,52524,2,0,L|88:132,1,25
0,88,52608,6,0,P|32:84|76:52,2,66.6666666666667
8,12,52943,6,0,L|132:0,1,100
248,232,53278,6,0,B|184:224|184:224|140:256|140:256|56:244,1,179.999994506836
4,232,53613,1,0,0:0:0:0:
4,232,53781,1,0,0:0:0:0:
104,108,53949,6,0,L|115:166,1,59.9999981689454
200,364,54116,2,0,L|212:304,1,59.9999981689454
340,176,54284,2,0,L|351:234,1,59.9999981689454
448,356,54451,6,0,B|419:252|492:292|468:180,1,179.999994506836
440,112,54787,1,0,0:0:0:0:
308,36,54954,6,0,P|333:35|376:64,1,59.9999981689454
440,112,55122,1,0,0:0:0:0:
208,196,55289,6,0,P|237:196|264:182,1,59.9999981689454
440,112,55457,1,0,0:0:0:0:
132,80,55625,6,0,L|204:88,1,59.9999981689454
440,112,55792,2,0,L|499:118,1,59.9999981689454
348,40,55960,6,0,B|268:0|268:0|304:224,1,269.999991760254
346,236,56295,2,0,P|307:256|264:248,1,89.9999972534181
56,132,56463,6,0,L|16:140,1,37.5000014305115
48,116,56546,2,0,L|8:124,1,37.5000014305115
68,46,56630,6,0,P|116:49|148:80,1,75.0000028610231
296,178,56798,6,0,B|216:166|216:166|164:210|164:210|68:194,1,225.000008583069
280,256,57133,2,0,P|328:253|360:222,1,75.0000028610231
426,44,57301,6,0,B|393:150|393:150|449:190,1,179.999994506836
512,308,57636,6,0,L|484:312,1,25
468,316,57720,2,0,L|440:320,1,25
420,324,57803,2,0,L|392:328,1,25
376,332,57887,2,0,L|348:336,1,25
211,344,57971,6,0,P|245:342|287:371,2,66.6666666666667
12,372,58306,6,0,B|112:352|112:352|140:256|140:256|252:236,1,300
56,208,58641,6,0,P|37:238|52:288,1,75.0000028610231
232,320,58809,2,0,P|267:321|303:283,1,75.0000028610231
241,112,58977,2,0,P|224:80|173:68,1,75.0000028610231
412,348,59144,6,0,L|456:340,1,37.5000014305115
416,324,59228,2,0,L|460:316,1,37.5000014305115
472,240,59312,6,0,B|432:232|432:232|392:256,1,75.0000028610231
388,84,59479,6,0,P|462:44|426:135,1,225.000008583069
288,156,59815,2,0,B|328:148|328:148|357:165,1,75.0000028610231
316,316,59982,6,0,L|306:234,1,69.9999978637696
164,124,60150,2,0,L|172:193,1,69.9999978637696
64,372,60317,2,0,L|55:302,1,69.9999978637696
8,148,60485,5,0,0:0:0:0:
4,160,60569,1,0,0:0:0:0:
0,172,60653,2,0,P|48:170|84:132,1,80
208,16,60820,2,0,P|247:14|280:36,1,80
352,268,60988,2,0,P|391:269|424:247,1,80
504,116,61155,1,0,0:0:0:0:
292,189,61323,6,0,B|250:239|250:239|284:344,1,175
288,356,61993,6,0,B|203:339|203:339|155:359|155:359|117:317|117:317|43:303,1,269.999991760254
0,92,62329,6,0,B|74:103|74:103|110:171|110:171|182:183,1,225.000008583069
384,56,62664,6,0,P|271:21|338:115,1,300
392,188,62999,6,0,P|420:158|418:102,1,75.0000028610231
504,72,63166,2,0,P|496:35|470:9,1,75.0000028610231
248,236,63334,6,0,B|404:176|364:320|516:260,1,269.999991760254
312,312,63669,5,0,0:0:0:0:
314,326,63753,1,0,0:0:0:0:
316,341,63837,1,0,0:0:0:0:
318,356,63921,1,0,0:0:0:0:
216,160,64004,6,0,L|180:156,15,25
144,28,65345,6,0,B|68:56|68:56|96:176,1,200
140,368,65597,6,0,P|163:302|68:317,1,200
184,116,65848,6,0,B|248:129|248:129|272:152|272:152|304:140|304:140|370:153,1,200
448,288,66099,6,0,B|312:304|312:304|336:220,1,200
416,24,66351,6,0,L|428:84,1,50
444,148,66518,2,0,L|456:208,1,50
52,276,66686,6,0,B|252:232|252:232|208:368|208:368|124:336,1,419.999987182618
8,200,67356,6,0,B|45:194|45:194|73:168,1,75.0000028610231
212,159,67524,2,0,B|188:129|188:129|151:117,1,75.0000028610231
75,1,67692,2,0,B|61:36|61:36|69:73,1,75.0000028610231
72,88,67859,1,0,0:0:0:0:
140,342,68027,6,0,B|236:320|236:320|312:368|312:368|436:340,1,299.999990844727
428,352,68613,5,0,0:0:0:0:
340,256,68697,2,0,B|400:270|400:270|448:239|448:239|517:255,1,179.999994506836
396,108,69032,6,0,L|408:180,1,56.2500021457673
420,168,69200,2,0,L|410:112,1,56.2500021457673
320,36,69368,6,0,P|271:75|325:42,1,179.999994506836
176,32,69703,6,0,P|152:23|127:21,6,50
132,100,70038,6,0,L|32:112,1,75.0000028610231
104,196,70206,2,0,L|4:208,1,75.0000028610231
76,292,70373,2,0,L|-24:304,2,75.0000028610231
180,280,70625,5,0,0:0:0:0:
180,360,70708,2,0,P|164:322|172:284,1,75.0000028610231
384,268,70876,2,0,P|400:306|392:344,1,75.0000028610231
284,312,71044,6,0,B|272:264|272:264|292:220|292:220|276:144,1,150.000005722046
276,152,71295,1,0,0:0:0:0:
240,80,71379,6,0,B|281:67|281:67|326:91,1,85.0000016212464
464,156,71546,2,0,B|423:143|423:143|385:162,1,85.0000016212464
4,60,71714,6,0,B|168:24|168:24|140:108,1,255.000004863739
96,336,72049,6,0,P|7:281|158:288,1,419.999987182618
83,254,72720,6,0,B|240:208|200:336|348:292,1,280
232,100,73390,6,0,B|280:80|334:31|334:31|296:156|292:228,1,299.999990844727
296,220,73977,5,0,0:0:0:0:
456,208,74060,2,0,P|425:179|383:173,1,85.0000016212464
220,4,74228,2,0,P|178:9|147:38,1,85.0000016212464
17,202,74396,6,0,B|48:160|40:56|40:56|80:136|142:157,1,300
104,232,74731,6,0,L|222:249,1,119.999996337891
236,244,74982,2,0,L|216:316,1,59.9999981689454
348,368,75234,6,0,L|466:350,1,119.999996337891
480,356,75485,2,0,L|460:284,1,59.9999981689454
376,36,75736,5,0,0:0:0:0:
375,51,75820,1,0,0:0:0:0:
373,66,75904,1,0,0:0:0:0:
371,81,75988,1,0,0:0:0:0:
488,140,76072,6,0,B|408:120|432:180|332:156,1,139.999995727539
312,228,76323,2,0,P|348:242|398:232,2,69.9999978637696
292,96,76574,6,0,P|257:94|225:107,1,69.9999978637696
168,276,76742,1,0,0:0:0:0:
168,276,76826,1,0,0:0:0:0:
168,276,76910,2,0,P|133:277|101:264,1,69.9999978637696
16,180,77077,6,0,L|4:120,1,56.2500021457673
12,108,77245,2,0,L|24:168,1,56.2500021457673
28,28,77412,6,0,B|92:37|92:37|114:55|114:55|144:46|144:46|221:53,1,194.999991073609
176,168,77747,6,0,B|240:159|240:159|262:141|262:141|292:150|292:150|369:143,1,194.999991073609
488,48,78083,5,0,0:0:0:0:
480,44,78166,1,0,0:0:0:0:
472,40,78250,2,0,P|448:72|452:120,1,64.9999970245363
320,0,78418,2,0,P|344:32|340:80,1,64.9999970245363
396,296,78585,6,0,P|368:236|459:250,1,194.999991073609
472,320,78921,2,0,P|456:352|416:372,1,64.9999970245363
244,184,79088,1,0,0:0:0:0:
92,240,79256,6,0,B|200:204|176:300|304:256,1,194.999991073609
244,184,79591,1,0,0:0:0:0:
132,316,79759,6,0,L|139:380,1,64.9999970245363
108,88,79926,2,0,L|115:152,1,64.9999970245363
0,92,80094,6,0,B|67:85|67:85|101:37|101:37|189:27,1,194.999991073609
333,26,80429,6,0,P|291:31|256:8,2,86.6666626993817
465,15,80764,6,0,P|423:29|400:72,1,64.9999970245363
352,104,80932,2,0,P|343:147|368:188,1,64.9999970245363
404,232,81099,1,0,0:0:0:0:
243,177,81267,6,0,B|209:137|209:137|367:169,1,194.999991073609
404,232,81602,2,0,P|431:197|430:161,1,64.9999970245363
320,24,81770,1,0,0:0:0:0:
460,344,81937,6,0,B|494:304|494:304|336:336,1,194.999991073609
276,348,82273,1,0,0:0:0:0:
96,316,82440,6,0,P|179:296|151:368,1,194.999991073609
92,332,82775,6,0,B|80:264|80:264|112:216|112:216|100:124,1,194.999991073609
88,72,83111,1,0,0:0:0:0:
0,76,83278,6,0,P|6:108|36:136,1,64.9999970245363
150,192,83446,2,0,P|174:170|183:130,1,64.9999970245363
176,4,83613,2,0,P|145:-6|106:5,1,64.9999970245363
244,96,83781,6,0,B|347:70|328:148|440:120,1,194.999991073609
472,188,84116,2,0,P|502:156|505:120,1,64.9999970245363
424,0,84284,2,0,P|399:21|389:51,1,64.9999970245363
392,64,84451,1,0,0:0:0:0:
367,331,84619,6,0,P|359:251|433:285,1,194.999991073609
440,364,84954,1,0,0:0:0:0:
280,192,85122,6,0,B|202:205|202:205|169:256|169:256|76:274,1,225.000008583069
40,352,85457,6,0,P|85:361|132:362,1,75.0000028610231
96,180,85708,2,0,P|58:182|22:190,1,75.0000028610231
85,273,85960,6,0,L|189:283,1,75.0000028610231
224,320,86211,2,0,L|298:312,1,75.0000028610231
440,308,86463,5,0,0:0:0:0:
437,320,86546,1,0,0:0:0:0:
435,332,86630,1,0,0:0:0:0:
433,344,86714,1,0,0:0:0:0:
388,244,86882,6,0,B|433:224|433:224|408:96,1,150.000005722046
484,56,87133,6,0,L|396:44,1,75.0000028610231
320,176,87301,2,0,L|245:165,1,75.0000028610231
188,96,87468,1,0,0:0:0:0:
288,12,87636,6,0,B|308:44|308:44|292:108,1,75.0000028610231
88,152,87803,2,0,B|68:120|68:120|84:56,1,75.0000028610231
180,24,87971,2,0,L|192:112,1,75.0000028610231
112,288,88139,6,0,P|147:237|132:300,1,175
136,300,88809,6,0,L|79:307,1,50
248,360,88977,2,0,L|191:352,1,50
340,292,89144,6,0,L|283:299,1,50
452,352,89312,2,0,L|395:344,1,50
402,345,89647,6,0,P|427:315|430:281,1,75.0000028610231
463,176,89815,2,0,B|391:140|391:140|435:300,1,225.000008583069
312,200,90150,6,0,P|275:198|244:176,1,75.0000028610231
198,122,90317,2,0,P|259:81|240:176,1,225.000008583069
0,168,90653,6,0,B|108:140|76:224|204:188,1,179.999994506836
40,316,90988,6,0,P|80:279|132:293,1,112.500004291535
148,292,91155,6,0,P|188:328|240:314,1,112.500004291535
256,316,91323,6,0,P|296:279|348:293,1,112.500004291535
404,360,91491,6,0,B|488:340|488:340|472:204|472:204|372:180,1,299.999990844727
397,186,91993,6,0,P|384:100|456:144,1,179.999994506836
325,41,92329,6,0,L|320:7,1,29.9999990844727
308,36,92412,2,0,L|303:2,1,29.9999990844727
244,76,92496,5,0,0:0:0:0:
227,71,92580,1,0,0:0:0:0:
156,96,92664,5,0,0:0:0:0:
139,91,92747,1,0,0:0:0:0:
60,52,92831,6,0,B|52:120|52:120|72:148|72:148|60:228,1,170.000003242493
0,364,93083,6,0,B|27:333|33:284|33:284|59:325|105:337,1,170.000003242493
416,192,93334,6,0,B|252:148|316:308|136:260,1,299.999990844727
188,124,93837,6,0,P|200:159|200:187,1,59.9999981689454
356,328,94004,2,0,P|357:298|368:270,1,59.9999981689454
504,52,94172,6,0,P|442:10|464:108,1,224.999993133545
449,108,94675,6,0,B|377:120|377:120|345:148|345:148|305:132|305:132|213:148,1,225.000008583069
220,236,95010,6,0,P|252:236|292:203,1,75.0000028610231
256,60,95178,2,0,P|226:37|189:36,1,75.0000028610231
44,156,95345,5,0,0:0:0:0:
56,160,95429,1,0,0:0:0:0:
152,128,95513,6,0,B|72:80|72:80|104:264,1,255.000004863739
12,316,95848,6,0,P|61:308|96:340,1,75.0000028610231
192,296,96016,2,0,P|223:334|213:380,1,75.0000028610231
456,288,96183,6,0,L|364:276,1,75.0000028610231
364,264,96435,2,0,L|456:276,1,75.0000028610231
512,356,96686,6,0,L|420:368,1,75.0000028610231
308,196,96937,2,0,L|400:184,1,75.0000028610231
496,80,97189,5,0,0:0:0:0:
421,72,97273,1,0,0:0:0:0:
346,64,97356,1,0,0:0:0:0:
272,56,97440,1,0,0:0:0:0:
183,27,97524,6,0,P|117:76|196:97,1,200
183,27,97859,6,0,P|117:76|196:97,1,200
256,192,98194,12,0,98865,0:0:0:0:
32,340,99535,6,0,P|77:341|114:320,1,75.0000028610231
172,172,99703,2,0,P|217:171|254:192,1,75.0000028610231
288,364,99870,2,0,P|333:365|370:344,1,75.0000028610231
444,176,100038,6,0,P|376:168|416:240,1,179.999994506836
472,292,100373,2,0,P|490:262|486:225,1,59.9999981689454
392,40,100541,5,0,0:0:0:0:
317,46,100624,1,0,0:0:0:0:
242,53,100708,1,0,0:0:0:0:
167,59,100792,1,0,0:0:0:0:
76,0,100876,6,0,B|148:32|148:32|116:184,1,200
280,204,101127,6,0,B|168:176|196:272|64:232,1,200
256,320,101379,6,0,L|248:284,5,37.5000014305115
500,260,101882,6,0,B|348:280|348:280|380:192,1,225.000008583069
384,124,102217,5,0,0:0:0:0:
372,140,102301,2,0,P|408:144|434:172,1,59.9999981689454
500,24,102468,5,0,0:0:0:0:
512,40,102552,2,0,P|476:44|450:72,1,59.9999981689454
280,80,102720,5,0,0:0:0:0:
201,69,102803,1,0,0:0:0:0:
122,59,102887,6,0,P|125:101|149:132,1,75.0000028610231
229,3,103055,2,0,P|205:31|200:68,1,75.0000028610231
28,240,103222,5,0,0:0:0:0:
52,235,103305,1,0,0:0:0:0:
77,231,103389,1,0,0:0:0:0:
101,226,103473,1,0,0:0:0:0:
208,264,103558,6,0,P|165:245|185:327,1,179.999994506836
284,284,103893,6,0,P|285:251|255:205,1,75.0000028610231
400,296,104060,2,0,P|381:328|382:365,1,75.0000028610231
480,64,104228,6,0,L|496:152,1,75
504,132,104563,6,0,B|408:104|440:188|300:144,1,179.999994506836
140,100,104898,5,0,0:0:0:0:
215,91,104981,1,0,0:0:0:0:
291,82,105065,1,0,0:0:0:0:
366,73,105149,1,0,0:0:0:0:
104,16,105401,6,0,B|32:52|32:52|76:212,1,225.000008583069
124,252,105736,6,0,P|81:275|46:271,1,75.0000028610231
256,336,105904,1,0,0:0:0:0:
248,348,105988,1,0,0:0:0:0:
240,360,106072,2,0,P|208:339|171:338,1,75.0000028610231
304,244,106239,6,0,B|384:256|384:256|412:320|412:320|492:336,1,225.000008583069
476,92,106574,6,0,P|374:73|455:165,1,300
450,167,106910,5,0,0:0:0:0:
152,256,107077,1,0,0:0:0:0:
320,48,107245,5,0,0:0:0:0:
392,344,107412,1,0,0:0:0:0:
120,344,107580,5,0,0:0:0:0:
192,48,107747,1,0,0:0:0:0:
360,256,107915,5,0,0:0:0:0:
62,167,108082,1,0,0:0:0:0:
256,12,108250,5,0,0:0:0:0:
252,24,108334,2,0,B|228:124|296:80|258:205,1,150.000005722046
144,184,108585,6,0,P|180:193|208:217,1,75.0000028610231
356,256,108753,2,0,P|319:265|291:289,1,75.0000028610231
256,372,108921,5,0,0:0:0:0:
256,372,109256,1,0,0:0:0:0:
256,372,109591,6,0,P|225:263|332:312,1,269.999991760254
256,372,109926,6,0,P|219:350|208:296,1,89.9999972534181
256,372,110094,6,0,P|219:350|208:296,1,89.9999972534181
256,372,110261,6,0,P|219:350|208:296,1,89.9999972534181
256,372,110429,6,0,P|219:350|208:296,1,89.9999972534181
256,372,110597,6,0,P|219:350|208:296,1,89.9999972534181
256,372,110765,6,0,P|219:350|208:296,1,89.9999972534181
256,372,110932,6,0,P|219:350|208:296,1,89.9999972534181
256,372,111100,6,0,P|219:350|208:296,1,89.9999972534181
256,372,111267,6,0,P|219:350|208:296,1,89.9999972534181
256,372,111435,6,0,P|219:350|208:296,1,89.9999972534181
256,372,111602,6,0,P|219:350|208:296,1,89.9999972534181
256,372,111770,6,0,P|219:350|208:296,1,89.9999972534181
420,212,111937,6,0,L|424:240,6,18.7500007152558
456,132,112273,6,0,B|345:99|378:189|246:148,1,200
188,200,112775,2,0,L|174:86,1,100
175,100,113111,1,0,0:0:0:0:
175,100,113278,1,0,0:0:0:0:
64,348,113446,6,0,B|44:288|44:288|184:320,1,200
256,364,113949,5,0,0:0:0:0:
356,344,114116,1,0,0:0:0:0:
512,272,114284,5,0,0:0:0:0:
412,252,114451,1,0,0:0:0:0:
268,168,114619,5,0,0:0:0:0:
368,148,114786,1,0,0:0:0:0:
388,24,114954,5,0,0:0:0:0:
316,240,115122,1,0,0:0:0:0:
316,240,115206,1,0,0:0:0:0:
316,240,115289,2,0,L|152:220,1,150
156,232,115625,6,0,P|168:184|144:142,1,100
168,144,115876,6,0,P|132:109|84:109,1,100
97,89,116127,6,0,P|49:102|25:144,1,100
25,144,116463,1,0,0:0:0:0:
340,72,116630,6,0,P|270:28|271:110,2,200
476,236,117636,6,0,L|484:168,1,50
500,100,117803,1,0,0:0:0:0:
392,264,117971,6,0,L|400:196,1,55.0000016784668
416,80,118139,1,0,0:0:0:0:
308,292,118306,6,0,L|316:224,1,59.9999981689454
332,60,118474,1,0,0:0:0:0:
224,320,118641,6,0,L|232:252,1,64.9999970245363
248,40,118809,1,0,0:0:0:0:
140,348,118976,6,0,L|148:275,1,69.9999978637696
164,20,119144,1,0,0:0:0:0:
56,376,119312,6,0,L|64:300,1,75.0000028610231
80,4,119479,1,0,0:0:0:0:
0,136,119647,6,0,L|121:116,1,80
240,320,119815,1,0,0:0:0:0:
208,236,119982,6,0,L|329:256,1,85.0000016212464
448,52,120150,1,0,0:0:0:0:
392,108,120317,5,0,0:0:0:0:
367,117,120401,1,0,0:0:0:0:
376,140,120485,1,0,0:0:0:0:
399,132,120568,1,0,0:0:0:0:
296,60,120652,5,0,0:0:0:0:
272,120,120736,1,0,0:0:0:0:
284,183,120820,1,0,0:0:0:0:
336,223,120904,1,0,0:0:0:0:
468,188,120987,5,0,0:0:0:0:
495,129,121071,1,0,0:0:0:0:
479,66,121155,1,0,0:0:0:0:
427,26,121239,1,0,0:0:0:0:
384,124,121323,5,0,0:0:0:0:
397,206,121406,1,0,0:0:0:0:
410,288,121490,1,0,0:0:0:0:
423,370,121574,1,0,0:0:0:0:
512,308,121658,6,0,B|436:292|436:292|376:340|376:340|304:324,1,225.000008583069
316,240,121993,6,0,P|268:248|244:272,1,75.0000028610231
160,332,122161,2,0,P|208:340|232:364,1,75.0000028610231
382,215,122329,6,0,P|352:236|315:239,1,75.0000028610231
93,356,122496,2,0,P|122:334|159:331,1,75.0000028610231
212,172,122664,5,0,0:0:0:0:
207,147,122747,1,0,0:0:0:0:
203,122,122831,1,0,0:0:0:0:
199,98,122915,1,0,0:0:0:0:
112,72,122999,6,0,B|172:68|224:-4|224:-4|244:80|316:116,1,269.999991760254
352,8,123334,2,0,P|320:-5|340:24,1,89.9999972534181
412,68,123502,6,0,P|430:37|430:5,1,59.9999981689454
160,152,123669,5,0,0:0:0:0:
130,157,123753,1,0,0:0:0:0:
135,186,123837,1,0,0:0:0:0:
165,181,123921,1,0,0:0:0:0:
244,288,124004,5,0,0:0:0:0:
249,258,124088,1,0,0:0:0:0:
220,253,124172,1,0,0:0:0:0:
215,283,124256,1,0,0:0:0:0:
48,288,124340,6,0,L|60:360,1,59.9999981689454
132,304,124507,2,0,P|160:300|196:284,1,59.9999981689454
344,312,124675,6,0,P|373:316|401:327,1,59.9999981689454
476,376,124842,2,0,L|485:316,1,59.9999981689454
408,104,125010,5,0,0:0:0:0:
328,124,125178,6,0,B|336:159|336:159|376:180,1,75.0000028610231
430,24,125345,2,0,B|395:13|395:13|357:37,1,75.0000028610231
465,162,125513,2,0,B|491:137|491:137|489:92,1,75.0000028610231
156,49,125680,6,0,B|300:9|268:137|420:101,1,269.999991760254
407,103,126016,6,0,B|355:66|355:66|372:192,1,179.999994506836
512,300,126351,6,0,B|479:259|475:206|475:206|449:253|407:274,1,200
144,152,126686,6,0,B|186:173|212:220|212:220|216:167|248:126,1,200
404,364,127021,6,0,B|364:360|328:344|328:344|288:372|288:372|256:356|184:352,1,200
132,280,127356,6,0,P|100:292|44:292,1,80
88,188,127524,5,0,0:0:0:0:
84,196,127608,1,0,0:0:0:0:
80,204,127692,2,0,P|40:203|2:190,1,80
276,140,127859,2,0,P|313:126|353:126,1,80
208,60,128027,6,0,B|132:28|132:28|180:200,1,240
344,360,128362,6,0,P|280:292|392:304,1,269.999991760254
204,368,128697,2,0,P|192:328|196:268,1,89.9999972534181
460,216,128865,6,0,L|468:144,1,59.9999981689454
308,40,129032,5,0,0:0:0:0:
308,59,129115,1,0,0:0:0:0:
315,78,129199,1,0,0:0:0:0:
328,93,129283,1,0,0:0:0:0:
428,56,129368,5,0,0:0:0:0:
427,36,129451,1,0,0:0:0:0:
420,17,129535,1,0,0:0:0:0:
407,2,129619,1,0,0:0:0:0:
248,136,129703,6,0,L|184:128,1,59.9999981689454
144,56,129870,2,0,P|176:44|208:48,1,59.9999981689454
112,220,130038,6,0,L|48:228,1,59.9999981689454
4,300,130206,2,0,P|31:311|61:310,1,59.9999981689454
280,372,130373,5,0,0:0:0:0:
216,320,130541,6,0,P|252:295|303:293,1,75.0000028610231
308,216,130708,2,0,P|347:234|374:277,1,75.0000028610231
444,243,130876,2,0,P|447:286|423:331,1,75.0000028610231
348,36,131044,6,0,B|327:141|327:141|515:89|515:89|432:8,1,419.999987182618
264,76,131714,6,0,P|238:82|218:84,1,37.5000014305115
168,144,131882,2,0,P|149:139|131:136,1,37.5000014305115
72,60,132049,2,0,P|53:64|35:67,1,37.5000014305115
20,244,132217,6,0,B|98:234|98:234|139:276|139:276|213:267,1,209.999993591309
184,356,132552,6,0,B|262:365|262:365|303:323|303:323|377:332,1,209.999993591309
456,344,132887,5,0,0:0:0:0:
448,316,132971,1,0,0:0:0:0:
428,244,133055,2,0,P|461:241|503:263,1,69.9999978637696
264,168,133222,5,0,0:0:0:0:
280,180,133306,2,0,P|313:183|355:161,1,69.9999978637696
504,48,133474,5,0,0:0:0:0:
480,52,133558,2,0,L|392:64,1,69.9999978637696
216,76,133725,6,0,L|181:71,1,34.9999989318848
189,110,133893,6,0,L|181:70,1,40
141,92,134060,6,0,L|180:70,1,44.999998626709
145,36,134228,6,0,L|180:70,1,50
205,22,134396,6,0,L|180:71,1,55.0000016784668
52,176,134563,5,0,0:0:0:0:
56,196,134647,1,0,0:0:0:0:
156,256,134731,5,0,0:0:0:0:
126,250,134815,1,0,0:0:0:0:
130,220,134898,1,0,0:0:0:0:
160,226,134982,1,0,0:0:0:0:
128,332,135066,6,0,P|98:339|56:344,1,59.9999981689454
224,376,135234,2,0,L|233:316,1,59.9999981689454
432,272,135401,6,0,P|461:276|490:283,1,59.9999981689454
344,312,135569,2,0,L|334:252,1,59.9999981689454
396,48,135736,5,0,0:0:0:0:
420,120,135904,6,0,P|382:123|349:109,1,75.0000028610231
284,0,136072,2,0,P|246:-4|213:10,1,75.0000028610231
180,164,136239,2,0,P|142:167|109:153,1,75.0000028610231
4,108,136407,6,0,B|96:68|96:68|60:252,1,269.999991760254
65,234,136742,6,0,B|164:216|144:288|240:268,1,179.999994506836
408,304,137077,6,0,P|324:300|380:364,1,200
480,208,137412,6,0,B|464:164|456:76|456:76|448:108|420:152,1,200
176,64,137747,6,0,B|216:68|252:80|252:80|296:56|296:56|336:68|392:68,1,200
112,8,138083,6,0,P|72:20|4:20,1,80
100,104,138250,5,0,0:0:0:0:
92,108,138334,1,0,0:0:0:0:
84,112,138418,2,0,P|44:108|6:96,1,80
224,264,138585,2,0,P|263:267|301:279,1,80
240,152,138753,6,0,B|160:164|160:164|120:232|120:232|12:248,1,240
72,328,139088,6,0,L|67:352,6,18.7500007152558
160,352,139423,6,0,L|163:370,2,18.7500007152558
232,292,139591,5,0,0:0:0:0:
256,296,139675,1,0,0:0:0:0:
372,260,139759,5,0,0:0:0:0:
379,292,139842,1,0,0:0:0:0:
346,300,139926,1,0,0:0:0:0:
339,267,140010,1,0,0:0:0:0:
444,196,140094,5,0,0:0:0:0:
451,163,140178,1,0,0:0:0:0:
484,171,140262,1,0,0:0:0:0:
477,203,140345,1,0,0:0:0:0:
356,96,140429,6,0,L|432:84,1,59.9999981689454
340,16,140597,2,0,L|416:4,1,59.9999981689454
148,68,140764,6,0,L|224:80,1,59.9999981689454
132,148,140932,2,0,L|208:160,1,59.9999981689454
312,288,141099,5,0,0:0:0:0:
300,208,141267,6,0,P|265:219|236:258,1,75.0000028610231
248,336,141435,2,0,P|275:360|323:366,1,75.0000028610231
385,318,141602,2,0,P|392:282|373:237,1,75.0000028610231
156,232,141770,6,0,L|164:268,1,25
140,336,141937,2,0,L|145:360,1,25
56,288,142105,2,0,L|64:324,1,25
24,164,142273,5,0,0:0:0:0:
28,140,142356,1,0,0:0:0:0:
72,48,142440,5,0,0:0:0:0:
52,53,142523,1,0,0:0:0:0:
30,56,142607,1,0,0:0:0:0:
8,59,142691,1,0,0:0:0:0:
184,144,142775,5,0,0:0:0:0:
162,141,142859,1,0,0:0:0:0:
140,138,142943,1,0,0:0:0:0:
120,133,143026,1,0,0:0:0:0:
256,32,143111,6,0,P|276:58|280:97,1,59.9999981689454
372,72,143278,2,0,P|364:100|345:123,1,59.9999981689454
480,176,143446,6,0,P|459:202|455:241,1,59.9999981689454
364,216,143613,2,0,P|371:244|390:267,1,59.9999981689454
384,360,143781,6,0,P|393:351|392:369,1,40
392,72,154842,5,0,0:0:0:0:
394,77,154925,1,0,0:0:0:0:
396,83,155009,1,0,0:0:0:0:
398,89,155093,1,0,0:0:0:0:
400,96,155178,6,0,L|392:152,1,50
372,124,155429,6,0,L|379:173,1,50
476,232,155680,6,0,P|442:233|417:243,1,50
348,248,155932,6,0,P|331:277|328:304,1,50
328,372,156183,5,0,0:0:0:0:
344,369,156266,1,0,0:0:0:0:
360,367,156350,1,0,0:0:0:0:
377,364,156434,1,0,0:0:0:0:
252,252,156518,6,0,B|184:220|184:220|216:372,1,200
25,180,156770,6,0,B|124:200|112:112|212:136,1,200
340,12,157021,6,0,B|305:47|303:97|303:97|265:55|212:48,1,200
496,100,157273,6,0,P|406:83|450:159,1,200
425,153,157524,6,0,L|417:202,1,50
372,296,157859,6,0,B|305:312|305:312|308:380|388:413|460:372|522:289|415:177|334:231,1,419.999987182618
292,184,158530,5,0,0:0:0:0:
284,208,158613,1,0,0:0:0:0:
208,204,158697,5,0,0:0:0:0:
200,228,158780,1,0,0:0:0:0:
124,216,158865,5,0,0:0:0:0:
116,240,158948,1,0,0:0:0:0:
40,236,159032,6,0,B|112:180|112:180|88:64|88:64|-10:40,1,299.999990844727
12,140,159535,1,0,0:0:0:0:
124,328,159703,6,0,B|289:268|243:404|407:356,1,299.999990844727
456,288,160206,6,0,P|481:317|484:375,1,75.0000028610231
384,184,160373,6,0,L|356:188,1,25
380,168,160457,2,0,L|352:172,1,25
456,124,160541,6,0,B|341:111|341:111|291:130|291:130|252:95|252:95|143:80,1,330.000010070801
124,76,161127,1,0,0:0:0:0:
16,160,161211,5,0,0:0:0:0:
40,156,161295,1,0,0:0:0:0:
52,236,161379,5,0,0:0:0:0:
76,232,161463,1,0,0:0:0:0:
88,312,161546,6,0,L|152:296,1,50
284,376,161714,6,0,B|216:344|216:344|244:212,1,179.999994506836
372,112,162049,6,0,L|380:200,1,75.0000028610231
388,292,162217,2,0,L|396:380,1,75.0000028610231
492,100,162384,6,0,B|417:92|417:92|381:59|381:59|335:100|335:100|300:71|300:71|227:60,1,299.999990844727
152,80,162887,6,0,P|149:54|161:20,1,56.2500021457673
136,24,163055,2,0,P|139:50|127:84,1,56.2500021457673
56,200,163222,6,0,B|136:174|136:174|136:89|136:89|55:65|55:65|6:132|6:132|55:199,1,419.999987182618
184,344,163893,5,0,0:0:0:0:
198,268,163976,1,0,0:0:0:0:
213,194,164060,1,0,0:0:0:0:
228,120,164144,1,0,0:0:0:0:
242,45,164228,2,0,L|252:-16,1,50
464,332,164396,6,0,B|422:288|410:194|410:194|366:285|313:307,1,299.999990844727
380,364,164898,1,0,0:0:0:0:
484,124,165066,6,0,B|324:56|356:208|196:140,1,299.999990844727
96,84,165569,6,0,P|196:64|116:168,1,300
20,224,165904,6,0,P|60:228|80:240,1,50
104,312,166155,2,0,P|144:308|164:296,1,50
232,256,166407,6,0,L|293:265,1,50
336,324,166658,2,0,L|397:333,1,50
476,348,166910,5,0,0:0:0:0:
465,273,166993,1,0,0:0:0:0:
455,199,167077,1,0,0:0:0:0:
445,125,167161,1,0,0:0:0:0:
440,136,167329,6,0,B|488:108|488:108|460:0,1,150.000005722046
360,116,167580,6,0,P|355:150|385:198,1,75.0000028610231
316,352,167747,2,0,P|311:315|327:281,1,75.0000028610231
464,264,167915,1,0,0:0:0:0:
200,188,168083,6,0,P|236:183|270:199,1,75.0000028610231
464,264,168250,2,0,B|308:280|308:280|344:264|364:216,1,225.000008583069
408,84,168585,6,0,L|416:156,3,50
320,64,168921,2,0,L|312:-8,3,50
416,76,169256,6,0,L|424:148,3,50
312,72,169592,2,0,L|304:0,3,50
424,68,169926,6,0,L|432:140,3,50
304,80,170262,2,0,L|296:8,3,50
432,60,170597,6,0,L|440:132,3,50
296,88,170932,6,0,B|164:36|196:160|56:108,1,255.000004863739
72,264,171267,6,0,P|100:250|148:251,3,59.9999981689454
174,187,171602,2,0,P|195:209|209:255,3,59.9999981689454
278,260,171937,6,0,P|263:287|224:315,3,59.9999981689454
240,382,172273,2,0,P|209:376|170:347,3,59.9999981689454
113,384,172608,6,0,P|108:353|124:307,3,59.9999981689454
72,264,172943,2,0,P|100:250|148:251,3,59.9999981689454
20,192,173278,6,0,P|37:188|14:189,1,85.0000016212464
116,72,173446,6,0,P|125:82|115:65,1,89.9999972534181
267,95,173613,6,0,P|263:104|280:88,1,94.9999974632264
322,237,173781,6,0,P|305:241|328:240,1,100
472,64,173949,6,0,L|466:127,1,50
392,40,174116,2,0,L|387:89,1,50
250,352,174284,6,0,P|268:338|303:329,1,55.0000016784668
396,336,174451,2,0,P|417:344|442:370,1,55.0000016784668
228,188,174619,6,0,L|160:196,1,59.9999981689454
92,204,174787,2,0,L|24:212,1,59.9999981689454
96,56,174954,6,0,B|114:84|114:84|107:142,1,64.9999970245363
140,332,175122,2,0,B|122:304|122:304|129:246,1,64.9999970245363
208,80,175289,6,0,L|297:67,1,69.9999978637696
240,300,175457,2,0,L|329:313,1,69.9999978637696
400,75,175625,6,0,P|378:106|377:143,1,75.0000028610231
484,172,175792,2,0,P|507:137|498:85,1,75.0000028610231
159,220,175960,6,0,P|161:259|185:290,1,80
296,255,176127,2,0,P|294:216|271:184,1,80
56,8,176295,6,0,L|44:96,1,85.0000016212464
32,188,176463,2,0,L|20:276,1,85.0000016212464
106,374,176630,6,0,P|101:347|88:325,6,50
208,256,176965,6,0,P|196:277|192:302,6,50
287,362,177301,6,0,L|354:354,6,50
408,300,177636,6,0,L|457:305,6,50
352,176,177971,6,0,B|308:236|308:236|492:212,1,225.000008583069
508,160,178306,6,0,P|471:140|417:155,1,75.0000028610231
456,60,178474,2,0,P|419:58|387:77,1,75.0000028610231
276,16,178641,6,0,P|239:36|185:21,1,75.0000028610231
224,116,178809,2,0,P|187:117|155:98,1,75.0000028610231
20,56,178977,5,0,0:0:0:0:
23,80,179060,1,0,0:0:0:0:
26,105,179144,1,0,0:0:0:0:
29,130,179228,1,0,0:0:0:0:
16,228,179312,6,0,B|108:240|108:240|140:324|140:324|232:340,1,269.999991760254
272,228,179647,2,0,P|224:222|198:258,1,89.9999972534181
368,344,179815,6,0,L|360:304,1,29.9999990844727
388,364,179898,2,0,L|396:324,1,29.9999990844727
460,268,179982,6,0,P|430:269|402:258,1,59.9999981689454
453,54,180150,6,0,L|459:89,1,25
488,276,180317,6,0,P|469:275|451:281,1,37.5000014305115
244,368,180485,6,0,L|256:294,1,75.0000028610231
324,52,180653,6,0,B|269:27|269:27|304:192,1,179.999994506836
216,208,180988,6,0,L|219:177,1,25
200,200,181072,2,0,L|203:169,1,25
128,176,181155,6,0,L|131:145,1,25
112,168,181239,2,0,L|115:137,1,25
40,144,181323,6,0,L|48:64,2,66.6666666666667
0,276,181658,6,0,B|168:224|120:388|291:330,1,300
352,328,181993,6,0,P|344:297|310:267,1,75.0000028610231
492,300,182161,2,0,P|469:322|460:366,1,75.0000028610231
398,193,182329,2,0,P|428:201|471:187,1,75.0000028610231
336,16,182496,6,0,L|296:24,1,29.9999990844727
320,36,182580,2,0,L|290:30,1,29.9999990844727
368,96,182664,6,0,P|364:72|354:37,1,40
432,8,182831,2,0,P|436:32|445:66,1,40
256,132,182999,6,0,B|224:132|196:124|196:124|144:156|144:156|116:148|64:144,1,179.999994506836
8,232,183334,6,0,P|57:158|36:273,1,300
79,282,183669,6,0,P|112:288|138:289,1,59.9999981689454
192,368,183837,2,0,P|155:370|118:377,1,75.0000028610231
232,204,184004,6,0,B|320:240|320:240|285:394,1,240
224,292,184340,6,0,B|360:248|324:356|464:308,1,240
464,148,184675,6,0,P|375:112|419:223,1,269.999991760254
440,8,185010,2,0,P|398:25|354:24,1,89.9999972534181
168,120,185178,6,0,L|175:77,1,29.9999990844727
184,132,185261,2,0,L|191:89,1,29.9999990844727
260,92,185345,6,0,P|225:77|187:78,1,59.9999981689454
104,0,185513,6,0,L|108:36,1,25
8,220,185680,6,0,P|25:212|46:210,1,37.5000014305115
120,12,185848,6,0,L|111:86,1,75.0000028610231
36,332,186016,6,0,B|98:326|98:326|124:334|124:334|144:318|144:318|207:310,1,179.999994506836
296,356,186351,6,0,L|328:364,1,25
308,336,186435,2,0,L|340:344,1,25
292,252,186518,6,0,L|324:260,1,25
304,232,186602,2,0,L|336:240,1,25
288,148,186686,6,0,L|376:164,2,66.6666666666667
228,64,187021,5,0,0:0:0:0:
252,60,187104,1,0,0:0:0:0:
277,57,187188,1,0,0:0:0:0:
302,53,187272,1,0,0:0:0:0:
160,12,187356,6,0,P|72:4|96:96,1,179.999994506836
8,136,187692,6,0,P|96:128|72:220,1,179.999994506836
24,284,188027,6,0,L|13:206,1,59.9999981689454
160,328,188194,2,0,L|151:268,1,59.9999981689454
296,372,188362,2,0,L|287:312,1,59.9999981689454
260,104,188530,1,0,0:0:0:0:
324,188,188697,6,0,B|360:228|360:228|212:192,1,179.999994506836
196,136,189032,6,0,P|172:154|160:181,1,59.9999981689454
188,352,189200,1,0,0:0:0:0:
5,238,189368,6,0,P|32:249|62:246,1,59.9999981689454
196,136,189536,1,0,0:0:0:0:
189,353,189703,6,0,P|184:323|167:299,1,59.9999981689454
62,246,189870,2,0,P|34:234|4:237,1,59.9999981689454
96,344,190038,6,0,B|184:328|184:328|264:384|264:384|356:364,1,269.999991760254
304,260,190373,2,0,P|266:274|295:282,1,89.9999972534181
456,168,190541,6,0,L|451:133,1,29.9999990844727
440,160,190625,2,0,L|435:125,1,29.9999990844727
368,176,190708,6,0,P|397:179|425:189,1,59.9999981689454
284,120,190876,6,0,L|279:80,1,25
372,32,191044,6,0,L|367:69,1,37.5000014305115
212,36,191211,6,0,P|173:31|136:18,1,75.0000028610231
16,136,191379,6,0,P|88:100|72:192,1,179.999994506836
36,260,191714,6,0,L|42:299,1,25
52,268,191798,2,0,L|58:307,1,25
132,268,191882,6,0,L|138:229,1,25
148,260,191966,2,0,L|154:221,1,25
228,260,192049,6,0,L|238:325,2,66.6666666666667
504,316,192384,6,0,B|312:268|312:268|332:400,1,300
480,207,192720,6,0,P|442:207|408:192,1,75.0000028610231
348,20,192887,2,0,P|310:20|275:35,1,75.0000028610231
216,240,193055,2,0,P|178:239|143:224,1,75.0000028610231
32,124,193222,6,0,L|-3:128,1,29.9999990844727
44,116,193306,2,0,L|14:119,1,29.9999990844727
116,88,193390,6,0,L|124:132,1,40
44,0,193558,2,0,L|52:44,1,40
47,359,193725,6,0,B|55:287|55:287|47:271|47:271|59:179,1,179.999994506836
123,127,194060,6,0,B|151:155|151:155|138:188,1,75.0000028610231
176,312,194228,5,0,0:0:0:0:
172,324,194312,1,0,0:0:0:0:
256,236,194396,5,0,0:0:0:0:
252,248,194479,2,0,L|364:260,2,75.0000028610231
384,340,194731,6,0,B|436:316|436:316|411:200,1,160
364,44,194982,5,0,0:0:0:0:
351,50,195066,2,0,P|392:71|433:66,1,80
456,140,195234,2,0,P|495:114|511:76,1,80
296,124,195401,6,0,B|188:108|224:192|108:168,1,200
59,75,196407,6,0,B|139:35|139:35|101:206,1,225.000008583069
116,368,196742,5,0,0:0:0:0:
72,304,196826,2,0,P|109:290|149:294,2,59.9999981689454
208,224,197077,6,0,B|284:236|284:236|316:304|316:304|396:316,1,225.000008583069
460,228,197412,6,0,B|410:205|410:205|417:150|417:150|471:141|471:141|497:188|497:188|460:227,1,269.999991760254
336,120,197747,5,0,0:0:0:0:
340,97,197830,1,0,0:0:0:0:
344,75,197914,1,0,0:0:0:0:
348,53,197998,1,0,0:0:0:0:
240,16,198083,6,0,L|192:24,11,33.3333333333333
32,84,199423,6,0,B|77:64|104:15|104:15|116:72|159:105,1,200
312,160,199675,6,0,B|212:132|228:220|108:188,1,200
232,332,199926,6,0,B|299:366|299:366|270:212,1,200
368,84,200178,6,0,B|435:50|435:50|406:204,1,200
400,260,200429,6,0,L|440:253,3,25
256,192,200764,12,0,201770,0:0:0:0:
120,80,201937,6,0,P|182:153|134:235,1,200
136,231,202273,6,0,P|168:140|262:140,1,200
260,139,202608,6,0,P|164:155|118:74,1,200
118,77,203027,1,0,0:0:0:0:
118,77,203111,1,0,0:0:0:0:
352,36,203446,6,0,B|364:100|364:100|336:160|336:160|348:224,1,194.999991073609
364,296,203781,6,0,L|372:336,6,32.4999985122681
347,222,204116,6,0,L|271:214,1,64.9999970245363
256,296,204284,2,0,L|180:288,1,64.9999970245363
165,370,204451,2,0,L|89:362,1,64.9999970245363
80,360,204619,1,0,0:0:0:0:
20,104,204787,6,0,B|-10:168|-10:168|147:137,1,194.999991073609
204,148,205122,2,0,B|174:84|174:84|331:115,1,194.999991073609
368,168,205457,5,0,0:0:0:0:
371,135,205540,1,0,0:0:0:0:
375,103,205624,1,0,0:0:0:0:
378,71,205708,1,0,0:0:0:0:
416,24,205792,5,0,0:0:0:0:
410,90,205875,1,0,0:0:0:0:
402,154,205959,1,0,0:0:0:0:
396,218,206043,1,0,0:0:0:0:
508,352,206127,6,0,B|473:317|471:267|471:267|433:309|380:316,1,194.999991073609
320,248,206463,2,0,B|285:283|283:333|283:333|245:291|192:284,1,194.999991073609
32,320,206798,6,0,P|100:280|72:360,1,194.999991073609
160,112,207133,2,0,P|169:190|101:149,1,194.999991073609
84,44,207468,6,0,B|51:-3|51:-3|196:35,1,194.999991073609
360,104,207803,2,0,B|393:57|393:57|248:95,1,194.999991073609
216,156,208139,6,0,P|251:171|292:160,1,64.9999970245363
488,180,208306,2,0,P|455:177|427:191,1,64.9999970245363
340,256,208474,5,0,0:0:0:0:
342,277,208557,1,0,0:0:0:0:
345,298,208641,1,0,0:0:0:0:
348,320,208725,1,0,0:0:0:0:
436,364,208809,6,0,B|388:355|388:355|364:368|364:368|300:356,1,129.999994049073
184,376,209060,2,0,B|220:342|220:342|196:264,1,129.999994049073
188,244,209312,1,0,0:0:0:0:
52,312,209479,6,0,L|116:320,1,64.9999970245363
28,216,209647,2,0,L|92:224,1,64.9999970245363
4,120,209815,1,0,0:0:0:0:
25,122,209898,1,0,0:0:0:0:
46,125,209982,1,0,0:0:0:0:
68,128,210066,1,0,0:0:0:0:
156,80,210150,6,0,L|144:4,1,64.9999970245363
272,104,210317,2,0,L|260:28,1,64.9999970245363
388,128,210485,2,0,L|376:52,1,64.9999970245363
504,152,210653,6,0,L|492:76,1,64.9999970245363
432,312,210820,1,0,0:0:0:0:
437,305,210903,1,0,0:0:0:0:
442,299,210987,1,0,0:0:0:0:
448,293,211071,1,0,0:0:0:0:
453,287,211155,2,0,L|441:211,1,64.9999970245363
196,332,211323,5,0,0:0:0:0:
192,320,211407,1,0,0:0:0:0:
188,308,211491,2,0,P|272:296|344:388,1,194.999991073609
100,356,211826,2,0,B|64:256|144:268|100:156,1,194.999991073609
52,40,212161,5,0,0:0:0:0:
46,61,212244,1,0,0:0:0:0:
41,82,212328,1,0,0:0:0:0:
36,103,212412,1,0,0:0:0:0:
104,166,212496,6,0,L|184:156,1,64.9999970245363
252,144,212664,2,0,L|331:133,1,64.9999970245363
404,40,212831,6,0,B|340:80|340:80|372:232,1,194.999991073609
370,214,213166,1,0,0:0:0:0:
464,304,213334,6,0,P|483:279|483:236,1,64.9999970245363
364,196,213502,2,0,B|298:210|298:210|270:262|270:262|202:278,1,194.999991073609
32,296,213837,6,0,P|44:321|50:363,1,64.9999970245363
134,335,214004,2,0,P|122:310|116:268,1,64.9999970245363
76,112,214172,6,0,P|65:192|10:121,1,194.999991073609
228,96,214507,2,0,P|217:16|162:87,1,194.999991073609
247,177,214842,6,0,L|327:170,1,64.9999970245363
396,48,215010,2,0,L|331:53,1,64.9999970245363
400,232,215178,2,0,L|464:226,1,64.9999970245363
476,212,215345,1,0,0:0:0:0:
296,284,215513,6,0,B|192:252|216:340|108:308,1,194.999991073609
20,348,215848,2,0,B|88:370|88:370|58:245,1,194.999991073609
116,104,216183,2,0,P|42:90|88:168,1,194.999991073609
200,136,216518,6,0,L|190:46,1,64.9999970245363
300,23,216686,2,0,L|308:88,1,64.9999970245363
488,124,216854,6,0,B|436:120|401:82|401:82|401:137|355:169,1,194.999991073609
204,224,217189,2,0,B|308:192|288:288|396:256,1,194.999991073609
448,312,217524,6,0,P|420:332|364:324,1,64.9999970245363
296,368,217692,2,0,P|268:348|212:356,1,64.9999970245363
32,324,217859,5,0,0:0:0:0:
152,304,218027,1,0,0:0:0:0:
120,140,218194,6,0,B|56:116|56:116|80:260,1,194.999991073609
81,254,218530,1,0,0:0:0:0:
208,240,218697,2,0,P|184:218|152:212,1,64.9999970245363
208,60,218865,6,0,B|272:36|272:36|248:180,1,194.999991073609
208,240,219200,5,0,0:0:0:0:
229,236,219283,1,0,0:0:0:0:
250,233,219367,1,0,0:0:0:0:
272,230,219451,1,0,0:0:0:0:
376,168,219535,5,0,0:0:0:0:
352,364,219703,1,0,0:0:0:0:
480,96,219870,5,0,0:0:0:0:
456,292,220038,1,0,0:0:0:0:
136,168,220206,5,0,0:0:0:0:
160,364,220374,1,0,0:0:0:0:
32,96,220541,5,0,0:0:0:0:
56,292,220709,1,0,0:0:0:0:
256,368,220876,5,0,0:0:0:0:
250,346,220959,1,0,0:0:0:0:
245,325,221043,1,0,0:0:0:0:
240,304,221127,1,0,0:0:0:0:
256,228,221211,5,0,0:0:0:0:
250,206,221294,1,0,0:0:0:0:
245,185,221378,1,0,0:0:0:0:
240,164,221462,1,0,0:0:0:0:
260,88,221546,5,0,0:0:0:0:
324,36,221714,2,0,B|348:68|348:68|340:116,1,75.0000028610231
182,58,221882,2,0,B|197:21|197:21|243:4,1,75.0000028610231
273,170,222049,2,0,B|233:174|233:174|195:143,1,75.0000028610231
260,88,222217,6,0,B|356:60|356:60|308:272,1,280
312,256,222887,6,0,L|376:248,1,50
364,360,223055,1,0,0:0:0:0:
368,352,223139,1,0,0:0:0:0:
372,340,223222,2,0,L|308:348,1,50
224,204,223390,6,0,B|148:216|148:216|116:280|116:280|40:292,1,225.000008583069
24,296,223725,1,0,0:0:0:0:
68,12,223893,5,0,0:0:0:0:
72,24,223977,1,0,0:0:0:0:
76,36,224060,2,0,P|116:61|152:56,1,75.0000028610231
216,128,224228,2,0,P|245:105|282:104,1,75.0000028610231
420,28,224396,5,0,0:0:0:0:
416,40,224479,1,0,0:0:0:0:
412,52,224563,2,0,L|429:152,1,100
432,168,224982,1,0,0:0:0:0:
429,150,225234,5,0,0:0:0:0:
431,130,225317,1,0,0:0:0:0:
434,110,225401,1,0,0:0:0:0:
437,91,225485,1,0,0:0:0:0:
504,172,225569,5,0,0:0:0:0:
425,178,225652,1,0,0:0:0:0:
347,191,225736,2,0,L|252:200,1,59.9999981689454
88,324,225904,6,0,P|121:319|160:343,1,75
156,348,226072,6,0,B|140:272|140:272|175:213|175:213|159:125,1,225.000008583069
156,48,226407,6,0,L|162:0,1,37.5000014305115
172,56,226491,2,0,L|178:8,1,37.5000014305115
244,84,226574,5,0,0:0:0:0:
260,92,226658,1,0,0:0:0:0:
332,120,226742,5,0,0:0:0:0:
348,128,226826,1,0,0:0:0:0:
392,208,226910,6,0,B|446:176|446:176|424:80,1,150.000005722046
204,109,227161,6,0,B|254:116|254:116|271:130|271:130|294:123|294:123|347:127,1,150.000005722046
408,16,227412,1,0,0:0:0:0:
440,288,227580,6,0,L|380:296,1,50
296,368,227747,5,0,0:0:0:0:
300,352,227831,1,0,0:0:0:0:
212,352,227915,5,0,0:0:0:0:
216,336,227999,1,0,0:0:0:0:
128,336,228083,5,0,0:0:0:0:
132,320,228167,1,0,0:0:0:0:
44,320,228250,5,0,0:0:0:0:
