osu file format v14

[General]
AudioFilename: audio.mp3
AudioLeadIn: 0
PreviewTime: 31843
Countdown: 1
SampleSet: Soft
StackLeniency: 0.7
Mode: 0
LetterboxInBreaks: 0
WidescreenStoryboard: 0

[Editor]
Bookmarks: 24469,24636,24804,24972,25139,25307,25642,25810,25977,26145,26312,26480,26648,26815,26983,27067,27150,27318,27486,27737,27988,28324,28491,28659,28826,29497,29832,30000,30167,30335,30502,30670,31005,31173,31340,31508,31675,31843,32011,32346,32430,32513,32681,32849,33519,33854,34022,34189,34525,98547,113296,113463
DistanceSpacing: 0.6
BeatDivisor: 4
GridSize: 4
TimelineZoom: 3.199998

[Metadata]
Title:Bass Drop Freaks
TitleUnicode:Bass Drop Freaks
Artist:Camellia feat. Nanahira
ArtistUnicode:Camellia feat. Nanahira
Creator:My Angel Newnew
Version:Hai
Source:
Tags:
BeatmapID:926638
BeatmapSetID:429464

[Difficulty]
HPDrainRate:5
CircleSize:4.3
OverallDifficulty:7
ApproachRate:9.6
SliderMultiplier:1.4
SliderTickRate:1

[Events]
//Background and Video events
0,0,"Konachan.com - 187753 1000-chan animal_ears bicolored_eyes blue_eyes blue_hair blush boots bow pink_eyes short_hair skirt tears twintails watanabe_akio.jpg",0,0
//Break Periods
//Storyboard Layer 0 (Background)
//Storyboard Layer 1 (Fail)
//Storyboard Layer 2 (Pass)
//Storyboard Layer 3 (Foreground)
//Storyboard Sound Samples

[TimingPoints]
0,335.195530726257,4,2,0,100,1,0
2346,-100,4,2,0,53,0,0
2597,-100,4,2,0,5,0,0
2681,-66.6666666666667,4,2,0,53,0,0
2932,-66.6666666666667,4,2,0,5,0,0
3016,-55.5555555555556,4,2,0,53,0,0
3268,-100,4,2,0,53,0,0
4189,-83.3333333333333,4,2,0,53,0,0
4525,-66.6666666666667,4,2,0,53,0,0
5363,-100,4,2,0,53,0,0
6033,-52.6315789473684,4,2,0,34,0,0
6536,-133.333333333333,4,2,0,53,0,0
6871,-52.6315789473684,4,2,0,53,0,0
7206,-153.846153846153,4,2,0,36,0,0
7458,-153.846153846153,4,2,0,46,0,0
7793,-153.846153846153,4,2,0,55,0,0
8044,-117.647058823529,4,2,0,63,0,0
8296,-117.647058823529,4,2,0,5,0,0
8379,-117.647058823529,4,2,0,53,0,0
8715,-117.647058823529,4,2,0,33,0,0
8798,-117.647058823529,4,2,0,37,0,0
8882,-117.647058823529,4,2,0,43,0,0
8966,-117.647058823529,4,2,0,47,0,0
9050,-117.647058823529,4,2,0,52,0,0
9134,-117.647058823529,4,2,0,58,0,0
9217,-200,4,2,0,63,0,0
9720,-66.6666666666667,4,2,0,63,0,0
10558,-66.6666666666667,4,2,0,43,0,0
11229,-66.6666666666667,4,2,0,49,0,0
14245,-66.6666666666667,4,2,0,50,0,0
18770,-133.333333333333,4,2,0,50,0,0
20446,-66.6666666666667,4,2,0,50,0,0
21117,-62.5,4,2,0,50,0,0
24134,-66.6666666666667,4,2,0,50,0,0
24636,-58.8235294117647,4,2,0,50,0,0
26145,-50,4,2,0,50,0,0
26312,-40,4,2,0,50,0,0
26480,-30,4,2,0,50,0,0
26648,-66.6666666666667,4,2,0,50,0,0
33519,-30,4,2,0,50,0,0
34022,-66.6666666666667,4,2,0,50,0,0
34860,-40,4,2,0,50,0,0
54301,-600,4,2,0,50,0,0
54972,-100,4,2,0,50,0,0
55223,-66.6666666666667,4,2,0,50,0,0
55474,-50,4,2,0,50,0,0
55977,-66.6666666666667,4,2,0,50,0,0
67039,-58.8235294117647,4,2,0,50,0,0
71229,-40,4,2,0,50,0,0
71564,-30,4,2,0,50,0,0
71815,-58.8235294117647,4,2,0,50,0,0
78100,-50,4,2,0,50,0,0
83128,-30,4,2,0,50,0,0
84134,-100,4,2,0,50,0,0
84469,-50,4,2,0,50,0,0
88491,-30,4,2,0,50,0,0
89162,-50,4,2,0,50,0,0
91843,-41.095890410959,4,2,0,50,0,0
92011,-30,4,2,0,50,0,0
92178,-30,4,2,0,50,0,0
93854,-100,4,2,0,50,0,0
94189,-50,4,2,0,50,0,0
95865,-30,4,2,0,50,0,0
97877,-100,4,2,0,50,0,0
98547,-30,4,2,0,50,0,0
98798,-30,4,2,0,5,0,0
98882,-30,4,2,0,50,0,0
112625,-20,4,2,0,50,0,0
112877,-30,4,2,0,5,0,0
112960,-30,4,2,0,50,0,0
113296,-20,4,2,0,50,0,0

[HitObjects]
212,136,2346,6,0,P|200:212|220:252,1,105
308,292,2681,2,0,P|388:268|408:196,1,157.500006008148
388,108,3016,2,0,P|340:64|272:72,1,125.999996154785
136,28,3351,6,0,L|96:52,1,35
156,60,3519,2,0,L|144:92,1,35
192,76,3687,2,0,L|200:116,1,35
216,184,3854,6,0,B|248:220|300:220|328:252,1,105
396,204,4189,2,0,P|388:136|328:140,1,125.999996154785
396,204,4525,2,0,P|432:128|336:140,1,210.000008010865
236,88,4944,1,0,0:0:0:0:
196,104,5027,1,0,0:0:0:0:
160,120,5111,1,0,0:0:0:0:
208,236,5363,6,0,B|176:284|120:288|36:368,1,210
284,340,6033,2,0,L|256:276,1,44.3333321495057
324,324,6145,2,0,L|304:272,1,44.3333321495057
364,308,6256,2,0,L|336:244,1,44.3333321495057
404,292,6368,2,0,L|384:240,1,44.3333321495057
416,120,6536,6,0,B|328:152,1,78.7500030040742
272,120,6871,2,0,P|256:176|360:192,1,132.999996448517
476,156,7206,5,0,0:0:0:0:
456,140,7290,5,0,0:0:0:0:
436,124,7374,1,0,0:0:0:0:
416,108,7458,1,0,0:0:0:0:
392,88,7541,1,0,0:0:0:0:
364,76,7625,1,0,0:0:0:0:
336,68,7709,1,0,0:0:0:0:
300,68,7793,1,0,0:0:0:0:
268,76,7877,1,0,0:0:0:0:
236,96,7960,1,0,0:0:0:0:
196,128,8044,2,0,B|176:176|180:220|176:236,1,89.2500017023087
196,272,8379,6,0,L|248:320,1,59.5000011348725
372,276,8715,1,0,0:0:0:0:
396,240,8798,1,0,0:0:0:0:
408,196,8882,1,0,0:0:0:0:
396,148,8966,1,0,0:0:0:0:
356,112,9050,1,0,0:0:0:0:
336,160,9134,1,0,0:0:0:0:
312,204,9217,2,0,P|280:256|228:284,1,105
248,80,9888,6,0,B|220:88|220:88|228:100|228:100|196:80|196:80|216:128|216:128|196:104|196:104|140:168,1,210.000008010865
136,280,10391,2,0,P|208:292|252:288,1,105.000004005432
363,140,10726,1,0,0:0:0:0:
283,263,10893,1,0,0:0:0:0:
159,183,11061,5,0,0:0:0:0:
265,59,11229,1,0,0:0:0:0:
370,161,11397,1,0,0:0:0:0:
268,266,11564,1,0,0:0:0:0:
162,164,11732,1,0,0:0:0:0:
277,60,11899,1,0,0:0:0:0:
412,120,12067,5,4,0:0:0:0:
404,144,12150,1,0,0:0:0:0:
396,176,12234,1,0,0:0:0:0:
384,212,12318,1,4,0:0:0:0:
360,248,12402,1,0,0:0:0:0:
328,280,12486,1,0,0:0:0:0:
280,304,12569,1,4,0:0:0:0:
228,312,12653,1,0,0:0:0:0:
172,296,12737,1,0,0:0:0:0:
136,244,12821,1,4,0:0:0:0:
128,176,12905,1,0,0:0:0:0:
140,104,12988,1,0,0:0:0:0:
200,52,13072,1,0,0:0:0:0:
280,60,13156,1,0,0:0:0:0:
352,104,13240,1,0,0:0:0:0:
328,332,13407,6,0,P|280:288|248:232,1,105.000004005432
384,104,13743,2,0,P|324:84|172:112,1,210.000008010865
80,164,14245,2,0,L|40:108,1,52.5000020027161
108,140,14413,2,0,L|96:88,1,52.5000020027161
144,128,14581,2,0,L|160:76,1,52.5000020027161
325,69,14748,6,0,B|436:88|436:88|380:176|380:176|392:208,1,210.000008010865
464,256,15251,2,0,L|412:292,1,52.5000020027161
360,348,15418,2,0,B|324:263|233:253|234:181,1,210.000008010865
280,80,15837,1,0,0:0:0:0:
296,96,15921,1,0,0:0:0:0:
308,116,16005,1,0,0:0:0:0:
316,136,16089,2,0,B|260:232|456:188|312:308|376:344,1,210.000008010865
120,52,16592,5,0,0:0:0:0:
136,96,16675,1,0,0:0:0:0:
184,112,16759,5,0,0:0:0:0:
200,156,16842,1,0,0:0:0:0:
240,176,16927,5,0,0:0:0:0:
256,220,17010,1,0,0:0:0:0:
296,288,17094,1,0,0:0:0:0:
348,264,17178,1,0,0:0:0:0:
392,256,17262,2,0,P|484:260|528:284,1,105.000004005432
304,48,17597,5,0,0:0:0:0:
272,76,17681,1,0,0:0:0:0:
260,116,17765,1,0,0:0:0:0:
272,156,17849,2,0,P|300:212|352:224,1,105.000004005432
420,236,18100,2,0,P|406:185|367:151,1,105.000004005432
320,144,18351,1,0,0:0:0:0:
272,156,18435,1,0,0:0:0:0:
240,192,18519,1,0,0:0:0:0:
200,236,18603,1,0,0:0:0:0:
140,256,18687,1,0,0:0:0:0:
72,248,18770,6,0,P|56:188|108:104,1,157.500006008148
152,196,19441,1,0,0:0:0:0:
308,52,19608,1,0,0:0:0:0:
308,52,19692,1,0,0:0:0:0:
308,52,19776,1,0,0:0:0:0:
308,52,19860,2,0,L|260:44,1,26.2500010013581
120,40,20111,6,0,P|72:72|52:112,1,78.7500030040742
40,164,20446,2,0,P|88:208|124:300,1,157.500006008148
220,300,20782,2,0,P|288:320|348:304,1,105.000004005432
68,164,21117,1,0,0:0:0:0:
68,164,21284,1,0,0:0:0:0:
184,49,21452,2,0,B|180:64|184:184|348:64|332:172|351:170,1,224
192,228,21871,1,0,0:0:0:0:
180,184,21955,1,8,0:0:0:0:
312,144,22122,1,0,0:0:0:0:
348,172,22206,1,8,0:0:0:0:
456,64,22374,5,0,0:0:0:0:
412,48,22458,1,0,0:0:0:0:
368,56,22541,1,0,0:0:0:0:
344,96,22625,1,0,0:0:0:0:
356,140,22709,1,0,0:0:0:0:
344,184,22793,1,0,0:0:0:0:
300,220,22877,1,4,0:0:0:0:
240,252,22960,1,0,0:0:0:0:
172,252,23044,1,0,0:0:0:0:
108,216,23128,1,4,0:0:0:0:
64,144,23212,1,0,0:0:0:0:
60,60,23296,1,4,0:0:0:0:
128,12,23379,1,0,0:0:0:0:
208,40,23463,6,0,L|248:88,1,37.3333333333333,2|0,0:0|0:0,0:0:0:0:
172,68,23575,2,0,L|188:112,1,37.3333333333333,2|0,0:0|0:0,0:0:0:0:
116,92,23687,2,0,L|140:136,1,37.3333333333333,2|0,0:0|0:0,0:0:0:0:
80,140,23798,2,0,L|120:168,1,37.3333333333333,2|0,0:0|0:0,0:0:0:0:
56,192,23910,2,0,L|104:208,1,37.3333333333333,2|0,0:0|0:0,0:0:0:0:
48,248,24022,2,0,L|104:240,1,37.3333333333333,2|0,0:0|0:0,0:0:0:0:
72,304,24134,2,0,P|160:316|196:300,1,105.000004005432
164,228,24469,5,0,0:0:0:0:
172,188,24553,1,0,0:0:0:0:
200,148,24636,1,0,0:0:0:0:
252,128,24720,1,0,0:0:0:0:
304,144,24804,1,0,0:0:0:0:
324,188,24888,1,0,0:0:0:0:
312,240,24972,1,0,0:0:0:0:
268,268,25055,1,0,0:0:0:0:
216,280,25139,1,0,0:0:0:0:
164,272,25223,1,0,0:0:0:0:
124,248,25307,2,0,B|92:204|108:172|264:156|-88:104|240:152|96:-4,1,238.00000453949
204,40,25726,5,0,0:0:0:0:
200,92,25810,1,0,0:0:0:0:
228,144,25893,1,0,0:0:0:0:
276,176,25977,1,0,0:0:0:0:
332,188,26061,1,0,0:0:0:0:
368,236,26145,2,0,P|376:280|328:300,1,93.3333333333333,4|0,0:0|0:0,0:0:0:0:
368,236,26312,2,0,P|392:280|324:320,1,116.666666666667,4|0,0:0|0:0,0:0:0:0:
368,236,26480,2,0,P|408:272|308:320,1,155.555555555556,4|0,0:0|0:0,0:0:0:0:
324,344,26648,5,0,0:0:0:0:
264,332,26731,1,0,0:0:0:0:
204,308,26815,1,0,0:0:0:0:
176,252,26899,1,0,0:0:0:0:
184,188,26983,2,0,L|208:140,2,52.5000020027161
204,248,27234,5,0,0:0:0:0:
264,272,27318,1,0,0:0:0:0:
328,264,27402,1,0,0:0:0:0:
380,232,27486,2,0,P|420:176|392:92,1,157.500006008148
368,24,27821,2,0,P|309:72|308:132,1,105.000004005432
296,160,28072,5,0,0:0:0:0:
268,216,28156,1,0,0:0:0:0:
212,244,28240,1,0,0:0:0:0:
152,228,28324,1,0,0:0:0:0:
124,172,28407,1,0,0:0:0:0:
144,112,28491,1,0,0:0:0:0:
200,84,28575,5,0,0:0:0:0:
264,96,28659,1,0,0:0:0:0:
312,136,28743,1,0,0:0:0:0:
372,148,28826,2,0,P|460:144|484:128,1,105.000004005432,4|0,0:0|0:0,0:0:0:0:
400,240,29162,6,0,L|328:300,1,52.5000020027161,4|0,0:0|0:0,0:0:0:0:
296,264,29329,2,0,L|208:252,1,52.5000020027161,4|0,0:0|0:0,0:0:0:0:
192,220,29497,2,0,P|168:136|284:92,1,210.000008010865
316,112,29916,1,0,0:0:0:0:
324,176,30000,1,0,0:0:0:0:
296,232,30083,1,0,0:0:0:0:
236,256,30167,1,0,0:0:0:0:
172,252,30251,5,0,0:0:0:0:
108,260,30335,1,0,0:0:0:0:
72,312,30418,1,0,0:0:0:0:
124,348,30502,1,0,0:0:0:0:
188,352,30586,1,0,0:0:0:0:
252,344,30670,2,0,P|328:312|344:160,1,210.000008010865
340,136,31089,5,0,0:0:0:0:
288,100,31173,1,0,0:0:0:0:
260,156,31256,1,0,0:0:0:0:
240,216,31340,1,0,0:0:0:0:
192,256,31424,1,0,0:0:0:0:
128,260,31508,1,0,0:0:0:0:
80,220,31592,1,0,0:0:0:0:
84,156,31675,1,0,0:0:0:0:
120,104,31759,1,0,0:0:0:0:
184,96,31843,6,0,L|232:128,1,52.5000020027161,2|0,0:0|0:0,0:0:0:0:
268,176,32011,2,0,L|292:236,1,52.5000020027161,2|0,0:0|0:0,0:0:0:0:
304,288,32178,2,0,P|364:312|444:304,1,105.000004005432,4|0,0:0|0:0,0:0:0:0:
416,188,32513,2,0,P|348:148|284:156,1,105.000004005432
240,48,32849,5,0,0:0:0:0:
164,72,32932,1,0,0:0:0:0:
116,136,33016,1,0,0:0:0:0:
120,212,33100,1,0,0:0:0:0:
156,284,33184,1,0,0:0:0:0:
232,344,33268,1,0,0:0:0:0:
324,308,33351,1,0,0:0:0:0:
368,216,33435,1,0,0:0:0:0:
356,76,33519,2,0,B|192:56|192:56|256:172|256:172|80:152|80:152,1,466.666666666667,2|0,0:0|0:0,0:0:0:0:
116,288,34022,6,0,L|192:316,1,52.5000020027161,2|0,0:0|0:0,0:0:0:0:
276,256,34189,2,0,L|264:180,1,52.5000020027161,2|0,0:0|0:0,0:0:0:0:
160,124,34357,2,0,L|84:172,1,52.5000020027161,2|0,0:0|0:0,0:0:0:0:
116,288,34525,2,0,L|192:316,1,52.5000020027161,2|0,0:0|0:0,0:0:0:0:
152,64,34860,2,0,B|224:104|232:204|200:276,1,175
38,183,35195,6,0,L|79:277,1,87.5,2|0,0:0|0:0,0:0:0:0:
214,193,35363,2,0,L|174:95,1,87.5
312,74,35530,2,0,L|345:166,1,87.5
432,164,35698,2,0,P|384:240|296:264,1,175,0|2,0:0|0:0,0:0:0:0:
148,188,36033,1,0,0:0:0:0:
272,64,36201,6,0,P|168:52|76:96,1,175
76,160,36452,2,0,L|176:216,1,87.5,0|2,0:0|0:0,0:0:0:0:
140,292,36620,2,0,L|236:240,1,87.5
220,164,36787,2,0,L|312:224,1,87.5
332,292,36955,2,0,L|404:208,1,87.5
436,120,37206,5,2,0:0:0:0:
436,104,37290,1,0,0:0:0:0:
432,88,37374,1,0,0:0:0:0:
420,72,37458,1,0,0:0:0:0:
404,55,37541,2,0,B|391:29|391:29|391:61|391:61|388:41|388:41|376:30|376:30|375:56|375:56|344:38|344:38|350:51|350:51|321:30|321:30|343:71|343:71|287:24|287:24|203:73,1,350,0|2,0:0|0:0,0:0:0:0:
76,64,38044,5,0,0:0:0:0:
100,76,38128,1,0,0:0:0:0:
112,128,38212,5,0,0:0:0:0:
136,140,38296,1,0,0:0:0:0:
152,188,38379,5,0,0:0:0:0:
176,200,38463,1,0,0:0:0:0:
304,156,38547,6,0,B|312:132|312:132|332:152|332:152|328:124|328:124|344:144|344:144|352:124|352:124|392:88|444:116|464:172,1,262.5,2|0,0:0|0:0,0:0:0:0:
444,248,38882,2,0,P|432:264|280:280,1,175,8|0,0:0|0:0,0:0:0:0:
252,108,39217,2,0,P|268:88|388:188,1,175,10|0,0:0|0:0,0:0:0:0:
320,156,39469,1,0,0:0:0:0:
252,200,39553,2,0,P|324:240|393:192,1,175,8|0,0:0|0:0,0:0:0:0:
420,128,39804,1,0,0:0:0:0:
356,80,39888,1,0,0:0:0:0:
280,56,39972,1,0,0:0:0:0:
196,72,40055,1,0,0:0:0:0:
112,132,40139,1,0,0:0:0:0:
120,236,40223,6,0,P|148:292|272:332,1,175
460,252,40558,2,0,P|344:232|224:152,1,262.5,2|0,0:0|0:0,0:0:0:0:
364,48,40893,2,0,L|283:82,1,87.5
308,152,41061,2,0,L|227:186,1,87.5
176,128,41229,2,0,L|95:162,1,87.5,2|0,0:0|0:0,0:0:0:0:
112,272,41396,1,0,0:0:0:0:
224,292,41480,1,0,0:0:0:0:
328,244,41564,6,0,P|420:180|336:52,1,262.5
128,92,41899,1,2,0:0:0:0:
132,136,41983,2,0,L|144:224,1,87.5
292,96,42150,1,0,0:0:0:0:
332,112,42234,2,0,L|420:148,1,87.5
352,328,42402,1,0,0:0:0:0:
324,292,42486,2,0,L|268:216,1,87.5,0|2,0:0|0:0,0:0:0:0:
116,80,42653,1,0,0:0:0:0:
160,84,42737,2,0,L|264:88,1,87.5
288,108,42905,5,0,0:0:0:0:
320,156,42988,1,0,0:0:0:0:
324,216,43072,1,0,0:0:0:0:
304,280,43156,1,0,0:0:0:0:
244,316,43240,1,0,0:0:0:0:
164,304,43324,1,0,0:0:0:0:
112,248,43407,1,0,0:0:0:0:
112,160,43491,1,0,0:0:0:0:
148,80,43575,5,0,0:0:0:0:
236,120,43659,5,0,0:0:0:0:
284,36,43743,5,0,0:0:0:0:
356,96,43826,5,0,0:0:0:0:
420,24,43910,2,0,P|448:104|344:244,1,262.5
300,160,44245,2,0,P|240:240|348:344,1,262.5
432,344,44664,1,0,0:0:0:0:
432,344,44748,2,0,P|436:296|360:276,1,87.5
288,140,44916,2,0,P|188:116|116:136,1,175
164,228,45167,5,0,0:0:0:0:
216,296,45251,1,0,0:0:0:0:
308,320,45335,1,0,0:0:0:0:
412,308,45418,1,0,0:0:0:0:
472,208,45502,1,0,0:0:0:0:
452,88,45586,6,0,P|400:24|292:32,1,175
199,20,45921,6,0,P|114:22|60:88,1,175,2|0,0:0|0:0,0:0:0:0:
68,216,46173,1,0,0:0:0:0:
168,288,46256,1,0,0:0:0:0:
168,288,46340,2,0,L|236:200,1,87.5
288,240,46508,1,0,0:0:0:0:
288,240,46592,2,0,L|344:156,1,87.5,2|0,0:0|0:0,0:0:0:0:
396,212,46759,1,0,0:0:0:0:
396,212,46843,2,0,L|452:128,1,87.5
364,104,47011,6,0,P|284:32|132:76,1,262.5,0|2,0:0|0:0,0:0:0:0:
40,160,47346,1,0,0:0:0:0:
104,284,47430,1,0,0:0:0:0:
280,292,47597,2,0,P|336:208|408:188,1,175
380,272,47849,2,0,L|316:212,1,87.5,0|2,0:0|0:0,0:0:0:0:
252,152,48016,1,0,0:0:0:0:
252,152,48100,2,0,L|188:92,1,87.5
104,60,48268,2,0,B|64:72|64:72|96:84|96:84|52:104|52:104|96:116|96:116|52:136|52:136|96:152|100:276,1,350,0|2,0:0|0:0,0:0:0:0:
264,308,48770,6,0,P|356:304|400:276,1,87.5
420,252,48938,2,0,P|425:208|418:165,1,87.5
368,92,49106,2,0,P|324:86|281:93,1,87.5
172,144,49273,2,0,B|212:142|212:142|186:164|186:164|232:160|232:160|192:192|192:192|244:198|244:198|217:222|228:244,1,262.5,2|0,0:0|0:0,0:0:0:0:
140,320,49608,6,0,P|292:308|324:296,1,175
376,64,49944,2,0,P|272:80|200:132,1,175,2|0,0:0|0:0,0:0:0:0:
144,192,50195,1,0,0:0:0:0:
144,296,50279,1,4,0:0:0:0:
156,308,50446,1,4,0:0:0:0:
168,320,50614,1,4,0:0:0:0:
428,64,50949,2,0,B|396:48|396:48|408:80|408:80|376:56|376:56|384:88|384:88|344:68|344:68|360:100|360:100|292:112|352:200,1,350
392,256,51368,5,0,0:0:0:0:
388,328,51452,1,0,0:0:0:0:
312,352,51536,1,0,0:0:0:0:
236,340,51620,1,0,0:0:0:0:
156,192,51787,1,0,0:0:0:0:
292,80,51955,2,0,P|336:168|440:192,1,175,2|0,0:0|0:0,0:0:0:0:
272,312,52290,6,0,P|200:236|112:228,1,175
48,204,52541,1,0,0:0:0:0:
64,116,52625,1,2,0:0:0:0:
140,76,52709,2,0,P|236:64|360:140,1,175
272,172,52960,2,0,L|288:272,1,87.5
364,300,53128,2,0,L|432:228,1,87.5
436,148,53296,2,0,L|340:104,1,87.5,2|0,0:0|0:0,0:0:0:0:
268,100,53463,6,0,P|184:128|144:232,1,175
236,352,53798,2,0,P|340:336|380:256,1,175
312,220,54050,1,0,0:0:0:0:
340,176,54134,1,0,0:0:0:0:
456,176,54217,1,0,0:0:0:0:
444,128,54301,6,0,P|432:104|420:92,1,40.8333333333333
444,128,54972,6,0,P|424:96|376:72,1,70
444,128,55223,6,0,P|424:96|328:68,1,105.000004005432
444,128,55474,6,0,P|424:96|268:96,1,210
84,56,55977,5,0,0:0:0:0:
76,80,56061,1,0,0:0:0:0:
72,108,56145,1,0,0:0:0:0:
76,132,56229,1,0,0:0:0:0:
88,156,56312,2,0,P|136:216|268:220,1,210.000008010865
200,108,56815,2,0,P|300:76|328:84,1,105.000004005432
420,292,57150,6,0,P|348:288|256:276,1,157.500006008148
208,276,57486,2,0,P|184:216|192:136,1,105.000004005432
372,64,57821,1,0,0:0:0:0:
380,284,57988,1,0,0:0:0:0:
184,184,58156,1,0,0:0:0:0:
184,184,58240,1,0,0:0:0:0:
184,184,58324,1,2,0:0:0:0:
356,44,58491,6,0,P|400:88|424:148,1,105.000004005432
424,148,58743,1,0,0:0:0:0:
428,168,58826,1,0,0:0:0:0:
428,188,58910,1,0,0:0:0:0:
424,208,58994,2,0,B|400:272|256:236|276:368,1,210.000008010865,4|0,0:0|0:0,0:0:0:0:
32,184,59497,1,0,0:0:0:0:
232,116,59664,1,0,0:0:0:0:
56,64,59832,5,0,0:0:0:0:
172,232,60000,1,0,0:0:0:0:
160,24,60167,1,0,0:0:0:0:
368,52,60335,2,0,B|408:116|416:212|456:256,1,210.000008010865,4|0,0:0|0:0,0:0:0:0:
340,288,60837,5,0,0:0:0:0:
316,280,60921,1,0,0:0:0:0:
292,272,61005,1,0,0:0:0:0:
272,256,61089,1,0,0:0:0:0:
256,228,61173,1,0,0:0:0:0:
248,192,61256,1,0,0:0:0:0:
256,152,61340,1,0,0:0:0:0:
276,108,61424,1,0,0:0:0:0:
316,72,61508,1,0,0:0:0:0:
372,52,61592,1,0,0:0:0:0:
460,160,61675,6,0,B|392:140|316:156|232:144,2,210.000008010865,4|0|0,0:0|0:0|0:0,0:0:0:0:
120,136,62513,2,0,P|156:200|244:232,1,157.500006008148
292,180,62849,6,0,P|328:228|400:240,1,105.000004005432
440,140,63184,2,0,P|468:196|472:272,1,105.000004005432
360,288,63519,2,0,L|304:300,1,52.5000020027161
352,252,63687,2,0,P|296:252|240:224,1,105.000004005432
108,108,64022,6,0,P|184:48|268:40,1,157.500006008148
304,48,64357,1,0,0:0:0:0:
360,76,64441,1,0,0:0:0:0:
400,132,64525,1,0,0:0:0:0:
416,196,64608,1,0,0:0:0:0:
404,264,64692,1,0,0:0:0:0:
352,308,64776,1,0,0:0:0:0:
284,308,64860,2,0,L|216:296,4,52.5000020027161
348,288,65279,5,0,0:0:0:0:
388,232,65363,1,0,0:0:0:0:
404,164,65446,1,0,0:0:0:0:
388,88,65530,1,0,0:0:0:0:
304,60,65614,1,0,0:0:0:0:
212,84,65698,2,0,P|160:108|124:144,1,105.000004005432
68,320,65977,5,0,0:0:0:0:
68,320,66033,2,0,P|148:328|184:328,1,105.000004005432
228,252,66284,1,0,0:0:0:0:
268,192,66368,2,0,L|304:136,2,52.5000020027161
432,100,66703,5,0,0:0:0:0:
260,72,66871,1,0,0:0:0:0:
8,32,67039,2,0,B|68:40|68:40|92:100|92:100|160:96,1,178.500003404617
236,44,67374,2,0,P|296:100|296:144,1,119.000002269745
132,268,67709,6,0,L|92:208,1,59.5000011348725,2|0,0:0|0:0,0:0:0:0:
240,228,67877,6,0,L|204:176,1,59.5000011348725,2|0,0:0|0:0,0:0:0:0:
340,176,68044,6,0,L|304:124,1,59.5000011348725,2|0,0:0|0:0,0:0:0:0:
240,40,68212,6,0,P|176:56|108:116,1,119.000002269745
148,300,68547,2,0,P|236:344|284:344,1,119.000002269745
464,304,68882,6,0,L|446:238,1,59.5000011348725,2|0,0:3|0:3,0:3:0:0:
348,210,69050,6,0,L|330:144,1,59.5000011348725,2|0,0:3|0:3,0:3:0:0:
237,107,69217,6,0,L|219:41,1,59.5000011348725,2|0,0:3|0:3,0:3:0:0:
112,52,69385,2,0,P|84:152|84:200,1,119.000002269745
232,320,69720,2,0,B|248:244|248:244|188:200|188:200|248:108,1,238.00000453949
428,36,70223,1,0,0:0:0:0:
452,84,70307,1,0,0:0:0:0:
456,136,70391,2,0,P|436:208|400:240,1,119.000002269745
356,256,70642,1,0,0:0:0:0:
304,252,70726,1,0,0:0:0:0:
124,100,70893,6,0,P|208:40|296:28,1,178.500003404617,4|0,0:0|0:0,0:0:0:0:
400,52,71229,6,0,P|368:120|440:300,1,262.5,4|0,0:0|0:0,0:0:0:0:
428,360,71564,6,0,P|292:360|84:260,1,350,4|0,0:0|0:0,0:0:0:0:
52,236,71899,1,0,0:0:0:0:
36,184,71983,1,0,0:0:0:0:
48,132,72067,1,0,0:0:0:0:
92,92,72150,1,0,0:0:0:0:
156,84,72234,1,0,0:0:0:0:
224,100,72318,1,0,0:0:0:0:
280,148,72402,6,0,P|360:204|404:204,1,119.000002269745
268,296,72737,2,0,P|204:248|156:248,1,119.000002269745
32,200,73072,6,0,L|104:156,1,59.5000011348725,2|0,0:0|0:0,0:0:0:0:
216,204,73240,6,0,L|264:136,1,59.5000011348725,2|0,0:0|0:0,0:0:0:0:
380,108,73407,6,0,L|368:24,1,59.5000011348725,2|0,0:0|0:0,0:0:0:0:
232,56,73575,2,0,P|160:72|100:96,1,119.000002269745
52,352,73910,2,0,P|96:276|140:252,1,119.000002269745
332,300,74245,2,0,P|364:232|244:124,1,238.00000453949
56,108,74748,1,0,0:0:0:0:
108,316,74916,1,0,0:0:0:0:
212,128,75083,2,0,P|272:80|324:64,1,119.000002269745
392,72,75335,5,0,0:0:0:0:
420,84,75418,1,2,0:0:0:0:
440,108,75502,1,0,0:0:0:0:
448,148,75586,1,0,0:0:0:0:
444,188,75670,1,0,0:0:0:0:
428,232,75754,1,2,0:0:0:0:
392,272,75837,5,0,0:0:0:0:
336,292,75921,1,0,0:0:0:0:
276,264,76005,1,0,0:0:0:0:
208,244,76089,1,2,0:0:0:0:
136,252,76173,1,0,0:0:0:0:
72,296,76256,1,0,0:0:0:0:
16,352,76340,5,0,0:0:0:0:
92,368,76424,1,2,0:0:0:0:
168,348,76508,1,0,0:0:0:0:
232,304,76592,1,2,0:0:0:0:
272,236,76675,1,0,0:0:0:0:
312,168,76759,1,2,0:0:0:0:
376,120,76843,5,0,0:0:0:0:
452,116,76927,1,2,0:0:0:0:
500,176,77011,1,0,0:0:0:0:
456,236,77094,6,0,L|420:256,1,39.6666674232483,6|0,0:0|0:0,0:0:0:0:
472,272,77206,6,0,L|428:288,1,39.6666674232483,6|0,0:0|0:0,0:0:0:0:
476,320,77318,6,0,L|428:320,1,39.6666674232483,6|0,0:0|0:0,0:0:0:0:
468,360,77430,6,0,L|424:364,1,39.6666674232483,6|0,0:0|0:0,0:0:0:0:
328,356,77541,2,0,B|272:320|204:312|160:320,1,158.666669692993
72,204,77932,1,0,0:0:0:0:
184,96,78100,1,0,0:0:0:0:
260,76,78184,1,0,0:0:0:0:
336,84,78268,1,0,0:0:0:0:
404,120,78351,6,0,P|452:172|492:236,1,140
476,300,78603,2,0,B|412:324|412:324|328:276,1,140
304,232,78854,1,0,0:0:0:0:
240,184,78938,1,0,0:0:0:0:
164,180,79022,1,0,0:0:0:0:
76,212,79106,2,0,P|48:260|112:348,1,140
220,324,79441,5,0,0:0:0:0:
296,300,79525,1,0,0:0:0:0:
360,260,79608,1,0,0:0:0:0:
400,196,79692,1,0,0:0:0:0:
376,124,79776,2,0,P|332:80|240:68,1,140
80,96,80111,6,0,L|128:124,1,46.6666666666667
60,128,80223,2,0,L|104:168,1,46.6666666666667
32,164,80335,2,0,L|72:216,1,46.6666666666667
92,252,80446,2,0,B|152:284|188:224|188:224|348:236,1,210
356,240,80782,5,0,0:0:0:0:
400,224,80865,1,0,0:0:0:0:
428,188,80949,1,0,0:0:0:0:
448,136,81033,1,0,0:0:0:0:
452,88,81117,2,0,P|420:8|376:4,1,140
316,28,81368,5,0,0:0:0:0:
272,76,81452,1,0,0:0:0:0:
256,136,81536,1,0,0:0:0:0:
236,196,81620,1,0,0:0:0:0:
220,272,81703,2,0,B|148:264|151:267|144:264|143:267|87:235|56:188,1,186.666666666667
56,100,82011,5,0,0:0:0:0:
80,64,82067,1,0,0:0:0:0:
120,52,82122,1,0,0:0:0:0:
272,52,82206,1,0,0:0:0:0:
256,80,82290,1,0,0:0:0:0:
244,112,82374,1,0,0:0:0:0:
236,148,82458,1,4,0:0:0:0:
240,184,82541,1,0,0:0:0:0:
252,216,82625,1,0,0:0:0:0:
284,244,82709,1,4,0:0:0:0:
324,264,82793,1,0,0:0:0:0:
372,268,82877,1,0,0:0:0:0:
416,252,82960,1,4,0:0:0:0:
452,216,83044,1,0,0:0:0:0:
460,168,83128,6,0,B|444:128|444:128|464:116|464:116|432:104|432:104|464:84|464:84|288:24,1,233.333333333333,4|0,0:0|0:0,0:0:0:0:
72,48,83463,2,0,B|104:32|104:32|120:64|120:64|160:48|160:48|288:140,1,233.333333333333
344,208,83798,5,2,0:0:0:0:
376,160,83882,1,0,0:0:0:0:
404,212,83966,1,0,0:0:0:0:
440,164,84050,1,0,0:0:0:0:
472,212,84134,2,0,P|480:280|472:300,1,70,4|0,0:0|0:0,0:0:0:0:
436,328,84385,1,0,0:0:0:0:
380,336,84469,2,0,P|268:260|240:252,1,140
88,192,84804,5,0,0:0:0:0:
92,180,84888,1,0,0:0:0:0:
96,168,84972,1,4,0:0:0:0:
104,156,85055,1,0,0:0:0:0:
112,144,85139,2,0,P|180:100|208:96,1,70,2|0,0:0|0:0,0:0:0:0:
216,176,85307,2,0,P|246:159|272:135,1,70
208,76,85474,6,0,P|276:32|304:28,1,70
328,108,85642,2,0,P|358:91|384:67,1,70
268,28,85810,2,0,P|184:44|100:88,1,140
84,104,86061,1,0,0:0:0:0:
48,156,86145,1,0,0:0:0:0:
32,216,86229,1,0,0:0:0:0:
44,276,86312,2,0,P|100:324|168:332,1,140
428,100,86648,5,0,0:0:0:0:
400,92,86815,1,0,0:0:0:0:
372,88,86983,1,0,0:0:0:0:
76,76,87150,5,4,0:0:0:0:
56,96,87234,1,0,0:0:0:0:
44,120,87318,1,0,0:0:0:0:
36,152,87402,1,0,0:0:0:0:
36,188,87486,1,2,0:0:0:0:
48,220,87569,1,0,0:0:0:0:
68,248,87653,5,4,0:0:0:0:
100,276,87737,1,0,0:0:0:0:
144,296,87821,1,0,0:0:0:0:
200,300,87905,1,0,0:0:0:0:
264,300,87988,1,2,0:0:0:0:
332,284,88072,1,0,0:0:0:0:
400,248,88156,1,4,0:0:0:0:
48,32,88491,6,0,B|80:24|80:24|60:56|60:56|88:28|88:28|72:52|72:52|104:32|104:32|80:72|80:72|112:48|112:48|96:76|96:76|120:60|120:60|108:92|108:92|136:72|136:72|120:100|120:100|156:88|156:88|128:112|128:112|164:100|164:100|156:124|156:124|196:124|244:264,1,700
476,112,89162,2,0,B|408:96|408:96|388:212|316:224,1,210
272,172,89497,2,0,B|336:112|332:96|324:52,1,140
172,36,89832,6,0,P|116:96|92:184,1,140
84,232,90083,1,0,0:0:0:0:
128,304,90167,1,0,0:0:0:0:
212,320,90251,1,0,0:0:0:0:
292,300,90335,1,0,0:0:0:0:
432,136,90502,2,0,P|396:56|340:32,1,140
184,48,90837,6,0,L|104:104,1,70,2|0,0:0|0:0,0:0:0:0:
212,88,91005,6,0,L|176:148,1,70,2|0,0:0|0:0,0:0:0:0:
256,120,91173,6,0,L|260:196,1,70,2|0,0:0|0:0,0:0:0:0:
288,272,91340,5,0,0:0:0:0:
324,304,91424,1,0,0:0:0:0:
372,308,91508,1,0,0:0:0:0:
416,284,91592,1,0,0:0:0:0:
432,240,91675,1,0,0:0:0:0:
420,192,91759,1,0,0:0:0:0:
380,164,91843,6,0,P|296:128|260:128,1,85.1666674247318,4|0,0:0|0:0,0:0:0:0:
224,112,92011,2,0,B|184:168|184:168|124:160|80:196,1,116.666666666667,4|0,0:0|0:0,0:0:0:0:
92,236,92178,2,0,B|152:288|152:288|224:248|224:248|376:332,1,233.333333333333,4|0,0:0|0:0,0:0:0:0:
432,212,92513,1,0,0:0:0:0:
340,76,92681,5,4,0:0:0:0:
324,108,92765,1,0,0:0:0:0:
300,84,92849,1,0,0:0:0:0:
292,116,92932,1,0,0:0:0:0:
264,96,93016,1,2,0:0:0:0:
252,128,93100,1,2,0:0:0:0:
228,104,93184,5,6,0:0:0:0:
200,84,93268,1,0,0:0:0:0:
168,68,93351,1,2,0:0:0:0:
132,64,93435,1,0,0:0:0:0:
96,96,93519,1,4,0:0:0:0:
88,152,93603,1,0,0:0:0:0:
104,208,93687,1,0,0:0:0:0:
148,260,93770,1,0,0:0:0:0:
208,292,93854,6,0,P|276:224|328:192,1,140,4|0,0:0|0:0,0:0:0:0:
376,172,94273,1,0,0:0:0:0:
388,104,94357,1,0,0:0:0:0:
356,40,94441,1,0,0:0:0:0:
284,40,94525,6,0,L|176:56,1,70
124,68,94692,6,0,L|48:136,1,70
64,208,94860,6,0,L|88:292,1,70
168,312,95027,1,0,0:0:0:0:
176,312,95111,1,0,0:0:0:0:
184,312,95195,6,0,P|276:288|320:288,1,140
376,292,95446,1,0,0:0:0:0:
428,268,95530,1,0,0:0:0:0:
448,216,95614,1,0,0:0:0:0:
440,160,95698,1,0,0:0:0:0:
396,104,95782,1,0,0:0:0:0:
332,80,95865,2,0,B|308:44|308:44|260:120|260:120|248:80|80:120,1,233.333333333333
32,296,96201,6,0,P|132:232|160:224,1,116.666666666667
220,304,96368,2,0,P|320:240|348:232,1,116.666666666667
268,229,96536,5,0,0:0:0:0:
212,216,96620,1,0,0:0:0:0:
204,160,96703,1,0,0:0:0:0:
228,120,96787,1,0,0:0:0:0:
276,88,96871,1,0,0:0:0:0:
344,96,96955,5,0,0:0:0:0:
380,156,97039,1,0,0:0:0:0:
364,224,97122,1,0,0:0:0:0:
312,268,97206,1,0,0:0:0:0:
240,272,97290,1,0,0:0:0:0:
176,240,97374,5,0,0:0:0:0:
144,168,97458,1,0,0:0:0:0:
172,104,97541,1,0,0:0:0:0:
228,64,97625,1,0,0:0:0:0:
296,72,97709,1,0,0:0:0:0:
336,132,97793,1,0,0:0:0:0:
360,188,97877,6,0,L|404:220,1,35,2|0,0:0|0:0,0:0:0:0:
260,320,98044,2,0,L|244:368,1,35,2|0,0:0|0:0,0:0:0:0:
136,236,98212,2,0,L|96:204,1,35,2|0,0:0|0:0,0:0:0:0:
216,92,98379,2,0,L|197:64,1,35,2|0,0:0|0:0,0:0:0:0:
32,104,98547,6,0,B|52:92|52:92|52:120|52:120|76:88|76:88|76:136|76:136|102:99|102:99|92:144|92:144|124:108|124:108|124:156|124:156|180:156|224:228,1,350,4|0,0:0|0:0,0:0:0:0:
264,228,98882,2,0,B|348:212|348:212|392:276|528:276,1,233.333333333333
332,32,99217,2,0,B|276:48|276:48|296:72|296:72|280:96|280:96|240:68|240:68|108:136,1,233.333333333333
52,284,99553,6,0,P|168:280|220:300,1,116.666666666667,2|0,0:0|0:0,0:0:0:0:
368,296,99720,6,0,B|256:216|260:212|260:200,1,116.666666666667
108,88,99888,6,0,P|232:52|252:52,1,116.666666666667
448,52,100055,2,0,B|368:56|368:56|388:108|388:108|292:220,1,233.333333333333,0|2,0:0|0:0,0:0:0:0:
100,272,100391,2,0,B|64:244|64:244|96:240|96:240|60:216|60:216|96:204|96:204|112:148|196:92,1,233.333333333333
276,128,100726,1,2,0:0:0:0:
292,112,100810,1,0,0:0:0:0:
336,108,100893,1,2,0:0:0:0:
352,92,100977,1,0,0:0:0:0:
404,88,101061,1,2,0:0:0:0:
420,72,101145,1,0,0:0:0:0:
404,176,101229,2,0,P|304:272|284:360,1,233.333333333333
112,288,101564,6,0,P|72:216|72:128,1,155.555555555556,2|0,0:0|0:0,0:0:0:0:
104,56,101731,1,0,0:0:0:0:
104,56,101787,2,0,L|177:80,1,77.7777777777778
284,96,101899,2,0,P|216:224|224:308,1,233.333333333333
408,256,102234,1,2,0:0:0:0:
252,80,102402,6,0,L|96:56,1,116.666666666667
224,140,102569,2,0,L|96:168,1,116.666666666667
216,220,102737,1,0,0:0:0:0:
216,220,102821,1,0,0:0:0:0:
216,220,102905,2,0,L|96:264,1,116.666666666667,2|0,0:0|0:0,0:0:0:0:
232,300,103072,5,0,0:0:0:0:
232,300,103156,1,0,0:0:0:0:
232,300,103240,2,0,B|240:332|240:332|264:304|264:304|264:328|264:328|292:304|292:304|296:324|296:324|312:304|312:304|380:304|404:232,1,233.333333333333
372,100,103575,2,0,P|292:172|152:184,1,233.333333333333,2|0,0:0|0:0,0:0:0:0:
40,32,103910,5,0,0:0:0:0:
68,84,103994,1,0,0:0:0:0:
92,128,104078,1,0,0:0:0:0:
96,192,104162,1,0,0:0:0:0:
84,260,104245,1,0,0:0:0:0:
108,324,104329,1,0,0:0:0:0:
188,348,104413,1,0,0:0:0:0:
280,336,104497,1,0,0:0:0:0:
368,280,104581,2,0,B|420:264|420:264|384:244|384:244|416:232|416:232|396:204|396:204|436:168|368:80,1,233.333333333333
204,80,104916,5,2,0:0:0:0:
32,200,105083,6,0,L|88:304,1,116.666666666667
216,256,105251,6,0,L|136:124,1,116.666666666667
264,124,105418,6,0,L|344:244,1,116.666666666667
368,320,105586,2,0,P|468:272|464:152,1,233.333333333333,2|0,0:0|0:0,0:0:0:0:
276,76,105921,2,0,B|160:112|160:112|108:240,1,233.333333333333
288,336,106256,1,2,0:0:0:0:
116,60,106424,1,0,0:0:0:0:
428,156,106592,1,0,0:0:0:0:
120,260,106759,1,0,0:0:0:0:
324,4,106927,1,0,0:0:0:0:
40,164,107094,5,0,0:0:0:0:
48,188,107150,1,0,0:0:0:0:
60,208,107206,1,0,0:0:0:0:
76,224,107262,2,0,P|152:264|304:256,1,233.333333333333,2|0,0:0|0:0,0:0:0:0:
360,200,107513,5,0,0:0:0:0:
384,104,107597,2,0,P|252:144|124:140,1,233.333333333333,2|0,0:0|0:0,0:0:0:0:
88,80,107849,5,0,0:0:0:0:
176,12,107932,2,0,P|304:60|420:68,1,233.333333333333,2|0,0:0|0:0,0:0:0:0:
276,180,108268,1,0,0:0:0:0:
160,292,108435,5,0,0:0:0:0:
160,292,108519,1,0,0:0:0:0:
160,292,108603,2,0,P|56:192|180:96,1,233.333333333333,4|0,0:0|0:0,0:0:0:0:
232,64,108938,6,0,P|326:120|310:229,1,233.333333333333,0|4,0:0|0:0,0:0:0:0:
160,292,109273,6,0,P|56:192|180:96,1,233.333333333333
232,64,109525,5,0,0:0:0:0:
277,72,109608,1,0,0:0:0:0:
313,101,109692,1,0,0:0:0:0:
333,142,109776,1,0,0:0:0:0:
332,189,109860,1,0,0:0:0:0:
310,229,109943,1,0,0:0:0:0:
256,358,110111,5,0,0:0:0:0:
130,57,110279,1,0,0:0:0:0:
418,201,110446,1,0,0:0:0:0:
93,233,110614,1,0,0:0:0:0:
311,52,110782,1,0,0:0:0:0:
205,380,110949,5,0,0:0:0:0:
156,12,111117,1,0,0:0:0:0:
429,254,111284,5,0,0:0:0:0:
404,280,111368,1,0,0:0:0:0:
364,304,111452,1,0,0:0:0:0:
320,316,111536,5,0,0:0:0:0:
260,320,111620,1,0,0:0:0:0:
204,308,111703,1,0,0:0:0:0:
148,268,111787,5,0,0:0:0:0:
120,204,111871,1,0,0:0:0:0:
124,132,111955,1,0,0:0:0:0:
168,76,112039,5,0,0:0:0:0:
224,116,112122,1,0,0:0:0:0:
268,168,112206,1,0,0:0:0:0:
336,192,112290,5,0,0:0:0:0:
416,184,112374,1,0,0:0:0:0:
460,100,112458,1,0,0:0:0:0:
384,12,112541,1,0,0:0:0:0:
268,32,112625,2,0,B|256:28|256:28|256:36|256:36|240:20|240:20|252:52|252:52|220:32|220:32|240:56|240:56|212:40|212:40|228:60|228:60|204:44|204:44|220:68|220:68|192:56|192:56|208:72|208:72|188:60|188:60|204:76|204:76|180:68|180:68|200:84|200:84|172:76|172:76|184:76|184:76|176:76|176:76|188:84|188:84|168:80|168:80|176:92|176:92|160:92|160:92|172:100|172:100|152:100|152:100|164:108|164:108|144:108|144:108|160:116|160:116|140:116|140:116|124:124,1,525,0|0,0:0|0:0,0:0:0:0:
124,160,112960,6,0,B|60:144|27:222|12:260|196:244|158:308|192:324|73:368|28:340,1,350
208,176,113296,6,0,B|272:172|272:172|300:168|300:168|256:176|256:176|268:316,1,262.5
372,124,113463,6,0,B|384:148|368:248|368:248|428:196|372:224|372:224|456:188|456:188|380:232|380:232|468:320|468:320|400:248|400:248|368:252|368:252|360:380|360:380|348:460,1,700
