osu file format v14

[General]
AudioFilename: audio.mp3
AudioLeadIn: 0
PreviewTime: 59983
Countdown: 0
SampleSet: Soft
StackLeniency: 0.7
Mode: 2
LetterboxInBreaks: 0
WidescreenStoryboard: 1

[Editor]
Bookmarks: 49657
DistanceSpacing: 2.5
BeatDivisor: 4
GridSize: 4
TimelineZoom: 1.8

[Metadata]
Title:Amor De Verao
TitleUnicode:Amor De Verão
Artist:Camellia feat. Nanahira
ArtistUnicode:かめりあ feat. ななひら
Creator:Spectator
Version:Kukkai's Overdose
Source:beatmania IIDX 25 CANNON BALLERS
Tags:portuguese brasil brazil português portugues latin brazilian samba electronic video game samba 熱帯 the bass かめるかめりあ cametek kamelcamellia -hex- kukkai [_-kukkai-_] yumeno himiko examination
BeatmapID:3083720
BeatmapSetID:1503929

[Difficulty]
HPDrainRate:6
CircleSize:4
OverallDifficulty:9.3
ApproachRate:9.3
SliderMultiplier:3
SliderTickRate:2

[Events]
//Background and Video events
0,0,"nyanyahira.jpg",0,0
//Break Periods
2,42901,49103
//Storyboard Layer 0 (Background)
//Storyboard Layer 1 (Fail)
//Storyboard Layer 2 (Pass)
//Storyboard Layer 3 (Foreground)
//Storyboard Layer 4 (Overlay)
//Storyboard Sound Samples

[TimingPoints]
962,434.782608695652,4,2,1,65,1,0
962,-100,4,2,1,65,0,0
7266,-100,4,2,1,80,0,0
7483,-100,4,2,1,80,0,0
7918,-100,4,2,1,80,0,0
12918,-100,4,2,1,80,0,0
13135,-100,4,2,1,80,0,0
14005,-100,4,2,1,80,0,0
14195,-100,4,2,1,15,0,0
14222,-100,4,2,1,80,0,0
14413,-100,4,2,1,15,0,0
14440,-100,4,2,1,80,0,0
14630,-100,4,2,1,15,0,0
14657,-100,4,2,1,80,0,0
14875,-100,4,2,1,80,0,1
25309,-100,4,2,1,80,0,0
25961,-100,4,2,2,80,0,0
26179,-100,4,2,1,80,0,0
28788,-100,4,2,1,80,0,0
31831,-100,4,2,1,80,0,0
32048,-100,4,2,2,80,0,0
32266,-100,4,2,1,80,0,1
40418,-100,4,2,1,80,0,1
41831,-100,4,2,1,80,0,1
42701,-100,4,2,1,80,0,0
49657,-125,4,2,1,80,0,0
53135,-125,4,2,1,80,0,0
54005,-111.111111111111,4,2,1,80,0,0
54875,-100,4,2,1,80,0,0
55744,-90.9090909090909,4,2,1,80,0,0
56614,-100,4,2,1,80,0,0
57483,-100,4,2,1,80,0,0
58353,-100,4,2,1,80,0,0
58570,-100,4,2,1,80,0,0
58788,-100,4,2,1,80,0,0
59005,-100,4,2,1,80,0,0
60092,-90.9090909090909,4,2,1,80,0,1
69657,-90.9090909090909,4,2,1,80,0,1
69983,-90.9090909090909,4,2,1,80,0,1
70309,-90.9090909090909,4,2,1,80,0,1
70418,-90.9090909090909,4,2,1,80,0,1
70744,-90.9090909090909,4,2,1,80,0,1
73896,-90.9090909090909,4,2,1,80,0,0
74005,-90.9090909090909,4,2,1,80,0,1
74114,-90.9090909090909,4,2,1,50,0,1
77483,-100,4,2,1,80,0,1
81070,-90.9090909090909,4,2,1,50,0,1
82701,-100,4,2,1,80,0,1
84331,-90.9090909090909,4,2,1,80,0,1
84657,-90.9090909090909,4,2,1,80,0,1
87918,-100,4,2,1,60,0,0
89657,-100,4,2,1,65,0,0
90527,-100,4,2,1,65,0,0
91396,-100,4,2,1,70,0,0
93135,-90.9090909090909,4,2,1,75,0,0
94875,-90.9090909090909,4,2,1,80,0,1
105309,-100,4,2,1,80,0,1
108788,-100,4,2,1,80,0,0
110309,-100,4,2,1,65,0,0
112048,-100,4,2,1,65,0,0
113135,-100,4,2,1,70,0,0
114005,-90.9090909090909,4,2,1,75,0,0
114983,-100,4,2,1,30,0,0
115961,-100,4,2,1,25,0,0
116614,-100,4,2,1,15,0,0
117048,-100,4,2,1,10,0,0
117483,-100,4,2,1,5,0,0

[Colours]
Combo1 : 134,204,247
Combo2 : 186,133,245
Combo3 : 255,150,123
Combo4 : 243,181,97

[HitObjects]
480,352,962,6,0,L|480:184,1,150,2|0,0:0|0:0,0:0:0:0:
284,204,1396,2,0,L|372:204,1,75,2|0,0:0|0:0,0:0:0:0:
164,204,1722,1,0,0:0:0:0:
88,200,1831,2,0,L|88:40,1,150,2|0,0:0|0:0,0:0:0:0:
284,48,2266,2,0,L|180:48,1,75
404,48,2592,5,0,0:0:0:0:
479,48,2701,2,0,L|480:216,1,150,2|0,0:0|0:0,0:0:0:0:
284,200,3135,2,0,L|172:200,1,75,2|0,0:0|0:0,0:0:0:0:
404,200,3461,1,0,0:0:0:0:
479,200,3570,2,0,L|256:88,2,225,2|0|2,0:0|0:0|0:0,0:0:0:0:
168,352,4440,6,0,L|336:352,1,150,2|0,0:0|0:0,0:0:0:0:
124,348,4875,2,0,L|124:256,1,75,2|0,0:0|0:0,0:0:0:0:
320,276,5201,1,0,0:0:0:0:
392,276,5309,2,0,L|228:276,1,150,2|0,0:0|0:0,0:0:0:0:
436,276,5744,2,0,L|436:168,1,75
240,200,6070,6,0,L|144:200,1,75,0|2,0:0|0:0,0:0:0:0:
360,200,6396,2,0,L|360:40,1,150,0|2,0:0|0:0,0:0:0:0:
264,52,6722,2,0,L|180:52,1,75,0|0,0:0|3:0,0:0:0:0:
152,58,6885,1,0,3:0:0:0:
124,82,6939,1,0,3:0:0:0:
114,118,6994,1,0,3:0:0:0:
125,153,7048,1,0,3:0:0:0:
153,177,7102,1,0,0:0:0:0:
189,183,7157,1,0,2:0:0:0:
380,264,7266,6,0,L|464:264,1,75,2|0,2:1|0:0,0:0:0:0:
232,264,7483,2,0,P|160:224|240:140,1,225,2|0,2:1|0:0,0:0:0:0:
424,344,7918,6,0,P|460:264|404:220,1,150,4|0,0:0|0:0,0:0:0:0:
348,224,8244,1,0,0:0:0:0:
176,244,8353,2,0,L|76:244,1,75,8|0,0:0|0:0,0:0:0:0:
24,248,8570,1,0,0:0:0:0:
24,210,8624,1,0,0:0:0:0:
60,208,8678,1,0,0:0:0:0:
240,204,8788,6,0,P|224:112|148:104,1,150,8|0,0:0|0:0,0:0:0:0:
104,100,9114,1,0,0:0:0:0:
288,104,9222,2,0,L|380:104,1,75,8|0,0:0|0:0,0:0:0:0:
440,104,9440,1,0,0:0:0:0:
402,104,9494,1,0,0:0:0:0:
365,104,9548,1,0,0:0:0:0:
192,352,9657,6,0,P|120:296|156:256,1,150,8|0,0:0|0:0,0:0:0:0:
216,260,9983,1,0,0:0:0:0:
384,256,10092,2,0,L|480:256,1,75,8|0,0:0|0:0,0:0:0:0:
459,256,10309,1,0,0:0:0:0:
421,256,10363,1,0,0:0:0:0:
384,256,10417,1,0,0:0:0:0:
176,252,10527,6,0,P|128:176|180:152,1,150,8|0,0:0|0:0,0:0:0:0:
340,140,10853,2,0,L|164:140,1,150,8|0,0:0|0:0,0:0:0:0:
364,80,11179,2,0,L|448:80,1,75,8|0,0:0|0:0,0:0:0:0:
240,256,11396,6,0,L|72:256,1,150,8|0,0:0|1:0,0:0:0:0:
164,256,11722,1,0,0:0:0:0:
356,264,11831,2,0,L|356:88,1,150,8|0,0:0|1:0,0:0:0:0:
280,116,12157,1,0,0:0:0:0:
96,188,12266,6,0,L|272:188,1,150,8|0,0:0|1:0,0:0:0:0:
320,188,12592,1,0,0:0:0:0:
120,108,12701,2,0,L|48:108,2,50,0|0|0,3:2|3:0|3:0,0:0:0:0:
280,40,12918,2,0,L|352:40,2,50,0|0|0,3:0|3:0|3:0,0:0:0:0:
132,328,13135,5,0,1:0:0:0:
244,328,13280,1,0,1:0:0:0:
356,328,13425,1,0,1:0:0:0:
76,232,13570,1,0,1:0:0:0:
188,232,13715,1,0,1:0:0:0:
76,232,13860,1,0,1:0:0:0:
332,160,14005,5,0,1:0:0:0:
160,152,14222,2,0,L|160:104,1,37.5,2|0,0:0|0:0,0:0:0:0:
308,112,14440,2,0,L|360:112,1,37.5,2|0,0:0|0:0,0:0:0:0:
492,112,14657,2,0,L|492:52,1,37.5,2|0,0:0|0:0,0:0:0:0:
200,352,14875,6,0,P|128:284|200:208,1,225,4|0,3:2|0:0,0:0:0:0:
236,208,15255,1,0,0:0:0:0:
372,212,15309,1,10,3:3:0:0:
184,156,15418,2,0,L|184:56,1,75
372,80,15635,6,0,L|468:80,1,75,0|8,0:0|3:3,0:0:0:0:
259,81,15853,2,0,L|163:81,1,75
372,80,16070,1,0,0:0:0:0:
188,352,16179,2,0,L|188:260,1,75,10|0,3:3|0:0,0:0:0:0:
376,280,16396,1,0,0:0:0:0:
412,280,16450,1,0,0:0:0:0:
448,280,16504,1,0,0:0:0:0:
216,172,16614,6,0,P|168:116|224:68,1,150,8|2,3:3|0:0,0:0:0:0:
284,68,16940,2,0,L|328:68,1,37.5
180,272,17048,1,10,3:3:0:0:
368,268,17157,2,0,L|368:172,1,75,0|2,0:0|0:0,0:0:0:0:
180,208,17375,6,0,L|180:116,1,75,0|8,0:0|3:3,0:0:0:0:
368,140,17592,1,0,0:0:0:0:
180,133,17701,2,0,L|280:132,1,75,2|0,0:0|0:0,0:0:0:0:
444,132,17918,2,0,L|344:136,1,75,10|0,3:3|0:0,0:0:0:0:
180,133,18135,2,0,L|180:48,1,75,2|0,0:0|0:0,0:0:0:0:
408,288,18353,6,0,P|472:200|388:144,1,225,8|0,3:3|0:0,0:0:0:0:
360,144,18733,1,0,0:0:0:0:
236,148,18788,1,10,3:3:0:0:
424,144,18896,2,0,L|320:144,1,75
161,148,19114,6,0,L|257:148,1,75,0|8,0:0|3:3,0:0:0:0:
424,140,19331,2,0,L|424:48,1,75
236,60,19548,1,0,0:0:0:0:
48,68,19657,2,0,L|48:156,1,75,10|0,3:3|0:0,0:0:0:0:
236,140,19875,1,0,0:0:0:0:
274,140,19929,1,0,0:0:0:0:
311,140,19983,1,0,0:0:0:0:
104,340,20092,6,0,L|8:340,1,75
29,340,20309,2,0,L|140:344,1,75
292,220,20527,2,0,L|292:136,1,75,10|0,3:3|0:0,0:0:0:0:
216,152,20744,2,0,L|120:152,1,75,2|0,0:0|0:0,0:0:0:0:
316,60,20961,6,0,L|412:60,1,75,8|0,3:3|0:0,0:0:0:0:
160,64,21179,2,0,L|52:64,1,75,2|0,0:0|0:0,0:0:0:0:
284,352,21396,2,0,L|192:352,1,75,10|0,3:3|0:0,0:0:0:0:
132,348,21614,2,0,L|132:268,1,75,0|0,3:0|3:0,0:0:0:0:
344,348,21831,6,0,P|444:328|488:216,1,225,4|0,3:2|0:0,0:0:0:0:
452,220,22211,1,0,0:0:0:0:
296,224,22266,1,10,3:3:0:0:
480,152,22375,2,0,L|480:52,1,75
292,84,22592,6,0,L|180:84,1,75,0|8,0:0|3:3,0:0:0:0:
404,84,22809,2,0,L|308:84,1,75
140,88,23027,1,0,0:0:0:0:
329,84,23135,2,0,L|416:84,1,75,10|0,3:3|0:0,0:0:0:0:
217,84,23353,2,0,L|217:159,1,75
448,296,23570,6,0,L|448:124,1,150,8|2,3:3|0:0,0:0:0:0:
372,152,23896,2,0,L|308:152,1,37.5
168,216,24005,1,10,3:3:0:0:
356,212,24114,2,0,L|468:212,1,75,0|2,0:0|0:0,0:0:0:0:
244,216,24331,2,0,L|244:108,1,75,0|8,0:0|3:3,0:0:0:0:
432,140,24548,1,0,0:0:0:0:
244,141,24657,2,0,L|356:140,1,75,2|0,0:0|0:0,0:0:0:0:
128,140,24875,2,0,L|128:44,1,75,10|0,3:3|0:0,0:0:0:0:
316,60,25092,2,0,L|212:60,1,75,2|0,0:0|0:0,0:0:0:0:
416,356,25309,6,0,P|464:292|400:260,1,150,4|0,3:2|0:0,0:0:0:0:
348,256,25635,2,0,L|176:256,1,150,2|0,0:0|0:0,0:0:0:0:
272,256,25961,1,2,2:0:0:0:
310,256,26015,1,0,2:0:0:0:
347,256,26069,1,0,2:0:0:0:
152,256,26179,6,0,P|108:200|160:156,1,150,4|0,0:0|0:0,0:0:0:0:
272,156,26505,2,0,L|360:156,2,75,2|2|2,0:0|0:0|0:0,0:0:0:0:
156,152,26831,1,2,0:0:0:0:
156,114,26885,1,0,0:0:0:0:
156,77,26939,1,0,0:0:0:0:
408,272,27048,6,0,L|276:272,1,75,0|0,3:0|3:0,0:0:0:0:
488,192,27375,1,0,3:0:0:0:
200,196,27592,2,0,L|296:196,1,75,0|0,3:0|3:0,0:0:0:0:
124,196,27918,1,0,3:0:0:0:
89,184,27972,1,0,0:0:0:0:
64,156,28026,1,0,0:0:0:0:
56,120,28081,1,0,0:0:0:0:
67,85,28135,1,0,0:0:0:0:
93,59,28189,1,0,0:0:0:0:
129,49,28244,1,0,3:0:0:0:
204,48,28353,5,0,3:0:0:0:
252,48,28425,1,0,3:0:0:0:
200,48,28498,1,0,3:0:0:0:
129,49,28570,1,0,3:0:0:0:
77,49,28643,1,0,3:0:0:0:
125,49,28715,1,0,3:0:0:0:
304,348,28788,6,0,P|380:288|276:244,1,225,4|0,0:0|0:0,0:0:0:0:
228,232,29222,1,2,0:0:0:0:
452,228,29548,2,0,L|452:112,1,75,2|0,0:0|0:0,0:0:0:0:
228,148,29983,2,0,L|320:148,1,75,2|2,0:0|0:0,0:0:0:0:
76,152,30418,6,0,L|76:64,1,75,0|2,0:0|0:0,0:0:0:0:
300,72,30853,2,0,L|396:72,2,75,0|2|2,0:0|0:0|0:0,0:0:0:0:
148,72,31288,2,0,L|336:72,1,150,0|2,0:0|0:0,0:0:0:0:
148,72,31722,1,0,0:0:0:0:
372,364,31831,2,0,P|400:288|352:216,1,150,2|0,0:0|3:0,0:0:0:0:
332,228,32103,1,0,3:0:0:0:
296,228,32157,1,0,3:0:0:0:
100,232,32266,6,0,L|100:152,1,75,4|0,3:2|0:0,0:0:0:0:
284,80,32483,2,0,L|320:80,1,18.75,2|0,0:0|0:0,0:0:0:0:
164,32,32592,2,0,L|140:32,1,18.75
88,32,32701,1,10,3:3:0:0:
88,32,32809,2,0,L|164:32,1,75
344,272,33027,6,0,L|376:272,1,18.75
420,272,33135,1,8,3:3:0:0:
232,216,33244,2,0,L|196:216,1,18.75
156,216,33353,1,2,0:0:0:0:
348,144,33461,2,0,L|348:108,1,18.75
172,356,33570,2,0,P|96:308|192:248,1,225,10|0,3:3|0:0,0:0:0:0:
356,236,34005,6,0,L|356:136,1,75,8|0,3:3|0:0,0:0:0:0:
264,160,34222,1,2,0:0:0:0:
172,160,34331,2,0,L|232:160,1,37.5
424,80,34440,1,0,1:2:0:0:
324,80,34585,1,0,1:0:0:0:
424,80,34730,1,0,1:0:0:0:
168,356,34875,5,0,1:0:0:0:
268,356,35019,1,0,1:0:0:0:
368,356,35164,1,0,1:0:0:0:
116,308,35309,2,0,P|44:264|128:184,1,225,2|0,0:0|0:0,0:0:0:0:
312,180,35744,6,0,L|424:180,1,75,4|0,3:2|0:0,0:0:0:0:
196,128,35961,2,0,L|196:96,1,18.75,2|0,0:0|0:0,0:0:0:0:
392,52,36070,2,0,L|424:52,1,18.75,2|0,0:0|0:0,0:0:0:0:
468,52,36179,1,10,3:0:0:0:
468,52,36288,1,0,0:0:0:0:
392,52,36396,1,0,0:0:0:0:
196,344,36505,2,0,L|160:344,1,18.75
108,344,36614,5,8,3:0:0:0:
304,244,36722,2,0,L|304:160,1,75
128,160,36940,2,0,L|96:160,1,18.75
300,80,37048,1,10,3:0:0:0:
384,80,37157,1,0,0:0:0:0:
468,80,37266,1,0,0:0:0:0:
432,80,37320,1,0,0:0:0:0:
396,80,37374,1,0,0:0:0:0:
188,312,37483,6,0,L|188:212,1,75,8|0,3:0|0:0,0:0:0:0:
380,232,37701,2,0,L|488:232,1,75,2|0,0:0|0:0,0:0:0:0:
260,172,37918,1,10,3:0:0:0:
72,168,38027,2,0,L|72:64,1,75
260,92,38244,1,0,0:0:0:0:
72,93,38353,2,0,L|160:92,1,75,8|0,3:0|0:0,0:0:0:0:
340,92,38570,2,0,L|248:92,1,75,2|0,0:0|0:0,0:0:0:0:
72,276,38788,2,0,L|72:116,1,150,10|0,3:0|0:0,0:0:0:0:
148,124,39114,1,0,0:0:0:0:
344,312,39222,6,0,L|172:312,1,150,4|2,3:2|0:0,0:0:0:0:
308,312,39548,2,0,L|392:312,2,75,0|0|0,1:0|0:0|0:0,0:0:0:0:
188,312,39875,2,0,L|84:312,1,75,0|0,1:0|0:0,0:0:0:0:
320,240,40092,6,0,P|360:168|300:132,1,150,4|2,3:2|0:0,0:0:0:0:
200,132,40418,2,0,L|112:132,2,75,0|0|0,1:0|0:0|0:0,0:0:0:0:
316,132,40744,2,0,L|316:44,1,75,0|0,1:0|0:0,0:0:0:0:
92,340,40961,6,0,P|64:264|112:232,1,150,4|2,3:2|0:0,0:0:0:0:
300,220,41288,1,0,1:0:0:0:
227,200,41396,1,0,0:0:0:0:
154,181,41505,1,0,0:0:0:0:
340,136,41614,2,0,L|424:92,1,75,0|0,1:0|0:0,0:0:0:0:
180,324,41831,5,0,1:0:0:0:
368,328,41940,2,0,L|368:176,1,150,0|0,1:0|1:0,0:0:0:0:
216,176,42375,1,0,1:0:0:0:
368,178,42592,1,0,1:0:0:0:
104,100,42701,1,4,1:2:0:0:
328,336,49657,6,0,L|328:188,1,120,2|0,0:0|0:0,0:0:0:0:
208,220,50092,2,0,L|48:220,2,120,2|0|0,0:0|0:0|0:0,0:0:0:0:
328,216,50744,1,0,0:0:0:0:
448,216,50961,2,0,L|448:52,1,120,2|0,0:0|0:0,0:0:0:0:
268,360,51396,6,0,L|120:360,1,120,2|0,0:0|0:0,0:0:0:0:
304,360,51831,2,0,L|304:200,1,120,2|0,0:0|0:0,0:0:0:0:
148,248,52266,2,0,L|56:248,1,60,2|0,2:0|2:0,0:0:0:0:
244,248,52592,2,0,L|452:248,1,180,2|2,2:0|2:0,0:0:0:0:
140,356,53135,6,0,L|304:360,1,120
320,356,53461,2,0,L|92:356,1,180
436,252,54005,6,0,L|288:252,1,134.999995880127,0|0,3:0|0:0,0:0:0:0:
233,252,54331,2,0,L|469:252,1,202.499993820191,0|0,0:0|3:0,0:0:0:0:
136,184,54875,2,0,L|292:184,1,150
360,184,55201,2,0,L|72:184,1,225
480,244,55744,5,0,3:0:0:0:
480,202,55798,1,0,3:0:0:0:
480,161,55852,1,0,3:0:0:0:
396,160,55961,1,0,3:0:0:0:
200,160,56070,1,0,3:0:0:0:
200,76,56179,1,0,3:0:0:0:
284,76,56288,1,0,3:0:0:0:
368,76,56396,1,0,3:0:0:0:
56,356,56614,6,0,L|56:248,1,75,0|0,1:0|0:0,0:0:0:0:
224,276,56831,2,0,L|224:168,1,75,0|0,1:0|0:0,0:0:0:0:
396,196,57048,2,0,L|396:84,1,75,0|0,1:0|0:0,0:0:0:0:
216,152,57266,2,0,L|216:36,1,75,0|0,1:0|0:0,0:0:0:0:
28,80,57483,6,0,L|28:172,1,75,0|0,1:0|0:0,0:0:0:0:
216,152,57701,2,0,L|312:152,1,75,0|0,1:0|0:0,0:0:0:0:
480,152,57918,2,0,L|372:152,1,75,0|0,1:0|1:0,0:0:0:0:
216,152,58135,2,0,L|156:152,2,50,0|0|0,1:0|1:0|1:0,0:0:0:0:
436,340,58353,6,0,L|160:340,1,225,4|0,1:2|0:0,0:0:0:0:
432,256,58788,2,0,P|468:168|400:160,1,150,4|0,1:2|0:0,0:0:0:0:
368,152,59114,1,0,0:0:0:0:
176,264,59222,2,0,L|392:264,1,150,4|0,1:2|0:0,0:0:0:0:
104,208,59548,2,0,P|32:168|116:88,1,225,4|2,1:2|0:0,0:0:0:0:
408,344,60092,6,0,L|208:344,1,165.000005035401,4|0,1:2|0:0,0:0:0:0:
243,344,60418,1,0,0:0:0:0:
440,280,60527,2,0,P|484:212|392:168,1,165.000005035401,8|0,0:0|0:0,0:0:0:0:
352,160,60853,1,0,0:0:0:0:
136,300,60961,6,0,P|92:216|140:188,1,165.000005035401,0|0,1:0|0:0,0:0:0:0:
212,188,61288,1,0,0:0:0:0:
396,192,61396,1,8,0:0:0:0:
212,188,61505,2,0,L|212:76,1,82.5000025177003
296,104,61722,1,0,0:0:0:0:
96,360,61831,6,0,P|52:280|108:240,1,165.000005035401,0|0,1:0|0:0,0:0:0:0:
180,244,62157,1,0,0:0:0:0:
392,240,62266,2,0,P|444:168|376:136,1,165.000005035401,8|0,0:0|0:0,0:0:0:0:
316,132,62592,1,0,0:0:0:0:
132,360,62701,2,0,L|344:360,1,165.000005035401,0|0,1:0|0:0,0:0:0:0:
297,360,63027,1,0,0:0:0:0:
112,268,63135,1,8,0:0:0:0:
28,232,63243,1,0,0:0:0:0:
27,146,63352,1,0,0:0:0:0:
111,111,63461,1,0,0:0:0:0:
308,192,63570,6,0,L|80:192,1,165.000005035401,0|0,1:0|0:0,0:0:0:0:
224,192,63896,1,0,0:0:0:0:
424,192,64005,2,0,P|476:112|424:76,1,165.000005035401,8|0,0:0|0:0,0:0:0:0:
356,76,64331,1,0,0:0:0:0:
144,368,64440,2,0,L|360:368,1,165.000005035401,0|0,1:0|0:0,0:0:0:0:
392,368,64766,1,0,0:0:0:0:
196,256,64875,1,8,0:0:0:0:
388,252,64983,2,0,L|492:252,2,82.5000025177003
196,256,65309,6,0,L|8:256,1,165.000005035401,0|0,1:0|0:0,0:0:0:0:
112,256,65635,1,0,0:0:0:0:
312,256,65744,2,0,L|500:256,1,165.000005035401,8|0,0:0|0:0,0:0:0:0:
396,256,66070,1,0,0:0:0:0:
184,196,66179,2,0,L|184:112,1,82.5000025177003,0|0,1:0|0:0,0:0:0:0:
364,116,66396,2,0,L|464:116,1,82.5000025177003,8|0,0:0|0:0,0:0:0:0:
224,52,66614,2,0,L|40:52,1,165.000005035401,8|0,0:0|0:0,0:0:0:0:
140,56,66940,1,0,0:0:0:0:
320,368,67048,6,0,P|368:292|296:260,1,165.000005035401,4|0,1:2|0:0,0:0:0:0:
240,264,67375,1,0,0:0:0:0:
44,260,67483,2,0,P|44:172|124:156,1,165.000005035401,8|0,0:0|0:0,0:0:0:0:
188,152,67809,1,0,0:0:0:0:
376,156,67918,2,0,P|376:68|296:52,1,165.000005035401,0|0,1:0|0:0,0:0:0:0:
232,48,68244,1,0,0:0:0:0:
44,52,68353,1,8,0:0:0:0:
232,48,68461,2,0,L|232:148,1,82.5000025177003
148,132,68679,1,0,0:0:0:0:
336,352,68788,6,0,L|512:352,1,165.000005035401,0|0,1:0|0:0,0:0:0:0:
420,352,69114,1,0,0:0:0:0:
232,344,69222,2,0,L|24:344,1,165.000005035401,8|0,0:0|0:0,0:0:0:0:
148,344,69548,1,0,0:0:0:0:
364,208,69657,5,4,0:0:0:0:
446,208,69766,1,0,0:0:0:0:
404,208,69820,1,0,0:0:0:0:
364,208,69874,1,0,0:0:0:0:
196,212,69983,1,4,0:0:0:0:
112,212,70092,1,0,0:0:0:0:
152,212,70146,1,0,0:0:0:0:
192,212,70201,1,0,0:0:0:0:
364,208,70309,5,4,0:0:0:0:
404,204,70363,1,0,0:0:0:0:
435,178,70417,1,0,0:0:0:0:
443,138,70472,1,0,0:0:0:0:
427,101,70526,1,0,0:0:0:0:
392,81,70580,1,0,0:0:0:0:
352,86,70635,1,0,0:0:0:0:
180,80,70744,6,0,L|180:172,1,82.5000025177003,0|0,2:0|0:0,0:0:0:0:
360,340,70961,2,0,L|464:340,1,82.5000025177003,8|0,0:0|0:0,0:0:0:0:
442,340,71179,2,0,L|344:340,1,82.5000025177003
176,340,71396,2,0,P|124:264|180:236,1,165.000005035401,0|0,1:0|0:0,0:0:0:0:
248,232,71722,1,0,0:0:0:0:
432,224,71831,2,0,L|432:128,1,82.5000025177003,8|0,0:0|0:0,0:0:0:0:
240,344,72048,6,0,P|136:264|252:140,1,330.000010070801,0|0,1:0|1:0,0:0:0:0:
432,136,72592,2,0,L|432:240,1,82.5000025177003,0|0,1:0|0:0,0:0:0:0:
236,336,72809,2,0,P|196:248|252:220,1,165.000005035401,8|0,0:0|1:0,0:0:0:0:
424,216,73135,6,0,L|512:216,2,82.5000025177003,0|0|0,1:0|0:0|1:0,0:0:0:0:
236,120,73461,2,0,L|128:120,2,82.5000025177003,0|2|0,0:0|0:0|0:0,0:0:0:0:
424,128,73788,2,0,L|424:32,1,82.5000025177003,0|0,1:0|0:0,0:0:0:0:
176,52,74005,5,4,1:2:0:0:
256,192,74114,12,0,77048,0:0:0:0:
152,300,77483,6,0,P|104:236|152:204,1,150,0|0,1:0|0:0,0:0:0:0:
220,204,77809,1,0,0:0:0:0:
392,336,77918,2,0,L|312:336,1,75,8|0,0:0|0:0,0:0:0:0:
392,336,78135,2,0,L|392:248,1,75
224,256,78353,2,0,L|56:256,1,150,0|0,1:0|0:0,0:0:0:0:
248,184,78679,2,0,L|352:184,2,75,0|8|0,0:0|0:0|0:0,0:0:0:0:
74,173,79005,2,0,L|72:272,1,75
316,320,79222,6,0,P|356:248|296:216,1,150,0|0,1:0|0:0,0:0:0:0:
240,216,79548,2,0,L|140:216,2,75,0|8|0,0:0|0:0|0:0,0:0:0:0:
313,215,79875,2,0,L|312:128,1,75
104,348,80092,2,0,L|104:188,1,150,0|0,1:0|0:0,0:0:0:0:
188,200,80418,1,0,0:0:0:0:
272,200,80527,1,8,0:0:0:0:
104,198,80744,1,0,1:0:0:0:
440,92,80961,5,4,0:0:0:0:
256,192,81070,12,0,82266,0:0:0:0:
328,236,82701,6,0,L|512:236,1,150,0|0,1:0|0:0,0:0:0:0:
404,236,83027,1,0,0:0:0:0:
232,232,83135,2,0,L|232:128,1,75,8|0,0:0|0:0,0:0:0:0:
308,156,83353,2,0,L|308:68,1,75
124,324,83570,5,0,1:2:0:0:
48,324,83679,1,0,0:0:0:0:
48,286,83733,1,0,0:0:0:0:
48,249,83787,1,0,0:0:0:0:
232,240,83896,1,4,1:2:0:0:
308,240,84005,1,0,0:0:0:0:
308,202,84059,1,0,0:0:0:0:
308,165,84113,1,0,0:0:0:0:
120,168,84222,5,4,1:2:0:0:
83,159,84276,1,0,0:0:0:0:
56,134,84330,1,0,0:0:0:0:
46,98,84385,1,0,0:0:0:0:
55,62,84439,1,0,0:0:0:0:
81,36,84493,1,0,0:0:0:0:
117,27,84548,1,0,0:0:0:0:
288,28,84657,6,0,L|384:28,1,82.5000025177003
168,352,84875,2,0,L|72:352,1,82.5000025177003,8|0,0:0|0:0,0:0:0:0:
85,352,85092,2,0,L|204:352,1,82.5000025177003
368,356,85309,2,0,P|412:280|344:248,1,165.000005035401,0|0,1:0|0:0,0:0:0:0:
280,248,85635,1,0,0:0:0:0:
88,248,85744,2,0,L|88:144,1,82.5000025177003,8|0,0:0|0:0,0:0:0:0:
164,164,85961,1,0,0:0:0:0:
88,164,86070,1,0,0:0:0:0:
304,92,86179,6,0,L|456:92,2,110.000003356934,0|0|0,1:0|1:0|1:0,0:0:0:0:
56,88,86614,2,0,L|176:88,2,110.000003356934,0|0|0,1:0|1:0|1:0,0:0:0:0:
312,348,87048,2,0,L|312:168,1,165.000005035401,0|0,1:0|0:0,0:0:0:0:
148,184,87483,1,0,0:0:0:0:
476,368,87918,6,0,L|476:204,2,150,4|0|8,0:0|0:0|0:0,0:0:0:0:
176,360,88788,1,8,0:0:0:0:
326,360,89005,1,0,0:0:0:0:
476,360,89222,1,0,0:0:0:0:
176,360,89657,6,0,L|176:12,1,300,8|8,0:0|0:0,0:0:0:0:
476,44,90527,2,0,L|256:172,2,225,8|8|8,0:0|0:0|0:0,0:0:0:0:
176,356,91396,5,4,0:0:0:0:
344,352,91614,1,0,1:0:0:0:
36,304,91831,2,0,L|36:132,1,150,8|0,0:0|1:0,0:0:0:0:
336,152,92266,6,0,L|504:152,1,150,8|0,0:0|1:0,0:0:0:0:
172,336,92701,1,0,3:0:0:0:
135,331,92755,1,0,0:0:0:0:
106,308,92809,1,0,0:0:0:0:
94,272,92864,1,0,0:0:0:0:
104,237,92918,1,0,3:0:0:0:
130,211,92972,1,0,0:0:0:0:
167,204,93027,1,0,0:0:0:0:
392,120,93135,6,0,L|248:120,2,110.000003356934,0|0|0,1:0|1:0|1:0,0:0:0:0:
56,68,93570,2,0,L|184:68,2,110.000003356934,0|0|0,1:0|1:0|1:0,0:0:0:0:
336,352,94005,5,0,3:0:0:0:
390,349,94077,1,0,3:0:0:0:
431,315,94149,1,0,3:0:0:0:
445,263,94222,1,0,3:0:0:0:
424,213,94294,1,0,3:0:0:0:
378,185,94367,1,0,3:0:0:0:
324,191,94439,1,2,3:2:0:0:
480,188,94657,1,2,3:2:0:0:
144,348,94875,6,0,P|64:296|152:208,1,247.500007553101,4|0,3:2|3:0,0:0:0:0:
184,208,95255,1,0,3:0:0:0:
348,208,95309,1,10,3:0:0:0:
432,208,95418,2,0,L|376:208,1,41.2500012588501,0|0,3:0|3:0,0:0:0:0:
244,136,95527,1,0,3:0:0:0:
164,136,95635,2,0,L|228:136,1,41.2500012588501,0|0,3:0|3:0,0:0:0:0:
348,136,95744,1,8,3:0:0:0:
432,136,95853,5,0,3:0:0:0:
472,136,95907,1,0,3:0:0:0:
472,136,95961,1,0,3:0:0:0:
432,136,96016,1,0,3:0:0:0:
288,88,96070,2,0,L|247:88,1,41.2500012588501,0|0,3:0|3:0,0:0:0:0:
100,352,96179,2,0,L|100:168,1,165.000005035401,10|0,3:0|0:0,0:0:0:0:
184,188,96505,1,0,0:0:0:0:
420,361,96614,6,0,P|458:275|386:253,1,165.000005035401,8|0,3:0|0:0,0:0:0:0:
330,251,96940,2,0,L|277:251,1,41.2500012588501,0|0,3:0|3:0,0:0:0:0:
128,252,97048,1,10,3:0:0:0:
128,252,97157,2,0,L|200:252,1,41.2500012588501,0|0,3:0|3:0,0:0:0:0:
320,132,97266,1,0,3:0:0:0:
320,132,97375,2,0,L|248:132,1,41.2500012588501,0|0,3:0|3:0,0:0:0:0:
128,72,97483,5,8,3:0:0:0:
44,72,97592,1,0,3:0:0:0:
44,113,97646,1,0,3:0:0:0:
44,154,97700,1,0,3:0:0:0:
44,195,97755,1,0,3:0:0:0:
188,196,97809,2,0,L|268:196,1,41.2500012588501,0|0,3:0|3:0,0:0:0:0:
376,200,97918,2,0,P|424:152|344:88,1,165.000005035401,10|0,3:0|0:0,0:0:0:0:
292,88,98244,1,0,0:0:0:0:
68,360,98353,6,0,L|324:360,1,247.500007553101,8|0,3:0|3:0,0:0:0:0:
276,360,98733,1,0,3:0:0:0:
124,272,98788,1,10,3:0:0:0:
124,272,98896,2,0,L|184:272,1,41.2500012588501,0|0,3:0|3:0,0:0:0:0:
324,192,99005,1,0,3:0:0:0:
408,192,99114,2,0,L|356:192,1,41.2500012588501,0|0,3:0|3:0,0:0:0:0:
208,184,99222,1,8,3:0:0:0:
208,104,99331,5,0,3:0:0:0:
249,104,99385,1,0,3:0:0:0:
290,104,99439,1,0,3:0:0:0:
331,104,99494,1,0,3:0:0:0:
208,264,99548,2,0,L|144:264,1,41.2500012588501,0|0,3:0|3:0,0:0:0:0:
40,264,99657,2,0,L|40:80,1,165.000005035401,10|0,3:0|0:0,0:0:0:0:
124,96,99983,1,0,0:0:0:0:
312,360,100092,6,0,L|312:252,1,82.5000025177003,8|0,3:0|0:0,0:0:0:0:
228,276,100309,2,0,L|120:276,1,82.5000025177003,2|0,0:0|0:0,0:0:0:0:
332,248,100527,2,0,L|332:156,1,82.5000025177003,10|0,3:0|0:0,0:0:0:0:
248,168,100744,2,0,L|132:168,1,82.5000025177003
360,168,100961,6,0,L|360:68,1,82.5000025177003,8|0,3:0|0:0,0:0:0:0:
164,88,101179,2,0,L|60:88,1,82.5000025177003
288,356,101396,2,0,L|472:356,1,165.000005035401,10|2,3:0|0:0,0:0:0:0:
372,356,101722,1,0,0:0:0:0:
152,352,101831,6,0,P|72:304|164:208,1,247.500007553101,4|0,3:2|3:0,0:0:0:0:
188,208,102211,1,0,3:0:0:0:
336,108,102266,1,10,3:0:0:0:
420,108,102375,2,0,L|376:108,1,41.2500012588501,0|0,3:0|3:0,0:0:0:0:
232,64,102483,1,0,3:0:0:0:
148,64,102592,2,0,L|192:64,1,41.2500012588501,0|0,3:0|3:0,0:0:0:0:
336,292,102701,1,8,3:0:0:0:
416,292,102809,5,0,3:0:0:0:
456,292,102864,1,0,3:0:0:0:
416,292,102918,1,0,3:0:0:0:
376,292,102972,1,0,3:0:0:0:
224,284,103027,2,0,L|224:220,1,41.2500012588501,0|0,3:0|3:0,0:0:0:0:
380,168,103135,2,0,P|424:116|364:44,1,165.000005035401,10|0,3:0|3:0,0:0:0:0:
292,48,103461,1,0,3:0:0:0:
104,344,103570,6,0,L|288:344,1,165.000005035401,4|0,3:2|0:0,0:0:0:0:
352,344,103896,2,0,L|288:344,1,41.2500012588501,0|0,3:0|3:0,0:0:0:0:
152,264,104005,1,10,3:0:0:0:
68,264,104114,2,0,L|144:264,1,41.2500012588501,0|0,3:0|3:0,0:0:0:0:
256,176,104222,1,0,3:0:0:0:
340,176,104331,2,0,L|264:176,1,41.2500012588501,0|0,3:0|3:0,0:0:0:0:
136,168,104440,1,10,3:0:0:0:
56,168,104548,5,0,3:0:0:0:
16,168,104603,1,0,3:0:0:0:
56,168,104657,1,0,3:0:0:0:
96,168,104711,1,0,3:0:0:0:
244,168,104766,2,0,L|244:120,1,41.2500012588501,0|0,3:0|3:0,0:0:0:0:
92,64,104875,1,10,3:0:0:0:
200,64,105019,1,8,3:0:0:0:
92,64,105164,1,8,3:0:0:0:
332,356,105309,6,0,P|372:288|300:256,1,150,4|0,0:0|0:0,0:0:0:0:
252,252,105635,2,0,L|448:252,1,150,2|0,0:0|0:0,0:0:0:0:
476,252,105961,1,2,0:0:0:0:
184,212,106179,2,0,P|136:148|188:120,1,150,4|0,0:0|0:0,0:0:0:0:
364,120,106505,2,0,L|444:120,2,75,2|2|2,0:0|0:0|0:0,0:0:0:0:
178,119,106831,2,0,L|178:35,1,75,2|0,0:0|0:0,0:0:0:0:
356,328,107048,6,0,L|240:328,1,75,8|0,3:0|3:0,0:0:0:0:
432,324,107375,1,8,3:0:0:0:
64,260,107592,2,0,L|64:160,1,75,8|0,3:0|3:0,0:0:0:0:
360,180,107918,2,0,L|184:180,1,150,8|0,3:0|3:0,0:0:0:0:
360,180,108353,1,0,3:0:0:0:
409,173,108425,1,0,0:0:0:0:
442,137,108497,1,0,0:0:0:0:
443,88,108570,1,0,3:0:0:0:
412,50,108642,1,0,0:0:0:0:
363,42,108715,1,0,0:0:0:0:
184,48,108788,1,4,0:0:0:0:
120,308,110309,5,0,3:0:0:0:
408,304,110527,1,4,3:2:0:0:
408,304,112048,5,0,3:0:0:0:
120,308,112266,1,4,3:2:0:0:
388,304,112592,2,0,L|388:204,1,75,0|8,0:0|3:0,0:0:0:0:
160,216,113027,6,0,L|80:216,1,75,0|8,0:0|3:0,0:0:0:0:
304,220,113461,2,0,L|304:120,1,75,8|0,3:0|0:0,0:0:0:0:
124,148,113788,1,8,3:0:0:0:
428,84,114005,5,0,1:0:0:0:
316,84,114150,1,0,1:0:0:0:
428,84,114295,1,0,1:0:0:0:
96,216,114440,1,0,1:0:0:0:
208,216,114585,1,0,1:0:0:0:
96,216,114730,1,0,1:0:0:0:
480,224,114875,5,4,1:2:0:0:
256,192,114983,12,0,117483,0:0:0:0:
