osu file format v14

[General]
AudioFilename: audio.mp3
AudioLeadIn: 0
PreviewTime: 58356
Countdown: 0
SampleSet: Normal
StackLeniency: 0.7
Mode: 1
LetterboxInBreaks: 0
WidescreenStoryboard: 1

[Editor]
DistanceSpacing: 1
BeatDivisor: 12
GridSize: 32
TimelineZoom: 1.9

[Metadata]
Title:Amor De Verao
TitleUnicode:Amor De Verão
Artist:Camellia feat. Nanahira
ArtistUnicode:かめりあ feat. ななひら
Creator:Konpaku Sariel
Version:Oni
Source:beatmania IIDX 25 CANNON BALLERS
Tags:Portuguese electronic Samba 熱帯 The Bass かめるかめりあ cametek kamelcamellia
BeatmapID:2648107
BeatmapSetID:1274440

[Difficulty]
HPDrainRate:5
CircleSize:5
OverallDifficulty:5
ApproachRate:5
SliderMultiplier:1.4
SliderTickRate:1

[Events]
//Background and Video events
0,0,"76102790_p0.jpg",0,70
//Break Periods
//Storyboard Layer 0 (Background)
//Storyboard Layer 1 (Fail)
//Storyboard Layer 2 (Pass)
//Storyboard Layer 3 (Foreground)
//Storyboard Layer 4 (Overlay)
//Storyboard Sound Samples

[TimingPoints]
965,434.782608695652,4,1,0,80,1,0
7776,-100,4,1,0,100,0,0
42812,-100,4,1,0,80,0,0
55638,-100,4,1,0,85,0,0
56562,-100,4,1,0,90,0,0
56997,-100,4,1,0,95,0,0
57432,-100,4,1,0,100,0,0
58301,-100,4,1,0,100,0,0
59769,-100,4,1,0,100,0,0
60095,434.782608695652,4,1,0,100,1,1
60095,-100,4,1,0,100,0,1
87921,-100,4,1,0,100,0,0
109008,-100,4,1,0,80,0,0
113953,-100,4,1,0,100,0,0

[HitObjects]
256,192,965,5,0,0:0:0:0:
256,192,1182,1,8,0:0:0:0:
256,192,1399,1,0,0:0:0:0:
256,192,1508,1,8,0:0:0:0:
256,192,1725,1,8,0:0:0:0:
256,192,1834,1,0,0:0:0:0:
256,192,2051,1,8,0:0:0:0:
256,192,2269,1,8,0:0:0:0:
256,192,2378,1,8,0:0:0:0:
256,192,2595,1,8,0:0:0:0:
256,192,2704,1,0,0:0:0:0:
256,192,2921,1,8,0:0:0:0:
256,192,3138,1,0,0:0:0:0:
256,192,3247,1,8,0:0:0:0:
256,192,3464,1,8,0:0:0:0:
256,192,3573,1,0,0:0:0:0:
256,192,3899,1,8,0:0:0:0:
256,192,4008,1,0,0:0:0:0:
256,192,4225,1,8,0:0:0:0:
256,192,4443,1,0,0:0:0:0:
256,192,4660,1,8,0:0:0:0:
256,192,4878,1,0,0:0:0:0:
256,192,4986,1,8,0:0:0:0:
256,192,5204,1,8,0:0:0:0:
256,192,5312,1,0,0:0:0:0:
256,192,5530,1,8,0:0:0:0:
256,192,5747,1,8,0:0:0:0:
256,192,5856,1,8,0:0:0:0:
256,192,6073,1,8,0:0:0:0:
256,192,6182,1,0,0:0:0:0:
256,192,6399,1,8,0:0:0:0:
256,192,6617,1,0,0:0:0:0:
256,192,6725,1,8,0:0:0:0:
256,192,6943,1,8,0:0:0:0:
256,192,7051,1,0,0:0:0:0:
256,192,7269,1,8,0:0:0:0:
256,192,7486,1,8,0:0:0:0:
256,192,7921,1,4,0:0:0:0:
256,192,8138,1,8,0:0:0:0:
256,192,8356,1,0,0:0:0:0:
256,192,8464,1,0,0:0:0:0:
256,192,8573,1,8,0:0:0:0:
256,192,8682,1,8,0:0:0:0:
256,192,8791,1,0,0:0:0:0:
256,192,9008,1,8,0:0:0:0:
256,192,9225,1,8,0:0:0:0:
256,192,9334,1,8,0:0:0:0:
256,192,9443,1,0,0:0:0:0:
256,192,9551,1,8,0:0:0:0:
256,192,9660,1,0,0:0:0:0:
256,192,9878,1,8,0:0:0:0:
256,192,10095,1,0,0:0:0:0:
256,192,10204,1,0,0:0:0:0:
256,192,10312,1,8,0:0:0:0:
256,192,10421,1,8,0:0:0:0:
256,192,10530,1,0,0:0:0:0:
256,192,10856,1,0,0:0:0:0:
256,192,11182,1,0,0:0:0:0:
256,192,11399,1,4,0:0:0:0:
256,192,11617,1,8,0:0:0:0:
256,192,11834,1,0,0:0:0:0:
256,192,11943,1,0,0:0:0:0:
256,192,12051,1,8,0:0:0:0:
256,192,12160,1,0,0:0:0:0:
256,192,12269,1,8,0:0:0:0:
256,192,12486,1,0,0:0:0:0:
256,192,12704,1,8,0:0:0:0:
256,192,12812,1,8,0:0:0:0:
256,192,12921,1,0,0:0:0:0:
256,192,13030,1,8,0:0:0:0:
256,192,13138,1,0,0:0:0:0:
256,192,13283,1,0,0:0:0:0:
256,192,13428,1,0,0:0:0:0:
256,192,13573,1,0,0:0:0:0:
256,192,13718,1,0,0:0:0:0:
256,192,13863,1,0,0:0:0:0:
256,192,14008,1,0,0:0:0:0:
256,192,14878,1,4,0:0:0:0:
256,192,15312,1,8,0:0:0:0:
256,192,15421,1,8,0:0:0:0:
256,192,15638,1,8,0:0:0:0:
256,192,15856,1,8,0:0:0:0:
256,192,16073,1,8,0:0:0:0:
256,192,16182,1,8,0:0:0:0:
256,192,16399,1,8,0:0:0:0:
256,192,16617,1,0,0:0:0:0:
256,192,16834,1,8,0:0:0:0:
256,192,16943,1,8,0:0:0:0:
256,192,17051,1,0,0:0:0:0:
256,192,17269,1,8,0:0:0:0:
256,192,17378,1,8,0:0:0:0:
256,192,17486,1,0,0:0:0:0:
256,192,17704,1,8,0:0:0:0:
256,192,17812,1,8,0:0:0:0:
256,192,17921,1,0,0:0:0:0:
256,192,18138,1,8,0:0:0:0:
256,192,18356,1,0,0:0:0:0:
256,192,18791,1,8,0:0:0:0:
256,192,18899,1,8,0:0:0:0:
256,192,19117,1,8,0:0:0:0:
256,192,19334,1,8,0:0:0:0:
256,192,19551,1,8,0:0:0:0:
256,192,19660,1,8,0:0:0:0:
256,192,19878,1,8,0:0:0:0:
256,192,20095,1,0,0:0:0:0:
256,192,20312,1,8,0:0:0:0:
256,192,20421,1,8,0:0:0:0:
256,192,20530,1,0,0:0:0:0:
256,192,20747,1,8,0:0:0:0:
256,192,20856,1,8,0:0:0:0:
256,192,20964,1,0,0:0:0:0:
256,192,21182,1,8,0:0:0:0:
256,192,21291,1,0,0:0:0:0:
256,192,21399,1,8,0:0:0:0:
256,192,21834,1,4,0:0:0:0:
256,192,22269,1,8,0:0:0:0:
256,192,22378,1,8,0:0:0:0:
256,192,22595,1,8,0:0:0:0:
256,192,22812,1,8,0:0:0:0:
256,192,23030,1,8,0:0:0:0:
256,192,23138,1,8,0:0:0:0:
256,192,23356,1,8,0:0:0:0:
256,192,23573,1,0,0:0:0:0:
256,192,23791,1,8,0:0:0:0:
256,192,23899,1,8,0:0:0:0:
256,192,24008,1,0,0:0:0:0:
256,192,24225,1,8,0:0:0:0:
256,192,24334,1,8,0:0:0:0:
256,192,24443,1,0,0:0:0:0:
256,192,24660,1,8,0:0:0:0:
256,192,24769,1,8,0:0:0:0:
256,192,24878,1,0,0:0:0:0:
256,192,25095,1,8,0:0:0:0:
256,192,25312,1,4,0:0:0:0:
256,192,25638,1,8,0:0:0:0:
256,192,25964,1,8,0:0:0:0:
256,192,26182,1,4,0:0:0:0:
256,192,26508,1,8,0:0:0:0:
256,192,26617,1,8,0:0:0:0:
256,192,26725,1,8,0:0:0:0:
256,192,26834,1,8,0:0:0:0:
256,192,27051,1,0,0:0:0:0:
256,192,27160,1,0,0:0:0:0:
256,192,27378,1,0,0:0:0:0:
256,192,27595,1,0,0:0:0:0:
256,192,27704,1,0,0:0:0:0:
256,192,27921,1,0,0:0:0:0:
256,192,28030,1,0,0:0:0:0:
256,192,28138,1,8,0:0:0:0:
256,192,28247,1,0,0:0:0:0:
256,192,28356,1,8,0:0:0:0:
256,192,28573,1,8,0:0:0:0:
256,192,28791,1,4,0:0:0:0:
256,192,29117,1,8,0:0:0:0:
256,192,29225,1,0,0:0:0:0:
256,192,29443,1,8,0:0:0:0:
256,192,29551,1,8,0:0:0:0:
256,192,29660,1,0,0:0:0:0:
256,192,29986,1,8,0:0:0:0:
256,192,30095,1,0,0:0:0:0:
256,192,30312,1,8,0:0:0:0:
256,192,30530,1,0,0:0:0:0:
256,192,30638,1,8,0:0:0:0:
256,192,30856,1,8,0:0:0:0:
256,192,30964,1,0,0:0:0:0:
256,192,31073,1,8,0:0:0:0:
256,192,31291,1,8,0:0:0:0:
256,192,31399,1,0,0:0:0:0:
256,192,31508,1,0,0:0:0:0:
256,192,31617,1,8,0:0:0:0:
256,192,31725,1,0,0:0:0:0:
256,192,31834,1,8,0:0:0:0:
256,192,32269,1,4,0:0:0:0:
256,192,32486,1,8,0:0:0:0:
256,192,32595,1,8,0:0:0:0:
256,192,32812,1,8,0:0:0:0:
256,192,33030,1,8,0:0:0:0:
256,192,33247,1,8,0:0:0:0:
256,192,33464,1,8,0:0:0:0:
256,192,33573,1,8,0:0:0:0:
256,192,34008,1,0,0:0:0:0:
256,192,34443,1,8,0:0:0:0:
256,192,34588,1,8,0:0:0:0:
256,192,34733,1,8,0:0:0:0:
256,192,34878,1,8,0:0:0:0:
256,192,35022,1,8,0:0:0:0:
256,192,35167,1,8,0:0:0:0:
256,192,35312,1,8,0:0:0:0:
256,192,35747,1,4,0:0:0:0:
256,192,35964,1,8,0:0:0:0:
256,192,36073,1,8,0:0:0:0:
256,192,36291,1,8,0:0:0:0:
256,192,36508,1,8,0:0:0:0:
256,192,36725,1,8,0:0:0:0:
256,192,36943,1,8,0:0:0:0:
256,192,37051,1,8,0:0:0:0:
256,192,37486,1,0,0:0:0:0:
256,192,37704,1,8,0:0:0:0:
256,192,37812,1,8,0:0:0:0:
256,192,37921,1,0,0:0:0:0:
256,192,38030,1,8,0:0:0:0:
256,192,38247,1,8,0:0:0:0:
256,192,38356,1,0,0:0:0:0:
256,192,38464,1,8,0:0:0:0:
256,192,38682,1,8,0:0:0:0:
256,192,38791,1,8,0:0:0:0:
256,192,39225,1,4,0:0:0:0:
256,192,39551,1,8,0:0:0:0:
256,192,39878,1,8,0:0:0:0:
256,192,40095,1,4,0:0:0:0:
256,192,40421,1,8,0:0:0:0:
256,192,40747,1,8,0:0:0:0:
256,192,40964,1,4,0:0:0:0:
256,192,41291,1,8,0:0:0:0:
256,192,41617,1,8,0:0:0:0:
256,192,41834,1,0,0:0:0:0:
256,192,41943,1,0,0:0:0:0:
256,192,42051,1,8,0:0:0:0:
256,192,42160,1,0,0:0:0:0:
256,192,42269,1,8,0:0:0:0:
256,192,42378,1,8,0:0:0:0:
256,192,42486,1,0,0:0:0:0:
256,192,42704,1,4,0:0:0:0:
256,192,43791,1,8,0:0:0:0:
256,192,44008,1,8,0:0:0:0:
256,192,44117,1,8,0:0:0:0:
256,192,44334,1,8,0:0:0:0:
256,192,44443,1,0,0:0:0:0:
256,192,44660,1,8,0:0:0:0:
256,192,45041,1,8,0:0:0:0:
256,192,45312,1,8,0:0:0:0:
256,192,45747,1,8,0:0:0:0:
256,192,45964,1,8,0:0:0:0:
256,192,46073,1,8,0:0:0:0:
256,192,46182,1,0,0:0:0:0:
256,192,46399,1,8,0:0:0:0:
256,192,47269,1,8,0:0:0:0:
256,192,47486,1,8,0:0:0:0:
256,192,47595,1,8,0:0:0:0:
256,192,47812,1,8,0:0:0:0:
256,192,47921,1,0,0:0:0:0:
256,192,48138,1,8,0:0:0:0:
256,192,49008,1,8,0:0:0:0:
256,192,49225,1,8,0:0:0:0:
256,192,49334,1,8,0:0:0:0:
256,192,49551,1,8,0:0:0:0:
256,192,49660,1,0,0:0:0:0:
256,192,49878,1,8,0:0:0:0:
256,192,50095,1,0,0:0:0:0:
256,192,50204,1,8,0:0:0:0:
256,192,50421,1,8,0:0:0:0:
256,192,50530,1,0,0:0:0:0:
256,192,50747,1,8,0:0:0:0:
256,192,50964,1,8,0:0:0:0:
256,192,51073,1,8,0:0:0:0:
256,192,51291,1,8,0:0:0:0:
256,192,51399,1,0,0:0:0:0:
256,192,51617,1,8,0:0:0:0:
256,192,51834,1,0,0:0:0:0:
256,192,51943,1,8,0:0:0:0:
256,192,52051,1,0,0:0:0:0:
256,192,52269,1,8,0:0:0:0:
256,192,52378,1,8,0:0:0:0:
256,192,52486,1,0,0:0:0:0:
256,192,52595,1,8,0:0:0:0:
256,192,52704,1,0,0:0:0:0:
256,192,52921,1,8,0:0:0:0:
256,192,53138,1,0,0:0:0:0:
256,192,53464,1,8,0:0:0:0:
256,192,53573,1,0,0:0:0:0:
256,192,53791,1,8,0:0:0:0:
256,192,54008,1,0,0:0:0:0:
256,192,54334,1,8,0:0:0:0:
256,192,54443,1,0,0:0:0:0:
256,192,54660,1,8,0:0:0:0:
256,192,54769,1,8,0:0:0:0:
256,192,54878,1,0,0:0:0:0:
256,192,55204,1,8,0:0:0:0:
256,192,55312,1,0,0:0:0:0:
256,192,55530,1,8,0:0:0:0:
256,192,55747,1,0,0:0:0:0:
256,192,55856,1,0,0:0:0:0:
256,192,55964,1,8,0:0:0:0:
256,192,56073,1,0,0:0:0:0:
256,192,56182,1,8,0:0:0:0:
256,192,56399,1,8,0:0:0:0:
256,192,56617,1,0,0:0:0:0:
256,192,56834,1,0,0:0:0:0:
256,192,57051,1,8,0:0:0:0:
256,192,57269,1,8,0:0:0:0:
256,192,57486,1,0,0:0:0:0:
256,192,57595,1,0,0:0:0:0:
256,192,57704,1,8,0:0:0:0:
256,192,57812,1,0,0:0:0:0:
256,192,57921,1,8,0:0:0:0:
256,192,58030,1,8,0:0:0:0:
256,192,58138,1,8,0:0:0:0:
256,192,58356,1,4,0:0:0:0:
256,192,58791,1,4,0:0:0:0:
256,192,59225,1,4,0:0:0:0:
256,192,59551,1,4,0:0:0:0:
256,192,60095,1,4,0:0:0:0:
256,192,60312,1,8,0:0:0:0:
256,192,60529,1,0,0:0:0:0:
256,192,60638,1,8,0:0:0:0:
256,192,60855,1,8,0:0:0:0:
256,192,60964,1,0,0:0:0:0:
256,192,61181,1,8,0:0:0:0:
256,192,61290,1,8,0:0:0:0:
256,192,61399,1,0,0:0:0:0:
256,192,61508,1,8,0:0:0:0:
256,192,61725,1,8,0:0:0:0:
256,192,61834,1,0,0:0:0:0:
256,192,62051,1,8,0:0:0:0:
256,192,62268,1,0,0:0:0:0:
256,192,62377,1,8,0:0:0:0:
256,192,62595,1,8,0:0:0:0:
256,192,62703,1,0,0:0:0:0:
256,192,63029,1,8,0:0:0:0:
256,192,63138,1,0,0:0:0:0:
256,192,63355,1,8,0:0:0:0:
256,192,63573,1,0,0:0:0:0:
256,192,63790,1,8,0:0:0:0:
256,192,64008,1,0,0:0:0:0:
256,192,64116,1,8,0:0:0:0:
256,192,64334,1,8,0:0:0:0:
256,192,64442,1,0,0:0:0:0:
256,192,64660,1,8,0:0:0:0:
256,192,64768,1,8,0:0:0:0:
256,192,64877,1,0,0:0:0:0:
256,192,64986,1,8,0:0:0:0:
256,192,65203,1,8,0:0:0:0:
256,192,65312,1,0,0:0:0:0:
256,192,65529,1,8,0:0:0:0:
256,192,65747,1,0,0:0:0:0:
256,192,65855,1,8,0:0:0:0:
256,192,66073,1,8,0:0:0:0:
256,192,66181,1,0,0:0:0:0:
256,192,66399,1,8,0:0:0:0:
256,192,66616,1,8,0:0:0:0:
256,192,67051,1,4,0:0:0:0:
256,192,67268,1,8,0:0:0:0:
256,192,67486,1,0,0:0:0:0:
256,192,67595,1,8,0:0:0:0:
256,192,67812,1,8,0:0:0:0:
256,192,67921,1,0,0:0:0:0:
256,192,68138,1,8,0:0:0:0:
256,192,68247,1,8,0:0:0:0:
256,192,68355,1,0,0:0:0:0:
256,192,68464,1,8,0:0:0:0:
256,192,68681,1,8,0:0:0:0:
256,192,68790,1,0,0:0:0:0:
256,192,69008,1,8,0:0:0:0:
256,192,69225,1,0,0:0:0:0:
256,192,69334,1,8,0:0:0:0:
256,192,69551,1,8,0:0:0:0:
256,192,69660,1,0,0:0:0:0:
256,192,69986,1,0,0:0:0:0:
256,192,70312,1,0,0:0:0:0:
256,192,70747,1,8,0:0:0:0:
256,192,70964,1,0,0:0:0:0:
256,192,71073,1,8,0:0:0:0:
256,192,71290,1,8,0:0:0:0:
256,192,71399,1,0,0:0:0:0:
256,192,71616,1,8,0:0:0:0:
256,192,71834,1,8,0:0:0:0:
256,192,71942,1,8,0:0:0:0:
256,192,72051,1,0,0:0:0:0:
256,192,72160,1,8,0:0:0:0:
256,192,72486,1,0,0:0:0:0:
256,192,72595,1,8,0:0:0:0:
256,192,72812,1,0,0:0:0:0:
256,192,72921,1,8,0:0:0:0:
256,192,73029,1,8,0:0:0:0:
256,192,73138,1,0,0:0:0:0:
256,192,73355,1,8,0:0:0:0:
256,192,73464,1,0,0:0:0:0:
256,192,73573,1,8,0:0:0:0:
256,192,73790,1,8,0:0:0:0:
256,192,74008,1,4,0:0:0:0:
256,192,74225,1,8,0:0:0:0:
256,192,74442,1,0,0:0:0:0:
256,192,74551,1,8,0:0:0:0:
256,192,74768,1,8,0:0:0:0:
256,192,74877,1,0,0:0:0:0:
256,192,75095,1,8,0:0:0:0:
256,192,75203,1,8,0:0:0:0:
256,192,75312,1,0,0:0:0:0:
256,192,75421,1,8,0:0:0:0:
256,192,75638,1,8,0:0:0:0:
256,192,75747,1,0,0:0:0:0:
256,192,75964,1,8,0:0:0:0:
256,192,76181,1,0,0:0:0:0:
256,192,76290,1,8,0:0:0:0:
256,192,76508,1,8,0:0:0:0:
256,192,76616,1,0,0:0:0:0:
256,192,76942,1,0,0:0:0:0:
256,192,77268,1,0,0:0:0:0:
256,192,77486,1,0,0:0:0:0:
256,192,77703,1,8,0:0:0:0:
256,192,77921,1,0,0:0:0:0:
256,192,78029,1,8,0:0:0:0:
256,192,78247,1,8,0:0:0:0:
256,192,78355,1,0,0:0:0:0:
256,192,78573,1,8,0:0:0:0:
256,192,78681,1,8,0:0:0:0:
256,192,78790,1,0,0:0:0:0:
256,192,78899,1,8,0:0:0:0:
256,192,79116,1,8,0:0:0:0:
256,192,79225,1,0,0:0:0:0:
256,192,79442,1,8,0:0:0:0:
256,192,79660,1,0,0:0:0:0:
256,192,79768,1,8,0:0:0:0:
256,192,79986,1,8,0:0:0:0:
256,192,80095,1,0,0:0:0:0:
256,192,80421,1,0,0:0:0:0:
256,192,80747,1,0,0:0:0:0:
256,192,80964,1,4,0:0:0:0:
256,192,81181,1,8,0:0:0:0:
256,192,81399,1,0,0:0:0:0:
256,192,81508,1,8,0:0:0:0:
256,192,81725,1,8,0:0:0:0:
256,192,81834,1,0,0:0:0:0:
256,192,82051,1,8,0:0:0:0:
256,192,82160,1,8,0:0:0:0:
256,192,82268,1,0,0:0:0:0:
256,192,82377,1,8,0:0:0:0:
256,192,82595,1,8,0:0:0:0:
256,192,82703,1,0,0:0:0:0:
256,192,82921,1,8,0:0:0:0:
256,192,83138,1,0,0:0:0:0:
256,192,83247,1,8,0:0:0:0:
256,192,83464,1,8,0:0:0:0:
256,192,83573,1,0,0:0:0:0:
256,192,83899,1,0,0:0:0:0:
256,192,84225,1,0,0:0:0:0:
256,192,84660,1,8,0:0:0:0:
256,192,84877,1,0,0:0:0:0:
256,192,84986,1,8,0:0:0:0:
256,192,85203,1,8,0:0:0:0:
256,192,85312,1,0,0:0:0:0:
256,192,85529,1,8,0:0:0:0:
256,192,85747,1,0,0:0:0:0:
256,192,85855,1,8,0:0:0:0:
256,192,85964,1,8,0:0:0:0:
256,192,86181,1,0,0:0:0:0:
256,192,86326,1,0,0:0:0:0:
256,192,86471,1,0,0:0:0:0:
256,192,86616,1,0,0:0:0:0:
256,192,86761,1,0,0:0:0:0:
256,192,86906,1,0,0:0:0:0:
256,192,87051,1,0,0:0:0:0:
256,192,87921,1,12,0:0:0:0:
256,192,88247,1,0,0:0:0:0:
256,192,88355,1,8,0:0:0:0:
256,192,88573,1,0,0:0:0:0:
256,192,88790,1,8,0:0:0:0:
256,192,89008,1,0,0:0:0:0:
256,192,89116,1,0,0:0:0:0:
256,192,89225,1,8,0:0:0:0:
256,192,89442,1,0,0:0:0:0:
256,192,89660,1,8,0:0:0:0:
256,192,89986,1,0,0:0:0:0:
256,192,90094,1,8,0:0:0:0:
256,192,90312,1,0,0:0:0:0:
256,192,90529,1,8,0:0:0:0:
256,192,90638,1,0,0:0:0:0:
256,192,90855,1,8,0:0:0:0:
256,192,90964,1,0,0:0:0:0:
256,192,91181,1,8,0:0:0:0:
256,192,91399,1,8,0:0:0:0:
256,192,91616,1,0,0:0:0:0:
256,192,91834,1,8,0:0:0:0:
256,192,92051,1,0,0:0:0:0:
256,192,92268,1,8,0:0:0:0:
256,192,92486,1,0,0:0:0:0:
256,192,92703,1,8,0:0:0:0:
256,192,92812,1,8,0:0:0:0:
256,192,92921,1,8,0:0:0:0:
256,192,93029,1,8,0:0:0:0:
256,192,93138,1,0,0:0:0:0:
256,192,93283,1,0,0:0:0:0:
256,192,93428,1,0,0:0:0:0:
256,192,93573,1,0,0:0:0:0:
256,192,93718,1,0,0:0:0:0:
256,192,93863,1,0,0:0:0:0:
256,192,94008,1,0,0:0:0:0:
256,192,94877,1,4,0:0:0:0:
256,192,95094,1,0,0:0:0:0:
256,192,95203,1,0,0:0:0:0:
256,192,95312,1,8,0:0:0:0:
256,192,95529,1,8,0:0:0:0:
256,192,95638,1,0,0:0:0:0:
256,192,95747,1,8,0:0:0:0:
256,192,95964,1,0,0:0:0:0:
256,192,96073,1,0,0:0:0:0:
256,192,96181,1,8,0:0:0:0:
256,192,96399,1,8,0:0:0:0:
256,192,96616,1,0,0:0:0:0:
256,192,96834,1,8,0:0:0:0:
256,192,96942,1,8,0:0:0:0:
256,192,97051,1,0,0:0:0:0:
256,192,97268,1,8,0:0:0:0:
256,192,97377,1,8,0:0:0:0:
256,192,97486,1,0,0:0:0:0:
256,192,97703,1,8,0:0:0:0:
256,192,97812,1,8,0:0:0:0:
256,192,97921,1,0,0:0:0:0:
256,192,98138,1,8,0:0:0:0:
256,192,98355,1,0,0:0:0:0:
256,192,98464,1,0,0:0:0:0:
256,192,98573,1,0,0:0:0:0:
256,192,98681,1,0,0:0:0:0:
256,192,98790,1,8,0:0:0:0:
256,192,99008,1,8,0:0:0:0:
256,192,99116,1,0,0:0:0:0:
256,192,99225,1,8,0:0:0:0:
256,192,99442,1,0,0:0:0:0:
256,192,99551,1,0,0:0:0:0:
256,192,99660,1,8,0:0:0:0:
256,192,99877,1,8,0:0:0:0:
256,192,100094,1,0,0:0:0:0:
256,192,100312,1,8,0:0:0:0:
256,192,100421,1,8,0:0:0:0:
256,192,100529,1,0,0:0:0:0:
256,192,100747,1,8,0:0:0:0:
256,192,100855,1,8,0:0:0:0:
256,192,100964,1,0,0:0:0:0:
256,192,101181,1,8,0:0:0:0:
256,192,101290,1,0,0:0:0:0:
256,192,101399,1,8,0:0:0:0:
256,192,101834,1,4,0:0:0:0:
256,192,102051,1,0,0:0:0:0:
256,192,102160,1,0,0:0:0:0:
256,192,102268,1,8,0:0:0:0:
256,192,102486,1,8,0:0:0:0:
256,192,102594,1,0,0:0:0:0:
256,192,102703,1,8,0:0:0:0:
256,192,102921,1,0,0:0:0:0:
256,192,103029,1,0,0:0:0:0:
256,192,103138,1,8,0:0:0:0:
256,192,103355,1,8,0:0:0:0:
256,192,103573,1,4,0:0:0:0:
256,192,103790,1,0,0:0:0:0:
256,192,103899,1,0,0:0:0:0:
256,192,104008,1,8,0:0:0:0:
256,192,104225,1,8,0:0:0:0:
256,192,104334,1,0,0:0:0:0:
256,192,104442,1,8,0:0:0:0:
256,192,104660,1,0,0:0:0:0:
256,192,104768,1,0,0:0:0:0:
256,192,104877,1,8,0:0:0:0:
256,192,105022,1,8,0:0:0:0:
256,192,105167,1,8,0:0:0:0:
256,192,105312,1,4,0:0:0:0:
256,192,105638,1,8,0:0:0:0:
256,192,105964,1,8,0:0:0:0:
256,192,106181,1,4,0:0:0:0:
256,192,106508,1,8,0:0:0:0:
256,192,106616,1,8,0:0:0:0:
256,192,106725,1,8,0:0:0:0:
256,192,106834,1,8,0:0:0:0:
256,192,107051,1,0,0:0:0:0:
256,192,107160,1,0,0:0:0:0:
256,192,107377,1,0,0:0:0:0:
256,192,107594,1,0,0:0:0:0:
256,192,107703,1,0,0:0:0:0:
256,192,107921,1,0,0:0:0:0:
256,192,108029,1,0,0:0:0:0:
256,192,108138,1,8,0:0:0:0:
256,192,108247,1,0,0:0:0:0:
256,192,108355,1,8,0:0:0:0:
256,192,108464,1,8,0:0:0:0:
256,192,108573,1,8,0:0:0:0:
256,192,108790,1,4,0:0:0:0:
256,192,109116,1,8,0:0:0:0:
256,192,109225,1,8,0:0:0:0:
256,192,109334,1,8,0:0:0:0:
256,192,109551,1,8,0:0:0:0:
256,192,109768,1,8,0:0:0:0:
256,192,109986,1,8,0:0:0:0:
256,192,110094,1,8,0:0:0:0:
256,192,110312,1,4,0:0:0:0:
256,192,110529,1,4,0:0:0:0:
256,192,110855,1,8,0:0:0:0:
256,192,110964,1,8,0:0:0:0:
256,192,111073,1,8,0:0:0:0:
256,192,111290,1,8,0:0:0:0:
256,192,111508,1,8,0:0:0:0:
256,192,111725,1,8,0:0:0:0:
256,192,111834,1,8,0:0:0:0:
256,192,112051,1,4,0:0:0:0:
256,192,112268,1,4,0:0:0:0:
256,192,112594,1,8,0:0:0:0:
256,192,112703,1,0,0:0:0:0:
256,192,112812,1,8,0:0:0:0:
256,192,113029,1,8,0:0:0:0:
256,192,113138,1,0,0:0:0:0:
256,192,113247,1,8,0:0:0:0:
256,192,113464,1,0,0:0:0:0:
256,192,113573,1,8,0:0:0:0:
256,192,113790,1,4,0:0:0:0:
256,192,114008,1,0,0:0:0:0:
256,192,114152,1,0,0:0:0:0:
256,192,114297,1,0,0:0:0:0:
256,192,114442,1,0,0:0:0:0:
256,192,114587,1,0,0:0:0:0:
256,192,114732,1,0,0:0:0:0:
256,192,114877,1,0,0:0:0:0:
