osu file format v14

[General]
AudioFilename: audio.mp3
AudioLeadIn: 0
PreviewTime: 58356
Countdown: 0
SampleSet: Normal
StackLeniency: 0.7
Mode: 1
LetterboxInBreaks: 0
WidescreenStoryboard: 1

[Editor]
DistanceSpacing: 1
BeatDivisor: 1
GridSize: 32
TimelineZoom: 0.7999998

[Metadata]
Title:Amor De Verao
TitleUnicode:Amor De Verão
Artist:Camellia feat. Nanahira
ArtistUnicode:かめりあ feat. ななひら
Creator:Konpaku Sariel
Version:Kantan
Source:beatmania IIDX 25 CANNON BALLERS
Tags:Portuguese electronic Samba 熱帯 The Bass かめるかめりあ cametek kamelcamellia
BeatmapID:2648105
BeatmapSetID:1274440

[Difficulty]
HPDrainRate:8
CircleSize:5
OverallDifficulty:2
ApproachRate:5
SliderMultiplier:1.4
SliderTickRate:1

[Events]
//Background and Video events
0,0,"76102790_p0.jpg",0,70
//Break Periods
//Storyboard Layer 0 (Background)
//Storyboard Layer 1 (Fail)
//Storyboard Layer 2 (Pass)
//Storyboard Layer 3 (Foreground)
//Storyboard Layer 4 (Overlay)
//Storyboard Sound Samples

[TimingPoints]
965,434.782608695652,4,1,0,80,1,0
7776,-100,4,1,0,100,0,0
42812,-100,4,1,0,80,0,0
55638,-100,4,1,0,85,0,0
56562,-100,4,1,0,90,0,0
56997,-100,4,1,0,95,0,0
57432,-100,4,1,0,100,0,0
58301,-100,4,1,0,100,0,0
59769,-100,4,1,0,100,0,0
60095,434.782608695652,4,1,0,100,1,1
60095,-100,4,1,0,100,0,1
87921,-100,4,1,0,100,0,0
109008,-100,4,1,0,80,0,0
113953,-100,4,1,0,100,0,0

[HitObjects]
256,192,965,5,0,0:0:0:0:
256,192,1399,1,8,0:0:0:0:
256,192,1834,1,0,0:0:0:0:
256,192,2704,1,8,0:0:0:0:
256,192,3573,1,0,0:0:0:0:
256,192,4443,1,0,0:0:0:0:
256,192,4878,1,8,0:0:0:0:
256,192,5312,1,0,0:0:0:0:
256,192,6182,1,8,0:0:0:0:
256,192,7921,1,4,0:0:0:0:
256,192,8356,1,8,0:0:0:0:
256,192,8791,1,8,0:0:0:0:
256,192,9660,1,0,0:0:0:0:
256,192,10095,1,8,0:0:0:0:
256,192,10530,1,8,0:0:0:0:
256,192,11399,1,4,0:0:0:0:
256,192,11834,1,8,0:0:0:0:
256,192,12269,1,8,0:0:0:0:
256,192,12704,1,8,0:0:0:0:
256,192,13138,12,8,14008,0:0:0:0:
256,192,14878,5,4,0:0:0:0:
256,192,15747,1,8,0:0:0:0:
256,192,16182,1,8,0:0:0:0:
256,192,16617,1,0,0:0:0:0:
256,192,17486,1,8,0:0:0:0:
256,192,18356,1,0,0:0:0:0:
256,192,19225,1,8,0:0:0:0:
256,192,19660,1,8,0:0:0:0:
256,192,20095,1,0,0:0:0:0:
256,192,21834,1,4,0:0:0:0:
256,192,22704,1,8,0:0:0:0:
256,192,23138,1,8,0:0:0:0:
256,192,23573,1,0,0:0:0:0:
256,192,24443,1,8,0:0:0:0:
256,192,25312,1,4,0:0:0:0:
256,192,26182,1,4,0:0:0:0:
256,192,27051,1,0,0:0:0:0:
256,192,27486,1,0,0:0:0:0:
256,192,27921,1,0,0:0:0:0:
256,192,28791,1,4,0:0:0:0:
256,192,29660,1,0,0:0:0:0:
256,192,30530,1,0,0:0:0:0:
256,192,31834,1,8,0:0:0:0:
256,192,32269,1,4,0:0:0:0:
256,192,33138,1,8,0:0:0:0:
256,192,34008,1,0,0:0:0:0:
256,192,34443,1,0,0:0:0:0:
256,192,34878,1,0,0:0:0:0:
256,192,35747,1,4,0:0:0:0:
256,192,36617,1,8,0:0:0:0:
256,192,37486,1,0,0:0:0:0:
256,192,38791,1,8,0:0:0:0:
256,192,39225,1,4,0:0:0:0:
256,192,40095,1,4,0:0:0:0:
256,192,40964,1,4,0:0:0:0:
256,192,41834,1,0,0:0:0:0:
256,192,42269,1,0,0:0:0:0:
256,192,42704,1,4,0:0:0:0:
256,192,44443,1,0,0:0:0:0:
256,192,45312,1,8,0:0:0:0:
256,192,46182,1,0,0:0:0:0:
256,192,47921,1,8,0:0:0:0:
256,192,49660,1,0,0:0:0:0:
256,192,50530,1,8,0:0:0:0:
256,192,51399,1,0,0:0:0:0:
256,192,52269,1,8,0:0:0:0:
256,192,52704,1,8,0:0:0:0:
256,192,53138,1,0,0:0:0:0:
256,192,54008,1,0,0:0:0:0:
256,192,54878,1,8,0:0:0:0:
256,192,55747,1,8,0:0:0:0:
256,192,56617,1,0,0:0:0:0:
256,192,57051,1,0,0:0:0:0:
256,192,57486,1,0,0:0:0:0:
256,192,58356,1,4,0:0:0:0:
256,192,60095,1,4,0:0:0:0:
256,192,60964,1,0,0:0:0:0:
256,192,61834,1,8,0:0:0:0:
256,192,62703,1,0,0:0:0:0:
256,192,63138,1,0,0:0:0:0:
256,192,63573,1,0,0:0:0:0:
256,192,64442,1,0,0:0:0:0:
256,192,65312,1,8,0:0:0:0:
256,192,67051,1,4,0:0:0:0:
256,192,67921,1,0,0:0:0:0:
256,192,68790,1,8,0:0:0:0:
256,192,69660,1,0,0:0:0:0:
256,192,70095,1,0,0:0:0:0:
256,192,70529,1,0,0:0:0:0:
256,192,71399,1,0,0:0:0:0:
256,192,72268,1,8,0:0:0:0:
256,192,74008,1,4,0:0:0:0:
256,192,74877,1,8,0:0:0:0:
256,192,75747,1,0,0:0:0:0:
256,192,76616,1,8,0:0:0:0:
256,192,77051,1,8,0:0:0:0:
256,192,77486,1,0,0:0:0:0:
256,192,78355,1,8,0:0:0:0:
256,192,79225,1,0,0:0:0:0:
256,192,80964,1,4,0:0:0:0:
256,192,81834,1,8,0:0:0:0:
256,192,82703,1,0,0:0:0:0:
256,192,83573,1,8,0:0:0:0:
256,192,84008,1,8,0:0:0:0:
256,192,84442,1,0,0:0:0:0:
256,192,85312,1,8,0:0:0:0:
256,192,86181,12,0,87051,0:0:0:0:
256,192,87921,5,12,0:0:0:0:
256,192,88790,1,8,0:0:0:0:
256,192,89660,1,8,0:0:0:0:
256,192,90529,1,8,0:0:0:0:
256,192,90964,1,8,0:0:0:0:
256,192,91399,1,8,0:0:0:0:
256,192,92268,1,8,0:0:0:0:
256,192,93138,12,8,94008,0:0:0:0:
256,192,94877,5,4,0:0:0:0:
256,192,95747,1,8,0:0:0:0:
256,192,96181,1,8,0:0:0:0:
256,192,96616,1,0,0:0:0:0:
256,192,97486,1,8,0:0:0:0:
256,192,98355,1,0,0:0:0:0:
256,192,99225,1,8,0:0:0:0:
256,192,99660,1,8,0:0:0:0:
256,192,100094,1,0,0:0:0:0:
256,192,101834,1,4,0:0:0:0:
256,192,102703,1,8,0:0:0:0:
256,192,103138,1,8,0:0:0:0:
256,192,103573,1,4,0:0:0:0:
256,192,104442,1,8,0:0:0:0:
256,192,104877,1,8,0:0:0:0:
256,192,105312,1,4,0:0:0:0:
256,192,106181,1,4,0:0:0:0:
256,192,107051,1,0,0:0:0:0:
256,192,107486,1,0,0:0:0:0:
256,192,107921,1,0,0:0:0:0:
256,192,108790,1,4,0:0:0:0:
256,192,110529,1,4,0:0:0:0:
256,192,112268,1,4,0:0:0:0:
256,192,114008,1,4,0:0:0:0:
256,192,114442,1,4,0:0:0:0:
256,192,114877,1,4,0:0:0:0:
