osu file format v14

[General]
AudioFilename: audio.mp3
AudioLeadIn: 0
PreviewTime: 44356
Countdown: 0
SampleSet: None
StackLeniency: 0.7
Mode: 0
LetterboxInBreaks: 0
WidescreenStoryboard: 1

[Editor]
Bookmarks: 2746,15006,17978,22436,29867,44727,52901,53644,56616,68505,71477,74449,83365,83737,86337,90796,94139
DistanceSpacing: 1.2
BeatDivisor: 8
GridSize: 4
TimelineZoom: 2.899999

[Metadata]
Title:Mushi no Sumu Tokoro
TitleUnicode:Mushi no Sumu Tokoro
Artist:Camellia feat. Nana Takahashi
ArtistUnicode:かめりあ feat. Nana Takahashi
Creator:dark_assassin16
Version:Normal
Source:BeatStream
Tags:かめりあ cametek
BeatmapID:1087458
BeatmapSetID:501684

[Difficulty]
HPDrainRate:3
CircleSize:3
OverallDifficulty:3
ApproachRate:5
SliderMultiplier:1.5
SliderTickRate:2

[Events]
//Background and Video events
0,0,"Background.jpg",0,0
//Break Periods
//Storyboard Layer 0 (Background)
//Storyboard Layer 1 (Fail)
//Storyboard Layer 2 (Pass)
//Storyboard Layer 3 (Foreground)
//Storyboard Sound Samples

[TimingPoints]
1632,371.517027863777,4,3,0,30,1,0
2746,-100,4,3,0,50,0,0
9062,-100,4,3,0,60,0,0
15006,-100,4,3,0,40,0,0
17607,-100,4,3,0,70,0,0
17978,-100,4,3,0,60,0,0
26895,-100,4,3,0,5,0,0
27266,-100,4,3,0,60,0,0
28381,-100,4,3,0,60,0,0
29867,-100,4,3,0,50,0,0
38783,-100,4,3,0,60,0,0
40269,-100,4,3,0,70,0,0
41755,-100,4,3,0,80,0,0
44727,-100,4,3,0,100,0,1
53644,-100,4,3,0,100,0,1
55873,-100,4,3,0,100,0,1
56616,-100,4,3,0,80,0,0
59588,-100,4,3,0,80,0,0
62560,-100,4,3,0,80,0,0
65532,-100,4,3,0,70,0,0
68505,-100,4,3,0,60,0,0
69619,-100,4,3,0,60,0,0
69991,-100,4,3,0,60,0,0
71105,-100,4,3,0,60,0,0
71477,-100,4,3,0,70,0,0
72963,-100,4,3,0,80,0,0
73334,-100,4,3,0,80,0,0
73706,-100,4,3,0,80,0,0
74077,-100,4,3,0,70,0,0
74449,-100,4,3,0,100,0,1
83365,-100,4,3,0,40,0,0
83737,-100,4,3,0,100,0,1
86337,-100,4,3,0,100,0,1
87452,-100,4,3,0,80,0,0
87823,-100,4,3,0,100,0,1
88566,-100,4,3,0,80,0,0
89310,-100,4,3,0,100,0,1
90424,-100,4,3,0,80,0,0
90796,-100,4,3,0,100,0,1
91910,-100,4,3,0,100,0,1
93025,-100,4,3,0,100,0,1
94139,-100,4,3,0,60,0,0

[Colours]
Combo1 : 190,255,183
Combo2 : 0,119,0
Combo3 : 0,185,0

[HitObjects]
72,128,2746,38,0,L|148:116,1,75
156,208,3118,2,0,B|188:212|216:200|232:172|232:172|264:220|264:220|308:180|344:172|408:196,2,300
492,76,5347,1,0,0:0:0:0:
268,69,5718,22,0,L|308:136,1,75
348,216,6090,2,0,B|304:230|272:222|240:190|240:190|216:258|216:258|180:234|148:226|112:234,2,300
412,48,7947,1,0,0:0:0:0:
492,212,8319,1,0,0:0:0:0:
224,200,8876,5,0,0:0:0:0:
264,120,9062,2,0,P|232:108|188:112,1,75
112,72,9433,2,0,P|96:110|109:152,1,75
64,224,9805,2,0,P|103:232|135:220,1,75,0|0,3:0|3:0,3:0:0:0:
224,200,10176,2,0,P|241:232|238:269,1,75,0|0,0:0|3:0,0:0:0:0:
328,276,10548,22,0,P|396:285|397:353,2,150
320,96,11662,1,0,0:0:0:0:
256,192,12034,12,0,13520,0:0:0:0:
160,296,14263,6,0,P|148:260|160:224,1,75
220,160,14635,2,0,P|232:124|220:88,1,75
256,192,15006,12,0,16492,0:0:0:0:
152,88,17607,22,0,P|144:132|160:168,1,75
236,124,17978,6,0,P|272:112|308:120,1,75
364,192,18350,2,0,P|392:168|404:132,2,75
276,212,18907,1,0,0:0:0:0:
228,288,19093,22,0,B|192:320|192:272|156:296,1,75
68,292,19464,1,0,0:0:0:0:
112,212,19650,1,0,0:0:0:0:
72,132,19836,2,0,B|106:114|106:114|144:116,1,75
196,44,20207,1,0,0:0:0:0:
268,96,20393,6,0,B|251:127|251:127|258:166,2,75
344,144,20950,2,0,B|371:217|371:217|339:288,1,150
260,244,21508,1,0,0:0:0:0:
180,284,21693,2,0,B|165:245|165:245|177:211,1,75
136,132,22065,1,0,0:0:0:0:
316,136,22436,22,0,B|328:104|328:104|320:56,2,75
408,136,22994,1,0,0:0:0:0:
424,224,23179,2,0,B|368:212|368:212|312:224,2,112.5
372,300,23923,6,0,B|296:316|296:316|224:300,1,150,0|0,3:0|0:0,0:0:0:0:
192,216,24480,1,0,0:0:0:0:
264,160,24666,2,0,B|276:123|276:123|270:87,2,75,0|0|0,3:0|3:0|3:0,3:0:0:0:
320,228,25223,1,0,0:0:0:0:
244,276,25409,22,0,B|231:317|231:317|243:353,1,75
324,316,25780,2,0,B|364:325|364:325|396:313,1,75
428,228,26152,1,0,0:0:0:0:
368,164,26337,6,0,B|354:132|354:132|359:93,2,75
276,164,26895,6,0,B|307:235|307:235|270:300,1,150
172,148,27638,5,0,0:0:0:0:
212,69,27823,1,0,0:0:0:0:
302,57,28009,1,0,0:0:0:0:
464,132,28381,6,0,B|472:168|472:168|464:208,2,75
384,172,28938,1,0,0:0:0:0:
312,224,29124,2,0,B|296:280|296:280|312:340,2,112.5
384,280,29867,1,12,0:0:0:0:
140,168,30424,21,0,0:0:0:0:
216,120,30610,2,0,B|244:140|244:140|284:140,1,75
364,96,30981,2,0,B|376:132|376:132|368:168,1,75
412,248,31353,2,0,B|356:276|328:236|264:264,1,150
196,204,31910,5,0,0:0:0:0:
120,156,32096,2,0,L|144:84,1,75
212,24,32467,2,0,L|236:96,1,75
316,132,32839,22,0,P|336:128|276:192,1,300
100,176,33953,1,0,0:0:0:0:
184,16,34325,6,0,L|256:148,1,150
292,336,35068,2,0,L|336:272,1,75
424,256,35440,2,0,L|456:236,2,37.5
356,196,35811,22,0,B|320:172|320:172|308:120|308:120|260:92,1,150
216,168,36368,1,0,0:0:0:0:
144,220,36554,2,0,L|196:276,1,75
284,292,36926,2,0,L|340:348,1,75
404,288,37297,2,0,B|408:244|408:244|436:228|436:228|444:152,1,150
356,176,37854,1,0,0:0:0:0:
300,108,38040,6,0,P|272:112|236:144,1,75
284,220,38412,2,0,P|280:248|304:288,1,75
372,344,38783,22,0,B|300:368|300:368|260:356|260:356|228:368,1,150
188,288,39340,1,0,0:0:0:0:
192,196,39526,2,0,P|125:228|95:295,1,150
156,364,40084,1,0,0:0:0:0:
236,320,40269,2,0,B|308:328|308:288|392:312,1,150
472,292,40827,1,0,0:0:0:0:
500,208,41012,6,0,B|464:192|428:216|428:216|428:120|380:76|380:76|388:112|368:148,1,300
256,192,41941,12,0,43241,0:0:0:0:
168,296,44356,22,0,P|156:264|164:224,1,75
144,136,44727,22,0,B|200:136|200:136|244:120|244:120|292:120,1,150
372,164,45285,1,0,0:0:0:0:
452,120,45471,2,0,P|468:156|464:192,1,75
420,268,45842,2,0,B|360:268|360:268|336:288|336:288|272:288,1,150
188,288,46399,1,0,0:0:0:0:
140,212,46585,2,0,P|152:180|144:140,1,75
88,72,46957,2,0,P|111:12|158:55,1,150
236,12,47514,1,0,0:0:0:0:
220,100,47700,1,0,0:0:0:0:
144,140,47885,5,0,0:0:0:0:
192,216,48071,2,0,L|260:176,1,75
320,116,48443,2,0,L|388:156,2,75
140,144,49186,22,0,B|104:188|104:188|112:228|112:228|80:272,2,150
228,160,50114,1,0,0:0:0:0:
300,212,50300,2,0,P|344:212|372:188,1,75
432,132,50672,6,0,P|408:96|408:60,1,75
316,60,51043,2,0,B|276:48|276:48|244:60,1,75
168,104,51415,1,0,0:0:0:0:
84,68,51601,1,0,0:0:0:0:
60,156,51786,2,0,B|72:188|56:216|56:216|72:268|72:268|64:300,1,150
152,276,52344,1,0,0:0:0:0:
236,308,52529,1,0,0:0:0:0:
216,220,52715,1,0,0:0:0:0:
224,132,52901,22,0,B|312:152|264:200|344:224,1,150
404,160,53458,1,0,0:0:0:0:
488,132,53644,6,0,B|512:204|448:204|476:284,1,150
396,324,54201,1,0,0:0:0:0:
312,352,54387,2,0,P|281:287|210:286,1,150
140,228,54944,1,0,0:0:0:0:
160,140,55130,2,0,B|204:128|228:92|228:92|240:160,1,150
328,148,55687,1,0,0:0:0:0:
384,76,55873,6,0,B|412:108|412:108|416:140,1,75
376,220,56245,2,0,P|420:232|456:224,1,75
416,312,56616,1,0,0:0:0:0:
240,344,56988,6,0,B|240:292|240:292|284:260|284:260|284:216,1,150
252,40,57731,2,0,B|252:92|252:92|208:124|208:124|208:168,1,150
120,324,58474,22,0,B|144:292|144:292|136:256,1,75
98,172,58845,2,0,B|154:156|154:156|214:168,2,112.5
16,136,59588,2,0,P|4:176|16:212,1,75
64,280,59960,2,0,P|104:268|136:276,1,75
200,336,60331,2,0,L|172:372,2,37.5
280,296,60703,2,0,P|316:280|336:248,1,75
256,208,61074,22,0,B|248:172|248:172|260:132,1,75
204,64,61446,1,0,0:0:0:0:
52,160,61817,6,0,P|84:180|156:156,2,112.5
108,88,62560,22,0,B|164:72|164:72|200:92|200:92|256:76,1,150
388,184,63303,2,0,P|404:108|368:44,1,150
316,220,64046,2,0,B|299:219|267:231|255:251|255:251|223:191|223:191|207:215|179:227|147:219,1,225
68,176,64789,2,0,P|56:216|88:284,2,112.5
147,219,65532,6,0,P|188:204|167:242,1,112.5
332,88,66275,6,0,B|304:76|284:52|284:52|276:80|256:100,1,112.5
280,320,67018,22,0,B|316:296|316:296|300:264|308:228,1,112.5
96,152,67762,6,0,B|75:136|71:92|95:64|119:48|175:56|187:76|207:100|207:100|227:84|255:72|275:76|295:92,1,300
172,224,68876,21,0,0:0:0:0:
336,300,69248,1,0,0:0:0:0:
312,120,69619,2,0,L|367:68,1,75,0|0,3:0|3:0,3:0:0:0:
448,108,69991,2,0,B|448:164|448:164|420:200|420:200|420:248,2,150
312,224,71105,2,0,B|304:204|316:184|316:184|328:168|324:152,1,75
272,80,71476,6,0,P|304:60|340:64,1,75
412,120,71848,2,0,P|436:152|436:188,1,75
396,268,72220,2,0,P|372:300|372:336,1,75
284,320,72591,2,0,P|240:316|208:328,1,75
160,252,72963,22,0,L|136:224,2,37.5
212,176,73334,6,0,L|208:128,2,37.5
296,144,73706,22,0,L|312:104,2,37.5
312,232,74077,1,0,0:0:0:0:
132,220,74449,22,0,B|156:180|156:180|148:136,1,75
96,84,74820,2,0,P|128:64|164:64,1,75
252,84,75192,2,0,B|244:108|244:108|256:136|248:156,1,75
328,196,75563,2,0,B|304:220|304:220|308:264,1,75
396,280,75935,1,0,0:0:0:0:
448,204,76121,6,0,L|412:188,2,37.5
460,116,76492,1,0,0:0:0:0:
404,48,76678,2,0,B|376:29|376:29|332:33,1,75
279,99,77049,2,0,B|251:80|251:80|207:84,1,75
140,140,77421,22,0,P|118:113|121:74,1,75,0|0,3:0|3:0,3:0:0:0:
210,83,77792,2,0,L|222:119,2,37.5
300,96,78164,1,0,0:0:0:0:
272,180,78350,1,0,0:0:0:0:
360,172,78536,2,0,P|376:136|408:120,1,75
440,204,78907,6,0,B|448:240|472:268|472:268|448:292|444:340,2,150
304,84,80022,1,0,0:0:0:0:
260,260,80393,22,0,P|248:296|264:336,1,75
340,292,80765,2,0,L|380:288,2,37.5
316,204,81136,2,0,B|298:175|298:175|310:135,1,75
396,168,81508,2,0,P|428:144|468:144,1,75
428,60,81879,5,0,0:0:0:0:
336,56,82065,2,0,L|301:42,2,37.5
264,108,82436,2,0,L|224:124,2,37.5
184,64,82808,2,0,L|149:50,2,37.5
128,136,83179,1,0,0:0:0:0:
160,220,83365,6,0,P|123:224|88:212,2,75
228,160,83923,1,0,0:0:0:0:
260,76,84108,2,0,P|223:69|188:81,1,75
100,60,84480,2,0,L|112:96,2,37.5
32,116,84851,5,0,0:0:0:0:
44,204,85037,2,0,L|80:216,2,37.5
28,292,85409,1,0,0:0:0:0:
112,316,85594,2,0,B|136:316|160:308|160:308|180:332|180:332|204:308,2,112.5
100,228,86337,22,0,P|100:192|32:192,1,112.5
156,120,86895,2,0,P|156:84|224:84,1,112.5
344,28,87452,2,0,L|336:64,2,37.5
416,84,87823,6,0,P|468:88|496:40,2,112.5
376,164,88566,2,0,B|344:180|344:180|312:104,2,112.5
464,188,89310,22,0,B|476:244|476:244|452:294,1,112.5
336,368,89867,2,0,B|308:320|308:320|328:264,1,112.5
192,248,90424,6,0,L|152:260,2,37.5
204,160,90796,22,0,B|187:153|171:161|171:161|155:121|175:85,2,112.5
264,92,91539,2,0,P|300:84|324:52,1,75
408,80,91910,6,0,B|437:98|445:146|445:146|477:134,2,112.5
356,152,92653,2,0,P|319:156|285:141,1,75
216,200,93025,22,0,B|180:188|144:200|144:200|148:176|136:152,2,112.5
304,224,93768,6,0,B|364:244|364:244|392:296,1,112.5
256,192,94139,12,0,95811,0:0:0:0:
