osu file format v14

[General]
AudioFilename: audio.mp3
AudioLeadIn: 0
PreviewTime: 44356
Countdown: 0
SampleSet: None
StackLeniency: 0.7
Mode: 0
LetterboxInBreaks: 0
WidescreenStoryboard: 1

[Editor]
Bookmarks: 2746,15006,17978,22436,29867,44727,52901,53644,56616,68505,71477,74449,83365,83737,86337,90796,94139
DistanceSpacing: 0.5
BeatDivisor: 8
GridSize: 4
TimelineZoom: 2.899999

[Metadata]
Title:Mushi no Sumu Tokoro
TitleUnicode:Mushi no Sumu Tokoro
Artist:Camellia feat. Nana Takahashi
ArtistUnicode:かめりあ feat. Nana Takahashi
Creator:dark_assassin16
Version:Insane
Source:BeatStream
Tags:かめりあ cametek
BeatmapID:1078843
BeatmapSetID:501684

[Difficulty]
HPDrainRate:5
CircleSize:4
OverallDifficulty:7.8
ApproachRate:9
SliderMultiplier:2.2
SliderTickRate:2

[Events]
//Background and Video events
0,0,"Background.jpg",0,0
//Break Periods
//Storyboard Layer 0 (Background)
//Storyboard Layer 1 (Fail)
//Storyboard Layer 2 (Pass)
//Storyboard Layer 3 (Foreground)
//Storyboard Sound Samples

[TimingPoints]
1632,371.517027863777,4,3,0,30,1,0
2746,-125,4,3,0,50,0,0
9062,-111.111111111111,4,3,0,60,0,0
12034,-100,4,3,0,60,0,0
13520,-90.9090909090909,4,3,0,70,0,0
15006,-200,4,3,0,40,0,0
17607,-90.9090909090909,4,3,0,70,0,0
17978,-100,4,3,0,60,0,0
20207,-83.3333333333333,4,3,0,60,0,0
20950,-100,4,3,0,60,0,0
22436,-83.3333333333333,4,3,0,60,0,0
23923,-100,4,3,0,60,0,0
26895,-200,4,3,0,5,0,0
27266,-100,4,3,0,60,0,0
28381,-90.9090909090909,4,3,0,60,0,0
29867,-125,4,3,0,50,0,0
35440,-111.111111111111,4,3,0,50,0,0
35811,-125,4,3,0,50,0,0
38783,-100,4,3,0,60,0,0
40269,-90.9090909090909,4,3,0,70,0,0
41755,-125,4,3,0,80,0,0
44727,-76.9230769230769,4,3,0,100,0,1
52901,-83.3333333333333,4,3,0,100,0,1
53644,-90.9090909090909,4,3,0,100,0,1
55873,-76.9230769230769,4,3,0,100,0,1
56616,-100,4,3,0,80,0,0
59588,-111.111111111111,4,3,0,80,0,0
62560,-100,4,3,0,80,0,0
65532,-83.3333333333333,4,3,0,70,0,0
68505,-100,4,3,0,60,0,0
69619,-83.3333333333333,4,3,0,60,0,0
69991,-100,4,3,0,60,0,0
71105,-90.9090909090909,4,3,0,60,0,0
71477,-83.3333333333333,4,3,0,70,0,0
72963,-76.9230769230769,4,3,0,80,0,0
73334,-71.4285714285714,4,3,0,80,0,0
73706,-66.6666666666667,4,3,0,80,0,0
74077,-100,4,3,0,70,0,0
74449,-66.6666666666667,4,3,0,100,0,1
75563,-100,4,3,0,100,0,1
75935,-66.6666666666667,4,3,0,100,0,1
83365,-200,4,3,0,40,0,0
83737,-66.6666666666667,4,3,0,100,0,1
86337,-62.5,4,3,0,100,0,1
87452,-200,4,3,0,80,0,0
87823,-62.5,4,3,0,100,0,1
88566,-83.3333333333333,4,3,0,80,0,0
89310,-62.5,4,3,0,100,0,1
90424,-66.6666666666667,4,3,0,80,0,0
90796,-55.5555555555556,4,3,0,100,0,1
91910,-52.6315789473684,4,3,0,100,0,1
93025,-50,4,3,0,100,0,1
94139,-100,4,3,0,60,0,0

[Colours]
Combo1 : 190,255,183
Combo2 : 0,119,0
Combo3 : 0,185,0

[HitObjects]
152,60,2746,38,0,B|144:80|144:80|152:104,1,44
232,156,2932,2,0,B|240:176|240:176|232:200,1,44
152,252,3118,2,0,P|160:228|96:276,1,264
120,304,3768,1,0,0:0:0:0:
156,328,3861,2,0,P|200:316|240:332,1,88
252,244,4232,2,0,P|266:203|254:161,1,88
220,132,4511,2,0,L|244:116,2,22
136,100,4789,21,0,0:0:0:0:
108,136,4882,2,0,P|84:176|96:216,1,88
116,252,5161,1,0,0:0:0:0:
28,240,5347,1,0,0:0:0:0:
208,132,5718,6,0,P|184:120|236:76,1,132
272,100,6090,2,0,B|316:112|360:100|360:100|424:176|376:264,1,264
336,276,6740,1,0,0:0:0:0:
292,288,6833,2,0,P|248:296|208:284,1,88
164,208,7204,1,0,0:0:0:0:
212,136,7390,1,0,0:0:0:0:
296,156,7576,22,0,P|340:160|380:132,1,88
448,88,7947,1,0,0:0:0:0:
508,152,8133,1,0,0:0:0:0:
504,240,8319,2,0,B|492:224|476:212|452:204|428:208|400:216|376:232|360:244|328:248|304:244|272:236|248:220,1,264
88,168,9062,6,0,P|140:156|188:172,1,98.9999969787599
244,92,9433,1,0,0:0:0:0:
344,216,9619,1,0,0:0:0:0:
296,304,9805,22,0,P|258:273|250:225,1,98.9999969787599
304,144,10176,1,0,0:0:0:0:
404,144,10362,1,0,0:0:0:0:
192,56,10548,6,0,P|144:80|100:76,1,98.9999969787599
296,72,10919,2,0,P|344:48|388:52,1,98.9999969787599
232,124,11291,2,0,P|280:148|324:144,1,98.9999969787599
448,248,11662,2,0,P|400:272|356:268,1,98.9999969787599
180,256,12034,6,0,L|200:200,1,55
280,224,12220,2,0,L|300:168,1,55
380,188,12405,22,0,L|400:132,1,55
480,156,12591,2,0,L|500:100,1,55
424,64,12777,5,0,0:0:0:0:
380,52,12870,1,0,0:0:0:0:
340,68,12963,1,0,0:0:0:0:
324,108,13056,1,0,0:0:0:0:
332,152,13149,1,0,0:0:0:0:
372,168,13241,2,0,P|392:188|404:216,1,55
268,332,13520,22,0,L|236:280,1,60.5000018463135
236,280,13706,5,0,0:0:0:0:
236,280,13798,1,0,0:0:0:0:
236,280,13891,1,0,0:0:0:0:
68,128,14077,22,0,L|100:180,1,60.5000018463135
136,248,14263,21,0,0:0:0:0:
136,248,14387,2,0,L|208:208,1,80.6666691284181
372,124,14635,1,0,0:0:0:0:
372,124,14758,2,0,L|300:160,1,80.6666691284181
176,76,15006,5,0,0:0:0:0:
256,192,15053,12,0,17421,0:0:0:0:
164,168,17607,21,0,0:0:0:0:
212,164,17700,1,0,0:0:0:0:
260,160,17792,1,0,0:0:0:0:
308,156,17885,1,0,0:0:0:0:
352,152,17978,2,0,L|380:148,4,27.5
222,243,18350,2,0,L|208:316,2,73.3333333333333
280,136,18721,6,0,B|311:177|311:177|292:288,1,165
416,244,19093,2,0,L|396:224,4,27.5
312,128,19371,22,0,L|296:104,1,27.5
312,128,19464,2,0,B|364:112|364:112|424:128,1,110
332,256,19743,1,0,0:0:0:0:
284,280,19836,2,0,P|260:288|228:288,1,55
176,272,20022,1,0,0:0:0:0:
84,140,20207,5,0,0:0:0:0:
228,228,20300,2,0,P|240:256|240:292,1,65.9999979858399,0|0,0:0|0:0,0:0:0:0:
155,248,20486,2,0,P|143:217|143:184,1,65.9999979858399,0|0,0:0|0:0,0:0:0:0:
200,96,20672,2,0,P|212:126|212:159,1,65.9999979858399,0|0,0:0|0:0,0:0:0:0:
192,336,20950,6,0,L|176:308,4,27.5
228,252,21322,6,0,L|156:244,2,73.3333333333333
416,292,21693,5,0,0:0:0:0:
416,292,21786,2,0,B|420:232|420:232|396:188,1,110
464,104,22065,2,0,L|484:80,4,27.5
216,56,22436,21,0,0:0:0:0:
328,280,22622,1,0,0:0:0:0:
328,280,22715,1,0,0:0:0:0:
328,280,22808,1,0,0:0:0:0:
348,124,22994,1,0,0:0:0:0:
136,300,23179,1,0,0:0:0:0:
156,104,23365,5,0,0:0:0:0:
156,104,23458,2,0,B|184:120|184:120|220:120,1,65.9999979858399
320,180,23644,21,0,0:0:0:0:
320,180,23737,2,0,B|292:196|292:196|256:196,1,65.9999979858399
196,276,23923,2,0,L|211:298,4,27.5
400,196,24294,6,0,B|420:164|420:164|412:128,2,73.3333333333333
208,260,24666,2,0,B|244:308|244:308|296:328,1,110
264,152,25037,2,0,L|240:136,4,27.5
352,220,25317,22,0,L|368:196,1,27.5
352,220,25409,2,0,B|296:208|296:208|244:224,1,110
124,296,25687,2,0,B|112:320|112:320|120:348,1,55
164,184,25873,2,0,B|176:208|176:208|168:236,1,55
120,52,26152,5,0,0:0:0:0:
332,88,26245,2,0,B|360:96|360:96|372:120,1,55
236,152,26430,2,0,B|228:123|228:123|243:101,1,55
344,200,26616,2,0,B|323:220|323:220|296:218,2,55,0|0|0,3:0|3:0|3:0,3:0:0:0:
216,240,26895,6,0,P|240:212|240:168,1,82.5
196,100,27266,6,0,L|176:80,6,27.5
328,236,27638,22,0,B|340:208|340:208|336:184,1,55
292,100,27823,2,0,B|320:88|320:88|348:92,1,55
432,124,28009,2,0,L|416:148,4,27.5
312,320,28381,5,0,0:0:0:0:
148,200,28566,1,0,0:0:0:0:
148,200,28659,1,0,0:0:0:0:
148,200,28752,1,0,0:0:0:0:
340,120,28938,1,0,0:0:0:0:
108,112,29124,21,0,0:0:0:0:
316,208,29310,1,0,0:0:0:0:
316,208,29402,2,0,B|292:232|292:232|264:236,1,60.5000018463135
156,288,29588,1,0,0:0:0:0:
156,288,29681,2,0,B|180:312|180:312|208:316,1,60.5000018463135
244,132,29867,5,12,0:0:0:0:
128,160,30424,21,0,0:0:0:0:
220,104,30610,2,0,B|240:144|240:144|224:184,1,88
184,280,30981,2,0,B|228:292|228:292|268:280,1,88
140,204,31353,2,0,B|120:164|132:124|132:124|84:100|84:100|68:60,1,176
272,112,31910,5,0,0:0:0:0:
176,200,32096,2,0,L|256:236,1,88
372,296,32467,2,0,L|292:332,1,88
224,148,32839,22,0,P|216:128|284:152,1,176
256,320,33396,1,0,0:0:0:0:
116,212,33582,6,0,P|104:164|200:164,1,176
148,180,34325,22,0,P|136:132|232:132,1,176
412,60,35068,5,0,0:0:0:0:
404,108,35161,1,0,0:0:0:0:
396,156,35254,2,0,L|388:204,1,44
348,260,35440,2,0,P|384:280|408:284,2,49.4999984893799
148,280,35811,22,0,B|136:232|152:192|152:192|196:196|196:196|236:184,1,176
80,104,36368,1,0,0:0:0:0:
252,60,36554,6,0,B|296:48|296:48|336:60,1,88
300,232,36926,2,0,B|312:192|312:192|300:148,1,88
168,264,37297,2,0,P|176:240|112:272,1,176
140,92,37854,1,0,0:0:0:0:
252,228,38040,2,0,L|288:148,1,88
196,296,38412,2,0,L|160:216,1,88
308,52,38783,22,0,B|320:76|316:104|316:104|408:116|460:212|336:288|224:172|320:104|384:84|460:108,1,440
120,120,40084,1,0,0:0:0:0:
320,228,40269,6,0,B|304:288|320:348|320:348|240:256|256:124|256:124|208:160|204:232,1,484.000014770508
424,260,41384,21,0,0:0:0:0:
256,192,41755,5,12,0:0:0:0:
256,192,41848,12,0,43984,0:0:0:0:
176,60,44356,22,0,B|168:80|168:80|176:108,1,44
257,233,44542,2,0,B|263:211|263:211|255:191,1,44
144,284,44727,21,0,0:0:0:0:
391,216,44913,1,0,0:0:0:0:
391,216,45006,1,0,0:0:0:0:
391,216,45099,1,0,0:0:0:0:
196,92,45285,2,0,B|184:128|184:128|184:164,1,71.4999967269899
224,200,45471,1,0,0:0:0:0:
400,88,45656,1,0,0:0:0:0:
324,240,45842,6,0,P|352:308|248:312,1,214.49999018097
252,240,46214,6,0,B|184:244|172:308|172:308|120:300|88:260,1,214.49999018097
16,248,46585,6,0,B|12:216|44:184|76:176|112:188|112:188|104:160|108:144|108:144|124:148|144:144,1,214.49999018097
144,143,46957,1,0,0:0:0:0:
176,280,47142,5,0,0:0:0:0:
176,280,47235,1,0,0:0:0:0:
176,280,47328,2,0,P|212:328|328:268,1,214.49999018097
296,204,47700,22,0,B|296:196|308:124|380:120|416:128|424:160|400:228|364:204|316:196|288:136,1,285.99998690796
172,76,48257,1,0,0:0:0:0:
172,76,48350,1,0,0:0:0:0:
172,76,48443,1,0,0:0:0:0:
156,316,48628,1,0,0:0:0:0:
260,180,48814,1,0,0:0:0:0:
56,244,49000,1,0,0:0:0:0:
212,96,49186,6,0,B|192:164|192:164|216:232,1,142.99999345398
464,164,49557,2,0,B|396:188|396:188|328:168,1,142.99999345398,0|0,3:0|3:0,3:0:0:0:
72,120,49929,22,0,L|136:88,1,71.4999967269899
168,192,50114,2,0,L|232:224,1,71.4999967269899
280,120,50300,2,0,L|344:88,1,71.4999967269899
376,192,50486,2,0,L|440:224,1,71.4999967269899
504,260,50672,1,0,0:0:0:0:
188,292,50858,5,0,0:0:0:0:
188,292,50950,1,0,0:0:0:0:
188,292,51043,1,0,0:0:0:0:
256,128,51229,2,0,B|244:96|244:96|256:60,2,71.4999967269899
328,308,51601,1,0,0:0:0:0:
140,208,51786,2,0,P|212:224|296:128,1,214.49999018097
240,84,52158,2,0,B|212:184|212:184|264:288,1,214.49999018097
332,268,52529,2,0,P|260:252|172:352,1,214.49999018097
108,328,52901,22,0,B|92:300|92:300|95:266,2,65.9999979858399
280,300,53272,2,0,B|312:308|312:308|344:300,1,65.9999979858399
232,248,53458,2,0,B|200:240|200:240|168:248,1,65.9999979858399
112,208,53644,6,0,P|72:164|48:272,1,242.000007385254
180,308,54201,1,0,0:0:0:0:
180,308,54294,1,0,0:0:0:0:
180,308,54387,1,0,0:0:0:0:
52,100,54573,21,0,0:0:0:0:
156,160,54758,1,0,0:0:0:0:
264,104,54944,2,0,B|276:136|276:136|268:164,1,60.5000018463135
344,200,55130,2,0,B|296:224|276:264|276:264|204:240|204:240|167:244|132:256,1,242.000007385254
140,128,55687,5,0,0:0:0:0:
140,128,55780,1,0,0:0:0:0:
140,128,55873,2,0,B|208:152|208:152|276:124,1,142.99999345398
404,60,56245,2,0,B|428:132|428:132|404:200,1,142.99999345398
464,288,56616,22,0,L|444:268,4,27.5
376,148,56988,6,0,B|324:176|324:176|312:228,1,110
360,324,57359,2,0,B|308:340|308:340|256:320,1,110
152,352,57731,2,0,B|172:300|172:300|160:248,1,110
228,188,58102,2,0,B|284:180|284:180|320:220|320:220|376:200|428:216,1,220
496,160,58659,21,0,0:0:0:0:
496,160,58752,1,0,0:0:0:0:
496,160,58845,2,0,B|504:242|504:242|450:307,2,165
288,172,59588,5,0,0:0:0:0:
152,232,59774,1,0,0:0:0:0:
152,232,59867,1,0,0:0:0:0:
152,232,59960,1,0,0:0:0:0:
220,100,60145,1,0,0:0:0:0:
336,192,60331,6,0,B|360:200|360:200|384:192,1,49.4999984893799
448,268,60517,2,0,B|472:260|472:260|496:268,1,49.4999984893799
436,348,60703,6,0,L|408:356,4,24.74999924469
428,92,61074,1,0,0:0:0:0:
372,252,61260,1,0,0:0:0:0:
48,156,61631,5,0,0:0:0:0:
204,92,61817,2,0,B|216:116|216:116|208:140,1,49.4999984893799
184,220,62003,1,0,0:0:0:0:
184,220,62096,2,0,B|212:228|212:228|236:220,1,49.4999984893799
292,284,62282,1,0,0:0:0:0:
292,284,62375,2,0,B|320:276|320:276|344:284,1,49.4999984893799
372,300,62560,21,0,0:0:0:0:
92,188,62932,6,0,P|100:156|192:188,1,165
160,208,63303,2,0,B|128:288|128:288|168:360,1,165
128,360,63675,2,0,B|172:312|236:372|284:336,1,165
324,340,64046,2,0,B|284:380|284:380|244:276,1,165
244,240,64418,22,0,B|256:216|256:216|248:188,1,55
196,132,64604,2,0,B|184:108|184:108|192:80,1,55
296,40,64789,2,0,B|288:92|288:92|316:144,1,110
348,160,65068,2,0,P|328:220|356:256,1,110
388,264,65347,6,0,B|412:256|444:260|444:260|460:236|464:208,1,110
468,96,65811,1,0,0:0:0:0:
272,128,66090,22,0,B|200:124|200:124|148:160,1,131.99999597168
308,280,66554,1,0,0:0:0:0:
384,96,66833,6,0,B|332:80|300:120|252:96,1,131.99999597168
88,204,67297,1,0,0:0:0:0:
384,96,67576,21,0,0:0:0:0:
416,128,67668,1,0,0:0:0:0:
400,164,67762,2,0,B|304:192|304:192|212:156,1,197.99999395752
284,88,68133,2,0,P|324:180|200:244,1,263.99999194336
132,60,68876,5,0,0:0:0:0:
148,72,69248,1,0,0:0:0:0:
168,88,69619,2,0,B|200:104|200:104|232:96,1,65.9999979858399
296,32,69805,2,0,B|328:92|328:92|296:148,1,131.99999597168
304,168,70362,1,0,0:0:0:0:
312,188,70734,1,0,0:0:0:0:
320,208,71105,22,0,B|288:200|288:200|248:208|248:208|200:200|200:200|140:224|80:200,1,242.000007385254
156,92,71662,1,0,0:0:0:0:
204,216,71848,1,0,0:0:0:0:
72,156,72034,1,0,0:0:0:0:
228,120,72220,1,0,0:0:0:0:
164,268,72405,1,0,0:0:0:0:
116,116,72591,1,0,0:0:0:0:
276,180,72777,1,0,0:0:0:0:
424,68,72963,6,0,L|388:80,7,35.749998363495
432,104,73334,2,0,L|412:140,7,38.4999988250733
460,136,73706,22,0,L|472:176,7,41.2500015735627
444,160,74077,1,0,0:0:0:0:
444,188,74170,1,0,0:0:0:0:
424,208,74263,1,0,0:0:0:0:
428,236,74356,1,0,0:0:0:0:
432,276,74449,6,0,B|348:292|348:292|276:256,1,165.000006294251
356,112,74820,2,0,B|368:152|368:152|356:192,2,82.5000031471254
232,224,75192,1,0,0:0:0:0:
476,272,75378,2,0,B|440:292|440:292|396:288,1,82.5000031471254
416,208,75563,2,0,B|424:168|424:168|404:132|404:132|416:84|392:48|392:48,1,165
288,120,75935,21,0,0:0:0:0:
148,260,76121,2,0,B|180:277|180:277|192:321,2,82.5000031471254
192,68,76492,1,0,0:0:0:0:
192,68,76585,1,0,0:0:0:0:
192,68,76678,1,0,0:0:0:0:
240,224,76864,2,0,B|324:220|324:220|384:160,2,165.000006294251
284,64,77421,5,0,0:0:0:0:
324,308,77607,1,0,0:0:0:0:
324,308,77700,1,0,0:0:0:0:
324,308,77792,1,0,0:0:0:0:
404,164,77978,1,0,0:0:0:0:
404,164,78071,1,0,0:0:0:0:
404,164,78164,1,0,0:0:0:0:
200,304,78350,1,0,0:0:0:0:
200,304,78443,1,0,0:0:0:0:
200,304,78536,22,0,L|168:276,4,41.2500015735627
152,184,78907,6,0,P|136:104|200:104,1,165.000006294251
272,184,79279,2,0,B|288:196|316:192|344:168|344:168|352:200|352:200|372:192|392:192|404:200,1,165.000006294251
464,288,79650,2,0,P|488:248|464:136,1,165.000006294251
312,80,80022,2,0,P|272:64|280:144,1,165.000006294251
391,51,80393,6,0,L|364:20,6,41.2500015735627
312,180,80765,1,0,0:0:0:0:
312,180,80858,1,0,0:0:0:0:
312,180,80950,1,0,0:0:0:0:
100,92,81136,22,0,B|80:128|80:128|100:164,1,82.5000031471254
196,244,81322,2,0,B|176:208|176:208|196:172,1,82.5000031471254
256,96,81508,2,0,L|274:59,4,41.2500015735627
364,336,81879,6,0,B|384:256|384:256|352:180,1,165.000006294251
116,264,82251,1,0,0:0:0:0:
116,264,82344,1,0,0:0:0:0:
116,264,82436,1,0,0:0:0:0:
268,64,82622,22,0,B|256:104|256:104|276:144,1,82.5000031471254
128,180,82808,2,0,B|168:191|168:191|208:172,1,82.5000031471254,0|0,3:0|3:0,3:0:0:0:
244,320,82994,6,0,B|255:280|255:280|236:240,1,82.5000031471254,0|0,3:0|3:0,3:0:0:0:
384,204,83179,2,0,B|344:192|344:192|304:212,1,82.5000031471254,0|0,3:0|3:0,3:0:0:0:
356,284,83365,22,0,L|392:360,1,82.5
451,227,83737,2,0,P|479:195|391:215,1,247.500009441376
264,176,84108,6,0,B|224:188|224:188|184:172,1,82.5000031471254
84,116,84294,2,0,B|68:156|68:156|84:192,1,82.5000031471254
124,272,84480,2,0,L|144:312,4,41.2500015735627
348,88,84851,21,0,0:0:0:0:
316,316,85037,1,0,0:0:0:0:
316,316,85130,1,0,0:0:0:0:
316,316,85223,1,0,0:0:0:0:
140,224,85409,2,0,B|148:184|148:184|128:144,1,82.5000031471254
48,92,85594,2,0,B|120:52|120:52|200:84,1,165.000006294251
300,52,85873,2,0,L|380:24,1,82.5000031471254
368,132,86059,5,0,0:0:0:0:
404,152,86152,2,0,L|484:124,1,82.5000031471254
212,184,86337,22,0,P|144:124|72:152,1,176
0,204,86616,2,0,P|59:262|139:236,1,176
216,280,86895,2,0,B|268:344|268:344|368:340,1,176
396,260,87173,2,0,P|316:212|312:136,1,176
364,84,87452,2,0,L|352:100,6,13.75
280,204,87823,6,0,B|248:288|248:288|296:360,1,176
368,308,88102,2,0,P|280:288|208:332,1,176
132,372,88381,2,0,B|124:328|124:328|140:288,1,88
312,168,88566,22,0,L|380:176,1,65.9999979858399
336,228,88752,1,0,0:0:0:0:
356,256,88845,2,0,L|424:264,1,65.9999979858399
384,316,89031,1,0,0:0:0:0:
404,344,89124,2,0,L|472:352,1,65.9999979858399
436,268,89310,6,0,B|448:224|448:224|336:292,1,176
252,316,89588,2,0,P|272:228|344:188,1,176
384,264,89867,2,0,B|472:244|472:244|512:168,1,176
428,136,90145,2,0,B|440:180|440:180|480:204|480:204|504:284|504:284,1,176
480,364,90424,2,0,L|452:332,6,41.2500015735627
356,328,90796,22,0,B|328:232|328:232|236:196,1,197.99999395752
140,168,91074,2,0,B|168:264|168:264|260:300,1,197.99999395752
356,328,91353,1,0,0:0:0:0:
360,228,91446,2,0,L|320:260,2,49.4999984893799
316,140,91631,2,0,P|363:151|411:139,2,98.9999969787599
268,44,91910,6,0,B|232:144|232:144|276:236,1,208.999994419098
328,328,92189,2,0,B|235:373|235:373|136:336,1,208.999994419098
120,288,92467,1,0,0:0:0:0:
120,236,92560,2,0,L|128:184,2,52.2499986047745
208,276,92746,2,0,B|200:328|200:328|228:372,2,104.499997209549
236,116,93025,22,0,P|224:172|176:92,1,220
128,60,93303,2,0,B|72:20|72:20|84:172,1,220
132,196,93582,2,0,B|157:184|157:184|181:196,2,55
120,288,93768,2,0,B|68:312|68:312|16:300,1,110
256,192,94046,5,12,0:0:0:0:
256,192,94139,12,12,95811,0:0:0:0:
