osu file format v14

[General]
AudioFilename: audio.mp3
AudioLeadIn: 0
PreviewTime: 44351
Countdown: 1
SampleSet: None
StackLeniency: 0.7
Mode: 0
LetterboxInBreaks: 0
WidescreenStoryboard: 0

[Editor]
Bookmarks: 17928
DistanceSpacing: 1
BeatDivisor: 4
GridSize: 4
TimelineZoom: 1

[Metadata]
Title:Mushi no Sumu Tokoro
TitleUnicode:蟲の棲む処
Artist:Camellia feat. Nana Takahashi
ArtistUnicode:かめりあ feat. Nana Takahashi
Creator:Jager-kun
Version:Standard
Source:BeatStream
Tags:
BeatmapID:1258405
BeatmapSetID:595023

[Difficulty]
HPDrainRate:4
CircleSize:3.5
OverallDifficulty:5
ApproachRate:6
SliderMultiplier:0.999999999999999
SliderTickRate:1

[Events]
//Background and Video events
0,0,"bg.jpg",0,0
//Break Periods
//Storyboard Layer 0 (Background)
//Storyboard Layer 1 (Fail)
//Storyboard Layer 2 (Pass)
//Storyboard Layer 3 (Foreground)
//Storyboard Sound Samples

[TimingPoints]
3113,371.517027863777,4,2,1,75,1,0
44722,-100,4,2,1,75,0,1
56611,-100,4,2,1,75,0,0
74444,-100,4,2,1,75,0,1
84846,-100,4,2,1,75,0,0

[Colours]
Combo1 : 119,125,98
Combo2 : 192,192,192
Combo3 : 191,0,0
Combo4 : 136,145,121

[HitObjects]
94,187,3113,6,0,P|142:171|198:187,1,99.9999999999999,4|0,0:0|0:0,0:0:0:0:
262,212,3856,2,0,P|233:168|230:107,1,99.9999999999999
302,56,4599,2,0,L|410:50,2,99.9999999999999
308,145,5713,6,0,P|257:160|222:156,1,50
227,121,6085,2,0,P|175:110|117:124,1,99.9999999999999,4|0,0:0|0:0,0:0:0:0:
76,62,6828,2,0,P|90:118|69:165,1,99.9999999999999,2|0,0:0|0:0,0:0:0:0:
104,251,7571,2,0,L|-2:237,2,99.9999999999999
299,294,9057,6,0,P|318:240|303:195,1,99.9999999999999,4|0,0:0|0:0,0:0:0:0:
205,200,9800,2,0,P|194:248|213:294,1,99.9999999999999
252,151,10543,2,0,B|208:151|208:151|184:138|184:138|145:138,2,99.9999999999999
315,73,11657,2,0,P|343:100|347:167,1,99.9999999999999,0|4,0:0|0:0,0:0:0:0:
252,151,12400,2,0,B|248:177|248:177|261:225,1,50
291,233,12772,2,0,P|230:219|128:260,1,150
132,291,13515,2,0,L|119:136,1,150,4|0,0:0|0:0,0:0:0:0:
144,98,14258,6,0,P|172:89|203:93,1,50,4|0,0:0|0:0,0:0:0:0:
235,101,14630,2,0,P|277:111|311:104,1,50,4|0,0:0|0:0,0:0:0:0:
312,90,15001,1,4,0:0:0:0:
256,192,15373,12,0,17230,0:0:0:0:
294,281,17973,6,0,P|325:285|360:279,1,50,4|0,0:0|0:0,0:0:0:0:
374,270,18345,2,8,L|374:168,1,99.9999999999999,10|8,0:0|0:0,0:0:0:0:
388,68,19088,6,0,L|333:68,1,50
297,38,19459,2,0,P|302:92|286:151,1,99.9999999999999,4|0,0:0|0:0,0:0:0:0:
269,147,20017,1,0,0:0:0:0:
244,153,20202,2,0,L|82:153,1,150,8|0,0:0|0:0,0:0:0:0:
80,132,20945,6,0,P|74:99|81:81,1,50,4|0,0:0|0:0,0:0:0:0:
105,69,21317,2,0,L|208:69,1,99.9999999999999,2|0,0:0|0:0,0:0:0:0:
226,47,21874,1,0,0:0:0:0:
243,22,22060,2,0,L|309:22,1,50,2|0,0:0|0:0,0:0:0:0:
318,38,22431,6,0,P|331:80|316:190,1,150,4|0,0:0|0:0,0:0:0:0:
357,215,23174,2,0,L|236:215,1,99.9999999999999,8|0,0:0|0:0,0:0:0:0:
180,150,23917,6,0,P|175:109|177:89,1,50,4|0,0:0|0:0,0:0:0:0:
141,79,24289,2,0,L|264:77,1,99.9999999999999,2|0,0:0|0:0,0:0:0:0:
255,56,24846,1,0,0:0:0:0:
269,35,25032,2,0,L|336:35,1,50,2|0,0:0|0:0,0:0:0:0:
353,54,25404,2,0,P|363:30|359:1,2,50,6|0|0,0:0|0:0|0:0,0:0:0:0:
373,152,26147,6,0,L|321:150,1,50,8|0,0:0|0:0,0:0:0:0:
279,175,26518,2,0,P|276:211|284:245,1,50,2|0,0:0|0:0,0:0:0:0:
237,259,26890,2,0,L|356:256,1,99.9999999999999,4|0,0:0|0:0,0:0:0:0:
443,197,27633,6,0,P|456:153|454:126,1,50,4|0,0:0|0:0,0:0:0:0:
441,101,28004,2,0,L|379:102,1,50,2|0,0:0|0:0,0:0:0:0:
350,81,28376,6,0,L|196:81,1,150,4|0,0:0|0:0,0:0:0:0:
173,44,29119,2,0,P|162:111|183:198,1,150,8|0,0:0|0:0,0:0:0:0:
204,207,29862,1,4,0:0:0:0:
351,178,30419,5,0,0:0:0:0:
351,178,30605,2,0,L|406:177,1,50
435,196,30976,2,0,P|438:226|434:251,1,50
457,279,31348,2,0,L|348:280,1,99.9999999999999
348,303,31905,1,0,0:0:0:0:
338,326,32091,2,0,L|279:328,1,50
265,315,32462,2,0,L|208:316,1,50
192,305,32834,2,0,P|183:257|203:192,1,99.9999999999999
215,195,33391,1,0,0:0:0:0:
239,188,33577,2,0,L|343:188,1,99.9999999999999
377,55,35063,6,0,L|476:54,2,99.9999999999999
264,96,36363,1,0,0:0:0:0:
264,96,36549,2,0,L|210:95,1,50
192,61,36921,2,0,L|134:60,1,50
108,37,37292,1,0,0:0:0:0:
108,195,37849,1,0,0:0:0:0:
130,214,38035,6,0,L|203:214,1,50
202,233,38407,2,0,L|272:233,1,50
271,214,38778,1,0,0:0:0:0:
288,41,39335,1,0,0:0:0:0:
314,54,39521,2,0,L|419:54,1,99.9999999999999
434,75,40078,1,0,0:0:0:0:
454,96,40264,2,0,P|460:140|446:217,1,99.9999999999999
432,216,40821,1,0,0:0:0:0:
409,236,41007,2,0,L|203:233,2,200,0|4|0,0:0|0:0|0:0,0:0:0:0:
256,192,42865,12,0,43979,0:0:0:0:
237,269,44722,6,0,P|291:274|332:258,1,99.9999999999999,4|8,0:0|0:0,0:0:0:0:
390,188,45465,2,0,L|446:187,2,50,4|0|12,0:0|0:0|0:0,0:0:0:0:
320,130,46208,2,0,L|221:129,1,99.9999999999999,4|12,0:0|0:0,0:0:0:0:
108,259,46952,2,0,L|221:259,1,99.9999999999999,4|12,0:0|0:0,0:0:0:0:
291,292,47695,2,0,L|291:221,1,50,4|0,0:0|0:0,0:0:0:0:
326,214,48066,2,0,L|326:153,1,50,8|0,0:0|0:0,0:0:0:0:
320,130,48438,2,0,L|221:129,1,99.9999999999999,4|12,0:0|0:0,0:0:0:0:
139,89,49181,2,0,L|144:36,2,50,4|0|8,0:0|0:0|0:0,0:0:0:0:
70,148,49924,6,0,L|72:205,1,50,4|0,0:0|0:0,0:0:0:0:
112,217,50295,2,0,L|114:284,1,50,12|0,0:0|0:0,0:0:0:0:
137,305,50667,2,0,P|187:310|241:308,1,99.9999999999999,4|12,0:0|0:0,0:0:0:0:
338,166,51410,2,0,L|234:167,1,99.9999999999999,4|12,0:0|0:0,0:0:0:0:
204,250,52153,2,0,P|194:282|204:315,1,50,4|0,0:0|0:0,0:0:0:0:
236,307,52524,2,0,L|337:301,1,99.9999999999999,12|8,0:0|0:0,0:0:0:0:
401,240,53267,6,0,L|407:173,1,50,8|0,0:0|0:0,0:0:0:0:
445,168,53639,2,0,P|447:128|440:105,1,50,8|0,0:0|0:0,0:0:0:0:
477,87,54010,2,0,L|368:89,1,99.9999999999999,4|4,0:0|0:0,0:0:0:0:
300,41,54753,2,0,P|282:84|282:109,1,50,12|0,0:0|0:0,0:0:0:0:
308,123,55125,2,0,L|201:125,1,99.9999999999999,4|12,0:0|0:0,0:0:0:0:
127,83,55868,2,0,L|123:26,2,50,8|0|8,0:0|0:0|0:0,0:0:0:0:
87,164,56611,6,0,L|90:229,1,50,4|0,0:0|0:0,0:0:0:0:
127,227,56982,2,0,L|130:283,1,50,12|0,0:0|0:0,0:0:0:0:
161,309,57354,2,0,P|221:315|268:310,1,99.9999999999999,4|0,0:0|0:0,0:0:0:0:
322,246,58097,2,0,B|332:192|332:192|316:133,1,99.9999999999999,4|12,0:0|0:0,0:0:0:0:
238,110,58840,2,0,L|174:110,1,50,4|0,0:0|0:0,0:0:0:0:
166,70,59212,2,0,L|102:70,1,50,12|0,0:0|0:0,0:0:0:0:
96,32,59583,6,0,L|97:153,1,99.9999999999999,4|2,0:0|0:0,0:0:0:0:
40,216,60326,2,0,L|96:216,1,50,4|0,0:0|0:0,0:0:0:0:
132,244,60698,2,0,L|192:244,1,50,2|0,0:0|0:0,0:0:0:0:
224,272,61069,2,0,P|220:236|232:208,1,50,4|4,0:0|0:0,0:0:0:0:
368,132,61626,5,4,0:0:0:0:
419,193,61812,2,0,P|411:241|411:257,1,50,8|0,0:0|0:0,0:0:0:0:
448,256,62184,2,0,P|456:304|456:320,1,50
500,328,62555,6,0,L|400:328,1,99.9999999999999,4|12,0:0|0:0,0:0:0:0:
348,256,63298,2,0,L|452:256,1,99.9999999999999,4|12,0:0|0:0,0:0:0:0:
500,172,64041,2,0,P|504:132|496:112,1,50,4|0,0:0|0:0,0:0:0:0:
488,84,64413,2,0,L|416:84,1,50,12|0,0:0|0:0,0:0:0:0:
400,100,64784,2,0,L|240:100,1,150,12|0,0:0|0:0,0:0:0:0:
236,64,65527,6,0,P|240:128|236:228,1,150,4|0,0:0|0:0,0:0:0:0:
276,228,66270,2,0,L|104:228,1,150,4|0,0:0|0:0,0:0:0:0:
108,264,67013,2,0,P|92:212|100:116,1,150,4|0,0:0|0:0,0:0:0:0:
76,88,67756,6,0,L|184:88,1,99.9999999999999
248,124,68499,1,0,0:0:0:0:
348,192,69614,2,0,P|352:228|344:256,1,50
256,344,71100,2,0,P|252:308|260:280,1,50
256,192,71472,12,0,73701,0:0:0:0:
412,268,74444,6,0,L|360:268,1,50,4|0,0:0|0:0,0:0:0:0:
332,292,74815,2,0,L|272:292,1,50,12|0,0:0|0:0,0:0:0:0:
244,304,75187,2,0,P|232:256|236:200,1,99.9999999999999,4|12,0:0|0:0,0:0:0:0:
296,152,75930,6,0,L|396:152,1,99.9999999999999,4|8,0:0|0:0,0:0:0:0:
460,200,76673,2,0,P|464:228|460:260,1,50,4|0,0:0|0:0,0:0:0:0:
424,264,77044,2,0,P|420:292|424:324,1,50,12|0,0:0|0:0,0:0:0:0:
452,344,77416,2,0,L|348:344,1,99.9999999999999,4|12,0:0|0:0,0:0:0:0:
276,320,78159,2,0,P|276:344|280:376,2,50,4|0|12,0:0|0:0|0:0,0:0:0:0:
312,248,78902,6,0,P|316:208|304:184,1,50,4|0,0:0|0:0,0:0:0:0:
280,176,79273,2,0,P|276:132|288:108,1,50,12|0,0:0|0:0,0:0:0:0:
312,104,79645,2,0,L|200:104,1,99.9999999999999,4|12,0:0|0:0,0:0:0:0:
144,64,80388,6,0,P|132:104|164:168,1,99.9999999999999,4|12,0:0|0:0,0:0:0:0:
220,200,81131,2,0,L|284:192,2,50,4|0|12,0:0|0:0|0:0,0:0:0:0:
152,240,81874,2,0,P|148:268|156:300,1,50,4|0,0:0|0:0,0:0:0:0:
188,304,82246,2,0,P|192:336|180:368,1,50,12|0,0:0|0:0,0:0:0:0:
128,372,82617,2,0,L|248:372,1,99.9999999999999,4|4,0:0|0:0,0:0:0:0:
296,328,83360,6,0,P|316:272|296:216,1,99.9999999999999,4|14,0:0|0:0,0:0:0:0:
236,200,84103,2,0,L|168:196,2,50,4|0|12,0:0|0:0|0:0,0:0:0:0:
292,144,84846,2,0,P|300:104|296:84,1,50
260,80,85218,2,0,P|252:44|252:24,1,50
288,20,85589,2,0,L|188:20,1,99.9999999999999,8|8,0:0|0:0,0:0:0:0:
180,100,86332,6,0,L|88:100,3,74.9999999999999
52,152,87447,2,0,P|44:184|48:212,1,50,10|0,0:0|0:0,0:0:0:0:
13,231,87818,6,0,L|88:228,3,74.9999999999999
148,272,88933,2,0,P|192:280|216:280,1,50,4|0,0:0|0:0,0:0:0:0:
224,324,89304,6,0,L|228:236,3,74.9999999999999
296,216,90419,2,0,P|324:212|352:212,1,50,10|0,0:0|0:0,0:0:0:0:
380,248,90791,6,0,L|380:152,2,74.9999999999999
252,328,91905,2,0,L|168:328,2,74.9999999999999
380,248,93020,2,0,L|464:248,2,74.9999999999999
256,192,94041,5,4,0:0:0:0:
256,192,94134,12,0,101565,0:0:0:0:
