osu file format v14

[General]
AudioFilename: audio.mp3
AudioLeadIn: 0
PreviewTime: 44351
Countdown: 1
SampleSet: Soft
StackLeniency: 0.7
Mode: 0
LetterboxInBreaks: 0
WidescreenStoryboard: 1

[Editor]
Bookmarks: 17928,29862
DistanceSpacing: 0.3
BeatDivisor: 4
GridSize: 4
TimelineZoom: 2.1

[Metadata]
Title:Mushi no Sumu Tokoro
TitleUnicode:蟲の棲む処
Artist:Camellia feat. Nana Takahashi
ArtistUnicode:かめりあ feat. Nana Takahashi
Creator:Jager-kun
Version:Insane
Source:BeatStream
Tags:
BeatmapID:1258404
BeatmapSetID:595023

[Difficulty]
HPDrainRate:6
CircleSize:4.5
OverallDifficulty:7.3
ApproachRate:9.1
SliderMultiplier:1.6
SliderTickRate:1

[Events]
//Background and Video events
0,0,"bg.jpg",0,0
//Break Periods
//Storyboard Layer 0 (Background)
//Storyboard Layer 1 (Fail)
//Storyboard Layer 2 (Pass)
//Storyboard Layer 3 (Foreground)
//Storyboard Sound Samples

[TimingPoints]
3113,371.517027863777,4,2,1,75,1,0
3113,-133.333333333333,4,2,1,75,0,0
17973,-66.6666666666667,4,2,1,75,0,0
20202,-100,4,2,1,75,0,0
30233,-133.333333333333,4,2,1,75,0,0
44722,-100,4,2,1,75,0,1
56611,-100,4,2,1,75,0,0
74072,-50,4,2,1,75,0,0
74444,-66.6666666666667,4,2,1,75,0,1
74815,-100,4,2,1,75,0,1
75558,-66.6666666666667,4,2,1,75,0,1
77416,-50,4,2,1,75,0,1
78902,-100,4,2,1,75,0,1
80388,-50,4,2,1,75,0,1
84846,-100,4,2,1,75,0,0
87447,-50,4,2,1,75,0,0
87726,-100,4,2,1,75,0,0
88561,-50,4,2,1,75,0,0
89304,-100,4,2,1,75,0,0
90419,-50,4,2,1,75,0,0
90791,-100,4,2,1,75,0,0

[Colours]
Combo1 : 119,125,98
Combo2 : 192,192,192
Combo3 : 191,0,0
Combo4 : 136,145,121

[HitObjects]
68,248,2741,6,0,P|92:240|120:240,1,40
188,280,2927,2,0,P|164:288|144:284,1,40
116,320,3113,6,0,L|116:184,1,120.000004577637,4|0,0:0|0:0,0:0:0:0:
216,88,3670,1,0,0:0:0:0:
252,84,3763,1,0,0:0:0:0:
280,60,3856,2,0,P|288:112|316:188,1,120.000004577637,2|0,0:0|0:0,0:0:0:0:
432,256,4506,1,0,0:0:0:0:
400,260,4599,6,0,P|392:296|404:344,1,60.0000022888184,4|0,0:0|0:0,0:0:0:0:
424,336,4877,2,0,L|328:336,1,90.0000034332277,4|0,0:0|0:0,0:0:0:0:
260,260,5342,1,0,0:0:0:0:
264,68,5713,6,0,P|316:72|344:88,1,60.0000022888184
332,84,5992,1,4,0:0:0:0:
336,96,6085,2,0,P|340:160|356:232,1,120.000004577637,4|0,0:0|0:0,0:0:0:0:
428,272,6642,6,0,P|404:268|380:272,1,30.0000011444092
356,329,6828,2,0,P|368:277|348:209,1,120.000004577637,2|0,0:0|0:0,0:0:0:0:
200,180,7385,5,0,0:0:0:0:
232,264,7571,2,0,L|228:336,1,60.0000022888184,4|0,0:0|0:0,0:0:0:0:
171,36,8128,5,0,0:0:0:0:
203,120,8314,2,0,L|199:192,1,60.0000022888184,2|0,0:0|0:0,0:0:0:0:
232,264,8871,1,0,0:0:0:0:
264,264,8964,1,0,0:0:0:0:
296,264,9057,5,6,0:0:0:0:
352,132,9243,1,0,0:0:0:0:
416,260,9428,1,4,0:0:0:0:
380,60,9614,1,0,0:0:0:0:
264,244,9800,1,4,0:0:0:0:
352,132,9986,1,0,0:0:0:0:
432,320,10171,1,4,0:0:0:0:
436,116,10357,1,0,0:0:0:0:
348,300,10543,6,0,B|381:303|381:303|432:296,1,60.0000022888184,4|0,0:0|0:0,0:0:0:0:
184,256,10914,2,0,B|223:258|223:258|268:252,1,60.0000022888184,4|0,0:0|0:0,0:0:0:0:
312,232,11286,1,0,0:0:0:0:
128,212,11657,6,0,P|116:224|120:280,1,60.0000022888184
160,320,12029,1,0,0:0:0:0:
183,322,12122,1,0,0:0:0:0:
206,323,12215,1,0,0:0:0:0:
229,324,12308,1,0,0:0:0:0:
273,328,12400,5,0,0:0:0:0:
305,297,12493,1,0,0:0:0:0:
322,255,12586,1,0,0:0:0:0:
323,209,12679,1,0,0:0:0:0:
316,164,12772,1,0,0:0:0:0:
300,121,12865,1,0,0:0:0:0:
304,76,12958,1,0,0:0:0:0:
328,38,13051,1,0,0:0:0:0:
369,21,13143,6,0,P|402:18|425:24,1,30.0000011444092,6|0,0:0|0:0,0:0:0:0:
446,90,13329,2,0,P|413:93|390:87,1,30.0000011444092
345,87,13515,5,0,0:0:0:0:
304,76,13608,1,0,0:0:0:0:
258,76,13701,1,0,0:0:0:0:
214,87,13794,1,0,0:0:0:0:
197,104,13886,1,0,0:0:0:0:
196,125,13979,1,0,0:0:0:0:
195,146,14072,1,0,0:0:0:0:
195,167,14165,1,0,0:0:0:0:
213,182,14258,5,0,0:0:0:0:
237,219,14351,1,0,0:0:0:0:
247,262,14444,1,0,0:0:0:0:
245,307,14537,1,0,0:0:0:0:
220,341,14630,6,0,P|185:343|166:343,1,30.0000011444092
127,273,14815,2,0,P|162:275|181:275,1,30.0000011444092
229,354,15001,6,0,P|194:356|155:359,1,60.0000022888184
108,252,15373,2,0,P|143:254|182:257,1,60.0000022888184
367,320,15744,6,0,P|332:322|293:325,1,60.0000022888184
238,219,16116,2,0,P|281:220|320:223,1,60.0000022888184
496,289,16487,6,0,P|461:291|422:294,1,60.0000022888184
375,187,16859,2,0,P|410:189|449:192,1,60.0000022888184
303,355,17230,6,0,P|268:357|229:360,1,60.0000022888184
192,306,17602,1,2,0:0:0:0:
187,291,17695,1,2,0:0:0:0:
187,276,17787,1,2,0:0:0:0:
189,261,17880,1,2,0:0:0:0:
138,209,17973,2,0,P|213:211|160:169,1,180.000006866455,4|0,0:0|0:0,0:0:0:0:
70,178,18345,2,0,P|60:206|81:260,2,80.0000030517579,2|0|2,0:0|0:0|0:0,0:0:0:0:
133,102,18716,5,6,0:0:0:0:
156,99,18809,1,6,0:0:0:0:
197,102,18902,1,6,0:0:0:0:
220,103,18995,1,6,0:0:0:0:
225,126,19088,2,0,B|266:116|266:116|290:131|290:131|325:115|325:115|356:129|356:129|403:131,1,180.000006866455,6|0,0:0|0:0,0:0:0:0:
465,159,19459,6,0,P|471:187|458:229,1,60.0000022888184,4|0,0:0|0:0,0:0:0:0:
392,188,19645,2,0,P|386:160|399:118,1,60.0000022888184
479,155,19831,6,0,P|485:183|472:225,1,60.0000022888184,4|0,0:0|0:0,0:0:0:0:
406,184,20017,2,0,P|400:156|413:114,1,60.0000022888184
477,4,20202,2,0,B|484:47|484:47|471:88,1,80,12|0,0:0|0:0,0:0:0:0:
463,95,20481,2,0,L|371:95,1,80,2|0,0:0|0:0,0:0:0:0:
257,156,20852,1,4,0:0:0:0:
237,169,20945,6,0,P|230:215|237:262,1,80,6|0,0:0|0:0,0:0:0:0:
379,352,21317,6,0,P|386:306|379:259,1,80,6|0,0:0|0:0,0:0:0:0:
313,178,21688,1,6,0:0:0:0:
296,177,21781,1,6,0:0:0:0:
257,156,21874,1,6,0:0:0:0:
240,155,21967,1,6,0:0:0:0:
204,113,22060,2,0,P|216:165|208:211,1,80,2|0,0:0|0:0,0:0:0:0:
96,256,22431,2,0,P|96:224|84:196,1,40,4|0,0:0|0:0,0:0:0:0:
40,180,22617,2,0,L|148:164,1,80,4|0,0:0|0:0,0:0:0:0:
213,191,22989,5,4,0:0:0:0:
216,212,23082,1,6,0:0:0:0:
220,232,23174,1,4,0:0:0:0:
304,320,23360,1,4,0:0:0:0:
308,340,23453,1,4,0:0:0:0:
332,224,23639,1,4,0:0:0:0:
312,212,23732,2,0,P|284:208|252:212,1,40
224,252,23917,6,0,P|252:204|212:128,1,120,4|0,0:0|0:0,0:0:0:0:
264,40,24289,2,0,L|164:28,2,53.3333333333333,2|0|2,0:0|0:0|0:0,0:0:0:0:
216,148,24660,1,6,0:0:0:0:
192,148,24753,1,6,0:0:0:0:
164,164,24846,1,6,0:0:0:0:
144,164,24939,1,6,0:0:0:0:
116,108,25032,2,0,L|120:240,1,120,6|0,0:0|0:0,0:0:0:0:
180,280,25404,6,0,P|204:284|240:284,1,40,6|0,0:0|0:0,0:0:0:0:
332,256,25589,2,0,P|308:252|272:252,1,40
192,296,25775,6,0,P|216:300|252:300,1,40,6|0,0:0|0:0,0:0:0:0:
344,272,25960,2,0,P|320:268|284:268,1,40
272,304,26147,2,0,L|268:208,1,80,14|0,0:0|0:0,0:0:0:0:
264,216,26425,2,0,P|220:208|172:220,1,80,2|0,0:0|0:0,0:0:0:0:
166,305,26797,1,4,0:0:0:0:
178,293,26890,2,0,P|186:253|178:177,1,80,4|0,0:0|0:0,0:0:0:0:
108,264,27261,2,0,P|96:208|32:248,1,120
24,240,27633,5,6,0:0:0:0:
28,260,27726,1,6,0:0:0:0:
28,292,27818,1,6,0:0:0:0:
32,312,27911,1,6,0:0:0:0:
4,340,28004,2,0,L|148:340,1,120,6|0,0:0|0:0,0:0:0:0:
344,272,28376,6,0,P|320:268|284:268,1,40,4|0,0:0|0:0,0:0:0:0:
268,296,28561,2,0,P|280:224|276:192,1,80,6|0,0:0|0:0,0:0:0:0:
176,92,28933,1,4,0:0:0:0:
156,92,29026,1,4,0:0:0:0:
136,92,29119,2,0,P|124:164|128:196,1,80,12|0,0:0|0:0,0:0:0:0:
104,176,29397,2,0,L|208:176,1,80,12|0,0:0|0:0,0:0:0:0:
280,120,29676,1,12,0:0:0:0:
280,120,29862,1,4,0:0:0:0:
32,264,30419,5,0,0:0:0:0:
92,234,30605,2,0,P|104:186|98:148,1,60.0000022888184
32,48,30976,5,0,0:0:0:0:
108,56,31162,1,0,0:0:0:0:
180,28,31348,2,0,P|232:24|304:28,1,120.000004577637
432,96,31905,1,0,0:0:0:0:
484,156,32091,6,0,P|488:196|476:228,1,60.0000022888184
428,284,32462,1,0,0:0:0:0:
352,240,32648,1,0,0:0:0:0:
284,300,32834,2,0,P|240:308|144:296,1,120.000004577637
108,236,33391,1,0,0:0:0:0:
184,128,33577,2,0,P|224:176|240:240,1,120.000004577637
32,40,34320,6,0,L|112:32,1,60.0000022888184
244,128,34691,2,0,L|156:128,1,60.0000022888184
308,72,35063,2,0,P|328:144|292:200,1,120.000004577637
220,340,35806,6,0,L|84:324,1,120.000004577637
32,224,36363,1,0,0:0:0:0:
76,168,36549,2,0,P|124:164|152:168,1,60.0000022888184
272,304,36921,2,0,P|284:336|272:376,1,60.0000022888184
184,196,37292,2,0,P|172:164|176:72,1,120.000004577637
280,28,37849,1,0,0:0:0:0:
344,60,38035,6,0,P|348:96|340:120,1,60.0000022888184
184,196,38407,2,0,L|104:188,1,60.0000022888184
92,120,38778,5,0,0:0:0:0:
92,104,38871,1,0,0:0:0:0:
92,88,38964,1,0,0:0:0:0:
92,72,39057,1,0,0:0:0:0:
76,48,39150,1,0,0:0:0:0:
104,56,39243,1,0,0:0:0:0:
132,60,39335,1,0,0:0:0:0:
160,56,39428,1,0,0:0:0:0:
188,44,39521,5,0,0:0:0:0:
216,32,39614,1,0,0:0:0:0:
244,28,39707,1,0,0:0:0:0:
276,28,39800,1,0,0:0:0:0:
304,32,39893,1,0,0:0:0:0:
332,44,39986,1,0,0:0:0:0:
332,60,40078,1,0,0:0:0:0:
332,76,40171,1,0,0:0:0:0:
332,92,40264,2,0,P|336:164|324:216,1,120.000004577637
128,256,40821,6,0,L|184:256,1,30.0000011444092
180,292,41007,2,0,P|176:220|188:168,1,120.000004577637
256,192,41750,12,4,44351,0:0:0:0:
352,280,44722,6,0,L|440:272,1,80,4|0,0:0|0:0,0:0:0:0:
320,180,45094,2,0,L|232:172,1,80,12|0,0:0|0:0,0:0:0:0:
168,232,45373,1,0,0:0:0:0:
156,252,45465,2,0,P|152:308|160:340,1,80,4|0,0:0|0:0,0:0:0:0:
288,228,45837,2,0,P|312:176|296:128,1,80,12|0,0:0|0:0,0:0:0:0:
88,234,46208,2,0,L|204:230,1,80,4|0,0:0|0:0,0:0:0:0:
309,155,46580,2,0,L|193:151,1,80,12|0,0:0|0:0,0:0:0:0:
160,164,46952,1,4,0:0:0:0:
272,80,47137,2,0,L|328:80,1,40,2|0,0:0|0:0,0:0:0:0:
348,92,47323,6,0,P|380:136|372:184,1,80,12|0,0:0|0:0,0:0:0:0:
240,316,47695,2,0,L|148:312,1,80,4|0,0:0|0:0,0:0:0:0:
303,224,48066,2,0,L|224:228,1,80,12|0,0:0|0:0,0:0:0:0:
168,168,48345,1,0,0:0:0:0:
152,148,48438,2,0,P|144:104|148:64,1,80,4|0,0:0|0:0,0:0:0:0:
348,92,48809,2,0,L|264:88,1,80,12|0,0:0|0:0,0:0:0:0:
168,168,49181,2,0,L|80:176,1,80,4|0,0:0|0:0,0:0:0:0:
208,260,49552,2,0,L|120:268,1,80,12|0,0:0|0:0,0:0:0:0:
52,100,49924,6,0,L|-8:104,1,40,2|0,0:0|0:0,0:0:0:0:
124,36,50109,2,0,L|192:36,1,40,2|0,0:0|0:0,0:0:0:0:
268,88,50295,2,0,P|272:112|264:140,1,40,2|0,0:0|0:0,0:0:0:0:
169,207,50481,2,0,P|165:183|173:155,1,40,2|0,0:0|0:0,0:0:0:0:
120,164,50667,2,0,L|232:164,1,80,4|0,0:0|0:0,0:0:0:0:
288,260,51038,2,0,L|176:260,1,80,12|0,0:0|0:0,0:0:0:0:
64,212,51317,1,0,0:0:0:0:
88,224,51410,2,0,L|88:108,1,80,4|0,0:0|0:0,0:0:0:0:
272,92,51781,2,0,L|184:100,1,80,12|0,0:0|0:0,0:0:0:0:
416,172,52153,2,0,L|316:168,1,80
288,216,52524,6,0,P|292:160|288:112,1,80,4|0,0:0|0:0,0:0:0:0:
272,52,52896,1,12,0:0:0:0:
304,16,52989,2,0,B|264:24|264:24|200:24,1,80,4|0,0:0|0:0,0:0:0:0:
124,88,53267,1,12,0:0:0:0:
220,168,53453,1,12,0:0:0:0:
156,16,53639,2,0,P|100:12|64:32,1,80,4|0,0:0|0:0,0:0:0:0:
24,188,54010,2,0,L|124:188,1,80,12|0,0:0|0:0,0:0:0:0:
128,204,54289,1,4,0:0:0:0:
156,204,54382,1,4,0:0:0:0:
256,128,54568,1,4,0:0:0:0:
316,264,54753,2,0,P|316:208|312:164,1,80,12|0,0:0|0:0,0:0:0:0:
280,120,55032,1,4,0:0:0:0:
256,128,55125,6,0,P|200:128|136:80,1,120,4|0,0:0|0:0,0:0:0:0:
172,32,55496,2,0,L|288:28,1,80,8|0,0:0|0:0,0:0:0:0:
256,36,55775,1,4,0:0:0:0:
260,44,55868,2,0,L|348:44,1,80,8|0,0:0|0:0,0:0:0:0:
416,76,56239,1,8,0:0:0:0:
312,224,56425,5,8,0:0:0:0:
316,244,56518,1,0,0:0:0:0:
320,264,56611,2,0,P|324:312|312:372,1,80,4|0,0:0|0:0,0:0:0:0:
220,368,56982,2,0,L|120:360,1,80,12|0,0:0|0:0,0:0:0:0:
44,272,57354,2,0,L|144:264,1,80,4|0,0:0|0:0,0:0:0:0:
192,172,57726,2,0,P|232:216|224:312,1,160,12|4,0:0|0:0,0:0:0:0:
84,240,58469,1,12,0:0:0:0:
231,176,58654,2,0,P|211:172|183:172,1,40,2|0,0:0|0:0,0:0:0:0:
84,240,58840,2,0,P|104:236|132:236,1,40,2|0,0:0|0:0,0:0:0:0:
224,311,59026,2,0,P|196:322|172:339,1,40,2|0,0:0|0:0,0:0:0:0:
144,371,59212,6,0,L|240:375,1,80,4|0,0:0|0:0,0:0:0:0:
380,304,59583,6,0,P|412:252|384:168,1,120,4|0,0:0|0:0,0:0:0:0:
304,256,59955,2,0,P|336:240|296:208,1,80,6|0,0:0|0:0,0:0:0:0:
256,92,60326,6,0,B|208:92|208:92|204:100,1,40,2|0,0:0|0:0,0:0:0:0:
72,188,60512,2,0,L|111:185,1,40,2|0,0:0|0:0,0:0:0:0:
136,140,60698,2,0,P|132:196|152:244,1,80,6|0,0:0|0:0,0:0:0:0:
168,296,61069,2,0,L|236:300,1,40,6|0,0:0|0:0,0:0:0:0:
280,340,61255,2,0,B|300:276|272:240|272:240|280:208|280:208|280:176,1,160,4|0,0:0|0:0,0:0:0:0:
340,120,61812,2,0,P|368:176|364:212,1,80,8|0,0:0|0:0,0:0:0:0:
272,240,62091,2,0,L|184:236,1,80,8|0,0:0|0:0,0:0:0:0:
176,224,62369,1,8,0:0:0:0:
264,64,62555,6,0,L|256:180,1,80,4|0,0:0|0:0,0:0:0:0:
348,224,62927,2,0,P|276:240|252:232,1,80,12|0,0:0|0:0,0:0:0:0:
156,92,63298,2,0,L|252:96,1,80,4|0,0:0|0:0,0:0:0:0:
416,104,63670,2,0,P|344:120|320:112,1,80,12|0,0:0|0:0,0:0:0:0:
200,36,64041,2,0,L|204:200,1,160,4|12,0:0|0:0,0:0:0:0:
276,104,64599,6,0,L|228:100,1,40,6|0,0:0|0:0,0:0:0:0:
148,208,64784,2,0,L|240:220,1,80,8|0,0:0|0:0,0:0:0:0:
296,252,65063,2,0,P|304:296|284:356,1,80,8|0,0:0|0:0,0:0:0:0:
224,352,65342,1,8,0:0:0:0:
150,285,65527,6,0,P|142:229|150:201,1,80,4|0,0:0|0:0,0:0:0:0:
280,208,65806,2,0,P|252:236|208:240,1,80,4|0,0:0|0:0,0:0:0:0:
216,164,66085,1,8,0:0:0:0:
308,136,66270,6,0,L|392:136,1,80,4|0,0:0|0:0,0:0:0:0:
448,176,66549,2,0,P|452:224|436:260,1,80,4|0,0:0|0:0,0:0:0:0:
380,208,66828,1,12,0:0:0:0:
448,104,67013,6,0,L|440:16,1,80,4|0,0:0|0:0,0:0:0:0:
368,28,67292,2,0,L|360:116,1,80,4|0,0:0|0:0,0:0:0:0:
400,164,67571,1,8,0:0:0:0:
328,280,67756,6,0,L|236:280,1,80
140,188,68128,2,0,L|244:180,1,80
380,224,68499,2,0,P|400:280|392:312,1,80,2|0,0:0|0:0,0:0:0:0:
304,376,68871,2,0,P|284:320|292:288,1,80
304,228,69243,1,0,0:0:0:0:
400,164,69614,2,0,L|400:96,1,40,2|0,0:0|0:0,0:0:0:0:
336,52,69800,2,0,L|336:120,1,40,2|0,0:0|0:0,0:0:0:0:
472,152,69986,2,0,L|476:240,1,80
272,124,70357,2,0,L|276:212,1,80
376,304,70729,1,0,0:0:0:0:
428,240,71100,2,0,P|444:208|436:152,1,80
368,56,71472,5,4,0:0:0:0:
200,96,71657,1,0,0:0:0:0:
360,192,71843,1,0,0:0:0:0:
160,96,72029,1,0,0:0:0:0:
308,36,72215,5,4,0:0:0:0:
252,236,72400,1,0,0:0:0:0:
192,28,72586,1,0,0:0:0:0:
248,252,72772,1,0,0:0:0:0:
276,112,72958,5,4,0:0:0:0:
144,172,73143,1,0,0:0:0:0:
352,204,73329,1,4,0:0:0:0:
116,172,73515,1,0,0:0:0:0:
256,292,73701,5,4,0:0:0:0:
204,160,73886,2,0,P|192:128|200:96,1,40,2|0,0:0|0:0,0:0:0:0:
276,80,74072,2,0,B|240:76|240:76|220:88|220:88|192:76|192:76|160:88|160:88|100:76,1,160,6|0,0:0|0:0,0:0:0:0:
52,328,74444,6,0,B|72:328|72:328|104:316|144:336,1,60.0000022888184,2|0,0:0|0:0,0:0:0:0:
296,220,74630,6,0,B|276:220|276:220|244:208|204:228,1,60.0000022888184,2|0,0:0|0:0,0:0:0:0:
179,272,74815,2,0,P|207:212|196:142,1,120,4|0,0:0|0:0,0:0:0:0:
196,152,75187,1,4,0:0:0:0:
204,28,75373,5,2,0:0:0:0:
188,68,75465,1,2,0:0:0:0:
152,88,75558,2,0,P|208:76|280:160,1,180.000006866455,4|0,0:0|0:0,0:0:0:0:
164,244,75930,2,0,B|228:268|284:236|284:236|248:236|208:200,1,180.000006866455,6|0,0:0|0:0,0:0:0:0:
104,192,76301,6,0,P|88:276|172:320,1,180.000006866455,6|0,0:0|0:0,0:0:0:0:
344,236,76673,6,0,B|312:244|312:244|280:236,1,60.0000022888184,2|0,0:0|0:0,0:0:0:0:
104,192,76859,6,0,B|136:184|136:184|168:192,1,60.0000022888184,2|0,0:0|0:0,0:0:0:0:
312,148,77044,2,0,B|344:128|344:128|344:236|344:236|308:216,1,180.000006866455,12|0,0:0|0:0,0:0:0:0:
244,352,77416,6,0,B|180:256|280:192|220:96,1,240,4|0,0:0|0:0,0:0:0:0:
162,190,77787,2,0,B|226:210|226:210|318:194|318:194|234:158,1,240,12|0,0:0|0:0,0:0:0:0:
164,120,78159,1,4,0:0:0:0:
64,160,78345,5,2,0:0:0:0:
72,232,78438,1,2,0:0:0:0:
20,280,78530,2,0,B|108:292|168:216|264:260,1,240,2|0,0:0|0:0,0:0:0:0:
232,340,78902,5,4,0:0:0:0:
196,321,78994,1,0,0:0:0:0:
173,289,79087,1,0,0:0:0:0:
165,250,79180,1,0,0:0:0:0:
171,218,79273,1,12,0:0:0:0:
188,191,79366,1,0,0:0:0:0:
212,170,79459,1,0,0:0:0:0:
228,142,79552,1,0,0:0:0:0:
237,111,79645,5,4,0:0:0:0:
238,78,79738,1,0,0:0:0:0:
229,47,79831,1,0,0:0:0:0:
216,24,79924,1,0,0:0:0:0:
188,12,80017,1,12,0:0:0:0:
160,8,80109,1,0,0:0:0:0:
136,24,80202,1,0,0:0:0:0:
120,48,80295,1,0,0:0:0:0:
112,72,80388,6,0,L|116:320,1,240,4|0,0:0|0:0,0:0:0:0:
66,269,80760,2,0,P|130:245|130:373,1,240,12|0,0:0|0:0,0:0:0:0:
117,309,81131,1,4,0:0:0:0:
178,274,81317,6,0,B|221:268|221:268|284:285,1,80,2|2,0:0|0:0,0:0:0:0:
325,328,81503,2,0,B|358:281|331:232|331:232|358:165|358:165|349:83,1,240,12|0,0:0|0:0,0:0:0:0:
169,79,81874,6,0,B|117:71|117:71|88:94|88:94|133:87,1,80,4|0,0:0|0:0,0:0:0:0:
277,90,82060,6,0,B|329:82|329:82|358:105|358:105|313:98,1,80,2|0,0:0|0:0,0:0:0:0:
232,34,82246,2,0,B|169:113|255:168|255:168|241:230|241:230|252:318,1,240,12|0,0:0|0:0,0:0:0:0:
261,312,82617,2,0,P|187:282|277:188,1,240,4|0,0:0|0:0,0:0:0:0:
243,246,82989,2,0,B|193:246|193:246|164:271|164:271|126:248|126:248|97:268|97:268|13:268,1,240,12|0,0:0|0:0,0:0:0:0:
83,328,83360,2,0,B|142:263|72:191|72:191|87:153|87:153|70:92,1,240,6|0,0:0|0:0,0:0:0:0:
121,66,83732,2,0,P|81:47|64:174,1,240,12|0,0:0|0:0,0:0:0:0:
75,110,84103,1,4,0:0:0:0:
212,138,84289,6,0,B|250:135|250:135|306:142,1,80,2|2,0:0|0:0,0:0:0:0:
418,29,84475,2,0,B|430:104|368:174|368:174|384:124|350:70,1,240,12|0,0:0|0:0,0:0:0:0:
305,45,84846,5,0,0:0:0:0:
284,45,84939,1,0,0:0:0:0:
263,45,85032,1,0,0:0:0:0:
243,46,85125,1,0,0:0:0:0:
202,29,85218,1,0,0:0:0:0:
176,64,85311,1,0,0:0:0:0:
172,107,85404,1,0,0:0:0:0:
178,150,85496,1,0,0:0:0:0:
199,180,85589,6,0,L|287:177,1,80,12|0,0:0|0:0,0:0:0:0:
332,131,85868,2,0,P|344:86|326:48,1,80,12|0,0:0|0:0,0:0:0:0:
272,93,86147,1,12,0:0:0:0:
279,178,86332,6,0,L|279:260,1,80
316,323,86611,2,0,P|358:330|406:316,1,80
354,256,86890,2,0,P|300:248|257:279,1,80
241,320,87168,2,0,L|139:314,1,80
97,369,87447,2,0,B|63:314|88:269|111:235|111:235|93:202|93:202|104:127,1,240,6|0,0:0|0:0,0:0:0:0:
64,71,87818,6,0,L|146:71,1,80
176,96,88097,6,0,L|258:96,1,80
289,61,88376,1,0,0:0:0:0:
375,86,88561,6,0,B|383:117|383:117|368:156|368:156|386:208|386:208|379:266,1,160,6|0,0:0|0:0,0:0:0:0:
332,194,88840,2,0,P|413:180|446:262,1,160,6|0,0:0|0:0,0:0:0:0:
496,284,89119,2,0,P|460:282|401:316,1,80,6|0,0:0|0:0,0:0:0:0:
328,292,89304,6,0,L|246:292,1,80
216,272,89583,6,0,L|136:272,1,80
112,251,89862,2,0,P|101:180|108:160,1,80
140,152,90140,6,0,L|222:152,1,80
358,29,90419,2,0,B|368:115|327:169|327:169|351:123|311:74,1,240,6|0,0:0|0:0,0:0:0:0:
252,54,90791,2,0,L|157:54,1,80
157,68,91069,2,0,L|76:68,1,80
15,31,91348,1,0,0:0:0:0:
27,153,91534,5,12,0:0:0:0:
27,153,91719,1,12,0:0:0:0:
120,180,91905,2,0,L|28:180,1,80
232,206,92184,2,0,L|140:206,1,80
294,170,92462,1,0,0:0:0:0:
232,206,92648,5,12,0:0:0:0:
232,206,92834,1,12,0:0:0:0:
264,111,93020,2,0,P|314:104|352:142,1,80
366,183,93298,2,0,L|361:282,1,80
307,308,93577,1,0,0:0:0:0:
196,332,93763,2,0,L|280:332,1,80
196,332,94041,1,0,0:0:0:0:
256,192,94134,12,0,101657,0:0:0:0:
