osu file format v14

[General]
AudioFilename: audio.mp3
AudioLeadIn: 0
PreviewTime: 44351
Countdown: 1
SampleSet: None
StackLeniency: 0.7
Mode: 0
LetterboxInBreaks: 0
WidescreenStoryboard: 1

[Editor]
Bookmarks: 17928
DistanceSpacing: 0.5
BeatDivisor: 4
GridSize: 4
TimelineZoom: 2.1

[Metadata]
Title:Mushi no Sumu Tokoro
TitleUnicode:蟲の棲む処
Artist:Camellia feat. Nana Takahashi
ArtistUnicode:かめりあ feat. Nana Takahashi
Creator:Jager-kun
Version:Hard
Source:BeatStream
Tags:
BeatmapID:1258403
BeatmapSetID:595023

[Difficulty]
HPDrainRate:5
CircleSize:4
OverallDifficulty:6
ApproachRate:7.5
SliderMultiplier:1.3
SliderTickRate:1

[Events]
//Background and Video events
0,0,"bg.jpg",0,0
//Break Periods
//Storyboard Layer 0 (Background)
//Storyboard Layer 1 (Fail)
//Storyboard Layer 2 (Pass)
//Storyboard Layer 3 (Foreground)
//Storyboard Sound Samples

[TimingPoints]
3113,371.517027863777,4,2,1,75,1,0
3113,-133.333333333333,4,2,1,75,0,0
17973,-100,4,2,1,75,0,0
44722,-100,4,2,1,75,0,1
56611,-100,4,2,1,75,0,0
74444,-100,4,2,1,75,0,1
84846,-100,4,2,1,75,0,0

[Colours]
Combo1 : 119,125,98
Combo2 : 192,192,192
Combo3 : 191,0,0
Combo4 : 136,145,121

[HitObjects]
388,284,3113,6,0,P|392:240|392:172,1,97.50000371933,4|0,0:0|0:0,0:0:0:0:
344,132,3670,1,0,0:0:0:0:
328,128,3763,1,0,0:0:0:0:
312,124,3856,2,0,L|256:128,1,48.750001859665
232,200,4227,2,0,P|228:236|228:264,1,48.750001859665
290,290,4599,2,0,L|380:284,1,73.1250027894975,4|0,0:0|0:0,0:0:0:0:
432,224,5156,1,0,0:0:0:0:
460,156,5342,2,0,P|456:120|448:92,1,48.750001859665
472,36,5713,6,0,L|408:40,1,48.750001859665
356,12,6085,2,0,P|304:16|256:48,1,97.50000371933,4|0,0:0|0:0,0:0:0:0:
268,116,6642,1,0,0:0:0:0:
272,132,6735,1,0,0:0:0:0:
280,148,6828,2,0,P|322:171|370:174,1,97.50000371933
416,104,7385,1,0,0:0:0:0:
400,84,7571,2,0,L|348:84,1,48.750001859665,4|0,0:0|0:0,0:0:0:0:
280,148,8128,1,0,0:0:0:0:
268,168,8314,2,0,L|268:236,1,48.750001859665
356,336,8871,5,0,0:0:0:0:
360,320,8964,1,0,0:0:0:0:
356,308,9057,2,0,L|244:296,1,97.50000371933,4|0,0:0|0:0,0:0:0:0:
200,340,9614,1,0,0:0:0:0:
188,344,9707,1,0,0:0:0:0:
176,348,9800,2,0,P|132:344|76:332,1,97.50000371933,4|0,0:0|0:0,0:0:0:0:
52,188,10543,5,0,0:0:0:0:
120,160,10729,1,0,0:0:0:0:
180,200,10914,1,0,0:0:0:0:
248,172,11100,1,0,0:0:0:0:
320,160,11286,2,0,P|360:156|420:152,1,97.50000371933
476,208,12029,6,0,P|484:240|472:308,1,97.50000371933,4|0,0:0|0:0,0:0:0:0:
408,332,12586,1,0,0:0:0:0:
336,348,12772,2,0,P|292:352|232:348,1,97.50000371933
208,328,13236,2,0,L|208:236,1,73.1250027894975,4|4,0:0|0:0,0:0:0:0:
260,116,13886,6,0,P|288:112|324:116,1,48.750001859665,4|0,0:0|0:0,0:0:0:0:
320,120,14165,1,0,0:0:0:0:
332,128,14258,2,0,L|336:192,1,48.750001859665,0|2,0:0|0:0,0:0:0:0:
372,240,14630,2,0,L|372:308,1,48.750001859665
308,328,15001,1,0,0:0:0:0:
256,192,15094,12,0,17602,0:0:0:0:
176,252,17973,6,0,P|168:220|176:189,1,65,4|0,0:0|0:0,0:0:0:0:
244,224,18345,2,0,P|252:260|244:288,1,65
180,332,18716,1,2,0:0:0:0:
168,332,18809,1,2,0:0:0:0:
156,332,18902,1,2,0:0:0:0:
144,332,18995,1,2,0:0:0:0:
132,332,19088,2,0,L|52:328,1,65,2|0,0:0|0:0,0:0:0:0:
16,272,19459,6,0,P|12:232|20:204,1,65,4|0,0:0|0:0,0:0:0:0:
159,180,19831,2,0,P|165:211|161:243,1,65,6|0,0:0|0:0,0:0:0:0:
92,219,20202,1,8,0:0:0:0:
92,219,20388,2,0,L|221:218,1,130
236,208,20852,1,8,0:0:0:0:
244,196,20945,6,0,P|248:152|240:128,1,65,4|0,0:0|0:0,0:0:0:0:
192,80,21317,2,0,L|127:90,1,65,2|0,0:0|0:0,0:0:0:0:
76,140,21688,1,2,0:0:0:0:
80,156,21781,1,2,0:0:0:0:
84,172,21874,1,2,0:0:0:0:
88,188,21967,1,2,0:0:0:0:
92,204,22060,2,0,L|156:193,1,65,6|0,0:0|0:0,0:0:0:0:
242,132,22431,5,4,0:0:0:0:
264,204,22617,2,0,L|396:196,1,130,4|0,0:0|0:0,0:0:0:0:
456,152,23174,2,0,P|464:108|464:88,1,65,4|0,0:0|0:0,0:0:0:0:
496,68,23453,2,0,L|388:68,1,97.5,8|0,0:0|0:0,0:0:0:0:
328,32,23917,6,0,L|328:112,1,65,4|0,0:0|0:0,0:0:0:0:
376,160,24289,2,0,L|376:224,1,65,4|0,0:0|0:0,0:0:0:0:
340,296,24660,1,6,0:0:0:0:
324,300,24753,1,6,0:0:0:0:
308,304,24846,1,6,0:0:0:0:
292,308,24939,1,6,0:0:0:0:
276,312,25032,2,0,L|200:312,1,65,6|0,0:0|0:0,0:0:0:0:
142,273,25404,5,4,0:0:0:0:
166,199,25589,2,0,L|173:126,2,65
229,245,26147,2,0,L|294:245,1,65,8|0,0:0|0:0,0:0:0:0:
303,236,26425,2,0,P|316:188|307:133,1,97.5,2|0,0:0|0:0,0:0:0:0:
280,68,26890,6,0,L|190:66,1,65,4|0,0:0|0:0,0:0:0:0:
172,134,27261,2,0,L|236:135,1,65,4|0,0:0|0:0,0:0:0:0:
310,141,27633,1,6,0:0:0:0:
322,142,27726,1,6,0:0:0:0:
334,142,27818,1,6,0:0:0:0:
347,142,27911,1,6,0:0:0:0:
359,144,28004,2,0,L|435:147,1,65,6|0,0:0|0:0,0:0:0:0:
478,202,28376,5,4,0:0:0:0:
419,252,28561,2,0,L|288:244,1,130
218,210,29119,2,0,L|146:213,1,65,12|0,0:0|0:0,0:0:0:0:
140,216,29397,2,0,P|130:258|144:310,1,97.5,12|8,0:0|0:0,0:0:0:0:
211,349,29862,1,0,0:0:0:0:
385,193,30419,5,0,0:0:0:0:
442,140,30605,2,0,P|452:100|434:59,1,65
376,42,30976,2,0,L|297:35,2,65
385,193,31905,5,0,0:0:0:0:
445,242,32091,2,0,P|450:273|440:304,1,65
376,342,32462,2,0,L|311:347,2,65
385,193,33391,5,0,0:0:0:0:
318,152,33577,2,0,L|174:152,1,130
82,267,34320,5,0,0:0:0:0:
144,312,34691,1,0,0:0:0:0:
209,354,35063,2,0,L|347:346,1,130
339,203,35806,2,0,L|201:195,1,130
149,234,36363,5,0,0:0:0:0:
203,279,36549,2,0,L|277:282,1,65
339,275,36921,2,0,L|429:279,2,65
149,234,37849,5,0,0:0:0:0:
94,187,38035,2,0,P|88:145|99:109,1,65
151,81,38407,1,0,0:0:0:0:
218,103,38592,1,0,0:0:0:0:
285,74,38778,6,0,P|352:66|413:79,1,130
466,125,39335,1,0,0:0:0:0:
424,183,39521,2,0,L|422:314,1,130
362,352,40078,1,0,0:0:0:0:
292,333,40264,2,0,L|153:328,1,130
108,280,40821,1,0,0:0:0:0:
142,217,41007,2,0,L|142:70,1,130
274,33,41750,2,0,L|274:180,1,130
251,304,42493,2,0,P|201:314|123:294,1,130
256,192,43236,12,0,44351,0:0:0:0:
45,122,44722,6,0,L|119:118,1,65,6|0,0:0|0:0,0:0:0:0:
162,167,45094,2,0,L|230:166,1,65,12|0,0:0|0:0,0:0:0:0:
237,173,45373,1,0,0:0:0:0:
245,182,45465,2,0,P|254:215|241:251,1,65,4|0,0:0|0:0,0:0:0:0:
193,292,45837,2,0,B|162:295|162:295|106:295,1,65,12|0,0:0|0:0,0:0:0:0:
83,238,46208,2,0,L|78:168,1,65,4|0,0:0|0:0,0:0:0:0:
45,122,46580,2,0,L|184:118,1,130,12|0,0:0|0:0,0:0:0:0:
273,148,47323,2,0,P|280:188|273:236,1,65,4|0,0:0|0:0,0:0:0:0:
212,260,47695,6,0,L|361:256,1,130,4|12,0:0|0:0,0:0:0:0:
408,230,48252,1,0,0:0:0:0:
420,229,48345,1,0,0:0:0:0:
432,227,48438,2,0,P|443:184|442:152,1,65,4|0,0:0|0:0,0:0:0:0:
382,111,48809,2,0,P|371:158|373:181,1,65,12|0,0:0|0:0,0:0:0:0:
417,97,49181,2,0,L|335:97,1,65,4|0,0:0|0:0,0:0:0:0:
289,132,49552,2,0,L|223:132,1,65,12|0,0:0|0:0,0:0:0:0:
166,88,49924,2,0,P|155:151|203:205,1,130,4|12,0:0|0:0,0:0:0:0:
264,200,50481,5,0,0:0:0:0:
280,200,50574,1,0,0:0:0:0:
296,199,50667,2,0,L|365:199,1,65,4|0,0:0|0:0,0:0:0:0:
419,250,51038,2,0,P|422:283|420:321,1,65,12|0,0:0|0:0,0:0:0:0:
407,324,51317,1,0,0:0:0:0:
391,329,51410,2,0,L|311:330,1,65,4|0,0:0|0:0,0:0:0:0:
266,278,51781,2,0,L|189:280,1,65,12|0,0:0|0:0,0:0:0:0:
166,349,52153,2,0,L|93:349,1,65
38,302,52524,2,0,P|22:238|40:175,1,130,12|12,0:0|0:0,0:0:0:0:
117,90,53267,6,0,L|192:91,1,65,8|8,0:0|0:0,0:0:0:0:
212,48,53639,2,0,L|212:188,1,130,4|8,0:0|0:0,0:0:0:0:
152,227,54196,1,8,0:0:0:0:
82,261,54382,2,0,P|45:265|6:258,1,65,4|0,0:0|0:0,0:0:0:0:
23,183,54753,2,0,P|60:179|99:186,1,65,8|0,0:0|0:0,0:0:0:0:
152,227,55125,2,0,P|189:251|275:228,1,130,4|8,0:0|0:0,0:0:0:0:
292,128,55682,1,4,0:0:0:0:
280,108,55775,1,4,0:0:0:0:
268,93,55868,6,0,L|198:95,1,65,12|0,0:0|0:0,0:0:0:0:
158,158,56239,2,0,L|85:161,1,65,8|0,0:0|0:0,0:0:0:0:
33,211,56611,6,0,P|28:249|34:294,1,65,4|0,0:0|0:0,0:0:0:0:
86,328,56982,2,0,L|173:321,1,65,12|0,0:0|0:0,0:0:0:0:
221,356,57354,2,0,L|297:357,1,65,4|0,0:0|0:0,0:0:0:0:
349,311,57726,2,0,L|428:309,1,65,8|0,0:0|0:0,0:0:0:0:
474,259,58097,2,0,B|479:194|479:194|476:115,1,130,4|8,0:0|0:0,0:0:0:0:
411,85,58654,5,0,0:0:0:0:
398,87,58747,1,0,0:0:0:0:
385,90,58840,2,0,L|273:90,1,97.5,4|0,0:0|0:0,0:0:0:0:
208,176,59397,1,0,0:0:0:0:
150,229,59583,2,0,P|148:282|153:298,1,65
80,325,59955,2,0,L|222:325,1,130,2|8,0:0|0:0,0:0:0:0:
262,276,60512,1,0,0:0:0:0:
304,218,60698,2,0,P|306:174|288:140,1,65,2|0,0:0|0:0,0:0:0:0:
235,120,61069,5,4,0:0:0:0:
164,130,61255,1,4,0:0:0:0:
210,325,61626,1,4,0:0:0:0:
277,348,61812,2,0,L|352:348,1,65,8|0,0:0|0:0,0:0:0:0:
355,338,62091,2,0,P|361:300|363:242,1,97.5,8|0,0:0|0:0,0:0:0:0:
303,190,62555,2,0,L|238:192,1,65,4|0,0:0|0:0,0:0:0:0:
170,152,62927,2,0,B|168:117|168:117|174:78,1,65,12|0,0:0|0:0,0:0:0:0:
243,55,63298,2,0,B|275:48|275:48|324:54,1,65,4|0,0:0|0:0,0:0:0:0:
330,126,63670,2,0,B|362:129|362:129|394:122,1,65,12|0,0:0|0:0,0:0:0:0:
438,62,64041,2,0,L|438:216,1,130,4|12,0:0|0:0,0:0:0:0:
398,259,64599,5,0,0:0:0:0:
326,227,64784,2,0,L|261:228,1,65,4|0,0:0|0:0,0:0:0:0:
247,214,65063,2,0,P|236:171|250:120,1,97.5,4|0,0:0|0:0,0:0:0:0:
316,96,65527,2,0,L|381:95,1,65,4|0,0:0|0:0,0:0:0:0:
394,108,65806,2,0,P|401:153|381:217,1,97.5,4|8,0:0|0:0,0:0:0:0:
336,252,66270,6,0,L|256:252,1,65,4|0,0:0|0:0,0:0:0:0:
256,264,66549,2,0,L|144:264,1,97.5,4|8,0:0|0:0,0:0:0:0:
104,216,67013,6,0,P|96:188|112:136,1,65,4|0,0:0|0:0,0:0:0:0:
116,140,67292,2,0,L|216:140,1,97.5,4|8,0:0|0:0,0:0:0:0:
268,188,67756,6,0,L|412:188,1,130
484,304,68499,5,0,0:0:0:0:
484,304,68871,1,0,0:0:0:0:
484,304,69243,1,0,0:0:0:0:
336,352,69614,6,0,L|264:348,1,65
232,276,69986,5,0,0:0:0:0:
232,276,70357,1,0,0:0:0:0:
232,276,70729,1,0,0:0:0:0:
336,120,71100,6,0,L|272:124,1,65
256,192,71472,12,0,74072,0:0:0:0:
128,188,74444,6,0,P|124:232|136:260,1,65,4|0,0:0|0:0,0:0:0:0:
192,288,74815,2,0,L|256:288,1,65,8|0,0:0|0:0,0:0:0:0:
300,232,75187,1,4,0:0:0:0:
312,160,75373,1,0,0:0:0:0:
308,144,75465,1,0,0:0:0:0:
300,128,75558,2,0,L|216:128,1,65,8|0,0:0|0:0,0:0:0:0:
172,176,75930,2,0,P|168:208|180:244,1,65,4|0,0:0|0:0,0:0:0:0:
192,248,76208,1,0,0:0:0:0:
212,252,76301,2,0,L|276:252,1,65,8|0,0:0|0:0,0:0:0:0:
332,204,76673,6,0,L|400:204,1,65,4|0,0:0|0:0,0:0:0:0:
444,148,77044,2,0,P|452:108|444:72,1,65,8|0,0:0|0:0,0:0:0:0:
384,48,77416,2,0,P|352:48|304:56,1,65,4|0,0:0|0:0,0:0:0:0:
300,120,77787,2,0,L|160:124,1,130,8|4,0:0|0:0,0:0:0:0:
112,176,78345,5,0,0:0:0:0:
108,192,78438,1,0,0:0:0:0:
104,208,78530,2,0,L|104:280,1,65,12|0,0:0|0:0,0:0:0:0:
160,316,78902,6,0,P|192:324|240:324,1,65,4|0,0:0|0:0,0:0:0:0:
236,316,79181,1,0,0:0:0:0:
240,300,79273,2,0,L|240:208,1,65,8|0,0:0|0:0,0:0:0:0:
216,160,79645,2,0,L|216:92,1,65,4|0,0:0|0:0,0:0:0:0:
228,84,79924,1,0,0:0:0:0:
240,76,80017,2,0,P|284:72|320:76,1,65,8|0,0:0|0:0,0:0:0:0:
368,116,80388,6,0,L|368:184,1,65,4|0,0:0|0:0,0:0:0:0:
432,228,80760,2,0,L|432:308,1,65,8|0,0:0|0:0,0:0:0:0:
380,352,81131,1,4,0:0:0:0:
308,328,81317,1,2,0:0:0:0:
292,328,81410,1,2,0:0:0:0:
276,328,81503,2,0,L|200:328,1,65,12|0,0:0|0:0,0:0:0:0:
164,264,81874,2,0,P|160:220|168:184,1,65,4|0,0:0|0:0,0:0:0:0:
176,188,82153,1,0,0:0:0:0:
192,180,82246,2,0,L|260:180,1,65,12|0,0:0|0:0,0:0:0:0:
316,224,82617,2,0,L|392:224,1,65,4|0,0:0|0:0,0:0:0:0:
432,172,82989,2,0,P|440:128|428:96,1,65,12|0,0:0|0:0,0:0:0:0:
356,144,83360,6,0,P|348:100|360:68,1,65,4|0,0:0|0:0,0:0:0:0:
432,40,83732,2,0,L|296:40,1,130,12|4,0:0|0:0,0:0:0:0:
248,88,84289,1,2,0:0:0:0:
232,88,84382,1,2,0:0:0:0:
216,88,84475,2,0,L|128:88,1,65,12|0,0:0|0:0,0:0:0:0:
84,116,84846,6,0,P|72:176|100:248,1,130
164,264,85404,1,2,0:0:0:0:
200,264,85496,1,2,0:0:0:0:
236,264,85589,2,0,L|312:260,1,65,8|0,0:0|0:0,0:0:0:0:
316,256,85868,2,0,P|332:200|316:144,1,97.5,8|0,0:0|0:0,0:0:0:0:
272,112,86332,6,0,L|168:104,3,97.5
112,152,87447,2,0,P|108:200|120:236,1,65,10|0,0:0|0:0,0:0:0:0:
180,240,87818,2,0,L|288:240,2,97.5
124,284,88561,2,0,P|120:320|124:348,1,65,2|0,0:0|0:0,0:0:0:0:
144,364,88840,2,0,L|260:360,1,97.5,2|0,0:0|0:0,0:0:0:0:
304,316,89304,2,0,L|424:308,3,97.5
459,260,90419,2,0,P|463:224|463:192,1,65,8|0,0:0|0:0,0:0:0:0:
420,168,90791,2,0,L|536:164,2,97.5
360,208,91534,6,0,P|312:216|276:216,1,65,12|0,0:0|0:0,0:0:0:0:
244,168,91905,2,0,L|244:280,2,97.5
192,120,92648,2,0,P|184:72|192:40,1,65,12|0,0:0|0:0,0:0:0:0:
128,12,93020,2,0,L|248:12,2,97.5
76,60,93763,2,0,P|68:100|88:168,1,97.5,12|0,0:0|0:0,0:0:0:0:
256,192,94134,12,0,101565,0:0:0:0:
