osu file format v14

[General]
AudioFilename: audio.mp3
AudioLeadIn: 0
PreviewTime: 44350
Countdown: 0
SampleSet: Normal
StackLeniency: 0.7
Mode: 2
LetterboxInBreaks: 0
WidescreenStoryboard: 1

[Editor]
Bookmarks: 2743,17974,29862,44722,56610,68497,86329,101560
DistanceSpacing: 1
BeatDivisor: 8
GridSize: 16
TimelineZoom: 3.500002

[Metadata]
Title:Mushi no Sumu Tokoro
TitleUnicode:蟲の棲む処
Artist:Camellia feat. Nana Takahashi
ArtistUnicode:かめりあ feat. Nana Takahashi
Creator:Deif
Version:Secre's Overdose
Source:BeatStream アニムトライヴ
Tags:Secre chickenbible KamelCamellia かめりかめりあ Cametek 高橋菜々 Oya Masaya 大箭将也 a place where bugs live BeatStream2 AnimTribe KONAMI BEMANI jubeat plus Qubell pop'n music popn うさぎと猫と少年の夢 SOUND VOLTEX IV HEAVENLY HAVEN SDVX Gothic Dubstep Electronic Japanese
BeatmapID:3196800
BeatmapSetID:1525823

[Difficulty]
HPDrainRate:5
CircleSize:4.1
OverallDifficulty:9.4
ApproachRate:9.4
SliderMultiplier:2.2
SliderTickRate:2

[Events]
//Background and Video events
0,0,"BG.jpg",0,0
//Break Periods
//Storyboard Layer 0 (Background)
//Storyboard Layer 1 (Fail)
//Storyboard Layer 2 (Pass)
//Storyboard Layer 3 (Foreground)
//Storyboard Layer 4 (Overlay)
//Storyboard Sound Samples

[TimingPoints]
3115,371.494025137762,4,1,1,60,1,0
3115,-50,4,1,1,60,0,0
3393,-100,4,1,0,10,0,0
3440,-100,4,1,0,20,0,0
3486,-100,4,1,0,30,0,0
3532,-100,4,1,0,40,0,0
3579,-100,4,1,0,50,0,0
3672,-100,4,3,0,90,0,0
3857,-100,4,3,0,75,0,0
5343,-100,4,3,0,60,0,0
5715,-100,4,3,0,75,0,0
6086,-100,4,3,0,90,0,0
6458,-100,4,3,0,75,0,0
8315,-66.6666666666667,4,3,0,75,0,0
9058,-50,4,1,1,60,0,0
9337,-100,4,1,0,10,0,0
9384,-100,4,1,0,20,0,0
9430,-100,4,1,0,30,0,0
9476,-100,4,1,0,40,0,0
9523,-100,4,1,0,50,0,0
9616,-100,4,3,0,90,0,0
9801,-100,4,3,0,45,0,0
10544,-100,4,3,0,75,0,0
10730,-100,4,3,0,45,0,0
10916,-100,4,3,0,75,0,0
11102,-100,4,3,0,45,0,0
11659,-100,4,3,0,75,0,0
11845,-100,4,3,0,45,0,0
12031,-100,4,1,1,60,0,0
12123,-100,4,1,0,75,0,0
12588,-100,4,2,0,75,0,0
12680,-100,4,1,0,75,0,0
13238,-100,4,2,0,75,0,0
13331,-100,4,1,0,75,0,0
13423,-100,4,2,0,75,0,0
13609,-100,4,1,0,75,0,0
13888,-100,4,2,0,75,0,0
13981,-100,4,1,0,75,0,0
14166,-100,4,2,0,75,0,0
14259,-100,4,3,0,75,0,0
15002,-100,4,1,0,60,0,0
15374,-100,4,1,0,80,0,0
15745,-100,4,1,0,90,0,0
16117,-100,4,1,0,70,0,0
16488,-100,4,1,0,70,0,0
16860,-100,4,1,0,85,0,0
17231,-100,4,1,0,100,0,0
17603,-100,4,2,0,50,0,0
17727,-100,4,2,0,60,0,0
17850,-100,4,2,0,70,0,0
17974,-100,4,1,1,60,0,1
18160,-100,4,1,0,50,0,1
18346,-100,4,1,1,80,0,1
18717,-100,4,2,0,80,0,1
19089,-100,4,1,0,80,0,1
19367,-100,4,3,0,80,0,1
19832,-100,4,3,0,50,0,1
20017,-100,4,3,0,80,0,1
20203,-100,4,2,0,80,0,1
20435,-50,4,2,0,80,0,1
20482,-100,4,2,0,80,0,1
20621,-50,4,2,0,80,0,1
20668,-100,4,2,0,80,0,1
20853,-100,4,3,0,80,0,1
20946,-100,4,3,0,80,0,1
21132,-100,4,1,0,50,0,1
21318,-100,4,1,1,80,0,1
21689,-100,4,2,0,80,0,1
22061,-100,4,1,0,40,0,1
22339,-100,4,2,0,80,0,1
22432,-100,4,1,0,80,0,1
22525,-100,4,1,1,80,0,1
22618,-100,4,1,0,65,0,1
22711,-100,4,2,0,80,0,1
22804,-100,4,3,0,80,0,1
22897,-100,4,1,1,80,0,1
22990,-100,4,1,0,65,0,1
23083,-100,4,2,0,80,0,1
23175,-100,4,1,0,80,0,1
23268,-100,4,1,1,80,0,1
23361,-100,4,1,0,65,0,1
23454,-100,4,2,0,80,0,1
23547,-100,4,3,0,80,0,1
23640,-100,4,1,1,80,0,1
23732,-100,4,1,0,65,0,0
23825,-100,4,2,0,80,0,0
23918,-100,4,1,1,60,0,1
24104,-100,4,1,0,50,0,1
24290,-100,4,1,1,80,0,1
24661,-100,4,2,0,80,0,1
25033,-100,4,1,0,80,0,1
25311,-100,4,3,0,80,0,1
25776,-100,4,3,0,50,0,1
25961,-100,4,3,0,80,0,1
26147,-100,4,2,0,80,0,1
26379,-50,4,2,0,80,0,1
26426,-100,4,2,0,80,0,1
26565,-50,4,2,0,80,0,1
26611,-100,4,2,0,80,0,1
26797,-100,4,3,0,80,0,1
27262,-45.4545454545455,4,2,0,80,0,1
27447,-100,4,1,0,50,0,1
27633,-100,4,1,0,80,0,1
27680,-100,4,2,0,80,0,1
27819,-100,4,1,0,80,0,1
27865,-100,4,2,0,80,0,1
28005,-100,4,1,0,40,0,1
28283,-100,4,2,0,80,0,1
28376,-100,4,1,0,80,0,1
28469,-100,4,1,1,80,0,1
28562,-100,4,1,0,65,0,1
28655,-100,4,2,0,80,0,1
28748,-100,4,3,0,80,0,1
28841,-100,4,1,1,80,0,1
28934,-100,4,1,0,65,0,1
29027,-100,4,2,0,80,0,1
29119,-100,4,1,0,80,0,1
29212,-100,4,1,1,80,0,1
29305,-100,4,1,0,65,0,1
29398,-100,4,2,0,80,0,1
29491,-100,4,3,0,80,0,1
29584,-100,4,1,1,80,0,1
29676,-100,4,1,0,80,0,1
29769,-100,4,2,0,80,0,1
29862,-100,4,1,1,60,0,0
30234,-100,4,3,0,75,0,0
31348,-100,4,2,0,90,0,0
31720,-100,4,3,0,75,0,0
32834,-100,4,2,0,90,0,0
33206,-100,4,3,0,75,0,0
34320,-100,4,2,0,90,0,0
34691,-100,4,3,0,75,0,0
35063,-100,4,3,0,60,0,0
35434,-100,4,2,0,75,0,0
36177,-100,4,3,0,75,0,0
37292,-100,4,2,0,90,0,0
37478,-100,4,3,0,90,0,0
37664,-100,4,3,0,75,0,0
38406,-100,4,3,0,75,0,0
38778,-100,4,3,0,75,0,0
38964,-100,4,3,0,90,0,0
39057,-100,4,3,0,75,0,0
39335,-100,4,2,0,60,0,0
39428,-100,4,3,0,75,0,0
39707,-100,4,3,0,90,0,0
39800,-100,4,3,0,75,0,0
40078,-100,4,2,0,60,0,0
40171,-100,4,3,0,75,0,0
40450,-100,4,3,0,90,0,0
40543,-100,4,3,0,75,0,0
40821,-100,4,2,0,60,0,0
40914,-100,4,3,0,75,0,0
42121,-100,4,3,0,50,0,0
42493,-100,4,3,0,57,0,0
42864,-100,4,3,0,63,0,0
43236,-100,4,3,0,70,0,0
43607,-100,4,3,0,77,0,0
43979,-100,4,3,0,83,0,0
44350,-100,4,3,0,90,0,0
44722,-100,4,1,1,70,0,1
45093,-100,4,3,0,90,0,1
45186,-100,4,1,1,90,0,1
45836,-100,4,3,0,90,0,1
45929,-100,4,1,1,90,0,1
46579,-100,4,3,0,90,0,1
46672,-100,4,1,1,90,0,1
47044,-100,4,2,0,45,0,1
47137,-100,4,2,0,90,0,1
47229,-100,4,2,0,45,0,1
47322,-100,4,3,0,90,0,1
47415,-100,4,1,1,90,0,1
48065,-100,4,3,0,90,0,1
48158,-100,4,1,1,90,0,1
48808,-100,4,3,0,90,0,1
48901,-100,4,1,1,90,0,1
49551,-100,4,3,0,90,0,1
49644,-100,4,1,1,90,0,1
50108,-100,4,2,0,90,0,1
50201,-100,4,1,1,90,0,1
50294,-100,4,3,0,90,0,1
50387,-100,4,1,1,90,0,1
50480,-100,4,2,0,90,0,1
50573,-100,4,1,1,90,0,1
50666,-100,4,1,1,70,0,1
51037,-100,4,3,0,90,0,1
51130,-100,4,1,1,90,0,1
51780,-100,4,3,0,90,0,1
51873,-100,4,1,1,90,0,1
52523,-100,4,3,0,90,0,1
52616,-100,4,1,1,90,0,1
53266,-100,4,3,0,90,0,1
53359,-100,4,1,1,90,0,1
53638,-100,4,2,0,80,0,0
53823,-100,4,1,1,80,0,0
54381,-83.3333333333333,4,1,1,80,0,0
55495,-66.6666666666667,4,1,1,80,0,0
56052,-100,4,3,0,60,0,0
56145,-100,4,1,1,80,0,0
56424,-100,4,3,0,60,0,0
56517,-100,4,1,1,80,0,0
56610,-100,4,1,1,70,0,1
56795,-100,4,1,1,90,0,1
56981,-100,4,3,0,90,0,1
57074,-100,4,1,1,90,0,1
57724,-100,4,3,0,90,0,1
57817,-100,4,1,1,90,0,1
58467,-100,4,3,0,90,0,1
58560,-100,4,1,1,90,0,1
59210,-100,4,3,0,90,0,1
59303,-100,4,1,1,90,0,1
59582,-50,4,2,0,80,0,0
59767,-100,4,3,0,80,0,0
59953,-100,4,2,0,80,0,0
60139,-100,4,3,0,80,0,0
60371,-100,4,1,0,80,0,0
60417,-100,4,3,0,80,0,0
60464,-100,4,1,0,80,0,0
60510,-100,4,3,0,80,0,0
60557,-100,4,1,0,80,0,0
60603,-100,4,3,0,80,0,0
60650,-100,4,1,0,80,0,0
60696,-100,4,1,1,50,0,0
60882,-100,4,3,0,80,0,0
60975,-100,4,2,0,80,0,0
61253,-100,4,3,0,80,0,0
61439,-100,4,2,0,80,0,0
61624,-100,4,3,0,80,0,0
61811,-100,4,1,0,80,0,0
61996,-100,4,1,1,80,0,0
62089,-100,4,1,0,80,0,0
62275,-100,4,1,1,80,0,0
62368,-100,4,1,0,80,0,0
62461,-100,4,1,1,80,0,0
62554,-100,4,1,1,70,0,1
62739,-100,4,1,1,90,0,1
62925,-100,4,3,0,90,0,1
63018,-100,4,1,1,90,0,1
63668,-100,4,3,0,90,0,1
63761,-100,4,1,1,90,0,1
64411,-66.6666666666667,4,3,0,90,0,1
64504,-66.6666666666667,4,1,1,90,0,1
65061,-100,4,3,0,90,0,1
65154,-100,4,1,1,90,0,1
65525,-100,4,1,0,80,0,0
65711,-100,4,1,1,80,0,0
65804,-100,4,1,0,80,0,0
65990,-100,4,1,1,80,0,0
66083,-100,4,1,0,80,0,0
66454,-100,4,1,1,80,0,0
66547,-100,4,1,0,80,0,0
66733,-100,4,1,1,80,0,0
66826,-100,4,1,0,80,0,0
66919,-100,4,1,1,80,0,0
67012,-100,4,1,0,80,0,0
67197,-100,4,1,1,80,0,0
67290,-100,4,1,0,80,0,0
67476,-100,4,1,1,80,0,0
67569,-100,4,1,0,80,0,0
67754,-50,4,1,1,80,0,0
68497,-100,4,2,0,60,0,0
68683,-100,4,1,0,60,0,0
69240,-100,4,2,0,60,0,0
69426,-100,4,1,1,60,0,0
69983,-100,4,2,0,65,0,0
70169,-100,4,1,0,65,0,0
70726,-100,4,2,0,65,0,0
70912,-100,4,1,1,65,0,0
71469,-100,4,2,0,70,0,0
71562,-100,4,1,0,70,0,0
72212,-100,4,2,0,70,0,0
72305,-100,4,1,1,70,0,0
72955,-100,4,2,0,75,0,0
73002,-100,4,1,1,50,0,0
73327,-100,4,1,1,75,0,0
73373,-100,4,1,1,50,0,0
73698,-100,4,2,0,80,0,0
73745,-100,4,1,1,50,0,0
73884,-100,4,1,1,80,0,0
73930,-100,4,1,1,50,0,0
74070,-100,4,2,0,50,0,0
74163,-100,4,2,0,60,0,0
74256,-100,4,2,0,70,0,0
74348,-100,4,2,0,80,0,0
74441,-100,4,1,1,70,0,1
74627,-100,4,1,0,50,0,1
74813,-100,4,3,0,90,0,1
74906,-100,4,1,1,90,0,1
74999,-100,4,2,0,90,0,1
75091,-100,4,1,1,90,0,1
75370,-100,4,2,0,90,0,1
75462,-100,4,1,1,90,0,1
75556,-100,4,3,0,90,0,1
75649,-100,4,1,1,90,0,1
75742,-100,4,2,0,90,0,1
75834,-100,4,1,1,90,0,1
76113,-100,4,2,0,90,0,1
76205,-100,4,1,1,90,0,1
76299,-100,4,3,0,90,0,1
76392,-100,4,1,1,90,0,1
76485,-100,4,2,0,90,0,1
76577,-100,4,1,1,90,0,1
76856,-100,4,2,0,90,0,1
76948,-100,4,1,1,90,0,1
77042,-100,4,3,0,90,0,1
77135,-100,4,1,1,90,0,1
77228,-100,4,2,0,90,0,1
77320,-100,4,1,1,90,0,1
77413,-100,4,1,1,70,0,1
77599,-100,4,1,0,50,0,1
77785,-100,4,3,0,90,0,1
77878,-100,4,1,1,90,0,1
77971,-100,4,2,0,90,0,1
78063,-100,4,1,1,90,0,1
78342,-100,4,2,0,90,0,1
78434,-100,4,1,1,90,0,1
78528,-100,4,3,0,90,0,1
78621,-100,4,1,1,70,0,1
78806,-100,4,1,1,90,0,1
78899,-100,4,1,0,90,0,1
78992,-100,4,1,1,90,0,1
79085,-100,4,1,0,75,0,1
79178,-100,4,2,0,90,0,1
79271,-100,4,3,0,90,0,1
79364,-100,4,1,1,90,0,1
79457,-100,4,1,0,75,0,1
79550,-100,4,2,0,90,0,1
79642,-100,4,1,0,90,0,1
79735,-100,4,1,1,90,0,1
79828,-100,4,1,0,75,0,1
79921,-100,4,2,0,90,0,1
80014,-100,4,3,0,90,0,1
80107,-100,4,1,1,90,0,1
80200,-100,4,1,0,75,0,1
80293,-100,4,2,0,90,0,1
80385,-100,4,1,1,70,0,1
80571,-100,4,1,0,50,0,1
80757,-100,4,3,0,90,0,1
80850,-100,4,1,1,90,0,1
80943,-100,4,2,0,90,0,1
81035,-100,4,1,1,90,0,1
81314,-100,4,2,0,90,0,1
81406,-100,4,1,1,90,0,1
81500,-100,4,3,0,90,0,1
81593,-100,4,1,1,90,0,1
81686,-100,4,2,0,90,0,1
81778,-100,4,1,1,90,0,1
82057,-100,4,2,0,90,0,1
82149,-100,4,1,1,90,0,1
82243,-100,4,3,0,90,0,1
82336,-100,4,1,1,90,0,1
82429,-100,4,2,0,90,0,1
82521,-100,4,1,1,90,0,1
82800,-100,4,2,0,90,0,1
82892,-100,4,1,1,90,0,1
82986,-100,4,3,0,90,0,1
83079,-100,4,1,1,90,0,1
83172,-100,4,2,0,90,0,1
83264,-100,4,1,1,90,0,1
83729,-100,4,1,0,90,0,1
83914,-100,4,1,0,50,0,1
84100,-100,4,1,1,70,0,1
84286,-100,4,2,0,90,0,1
84378,-100,4,1,1,90,0,1
84472,-100,4,3,0,90,0,1
84565,-100,4,1,1,70,0,1
84750,-100,4,1,1,90,0,1
84843,-100,4,1,0,90,0,1
84936,-100,4,1,1,90,0,1
85029,-100,4,1,0,75,0,1
85122,-100,4,2,0,90,0,1
85215,-100,4,3,0,90,0,1
85308,-100,4,1,1,90,0,1
85401,-100,4,1,0,75,0,1
85494,-100,4,2,0,90,0,1
85586,-100,4,1,0,90,0,1
85772,-100,4,1,1,90,0,1
85865,-100,4,1,0,90,0,1
86051,-100,4,1,1,90,0,1
86144,-100,4,1,0,90,0,1
86236,-100,4,1,1,90,0,1
86329,-100,4,1,0,80,0,0
86608,-100,4,1,0,60,0,0
86886,-100,4,1,0,100,0,0
87165,-100,4,1,0,80,0,0
87444,-100,4,1,0,90,0,0
87537,-100,4,1,0,80,0,0
87629,-100,4,1,0,70,0,0
87722,-100,4,1,0,60,0,0
87815,-100,4,1,0,80,0,0
88094,-100,4,1,0,60,0,0
88372,-100,4,1,0,80,0,0
88558,-100,4,1,1,90,0,0
88744,-100,4,1,1,80,0,0
88930,-100,4,1,1,70,0,0
89115,-100,4,1,1,60,0,0
89301,-100,4,1,0,80,0,0
89580,-100,4,1,0,60,0,0
89858,-100,4,1,0,100,0,0
90137,-100,4,1,0,80,0,0
90416,-100,4,1,0,90,0,0
90509,-100,4,1,0,80,0,0
90601,-100,4,1,0,70,0,0
90694,-100,4,1,0,60,0,0
90787,-100,4,1,0,80,0,0
91066,-100,4,1,0,85,0,0
91344,-100,4,1,0,90,0,0
91437,-100,4,1,1,90,0,0
91902,-100,4,1,0,85,0,0
92180,-100,4,1,0,90,0,0
92459,-100,4,1,0,95,0,0
92552,-100,4,1,1,95,0,0
93016,-100,4,1,0,90,0,0
93295,-100,4,1,0,95,0,0
93573,-100,4,1,0,100,0,0
93666,-100,4,1,1,100,0,0
94038,-100,4,1,1,60,0,0
94131,-100,4,2,0,70,0,0
94874,-100,4,2,0,65,0,0
95617,-100,4,2,0,60,0,0
95802,-100,4,1,1,50,0,0
95989,-100,4,2,0,55,0,0
96731,-100,4,2,0,50,0,0
97474,-100,4,2,0,45,0,0
98217,-100,4,2,0,40,0,0
98960,-100,4,2,0,35,0,0
99703,-100,4,2,0,30,0,0
100446,-100,4,2,0,25,0,0
101189,-100,4,2,0,20,0,0

[Colours]
Combo1 : 213,213,0
Combo2 : 243,90,33
Combo3 : 112,196,193
Combo4 : 106,213,0

[HitObjects]
155,124,2743,6,0,L|104:125,2,27.5,8|2|2,0:0|2:0|2:0,0:0:0:0:
349,71,2929,2,0,L|400:72,2,27.5,8|2|2,0:0|2:0|2:0,0:0:0:0:
151,241,3115,6,0,P|72:183|163:8,1,330,12|2,0:0|0:0,0:0:0:0:
324,336,3486,1,2,0:0:0:0:
262,228,3579,1,2,0:0:0:0:
95,147,3672,2,0,L|15:146,1,55,2|2,0:0|0:0,0:0:0:0:
249,174,3857,2,0,P|254:132|149:76,1,165,10|0,0:0|0:0,0:0:0:0:
389,192,4229,2,0,P|436:173|375:97,1,165,0|0,0:0|0:0,0:0:0:0:
352,93,4554,1,0,0:0:0:0:
191,193,4600,6,0,L|25:192,2,165,2|0|2,0:0|0:0|0:0,0:0:0:0:
394,228,5343,2,0,L|398:110,1,110,8|0,0:0|0:0,0:0:0:0:
187,91,5715,2,0,L|62:86,1,110,2|0,0:0|0:0,0:0:0:0:
135,157,5994,1,0,0:0:0:0:
368,255,6086,6,0,P|313:238|250:142,1,165,2|0,0:0|0:0,0:0:0:0:
360,106,6458,2,0,L|362:223,1,110,0|2,0:0|0:0,0:0:0:0:
292,244,6737,1,2,0:0:0:0:
365,244,6829,2,0,L|187:244,1,165,10|0,0:0|0:0,0:0:0:0:
312,161,7201,2,0,L|440:161,1,110,0|2,0:0|0:0,0:0:0:0:
224,257,7572,6,0,L|351:259,1,110,2|2,0:0|0:0,0:0:0:0:
136,195,7944,2,0,L|8:193,1,110,2|0,0:0|0:0,0:0:0:0:
323,203,8315,2,0,L|154:201,2,165.000006294251,8|0|2,0:0|0:0|0:0,0:0:0:0:
55,126,8873,1,0,0:0:0:0:
377,256,9058,6,0,L|171:399,1,220,12|0,0:0|0:0,0:0:0:0:
276,325,9337,1,2,0:0:0:0:
377,256,9430,1,2,0:0:0:0:
276,324,9523,1,2,0:0:0:0:
56,173,9616,2,0,L|131:172,1,55,2|2,0:0|0:0,0:0:0:0:
316,123,9801,2,0,L|468:126,1,110,10|8,0:0|0:0,0:0:0:0:
218,252,10173,2,0,L|350:244,1,110,10|8,0:0|0:0,0:0:0:0:
39,263,10544,6,0,L|35:140,1,110,10|8,0:0|0:0,0:0:0:0:
229,123,10916,2,0,L|102:124,1,110,10|8,0:0|0:0,0:0:0:0:
378,106,11287,2,0,L|501:102,1,110,8|8,0:0|0:0,0:0:0:0:
168,56,11659,2,0,L|38:57,1,110,10|8,0:0|0:0,0:0:0:0:
392,213,12030,5,12,0:0:0:0:
329,213,12123,1,0,0:0:0:0:
163,137,12216,1,0,0:0:0:0:
102,135,12309,1,0,0:0:0:0:
295,147,12402,1,2,0:0:0:0:
232,151,12495,1,0,0:0:0:0:
390,150,12588,1,2,0:0:0:0:
454,151,12680,1,0,0:0:0:0:
225,309,12773,5,2,0:0:0:0:
231,215,12866,1,0,0:0:0:0:
295,147,12959,1,0,0:0:0:0:
373,141,13052,1,0,0:0:0:0:
180,109,13145,1,0,0:0:0:0:
111,112,13238,1,12,0:0:0:0:
319,234,13331,1,2,0:0:0:0:
240,234,13423,1,2,0:0:0:0:
451,235,13516,5,12,0:0:0:0:
385,233,13609,1,0,0:0:0:0:
312,283,13702,1,0,0:0:0:0:
240,234,13795,1,0,0:0:0:0:
15,230,13888,1,12,0:0:0:0:
81,231,13981,1,0,0:0:0:0:
286,139,14074,1,2,0:0:0:0:
222,139,14166,1,2,0:0:0:0:
396,150,14259,5,12,0:0:0:0:
488,152,14383,1,8,0:0:0:0:
442,105,14445,1,8,0:0:0:0:
396,150,14507,1,8,0:0:0:0:
120,234,14631,1,8,0:0:0:0:
224,235,14755,1,8,0:0:0:0:
120,234,14878,1,8,0:0:0:0:
402,266,15002,6,4,P|452:237|389:119,1,220,0|0,0:0|0:0,0:0:0:0:
171,73,15745,2,0,L|395:74,1,220,0|0,0:0|0:0,0:0:0:0:
19,280,16488,6,0,L|10:35,1,220,0|0,0:0|0:0,0:0:0:0:
447,272,17231,2,0,L|448:29,1,220,0|2,0:0|0:0,0:0:0:0:
419,51,17665,1,2,0:0:0:0:
457,45,17727,1,2,0:0:0:0:
410,54,17789,1,2,0:0:0:0:
457,45,17850,1,2,0:0:0:0:
399,52,17912,1,2,0:0:0:0:
179,236,17974,6,0,P|123:211|185:153,1,165,12|2,0:0|0:0,0:0:0:0:
373,149,18346,2,0,L|376:103,1,36.6666666666667,10|0,0:0|0:0,0:0:0:0:
308,81,18470,2,0,L|257:83,1,36.6666666666667,8|0,0:0|0:0,0:0:0:0:
341,155,18593,2,0,L|383:155,1,36.6666666666667,8|0,0:0|0:0,0:0:0:0:
190,181,18717,6,0,L|104:181,1,55,10|10,0:0|0:0,0:0:0:0:
232,248,18903,2,0,L|321:248,1,55,10|10,0:0|0:0,0:0:0:0:
73,268,19089,2,0,P|28:235|102:172,1,165,8|8,0:0|0:0,0:0:0:0:
130,159,19414,1,8,0:0:0:0:
278,117,19460,6,0,L|339:114,1,55,10|0,0:0|0:0,0:0:0:0:
227,189,19646,2,0,L|166:190,1,55,8|10,0:0|0:0,0:0:0:0:
391,190,19832,2,0,L|508:189,1,110,2|8,0:0|0:0,0:0:0:0:
203,155,20203,2,0,L|321:155,1,110,10|0,0:0|0:0,0:0:0:0:
313,156,20435,2,0,L|164:255,1,165,0|2,0:0|0:0,0:0:0:0:
175,247,20621,2,0,L|313:155,1,165,0|2,0:0|0:0,0:0:0:0:
139,285,20853,1,8,0:0:0:0:
383,269,20946,6,0,P|426:249|376:170,1,165,10|2,0:0|0:0,0:0:0:0:
173,96,21318,2,0,L|131:95,1,36.6666666666667,10|0,0:0|0:0,0:0:0:0:
202,149,21442,2,0,L|246:152,1,36.6666666666667,8|0,0:0|0:0,0:0:0:0:
173,210,21565,2,0,L|119:209,1,36.6666666666667,8|0,0:0|0:0,0:0:0:0:
330,110,21689,2,0,L|404:109,1,55,10|10,0:0|0:0,0:0:0:0:
283,187,21875,2,0,L|206:189,1,55,10|10,0:0|0:0,0:0:0:0:
453,60,22061,6,0,L|462:94,6,27.5,8|8|8|8|8|0|2,0:0|0:0|0:0|0:0|0:0|0:0|0:0,0:0:0:0:
216,160,22432,6,0,L|156:161,1,55,12|0,0:0|0:0,0:0:0:0:
333,96,22618,1,2,0:0:0:0:
111,83,22711,2,0,L|43:84,2,55,2|8|0,0:0|0:0|0:0,0:0:0:0:
346,225,22989,2,0,L|434:227,1,55,2|2,0:0|0:0,0:0:0:0:
198,300,23175,6,0,L|289:298,1,55,8|0,0:0|0:0,0:0:0:0:
428,240,23361,1,2,0:0:0:0:
228,178,23454,2,0,L|150:177,1,55,2|8,0:0|0:0,0:0:0:0:
363,115,23640,1,0,0:0:0:0:
200,96,23732,2,0,L|303:95,1,55,2|2,0:0|0:0,0:0:0:0:
84,257,23918,5,12,0:0:0:0:
52,255,23965,1,0,0:0:0:0:
28,237,24011,1,0,0:0:0:0:
19,208,24057,1,0,0:0:0:0:
26,179,24104,1,2,0:0:0:0:
50,160,24150,1,0,0:0:0:0:
80,157,24197,1,2,0:0:0:0:
278,152,24290,6,0,L|327:154,1,36.6666666666667,10|0,0:0|0:0,0:0:0:0:
251,215,24413,2,0,L|196:217,1,36.6666666666667,8|0,0:0|0:0,0:0:0:0:
281,288,24537,2,0,L|330:291,1,36.6666666666667,8|0,0:0|0:0,0:0:0:0:
146,140,24661,2,0,L|87:143,1,55,10|10,0:0|0:0,0:0:0:0:
190,209,24847,2,0,L|256:211,1,55,10|10,0:0|0:0,0:0:0:0:
71,283,25033,2,0,P|12:249|87:209,1,165,8|8,0:0|0:0,0:0:0:0:
110,187,25358,1,8,0:0:0:0:
271,188,25404,6,0,L|403:192,1,110,10|8,0:0|0:0,0:0:0:0:
320,253,25683,1,10,0:0:0:0:
488,185,25776,2,0,L|490:323,1,110,2|8,0:0|0:0,0:0:0:0:
167,169,26147,2,0,L|285:169,1,110,10|0,0:0|0:0,0:0:0:0:
277,170,26379,2,0,L|128:269,1,165,0|2,0:0|0:0,0:0:0:0:
139,261,26565,2,0,L|277:169,1,165,0|2,0:0|0:0,0:0:0:0:
95,231,26797,1,8,0:0:0:0:
287,231,26890,6,0,L|222:232,3,55,8|0|0|0,0:0|0:0|0:0|0:0,0:0:0:0:
29,183,27262,2,0,B|324:182|324:182|331:113,1,363.000011077881,14|2,0:0|0:0,0:0:0:0:
122,83,27633,2,0,L|69:84,2,27.5,8|2|2,0:0|0:0|0:0,0:0:0:0:
325,45,27819,2,0,L|378:46,2,27.5,8|2|2,0:0|0:0|0:0,0:0:0:0:
63,229,28005,6,0,L|52:201,6,27.5,8|8|8|8|8|0|2,0:0|0:0|0:0|0:0|0:0|0:0|0:0,0:0:0:0:
296,160,28376,6,0,L|356:161,1,55,12|0,0:0|0:0,0:0:0:0:
179,96,28562,1,2,0:0:0:0:
401,83,28655,2,0,L|469:84,2,55,2|8|0,0:0|0:0|0:0,0:0:0:0:
166,225,28933,2,0,L|78:227,1,55,2|2,0:0|0:0,0:0:0:0:
314,300,29119,6,0,L|223:298,1,55,8|0,0:0|0:0,0:0:0:0:
84,240,29305,1,2,0:0:0:0:
284,178,29398,2,0,L|362:177,1,55,2|8,0:0|0:0,0:0:0:0:
118,119,29583,1,0,0:0:0:0:
284,79,29676,1,2,0:0:0:0:
453,73,29769,1,2,0:0:0:0:
262,235,29862,6,0,P|222:212|303:98,1,220,12|0,0:0|0:0,0:0:0:0:
391,105,30419,1,2,0:0:0:0:
215,148,30605,2,0,L|92:149,1,110,10|0,0:0|0:0,0:0:0:0:
293,238,30977,2,0,L|414:237,1,110,2|0,0:0|0:0,0:0:0:0:
136,308,31348,6,0,P|84:271|151:161,1,220,2|0,0:0|0:0,0:0:0:0:
309,157,31905,1,2,0:0:0:0:
146,165,32091,2,0,L|131:31,1,110,10|0,0:0|0:0,0:0:0:0:
294,35,32463,2,0,L|419:36,1,110,2|0,0:0|0:0,0:0:0:0:
159,251,32834,6,0,P|84:233|194:84,1,330,2|0,0:0|0:0,0:0:0:0:
332,212,33577,2,0,P|332:145|181:78,1,220,10|0,0:0|0:0,0:0:0:0:
421,73,34320,6,0,L|430:313,1,220,2|0,0:0|0:0,0:0:0:0:
323,308,34877,1,0,0:0:0:0:
136,170,35063,1,10,0:0:0:0:
209,169,35187,1,0,0:0:0:0:
282,168,35311,1,0,0:0:0:0:
52,239,35434,2,0,L|151:244,2,73.3333333333333,10|10|10,0:0|0:0|0:0,0:0:0:0:
306,290,35806,6,0,P|374:256|268:196,1,220,12|0,0:0|0:0,0:0:0:0:
154,174,36363,1,2,0:0:0:0:
331,146,36549,2,0,L|334:8,1,110,10|0,0:0|0:0,0:0:0:0:
163,28,36920,2,0,L|42:29,1,110,2|0,0:0|0:0,0:0:0:0:
376,230,37292,6,0,L|381:110,1,110,2|0,0:0|0:0,0:0:0:0:
220,117,37663,2,0,L|358:116,1,110,0|2,0:0|0:0,0:0:0:0:
38,239,38035,2,0,L|169:238,1,110,10|0,0:0|0:0,0:0:0:0:
315,227,38406,2,0,L|154:226,1,110,2|0,0:0|0:0,0:0:0:0:
450,168,38778,6,0,L|455:237,3,55,10|0|2|0,0:0|0:0|0:0|0:0,0:0:0:0:
345,156,39149,2,0,L|343:79,1,55,0|0,0:0|0:0,0:0:0:0:
236,110,39335,2,0,L|228:18,1,55,2|0,0:0|0:0,0:0:0:0:
406,32,39521,5,10,0:0:0:0:
456,40,39614,1,0,0:0:0:0:
461,91,39707,1,2,0:0:0:0:
413,110,39800,1,0,0:0:0:0:
293,202,39892,2,0,L|282:130,1,55,0|0,0:0|0:0,0:0:0:0:
392,125,40078,2,0,L|398:52,1,55,2|0,0:0|0:0,0:0:0:0:
206,153,40264,5,10,0:0:0:0:
202,99,40357,1,0,0:0:0:0:
239,60,40450,1,2,0:0:0:0:
292,61,40543,1,0,0:0:0:0:
183,75,40635,2,0,L|174:4,1,55,0|0,0:0|0:0,0:0:0:0:
347,86,40821,2,0,L|355:27,1,55,2|0,0:0|0:0,0:0:0:0:
99,247,41007,5,10,0:0:0:0:
71,246,41053,1,0,0:0:0:0:
49,231,41100,1,0,0:0:0:0:
41,205,41146,1,0,0:0:0:0:
48,179,41193,1,0,0:0:0:0:
69,162,41239,1,0,0:0:0:0:
96,161,41286,1,0,0:0:0:0:
344,213,41378,5,0,0:0:0:0:
371,213,41425,1,0,0:0:0:0:
393,197,41471,1,0,0:0:0:0:
403,172,41518,1,0,0:0:0:0:
396,146,41564,1,0,0:0:0:0:
376,128,41611,1,0,0:0:0:0:
349,125,41657,1,0,0:0:0:0:
124,256,41750,6,0,L|108:11,1,220,6|8,0:0|0:0,0:0:0:0:
458,36,42493,2,0,L|469:297,1,220,8|8,0:0|0:0,0:0:0:0:
353,288,43050,1,0,0:0:0:0:
55,187,43236,5,8,0:0:0:0:
135,191,43360,1,0,0:0:0:0:
55,187,43484,1,0,0:0:0:0:
280,207,43607,1,8,0:0:0:0:
181,211,43731,1,0,0:0:0:0:
280,207,43855,1,0,0:0:0:0:
476,287,43979,5,8,0:0:0:0:
401,293,44072,1,0,0:0:0:0:
476,287,44165,1,0,0:0:0:0:
401,293,44257,1,0,0:0:0:0:
224,98,44350,1,10,0:0:0:0:
148,100,44443,1,0,0:0:0:0:
354,58,44536,1,10,0:0:0:0:
423,57,44629,1,0,0:0:0:0:
225,245,44722,6,0,P|231:185|347:142,1,165,12|0,0:0|0:0,0:0:0:0:
148,133,45093,1,8,0:0:0:0:
76,133,45186,1,0,0:0:0:0:
238,190,45279,1,2,0:0:0:0:
388,187,45372,1,2,0:0:0:0:
238,190,45465,2,0,L|31:187,1,165,8|0,0:0|0:0,0:0:0:0:
301,115,45836,2,0,L|378:117,3,55,8|0|0|0,0:0|0:0|0:0|0:0,0:0:0:0:
171,248,46208,6,0,P|123:203|198:148,1,165,10|0,0:0|0:0,0:0:0:0:
345,160,46579,1,8,0:0:0:0:
256,128,46672,1,0,0:0:0:0:
166,104,46765,1,0,0:0:0:0:
76,94,46858,1,0,0:0:0:0:
318,244,46951,6,0,L|381:243,1,55,8|2,0:0|0:0,0:0:0:0:
216,169,47137,1,2,0:0:0:0:
291,168,47229,1,2,0:0:0:0:
132,156,47322,2,0,L|104:82,1,55,8|0,0:0|0:0,0:0:0:0:
215,90,47508,2,0,L|249:31,1,55,0|0,0:0|0:0,0:0:0:0:
72,180,47694,6,0,P|79:117|170:89,1,165,10|0,0:0|0:0,0:0:0:0:
363,137,48065,2,0,L|372:58,1,55,8|0,0:0|0:0,0:0:0:0:
199,58,48251,1,2,0:0:0:0:
271,55,48344,1,2,0:0:0:0:
112,200,48437,6,0,P|62:176|128:116,1,165,8|0,0:0|0:0,0:0:0:0:
392,142,48808,1,8,0:0:0:0:
310,141,48901,1,0,0:0:0:0:
228,151,48994,1,0,0:0:0:0:
144,153,49087,1,0,0:0:0:0:
394,249,49180,6,0,P|447:229|382:148,1,165,10|0,0:0|0:0,0:0:0:0:
136,225,49551,1,8,0:0:0:0:
221,215,49644,1,0,0:0:0:0:
306,211,49737,1,0,0:0:0:0:
390,206,49830,1,0,0:0:0:0:
160,99,49923,5,8,0:0:0:0:
262,99,50062,1,0,0:0:0:0:
160,99,50201,1,0,0:0:0:0:
408,229,50294,1,8,0:0:0:0:
328,232,50387,1,0,0:0:0:0:
408,229,50480,1,2,0:0:0:0:
328,232,50573,1,0,0:0:0:0:
134,256,50666,6,0,P|75:227|154:165,1,165,12|0,0:0|0:0,0:0:0:0:
291,123,51037,1,8,0:0:0:0:
363,118,51130,1,0,0:0:0:0:
211,39,51223,1,2,0:0:0:0:
139,44,51316,1,2,0:0:0:0:
393,242,51409,6,0,P|446:215|367:147,1,165,8|0,0:0|0:0,0:0:0:0:
150,205,51780,1,8,0:0:0:0:
235,201,51873,1,0,0:0:0:0:
320,197,51966,1,0,0:0:0:0:
405,194,52059,1,0,0:0:0:0:
141,118,52152,6,0,L|16:120,1,110,10|0,0:0|0:0,0:0:0:0:
276,237,52523,1,8,0:0:0:0:
106,231,52709,1,0,0:0:0:0:
362,155,52895,5,8,0:0:0:0:
153,155,52988,1,10,0:0:0:0:
126,150,53034,1,0,0:0:0:0:
115,126,53080,1,0,0:0:0:0:
126,103,53127,1,0,0:0:0:0:
152,98,53173,1,8,0:0:0:0:
333,84,53266,1,10,0:0:0:0:
407,83,53359,1,8,0:0:0:0:
243,213,53452,1,8,0:0:0:0:
317,210,53545,1,8,0:0:0:0:
76,287,53638,6,0,L|290:288,1,165,12|0,0:0|0:0,0:0:0:0:
481,237,54009,1,8,0:0:0:0:
413,239,54102,1,0,0:0:0:0:
252,155,54195,1,2,0:0:0:0:
320,153,54288,1,0,0:0:0:0:
59,111,54381,6,0,L|221:111,1,131.99999597168,8|0,0:0|0:0,0:0:0:0:
448,119,54752,1,0,0:0:0:0:
291,103,54938,1,2,0:0:0:0:
358,100,55031,1,2,0:0:0:0:
100,228,55124,6,0,P|58:180|115:162,1,131.99999597168,10|0,0:0|0:0,0:0:0:0:
257,150,55402,1,0,0:0:0:0:
425,263,55495,2,0,L|166:259,1,247.500009441376,8|2,0:0|0:0,0:0:0:0:
345,175,55867,6,0,L|423:151,1,82.5000031471254,8|0,0:0|0:0,0:0:0:0:
240,79,56052,1,8,0:0:0:0:
310,76,56145,1,0,0:0:0:0:
132,151,56238,1,8,0:0:0:0:
200,151,56331,1,0,0:0:0:0:
132,151,56424,1,8,0:0:0:0:
200,151,56517,1,0,0:0:0:0:
396,266,56610,6,0,P|448:239|374:187,1,165,12|0,0:0|0:0,0:0:0:0:
174,168,56981,2,0,L|43:176,1,110,8|0,0:0|0:0,0:0:0:0:
234,133,57353,2,0,L|369:130,1,110,8|0,0:0|0:0,0:0:0:0:
177,56,57724,2,0,L|33:54,1,110,8|0,0:0|0:0,0:0:0:0:
397,221,58096,6,0,P|452:187|382:136,1,165,10|0,0:0|0:0,0:0:0:0:
204,87,58467,1,10,0:0:0:0:
153,88,58529,1,0,0:0:0:0:
204,87,58591,1,0,0:0:0:0:
256,85,58653,1,2,0:0:0:0:
204,87,58715,1,0,0:0:0:0:
153,88,58777,1,0,0:0:0:0:
442,122,58839,2,0,L|244:122,2,165,8|2|2,0:0|0:0|0:0,0:0:0:0:
188,335,59582,6,0,B|336:176|336:176|272:80,1,330,12|0,0:0|0:0,0:0:0:0:
328,85,59953,2,0,L|273:82,1,55,8|0,0:0|0:0,0:0:0:0:
120,168,60139,2,0,L|65:166,1,55,8|0,0:0|0:0,0:0:0:0:
337,148,60325,2,0,L|415:150,1,55,8|2,0:0|0:0,0:0:0:0:
225,48,60510,1,2,0:0:0:0:
295,44,60603,1,2,0:0:0:0:
140,207,60696,5,2,0:0:0:0:
113,204,60743,1,2,0:0:0:0:
92,186,60789,1,2,0:0:0:0:
85,160,60835,1,2,0:0:0:0:
93,135,60882,1,2,0:0:0:0:
115,118,60928,1,0,0:0:0:0:
142,117,60975,1,2,0:0:0:0:
384,119,61068,5,10,0:0:0:0:
142,117,61253,1,8,0:0:0:0:
289,174,61439,1,8,0:0:0:0:
219,175,61532,1,0,0:0:0:0:
384,119,61625,1,8,0:0:0:0:
454,118,61718,1,0,0:0:0:0:
171,228,61811,6,0,L|48:227,1,110,8|2,0:0|0:0,0:0:0:0:
271,165,62089,2,0,L|405:164,1,110,8|2,0:0|0:0,0:0:0:0:
231,96,62368,1,8,0:0:0:0:
75,100,62461,1,2,0:0:0:0:
231,96,62554,6,0,L|233:172,1,55,12|0,0:0|0:0,0:0:0:0:
75,100,62739,1,0,0:0:0:0:
231,96,62832,1,0,0:0:0:0:
388,91,62925,2,0,L|466:90,1,55,8|0,0:0|0:0,0:0:0:0:
287,148,63111,2,0,L|218:151,1,55,0|0,0:0|0:0,0:0:0:0:
427,234,63297,6,0,P|474:216|414:151,1,165,8|0,0:0|0:0,0:0:0:0:
233,121,63668,2,0,L|159:120,1,55,8|0,0:0|0:0,0:0:0:0:
274,184,63854,2,0,L|352:183,1,55,0|0,0:0|0:0,0:0:0:0:
101,228,64040,6,0,P|56:207|119:144,1,165,8|2,0:0|0:0,0:0:0:0:
316,127,64411,2,0,L|147:127,1,165.000006294251,8|2,0:0|0:0,0:0:0:0:
440,214,64783,6,0,L|247:212,1,165.000006294251,8|2,0:0|0:0,0:0:0:0:
62,207,65061,2,0,L|181:207,1,110,8|2,0:0|0:0,0:0:0:0:
376,132,65340,1,8,0:0:0:0:
306,133,65433,1,0,0:0:0:0:
61,159,65525,6,0,L|56:24,1,110,10|2,0:0|0:0,0:0:0:0:
226,113,65804,2,0,L|224:43,2,55,10|0|2,0:0|0:0|0:0,0:0:0:0:
406,105,66083,2,0,L|405:31,1,55,10|0,0:0|0:0,0:0:0:0:
232,230,66268,6,0,L|229:103,1,110,10|2,0:0|0:0,0:0:0:0:
63,137,66547,2,0,L|58:12,1,110,10|2,0:0|0:0,0:0:0:0:
232,68,66826,2,0,L|230:0,1,55,10|2,0:0|0:0,0:0:0:0:
396,24,67011,6,0,L|397:67,4,27.5,10|0|0|0|2,0:0|0:0|0:0|0:0|0:0,0:0:0:0:
232,68,67290,2,0,L|233:29,4,27.5,10|0|0|0|2,0:0|0:0|0:0|0:0|0:0,0:0:0:0:
68,148,67569,2,0,L|66:101,2,27.5,10|0|0,0:0|0:0|0:0,0:0:0:0:
346,115,67754,6,0,B|347:334|347:334|155:224|155:224|347:333,1,660,8|8,0:0|0:0,0:0:0:0:
55,260,68497,6,0,L|52:26,1,220,6|0,0:0|0:0,0:0:0:0:
348,81,69240,2,0,L|112:82,1,220,10|8,0:0|0:0,0:0:0:0:
156,132,69658,1,2,2:0:0:0:
184,129,69705,1,2,2:0:0:0:
239,128,69798,1,8,0:0:0:0:
211,128,69844,1,2,2:0:0:0:
184,128,69891,1,2,2:0:0:0:
377,248,69983,6,0,P|428:221|355:101,1,220,6|0,0:0|0:0,0:0:0:0:
98,163,70726,2,0,L|339:162,1,220,10|8,0:0|0:0,0:0:0:0:
345,133,71144,1,0,0:0:0:0:
374,112,71191,1,8,0:0:0:0:
374,112,71237,1,0,0:0:0:0:
345,133,71284,1,8,0:0:0:0:
101,259,71469,6,0,L|93:128,1,110,6|0,0:0|0:0,0:0:0:0:
250,123,71841,2,0,L|371:120,1,110,0|0,0:0|0:0,0:0:0:0:
60,108,72212,2,0,L|47:-18,1,110,10|0,0:0|0:0,0:0:0:0:
336,22,72584,2,0,L|463:20,1,110,8|0,0:0|0:0,0:0:0:0:
196,164,72955,6,0,L|79:162,1,110,10|0,0:0|0:0,0:0:0:0:
383,73,73327,2,0,L|498:71,1,110,8|0,0:0|0:0,0:0:0:0:
106,221,73698,2,0,L|103:108,1,110,10|8,0:0|0:0,0:0:0:0:
182,112,73977,1,0,0:0:0:0:
103,111,74070,5,2,0:0:0:0:
73,94,74116,1,2,0:0:0:0:
70,60,74163,1,2,0:0:0:0:
99,40,74209,1,2,0:0:0:0:
139,36,74256,1,2,0:0:0:0:
139,36,74302,1,2,0:0:0:0:
97,40,74348,1,2,0:0:0:0:
334,135,74441,6,0,L|469:134,1,110,12|2,0:0|0:0,0:0:0:0:
378,187,74720,1,2,0:0:0:0:
124,237,74813,1,8,0:0:0:0:
195,238,74906,1,0,0:0:0:0:
124,237,74999,1,2,0:0:0:0:
195,238,75091,1,2,0:0:0:0:
400,236,75184,6,0,L|411:173,1,55,8|0,0:0|0:0,0:0:0:0:
217,140,75370,2,0,L|207:67,1,55,2|0,0:0|0:0,0:0:0:0:
430,121,75556,2,0,L|256:118,1,165,8|2,0:0|0:0,0:0:0:0:
467,232,75927,6,0,P|506:189|427:121,1,165,8|2,0:0|0:0,0:0:0:0:
250,149,76299,2,0,L|187:149,1,55,8|0,0:0|0:0,0:0:0:0:
291,228,76485,2,0,L|365:227,1,55,2|2,0:0|0:0,0:0:0:0:
125,291,76670,5,8,0:0:0:0:
203,292,76763,1,0,0:0:0:0:
281,293,76856,1,2,0:0:0:0:
360,294,76949,1,2,0:0:0:0:
203,292,77042,1,8,0:0:0:0:
281,293,77135,1,0,0:0:0:0:
359,294,77228,1,2,0:0:0:0:
438,295,77320,1,0,0:0:0:0:
123,204,77413,5,12,0:0:0:0:
95,202,77460,1,0,0:0:0:0:
74,186,77506,1,0,0:0:0:0:
64,161,77553,1,0,0:0:0:0:
71,134,77599,1,2,0:0:0:0:
91,116,77645,1,2,0:0:0:0:
118,113,77692,1,2,0:0:0:0:
358,150,77785,2,0,L|362:77,1,55,8|0,0:0|0:0,0:0:0:0:
284,90,77971,1,2,0:0:0:0:
361,95,78063,1,2,0:0:0:0:
185,212,78156,6,0,L|110:215,1,55,8|0,0:0|0:0,0:0:0:0:
229,276,78342,2,0,L|317:276,1,55,2|2,0:0|0:0,0:0:0:0:
61,133,78528,2,0,L|61:93,6,27.5,8|0|2|2|0|0|0,0:0|0:0|0:0|0:0|0:0|0:0|0:0,0:0:0:0:
255,76,78899,5,12,0:0:0:0:
448,71,78992,2,0,L|452:157,1,55,0|2,0:0|0:0,0:0:0:0:
288,157,79178,1,2,0:0:0:0:
125,269,79271,1,8,0:0:0:0:
201,264,79364,1,0,0:0:0:0:
277,262,79457,1,2,0:0:0:0:
352,259,79549,1,2,0:0:0:0:
185,175,79642,5,8,0:0:0:0:
19,172,79735,2,0,L|11:84,1,55,0|2,0:0|0:0,0:0:0:0:
100,88,79921,1,2,0:0:0:0:
303,133,80014,1,8,0:0:0:0:
227,133,80107,1,0,0:0:0:0:
304,135,80200,1,2,0:0:0:0:
227,133,80292,1,2,0:0:0:0:
416,248,80385,5,12,0:0:0:0:
443,246,80432,1,0,0:0:0:0:
464,230,80478,1,0,0:0:0:0:
474,205,80525,1,0,0:0:0:0:
468,179,80571,1,2,0:0:0:0:
448,160,80617,1,2,0:0:0:0:
421,156,80664,1,2,0:0:0:0:
227,204,80757,2,0,L|218:127,1,55,8|0,0:0|0:0,0:0:0:0:
325,104,80942,2,0,L|331:31,1,55,2|2,0:0|0:0,0:0:0:0:
54,117,81128,5,8,0:0:0:0:
133,114,81221,1,0,0:0:0:0:
211,111,81314,1,2,0:0:0:0:
290,108,81407,1,0,0:0:0:0:
133,114,81500,1,8,0:0:0:0:
211,110,81593,1,0,0:0:0:0:
290,108,81685,1,2,0:0:0:0:
211,110,81778,1,2,0:0:0:0:
380,226,81871,6,0,L|450:229,1,55,8|0,0:0|0:0,0:0:0:0:
333,285,82057,2,0,L|252:282,1,55,2|2,0:0|0:0,0:0:0:0:
488,163,82243,1,8,0:0:0:0:
414,161,82336,1,0,0:0:0:0:
341,161,82428,1,2,0:0:0:0:
268,161,82521,1,2,0:0:0:0:
99,195,82614,6,0,L|193:195,1,55,8|0,0:0|0:0,0:0:0:0:
374,101,82800,2,0,L|449:101,1,55,2|2,0:0|0:0,0:0:0:0:
265,73,82986,1,8,0:0:0:0:
194,68,83079,1,0,0:0:0:0:
21,93,83171,1,2,0:0:0:0:
194,68,83264,1,0,0:0:0:0:
375,47,83357,5,8,0:0:0:0:
402,47,83404,1,0,0:0:0:0:
424,62,83450,1,0,0:0:0:0:
434,87,83497,1,0,0:0:0:0:
428,113,83543,1,0,0:0:0:0:
409,132,83589,1,0,0:0:0:0:
382,136,83636,1,0,0:0:0:0:
154,238,83729,1,14,0:0:0:0:
224,238,83822,1,0,0:0:0:0:
400,234,83914,1,2,0:0:0:0:
470,236,84007,1,2,0:0:0:0:
234,147,84100,6,0,L|228:81,1,55,8|0,0:0|0:0,0:0:0:0:
308,60,84286,1,2,0:0:0:0:
229,92,84379,1,2,0:0:0:0:
446,72,84472,2,0,L|450:119,6,27.5,8|0|2|2|0|0|0,0:0|0:0|0:0|0:0|0:0|0:0|0:0,0:0:0:0:
273,194,84843,5,12,0:0:0:0:
94,182,84936,2,0,L|83:102,1,55,0|2,0:0|0:0,0:0:0:0:
258,93,85122,1,2,0:0:0:0:
425,93,85215,2,0,L|432:170,1,55,8|0,0:0|0:0,0:0:0:0:
258,93,85400,1,2,0:0:0:0:
80,86,85493,1,2,0:0:0:0:
231,170,85586,6,0,L|297:171,1,55,12|0,0:0|0:0,0:0:0:0:
445,146,85772,1,8,0:0:0:0:
254,128,85865,2,0,L|254:52,1,55,8|0,0:0|0:0,0:0:0:0:
422,52,86051,1,8,0:0:0:0:
254,73,86143,1,8,0:0:0:0:
91,103,86236,1,8,0:0:0:0:
253,73,86329,6,0,L|378:71,1,110,14|0,0:0|0:0,0:0:0:0:
180,208,86608,2,0,L|49:206,1,110,10|0,0:0|0:0,0:0:0:0:
276,260,86886,2,0,L|409:261,1,110,10|0,0:0|0:0,0:0:0:0:
167,125,87165,2,0,L|42:124,1,110,10|0,0:0|0:0,0:0:0:0:
280,87,87444,6,0,L|280:120,6,27.5,0|0|0|0|0|0|0,0:0|0:0|0:0|0:0|0:0|0:0|0:0,0:0:0:0:
85,189,87815,6,0,L|221:185,1,110,14|0,0:0|0:0,0:0:0:0:
432,184,88094,2,0,L|317:184,1,110,10|0,0:0|0:0,0:0:0:0:
84,117,88372,2,0,L|160:114,1,55,10|0,0:0|0:0,0:0:0:0:
396,85,88558,6,0,L|441:88,2,27.5,8|2|2,0:0|0:0|0:0,0:0:0:0:
191,159,88744,2,0,L|138:158,2,36.6666666666667,8|0|0,0:0|0:0|0:0,0:0:0:0:
422,266,88930,1,8,0:0:0:0:
477,236,89022,1,2,0:0:0:0:
474,173,89115,1,8,0:0:0:0:
414,150,89208,1,2,0:0:0:0:
149,223,89301,6,0,L|136:92,1,110,14|0,0:0|0:0,0:0:0:0:
377,130,89580,2,0,L|383:9,1,110,10|0,0:0|0:0,0:0:0:0:
145,98,89858,2,0,L|131:-23,1,110,10|0,0:0|0:0,0:0:0:0:
382,87,90137,2,0,L|395:-42,1,110,10|0,0:0|0:0,0:0:0:0:
159,187,90416,6,0,L|147:146,6,27.5,0|0|0|0|0|0|0,0:0|0:0|0:0|0:0|0:0|0:0|0:0,0:0:0:0:
416,235,90787,6,0,P|467:207|466:142,1,110,14|0,0:0|0:0,0:0:0:0:
221,170,91066,2,0,P|168:138|159:86,1,110,10|0,0:0|0:0,0:0:0:0:
409,116,91344,2,0,L|482:114,1,55,10|0,0:0|0:0,0:0:0:0:
436,115,91484,1,0,0:0:0:0:
300,224,91530,2,0,L|244:224,1,55,8|2,0:0|0:0,0:0:0:0:
414,191,91716,2,0,L|411:125,1,55,8|0,0:0|0:0,0:0:0:0:
163,103,91902,6,0,L|27:102,1,110,14|0,0:0|0:0,0:0:0:0:
308,157,92180,2,0,L|443:157,1,110,10|0,0:0|0:0,0:0:0:0:
142,210,92459,2,0,L|70:208,1,55,10|0,0:0|0:0,0:0:0:0:
115,164,92598,1,0,0:0:0:0:
283,105,92645,2,0,L|361:101,1,55,8|2,0:0|0:0,0:0:0:0:
88,82,92830,1,8,0:0:0:0:
480,92,93016,6,0,L|339:90,1,110,14|0,0:0|0:0,0:0:0:0:
66,69,93295,2,0,L|195:65,1,110,10|0,0:0|0:0,0:0:0:0:
430,59,93573,2,0,L|437:133,1,55,10|0,0:0|0:0,0:0:0:0:
399,139,93713,1,0,0:0:0:0:
173,184,93759,2,0,L|93:182,1,55,8|2,0:0|0:0,0:0:0:0:
484,257,94038,5,12,0:0:0:0:
256,192,94131,12,2,95617,0:0:0:0:
256,192,95802,5,12,0:0:0:0:
256,192,95988,12,2,101560,0:0:0:0:
