osu file format v14

[General]
AudioFilename: audio.mp3
AudioLeadIn: 0
PreviewTime: 44350
Countdown: 0
SampleSet: Normal
StackLeniency: 0.7
Mode: 2
LetterboxInBreaks: 0
WidescreenStoryboard: 0

[Editor]
Bookmarks: 2743,17974,29862,44722,56610,68497,86329,101560
DistanceSpacing: 1
BeatDivisor: 4
GridSize: 16
TimelineZoom: 1.200003

[Metadata]
Title:Mushi no Sumu Tokoro
TitleUnicode:蟲の棲む処
Artist:Camellia feat. Nana Takahashi
ArtistUnicode:かめりあ feat. Nana Takahashi
Creator:Deif
Version:Salad
Source:BeatStream アニムトライヴ
Tags:Secre chickenbible KamelCamellia かめりかめりあ Cametek 高橋菜々 Oya Masaya 大箭将也 a place where bugs live BeatStream2 AnimTribe KONAMI BEMANI jubeat plus Qubell pop'n music popn うさぎと猫と少年の夢 SOUND VOLTEX IV HEAVENLY HAVEN SDVX Gothic Dubstep Electronic Japanese
BeatmapID:3121804
BeatmapSetID:1525823

[Difficulty]
HPDrainRate:4
CircleSize:3
OverallDifficulty:7
ApproachRate:7
SliderMultiplier:1.3
SliderTickRate:1

[Events]
//Background and Video events
0,0,"BG.jpg",0,0
//Break Periods
//Storyboard Layer 0 (Background)
//Storyboard Layer 1 (Fail)
//Storyboard Layer 2 (Pass)
//Storyboard Layer 3 (Foreground)
//Storyboard Layer 4 (Overlay)
//Storyboard Sound Samples

[TimingPoints]
3115,371.494025137762,4,1,1,60,1,0
3393,-100,4,1,0,10,0,0
3440,-100,4,1,0,20,0,0
3486,-100,4,1,0,30,0,0
3532,-100,4,1,0,40,0,0
3579,-100,4,1,0,50,0,0
3672,-100,4,3,0,90,0,0
3857,-100,4,3,0,75,0,0
5343,-100,4,3,0,60,0,0
5715,-100,4,3,0,75,0,0
6086,-100,4,3,0,90,0,0
6458,-100,4,3,0,75,0,0
9058,-100,4,1,1,60,0,0
9337,-100,4,1,0,10,0,0
9384,-100,4,1,0,20,0,0
9430,-100,4,1,0,30,0,0
9476,-100,4,1,0,40,0,0
9523,-100,4,1,0,50,0,0
9616,-100,4,3,0,90,0,0
9801,-100,4,3,0,45,0,0
10544,-100,4,3,0,75,0,0
10730,-100,4,3,0,45,0,0
10916,-100,4,3,0,75,0,0
11102,-100,4,3,0,45,0,0
11659,-100,4,3,0,75,0,0
11845,-100,4,3,0,45,0,0
12031,-100,4,1,1,60,0,0
12123,-100,4,1,0,75,0,0
12588,-100,4,2,0,75,0,0
12680,-100,4,1,0,75,0,0
13238,-100,4,2,0,75,0,0
13331,-100,4,1,0,75,0,0
13423,-100,4,2,0,75,0,0
13609,-100,4,1,0,75,0,0
13888,-100,4,2,0,75,0,0
13981,-100,4,1,0,75,0,0
14166,-100,4,2,0,75,0,0
14259,-100,4,3,0,75,0,0
15002,-100,4,1,0,60,0,0
15374,-100,4,1,0,80,0,0
15745,-100,4,1,0,90,0,0
16117,-100,4,1,0,70,0,0
16488,-100,4,1,0,70,0,0
16860,-100,4,1,0,85,0,0
17231,-100,4,1,0,100,0,0
17603,-100,4,2,0,50,0,0
17727,-100,4,2,0,60,0,0
17850,-100,4,2,0,70,0,0
17974,-66.6666666666667,4,1,1,60,0,1
18160,-66.6666666666667,4,1,0,50,0,1
18346,-100,4,1,1,80,0,1
18717,-100,4,2,0,80,0,1
19089,-100,4,1,0,80,0,1
19367,-100,4,3,0,80,0,1
19832,-100,4,3,0,50,0,1
20017,-100,4,3,0,80,0,1
20203,-100,4,2,0,80,0,1
20482,-100,4,1,0,80,0,1
20505,-100,4,2,0,80,0,1
20668,-100,4,1,0,80,0,1
20691,-100,4,2,0,80,0,1
20853,-100,4,3,0,80,0,1
20946,-66.6666666666667,4,3,0,80,0,1
21132,-66.6666666666667,4,1,0,50,0,1
21318,-100,4,1,1,80,0,1
21689,-100,4,2,0,80,0,1
22061,-100,4,1,0,40,0,1
22339,-100,4,2,0,80,0,1
22432,-100,4,1,0,80,0,1
22525,-100,4,1,1,80,0,1
22618,-100,4,1,0,65,0,1
22711,-100,4,2,0,80,0,1
22804,-100,4,3,0,80,0,1
22897,-100,4,1,1,80,0,1
22990,-100,4,1,0,65,0,1
23083,-100,4,2,0,80,0,1
23175,-100,4,1,0,80,0,1
23268,-100,4,1,1,80,0,1
23361,-100,4,1,0,65,0,1
23454,-100,4,2,0,80,0,1
23547,-100,4,3,0,80,0,1
23640,-100,4,1,1,80,0,1
23732,-100,4,1,0,65,0,0
23825,-100,4,2,0,80,0,0
23918,-66.6666666666667,4,1,1,60,0,1
24104,-66.6666666666667,4,1,0,50,0,1
24290,-100,4,1,1,80,0,1
24661,-100,4,2,0,80,0,1
25033,-100,4,1,0,80,0,1
25311,-100,4,3,0,80,0,1
25776,-100,4,3,0,50,0,1
25961,-100,4,3,0,80,0,1
26147,-100,4,2,0,80,0,1
26426,-100,4,1,0,80,0,1
26449,-100,4,2,0,80,0,1
26612,-100,4,1,0,80,0,1
26635,-100,4,2,0,80,0,1
26797,-100,4,3,0,80,0,1
27262,-66.6666666666667,4,2,0,80,0,1
27447,-66.6666666666667,4,1,0,50,0,1
27633,-100,4,1,0,80,0,1
27680,-100,4,2,0,80,0,1
27819,-100,4,1,0,80,0,1
27865,-100,4,2,0,80,0,1
28005,-100,4,1,0,40,0,1
28283,-100,4,2,0,80,0,1
28376,-100,4,1,0,80,0,1
28469,-100,4,1,1,80,0,1
28562,-100,4,1,0,65,0,1
28655,-100,4,2,0,80,0,1
28748,-100,4,3,0,80,0,1
28841,-100,4,1,1,80,0,1
28934,-100,4,1,0,65,0,1
29027,-100,4,2,0,80,0,1
29119,-100,4,1,0,80,0,1
29212,-100,4,1,1,80,0,1
29305,-100,4,1,0,65,0,1
29398,-100,4,2,0,80,0,1
29491,-100,4,3,0,80,0,1
29584,-100,4,1,1,80,0,1
29676,-100,4,1,0,80,0,1
29769,-100,4,2,0,80,0,1
29862,-100,4,1,1,60,0,0
30234,-100,4,3,0,75,0,0
31348,-100,4,2,0,90,0,0
31720,-100,4,3,0,75,0,0
32834,-100,4,2,0,90,0,0
33206,-100,4,3,0,75,0,0
34320,-100,4,2,0,90,0,0
34691,-100,4,3,0,75,0,0
35063,-100,4,3,0,60,0,0
35434,-66.6666666666667,4,2,0,75,0,0
36177,-100,4,3,0,75,0,0
37292,-100,4,2,0,90,0,0
37478,-100,4,3,0,90,0,0
37664,-100,4,3,0,75,0,0
38406,-100,4,3,0,75,0,0
38778,-100,4,3,0,75,0,0
38964,-100,4,3,0,90,0,0
39057,-100,4,3,0,75,0,0
39335,-100,4,2,0,60,0,0
39428,-100,4,3,0,75,0,0
39707,-100,4,3,0,90,0,0
39800,-100,4,3,0,75,0,0
40078,-100,4,2,0,60,0,0
40171,-100,4,3,0,75,0,0
40450,-100,4,3,0,90,0,0
40543,-100,4,3,0,75,0,0
40821,-100,4,2,0,60,0,0
40914,-100,4,3,0,75,0,0
42121,-100,4,3,0,50,0,0
42493,-100,4,3,0,57,0,0
42864,-100,4,3,0,63,0,0
43236,-100,4,3,0,70,0,0
43607,-100,4,3,0,77,0,0
43979,-100,4,3,0,83,0,0
44350,-100,4,3,0,90,0,0
44722,-100,4,1,1,70,0,1
45093,-100,4,3,0,90,0,1
45186,-100,4,1,1,90,0,1
45836,-100,4,3,0,90,0,1
45929,-100,4,1,1,90,0,1
46579,-100,4,3,0,90,0,1
46672,-100,4,1,1,90,0,1
47044,-100,4,2,0,45,0,1
47137,-100,4,2,0,90,0,1
47229,-100,4,2,0,45,0,1
47322,-100,4,3,0,90,0,1
47415,-100,4,1,1,90,0,1
48065,-100,4,3,0,90,0,1
48158,-100,4,1,1,90,0,1
48808,-100,4,3,0,90,0,1
48901,-100,4,1,1,90,0,1
49551,-100,4,3,0,90,0,1
49644,-100,4,1,1,90,0,1
50108,-100,4,2,0,90,0,1
50201,-100,4,1,1,90,0,1
50294,-100,4,3,0,90,0,1
50387,-100,4,1,1,90,0,1
50480,-100,4,2,0,90,0,1
50573,-100,4,1,1,90,0,1
50666,-100,4,1,1,70,0,1
51037,-100,4,3,0,90,0,1
51130,-100,4,1,1,90,0,1
51780,-100,4,3,0,90,0,1
51873,-100,4,1,1,90,0,1
52523,-100,4,3,0,90,0,1
52616,-100,4,1,1,90,0,1
53266,-100,4,3,0,90,0,1
53359,-100,4,1,1,90,0,1
53638,-100,4,2,0,80,0,0
53823,-100,4,1,1,80,0,0
56052,-100,4,3,0,60,0,0
56145,-100,4,1,1,80,0,0
56424,-100,4,3,0,60,0,0
56517,-100,4,1,1,80,0,0
56610,-100,4,1,1,70,0,1
56795,-100,4,1,1,90,0,1
56981,-100,4,3,0,90,0,1
57074,-100,4,1,1,90,0,1
57724,-100,4,3,0,90,0,1
57817,-100,4,1,1,90,0,1
58467,-100,4,3,0,90,0,1
58560,-100,4,1,1,90,0,1
59210,-100,4,3,0,90,0,1
59303,-100,4,1,1,90,0,1
59582,-100,4,2,0,80,0,0
59767,-100,4,3,0,80,0,0
59953,-100,4,2,0,80,0,0
60139,-100,4,3,0,80,0,0
60371,-100,4,1,0,80,0,0
60417,-100,4,3,0,80,0,0
60464,-100,4,1,0,80,0,0
60510,-100,4,3,0,80,0,0
60557,-100,4,1,0,80,0,0
60603,-100,4,3,0,80,0,0
60650,-100,4,1,0,80,0,0
60696,-100,4,1,1,50,0,0
60882,-100,4,3,0,80,0,0
60975,-100,4,2,0,80,0,0
61253,-100,4,3,0,80,0,0
61439,-100,4,2,0,80,0,0
61624,-100,4,3,0,80,0,0
61811,-100,4,1,0,80,0,0
61996,-100,4,1,1,80,0,0
62089,-100,4,1,0,80,0,0
62275,-100,4,1,1,80,0,0
62368,-100,4,1,0,80,0,0
62461,-100,4,1,1,80,0,0
62554,-100,4,1,1,70,0,1
62739,-100,4,1,1,90,0,1
62925,-100,4,3,0,90,0,1
63018,-100,4,1,1,90,0,1
63668,-100,4,3,0,90,0,1
63761,-100,4,1,1,90,0,1
64411,-100,4,3,0,90,0,1
64504,-100,4,1,1,90,0,1
65061,-100,4,3,0,90,0,1
65154,-100,4,1,1,90,0,1
65525,-100,4,1,0,80,0,0
65711,-100,4,1,1,80,0,0
65804,-100,4,1,0,80,0,0
65990,-100,4,1,1,80,0,0
66083,-100,4,1,0,80,0,0
66454,-100,4,1,1,80,0,0
66547,-100,4,1,0,80,0,0
66733,-100,4,1,1,80,0,0
66826,-100,4,1,0,80,0,0
66919,-100,4,1,1,80,0,0
67012,-100,4,1,0,80,0,0
67197,-100,4,1,1,80,0,0
67290,-100,4,1,0,80,0,0
67476,-100,4,1,1,80,0,0
67569,-100,4,1,0,80,0,0
67754,-100,4,1,1,80,0,0
68497,-100,4,2,0,60,0,0
68683,-100,4,1,0,60,0,0
69240,-100,4,2,0,60,0,0
69426,-100,4,1,1,60,0,0
69983,-100,4,2,0,65,0,0
70169,-100,4,1,0,65,0,0
70726,-100,4,2,0,65,0,0
70912,-100,4,1,1,65,0,0
71469,-100,4,2,0,70,0,0
71562,-100,4,1,0,70,0,0
72212,-100,4,2,0,70,0,0
72305,-100,4,1,1,70,0,0
72955,-100,4,2,0,75,0,0
73002,-100,4,1,1,50,0,0
73327,-100,4,1,1,75,0,0
73373,-100,4,1,1,50,0,0
73698,-100,4,2,0,80,0,0
73745,-100,4,1,1,50,0,0
73884,-100,4,1,1,80,0,0
73930,-100,4,1,1,50,0,0
74070,-100,4,2,0,50,0,0
74163,-100,4,2,0,60,0,0
74256,-100,4,2,0,70,0,0
74348,-100,4,2,0,80,0,0
74441,-100,4,1,1,70,0,1
74627,-100,4,1,0,50,0,1
74813,-100,4,3,0,90,0,1
74906,-100,4,1,1,90,0,1
74999,-100,4,2,0,90,0,1
75091,-100,4,1,1,90,0,1
75370,-100,4,2,0,90,0,1
75462,-100,4,1,1,90,0,1
75556,-100,4,3,0,90,0,1
75649,-100,4,1,1,90,0,1
75742,-100,4,2,0,90,0,1
75834,-100,4,1,1,90,0,1
76113,-100,4,2,0,90,0,1
76205,-100,4,1,1,90,0,1
76299,-100,4,3,0,90,0,1
76392,-100,4,1,1,90,0,1
76485,-100,4,2,0,90,0,1
76577,-100,4,1,1,90,0,1
76856,-100,4,2,0,90,0,1
76948,-100,4,1,1,90,0,1
77042,-100,4,3,0,90,0,1
77135,-100,4,1,1,90,0,1
77228,-100,4,2,0,90,0,1
77320,-100,4,1,1,90,0,1
77413,-100,4,1,1,70,0,1
77599,-100,4,1,0,50,0,1
77785,-100,4,3,0,90,0,1
77878,-100,4,1,1,90,0,1
77971,-100,4,2,0,90,0,1
78063,-100,4,1,1,90,0,1
78342,-100,4,2,0,90,0,1
78434,-100,4,1,1,90,0,1
78528,-100,4,3,0,90,0,1
78621,-100,4,1,1,70,0,1
78806,-100,4,1,1,90,0,1
78899,-100,4,1,0,90,0,1
78992,-100,4,1,1,90,0,1
79085,-100,4,1,0,75,0,1
79178,-100,4,2,0,90,0,1
79271,-100,4,3,0,90,0,1
79364,-100,4,1,1,90,0,1
79457,-100,4,1,0,75,0,1
79550,-100,4,2,0,90,0,1
79642,-100,4,1,0,90,0,1
79735,-100,4,1,1,90,0,1
79828,-100,4,1,0,75,0,1
79921,-100,4,2,0,90,0,1
80014,-100,4,3,0,90,0,1
80107,-100,4,1,1,90,0,1
80200,-100,4,1,0,75,0,1
80293,-100,4,2,0,90,0,1
80385,-100,4,1,1,70,0,1
80571,-100,4,1,0,50,0,1
80757,-100,4,3,0,90,0,1
80850,-100,4,1,1,90,0,1
80943,-100,4,2,0,90,0,1
81035,-100,4,1,1,90,0,1
81314,-100,4,2,0,90,0,1
81406,-100,4,1,1,90,0,1
81500,-100,4,3,0,90,0,1
81593,-100,4,1,1,90,0,1
81686,-100,4,2,0,90,0,1
81778,-100,4,1,1,90,0,1
82057,-100,4,2,0,90,0,1
82149,-100,4,1,1,90,0,1
82243,-100,4,3,0,90,0,1
82336,-100,4,1,1,90,0,1
82429,-100,4,2,0,90,0,1
82521,-100,4,1,1,90,0,1
82800,-100,4,2,0,90,0,1
82892,-100,4,1,1,90,0,1
82986,-100,4,3,0,90,0,1
83079,-100,4,1,1,90,0,1
83172,-100,4,2,0,90,0,1
83264,-100,4,1,1,90,0,1
83729,-100,4,1,0,90,0,1
83914,-100,4,1,0,50,0,1
84100,-100,4,1,1,70,0,1
84286,-100,4,2,0,90,0,1
84378,-100,4,1,1,90,0,1
84472,-100,4,3,0,90,0,1
84565,-100,4,1,1,70,0,1
84750,-100,4,1,1,90,0,1
84843,-100,4,1,0,90,0,1
84936,-100,4,1,1,90,0,1
85029,-100,4,1,0,75,0,1
85122,-100,4,2,0,90,0,1
85215,-100,4,3,0,90,0,1
85308,-100,4,1,1,90,0,1
85401,-100,4,1,0,75,0,1
85494,-100,4,2,0,90,0,1
85586,-100,4,1,0,90,0,1
85772,-100,4,1,1,90,0,1
85865,-100,4,1,0,90,0,1
86051,-100,4,1,1,90,0,1
86144,-100,4,1,0,90,0,1
86236,-100,4,1,1,90,0,1
86329,-100,4,1,0,80,0,0
86608,-100,4,1,0,60,0,0
86886,-100,4,1,0,100,0,0
87165,-100,4,1,0,80,0,0
87444,-100,4,1,0,90,0,0
87537,-100,4,1,0,80,0,0
87629,-100,4,1,0,70,0,0
87722,-100,4,1,0,60,0,0
87815,-100,4,1,0,80,0,0
88094,-100,4,1,0,60,0,0
88372,-100,4,1,0,80,0,0
88558,-100,4,1,1,90,0,0
88744,-100,4,1,1,80,0,0
88930,-100,4,1,1,70,0,0
89115,-100,4,1,1,60,0,0
89301,-100,4,1,0,80,0,0
89580,-100,4,1,0,60,0,0
89858,-100,4,1,0,100,0,0
90137,-100,4,1,0,80,0,0
90416,-100,4,1,0,90,0,0
90509,-100,4,1,0,80,0,0
90601,-100,4,1,0,70,0,0
90694,-100,4,1,0,60,0,0
90787,-100,4,1,0,80,0,0
91066,-100,4,1,0,85,0,0
91344,-100,4,1,0,90,0,0
91437,-100,4,1,1,90,0,0
91902,-83.3333333333333,4,1,0,85,0,0
92180,-83.3333333333333,4,1,0,90,0,0
92459,-100,4,1,0,95,0,0
92552,-100,4,1,1,95,0,0
93016,-71.4285714285714,4,1,0,90,0,0
93295,-71.4285714285714,4,1,0,95,0,0
93573,-100,4,1,0,100,0,0
93666,-100,4,1,1,100,0,0
94038,-100,4,1,1,60,0,0
94131,-100,4,2,0,70,0,0
94874,-100,4,2,0,65,0,0
95617,-100,4,2,0,60,0,0
95802,-100,4,1,1,50,0,0
95989,-100,4,2,0,55,0,0
96731,-100,4,2,0,50,0,0
97474,-100,4,2,0,45,0,0
98217,-100,4,2,0,40,0,0
98960,-100,4,2,0,35,0,0
99703,-100,4,2,0,30,0,0
100446,-100,4,2,0,25,0,0
101189,-100,4,2,0,20,0,0

[Colours]
Combo1 : 213,213,0
Combo2 : 243,90,33
Combo3 : 112,196,193
Combo4 : 106,213,0

[HitObjects]
352,256,2743,6,0,L|368:192,1,65,8|8,0:0|0:0,0:0:0:0:
192,192,3115,6,0,P|160:128|240:48,1,195,12|2,0:0|0:0,0:0:0:0:
320,48,3857,2,0,L|176:48,1,130,10|0,0:0|0:0,0:0:0:0:
352,48,4600,6,0,P|368:112|352:176,1,130,2|2,0:0|0:0,0:0:0:0:
224,192,5343,1,8,0:0:0:0:
96,192,5715,1,2,0:0:0:0:
256,192,6086,6,0,P|288:128|208:48,1,195,2|2,0:0|0:0,0:0:0:0:
128,48,6829,2,0,P|112:112|128:176,1,130,10|0,0:0|0:0,0:0:0:0:
288,192,7572,6,0,L|144:192,1,130,2|2,0:0|0:0,0:0:0:0:
320,192,8315,1,8,0:0:0:0:
128,192,8873,1,0,0:0:0:0:
304,192,9058,6,0,P|320:128|304:64,1,130,12|2,0:0|0:0,0:0:0:0:
224,32,9616,1,2,0:0:0:0:
304,64,9801,2,0,L|448:64,1,130,10|10,0:0|0:0,0:0:0:0:
272,192,10544,6,0,L|416:192,1,130,10|10,0:0|0:0,0:0:0:0:
240,64,11287,1,8,0:0:0:0:
400,64,11659,1,10,0:0:0:0:
112,64,12030,6,0,P|72:116|112:144,1,130,12|2,0:0|0:0,0:0:0:0:
208,192,12588,1,2,0:0:0:0:
304,144,12773,2,0,P|344:92|304:64,1,130,2|0,0:0|0:0,0:0:0:0:
208,16,13331,1,2,0:0:0:0:
384,192,13516,6,0,L|384:256,1,65,12|0,0:0|0:0,0:0:0:0:
208,320,13888,1,12,0:0:0:0:
112,320,14074,1,2,0:0:0:0:
208,320,14259,2,0,L|208:256,1,65,12|8,0:0|0:0,0:0:0:0:
112,320,14631,2,0,L|112:256,1,65,8|0,0:0|0:0,0:0:0:0:
288,192,15002,5,0,0:0:0:0:
256,192,15374,12,2,17603,0:0:0:0:
320,256,17974,6,0,L|224:240,1,97.50000371933,12|2,0:0|0:0,0:0:0:0:
400,192,18346,2,0,P|432:160|448:80,1,130,10|10,0:0|0:0,0:0:0:0:
448,48,18903,1,10,0:0:0:0:
272,48,19089,2,0,L|272:112,1,65,8|0,0:0|0:0,0:0:0:0:
368,192,19460,6,0,L|480:192,2,97.5,10|10|8,0:0|0:0|0:0,0:0:0:0:
272,192,20203,1,10,0:0:0:0:
272,160,20296,2,0,P|256:128|272:104,1,65,10|10,0:0|0:0,0:0:0:0:
368,80,20668,1,10,0:0:0:0:
272,80,20853,1,8,0:0:0:0:
272,80,20946,6,0,L|368:96,1,97.50000371933,10|2,0:0|0:0,0:0:0:0:
192,192,21318,2,0,P|160:160|144:80,1,130,10|10,0:0|0:0,0:0:0:0:
144,48,21875,1,10,0:0:0:0:
320,48,22061,2,0,L|400:48,1,65,8|8,0:0|0:0,0:0:0:0:
208,192,22432,5,12,0:0:0:0:
112,192,22618,2,0,L|112:128,1,65,2|8,0:0|0:0,0:0:0:0:
208,128,22989,1,2,0:0:0:0:
384,192,23175,2,0,L|496:192,2,97.5,8|2|2,0:0|0:0|0:0,0:0:0:0:
208,256,23918,6,0,L|112:240,1,97.50000371933,12|2,0:0|0:0,0:0:0:0:
288,192,24290,2,0,P|320:160|336:80,1,130,10|10,0:0|0:0,0:0:0:0:
336,48,24847,1,10,0:0:0:0:
160,48,25033,2,0,L|160:112,1,65,8|0,0:0|0:0,0:0:0:0:
256,192,25404,6,0,L|368:192,2,97.5,10|10|8,0:0|0:0|0:0,0:0:0:0:
160,192,26147,1,10,0:0:0:0:
160,160,26240,2,0,P|144:128|160:104,1,65,10|10,0:0|0:0,0:0:0:0:
256,80,26611,1,10,0:0:0:0:
160,80,26797,1,8,0:0:0:0:
160,80,26890,6,0,P|144:112|160:136,1,65,8|0,0:0|0:0,0:0:0:0:
336,192,27262,2,0,L|432:208,1,97.50000371933,14|2,0:0|0:0,0:0:0:0:
256,64,27633,2,0,L|256:128,1,65,8|8,0:0|0:0,0:0:0:0:
352,192,28005,2,0,L|416:192,1,65,8|8,0:0|0:0,0:0:0:0:
241,192,28376,5,12,0:0:0:0:
145,192,28562,2,0,L|145:128,1,65,2|8,0:0|0:0,0:0:0:0:
241,128,28933,1,2,0:0:0:0:
417,192,29119,2,0,L|305:192,2,97.5,8|2|2,0:0|0:0|0:0,0:0:0:0:
241,256,29862,5,12,0:0:0:0:
48,192,30419,1,2,0:0:0:0:
144,192,30605,2,0,L|208:192,1,65,10|0,0:0|0:0,0:0:0:0:
209,128,30977,2,0,L|144:128,1,65,2|0,0:0|0:0,0:0:0:0:
48,128,31348,5,2,0:0:0:0:
272,192,31905,1,2,0:0:0:0:
176,192,32091,2,0,L|112:192,1,65,10|0,0:0|0:0,0:0:0:0:
111,256,32463,2,0,L|176:256,1,65,2|0,0:0|0:0,0:0:0:0:
272,288,32834,6,0,P|336:248|272:176,1,195,2|0,0:0|0:0,0:0:0:0:
176,192,33577,2,0,L|160:56,1,130,10|0,0:0|0:0,0:0:0:0:
304,192,34320,6,0,L|176:160,1,130,2|0,0:0|0:0,0:0:0:0:
320,192,35063,1,10,0:0:0:0:
192,192,35434,2,0,B|288:176|288:176|192:192,1,195.00000743866,10|12,0:0|0:0,0:0:0:0:
48,192,36363,5,2,0:0:0:0:
144,192,36549,2,0,L|144:112,1,65,10|0,0:0|0:0,0:0:0:0:
48,192,36920,2,0,L|48:128,1,65,2|0,0:0|0:0,0:0:0:0:
144,192,37292,5,2,0:0:0:0:
368,192,37849,1,2,0:0:0:0:
464,257,38035,2,0,L|464:192,1,65,10|0,0:0|0:0,0:0:0:0:
368,257,38406,2,0,L|368:192,1,65,2|0,0:0|0:0,0:0:0:0:
464,192,38778,5,10,0:0:0:0:
368,192,38964,2,0,P|320:160|288:96,1,130,2|2,0:0|0:0,0:0:0:0:
384,192,39521,1,10,0:0:0:0:
288,192,39707,2,0,P|240:224|208:288,1,130,2|2,0:0|0:0,0:0:0:0:
304,192,40264,5,10,0:0:0:0:
208,192,40450,2,0,P|192:128|208:64,1,130,2|2,0:0|0:0,0:0:0:0:
304,64,41007,2,0,P|364:120|304:192,1,195,10|0,0:0|0:0,0:0:0:0:
128,192,41750,5,6,0:0:0:0:
256,192,42121,12,10,44350,0:0:0:0:
193,63,44722,6,0,L|320:32,1,130,12|8,0:0|0:0,0:0:0:0:
320,32,45279,1,2,0:0:0:0:
144,64,45465,2,0,L|144:128,1,65,8|0,0:0|0:0,0:0:0:0:
240,192,45836,2,0,L|176:192,1,65,8|0,0:0|0:0,0:0:0:0:
352,192,46208,6,0,L|480:160,1,130,10|8,0:0|0:0,0:0:0:0:
304,192,46951,2,0,L|304:128,1,65,8|2,0:0|0:0,0:0:0:0:
400,112,47322,1,8,0:0:0:0:
113,111,47694,6,0,L|240:80,1,130,10|8,0:0|0:0,0:0:0:0:
240,80,48251,1,2,0:0:0:0:
64,192,48437,2,0,L|48:128,1,65,8|0,0:0|0:0,0:0:0:0:
144,192,48808,2,0,L|160:128,1,65,8|0,0:0|0:0,0:0:0:0:
64,192,49180,5,10,0:0:0:0:
144,192,49366,1,0,0:0:0:0:
224,192,49551,1,8,0:0:0:0:
144,192,49737,1,0,0:0:0:0:
320,192,49923,2,0,L|320:128,1,65,8|2,0:0|0:0,0:0:0:0:
240,96,50294,1,8,0:0:0:0:
144,96,50480,1,2,0:0:0:0:
319,63,50666,6,0,L|192:32,1,130,12|8,0:0|0:0,0:0:0:0:
192,32,51223,1,2,0:0:0:0:
368,64,51409,2,0,L|368:128,1,65,8|0,0:0|0:0,0:0:0:0:
272,192,51780,2,0,L|336:192,1,65,8|0,0:0|0:0,0:0:0:0:
160,192,52152,6,0,L|32:160,1,130,10|8,0:0|0:0,0:0:0:0:
208,192,52895,2,0,L|208:128,1,65,8|0,0:0|0:0,0:0:0:0:
128,96,53266,1,10,0:0:0:0:
208,64,53452,1,8,0:0:0:0:
384,64,53638,6,0,P|428:100|384:144,1,130,12|8,0:0|0:0,0:0:0:0:
304,192,54195,1,2,0:0:0:0:
384,192,54381,1,8,0:0:0:0:
464,192,54566,1,0,0:0:0:0:
464,272,54752,1,0,0:0:0:0:
384,272,54938,1,2,0:0:0:0:
208,64,55124,6,0,P|164:100|208:144,1,130,10|8,0:0|0:0,0:0:0:0:
288,192,55681,1,2,0:0:0:0:
112,192,55867,2,0,L|96:256,1,65,8|8,0:0|0:0,0:0:0:0:
192,192,56238,2,0,L|208:256,1,65,8|8,0:0|0:0,0:0:0:0:
32,192,56610,5,12,0:0:0:0:
192,144,56981,2,0,L|64:112,1,130,8|8,0:0|0:0,0:0:0:0:
224,64,57724,1,8,0:0:0:0:
384,112,58096,6,0,P|400:176|384:240,1,130,10|10,0:0|0:0,0:0:0:0:
304,256,58653,1,2,0:0:0:0:
384,112,58839,2,0,L|480:96,2,97.5,8|2|2,0:0|0:0|0:0,0:0:0:0:
208,112,59582,6,0,L|144:112,1,65,12|8,0:0|0:0,0:0:0:0:
384,192,60325,2,0,L|384:128,1,65,8|2,0:0|0:0,0:0:0:0:
304,96,60696,1,2,0:0:0:0:
384,64,60882,1,2,0:0:0:0:
208,192,61068,6,0,L|144:192,1,65,10|8,0:0|0:0,0:0:0:0:
304,192,61625,1,8,0:0:0:0:
224,192,61811,2,0,L|128:176,2,97.5,8|8|8,0:0|0:0|0:0,0:0:0:0:
400,192,62554,5,12,0:0:0:0:
240,144,62925,2,0,L|368:112,1,130,8|8,0:0|0:0,0:0:0:0:
208,64,63668,1,8,0:0:0:0:
48,112,64040,6,0,P|32:176|48:240,1,130,8|8,0:0|0:0,0:0:0:0:
128,288,64597,1,2,0:0:0:0:
48,336,64783,2,0,L|144:320,2,97.5,8|8|8,0:0|0:0|0:0,0:0:0:0:
224,336,65525,6,0,L|320:320,1,97.5,10|10,0:0|0:0,0:0:0:0:
192,272,66083,1,10,0:0:0:0:
368,256,66268,2,0,L|448:176,1,97.5,10|10,0:0|0:0,0:0:0:0:
304,176,66826,1,10,0:0:0:0:
480,112,67011,6,0,L|496:16,1,97.5,10|10,0:0|0:0,0:0:0:0:
368,16,67569,1,10,0:0:0:0:
192,16,67754,2,0,P|156:72|192:112,1,130,8|8,0:0|0:0,0:0:0:0:
480,192,68497,6,0,P|496:128|480:64,1,130,6|0,0:0|0:0,0:0:0:0:
320,64,69240,2,0,L|448:32,1,130,10|8,0:0|0:0,0:0:0:0:
384,32,69798,1,8,0:0:0:0:
208,192,69983,6,0,P|192:256|208:320,1,130,6|0,0:0|0:0,0:0:0:0:
368,320,70726,2,0,L|240:352,1,130,10|8,0:0|0:0,0:0:0:0:
240,272,71284,1,8,0:0:0:0:
416,272,71469,6,0,L|416:208,1,65,6|0,0:0|0:0,0:0:0:0:
352,176,71841,1,0,0:0:0:0:
192,208,72212,2,0,L|320:176,1,130,10|8,0:0|0:0,0:0:0:0:
158,160,72955,6,0,L|32:192,1,130,10|8,0:0|0:0,0:0:0:0:
192,160,73698,2,0,L|192:224,1,65,10|8,0:0|0:0,0:0:0:0:
96,256,74070,1,2,0:0:0:0:
384,256,74441,5,12,0:0:0:0:
464,256,74627,1,2,0:0:0:0:
384,256,74813,1,8,0:0:0:0:
224,256,75184,2,0,L|224:192,1,65,8|2,0:0|0:0,0:0:0:0:
304,160,75556,1,8,0:0:0:0:
224,128,75742,1,2,0:0:0:0:
128,160,75927,6,0,L|128:224,1,65,8|2,0:0|0:0,0:0:0:0:
224,256,76299,1,8,0:0:0:0:
384,256,76670,1,8,0:0:0:0:
464,256,76856,1,2,0:0:0:0:
464,176,77042,1,8,0:0:0:0:
384,176,77228,1,2,0:0:0:0:
208,176,77413,5,12,0:0:0:0:
128,176,77599,1,2,0:0:0:0:
208,176,77785,1,8,0:0:0:0:
368,176,78156,2,0,L|368:112,1,65,8|2,0:0|0:0,0:0:0:0:
288,80,78528,1,8,0:0:0:0:
368,48,78714,1,0,0:0:0:0:
192,192,78899,6,0,L|176:256,1,65,12|2,0:0|0:0,0:0:0:0:
288,320,79271,2,0,L|304:256,1,65,8|2,0:0|0:0,0:0:0:0:
192,192,79642,2,0,L|192:256,1,65,8|2,0:0|0:0,0:0:0:0:
304,320,80014,2,0,L|304:256,1,65,8|2,0:0|0:0,0:0:0:0:
128,256,80385,5,12,0:0:0:0:
48,256,80571,1,2,0:0:0:0:
128,256,80757,1,8,0:0:0:0:
288,256,81128,2,0,L|288:192,1,65,8|2,0:0|0:0,0:0:0:0:
208,160,81500,1,8,0:0:0:0:
288,128,81685,1,2,0:0:0:0:
384,160,81871,6,0,L|384:224,1,65,8|2,0:0|0:0,0:0:0:0:
288,256,82243,1,8,0:0:0:0:
128,256,82614,1,8,0:0:0:0:
48,256,82800,1,2,0:0:0:0:
48,176,82986,1,8,0:0:0:0:
128,176,83171,1,2,0:0:0:0:
48,176,83357,5,8,0:0:0:0:
352,176,83729,1,14,0:0:0:0:
272,208,83914,1,2,0:0:0:0:
192,176,84100,2,0,L|192:112,1,65,8|2,0:0|0:0,0:0:0:0:
272,80,84472,1,8,0:0:0:0:
192,48,84657,1,0,0:0:0:0:
368,192,84843,6,0,L|384:256,1,65,12|2,0:0|0:0,0:0:0:0:
272,320,85215,2,0,L|256:256,1,65,8|2,0:0|0:0,0:0:0:0:
368,192,85586,2,0,L|464:176,2,97.5,12|8|8,0:0|0:0|0:0,0:0:0:0:
192,192,86329,6,0,L|96:224,1,97.5,14|10,0:0|0:0,0:0:0:0:
240,240,86886,2,0,L|336:272,1,97.5,10|10,0:0|0:0,0:0:0:0:
192,288,87444,1,0,0:0:0:0:
480,192,87815,6,0,L|384:208,2,97.5,14|10|10,0:0|0:0|0:0,0:0:0:0:
384,192,88558,1,8,0:0:0:0:
368,128,88744,1,8,0:0:0:0:
384,64,88930,1,8,0:0:0:0:
480,64,89115,1,8,0:0:0:0:
304,192,89301,6,0,L|208:224,1,97.5,14|10,0:0|0:0,0:0:0:0:
352,240,89858,2,0,L|448:272,1,97.5,10|10,0:0|0:0,0:0:0:0:
304,288,90416,1,0,0:0:0:0:
16,192,90787,6,0,L|112:160,2,97.5,14|10|10,0:0|0:0|0:0,0:0:0:0:
96,224,91530,1,8,0:0:0:0:
16,256,91716,1,8,0:0:0:0:
192,192,91902,6,0,L|320:176,2,116.999996429443,14|10|10,0:0|0:0|0:0,0:0:0:0:
272,224,92645,1,8,0:0:0:0:
192,256,92830,1,8,0:0:0:0:
368,192,93016,6,0,L|512:192,2,136.499995834351,14|10|10,0:0|0:0|0:0,0:0:0:0:
448,224,93759,1,8,0:0:0:0:
176,192,94038,5,12,0:0:0:0:
256,192,94316,12,0,95431,0:0:0:0:
256,192,95802,5,12,0:0:0:0:
256,192,96174,12,2,101560,0:0:0:0:
