osu file format v14

[General]
AudioFilename: audio.mp3
AudioLeadIn: 0
PreviewTime: 44350
Countdown: 0
SampleSet: Normal
StackLeniency: 0.7
Mode: 2
LetterboxInBreaks: 0
WidescreenStoryboard: 1

[Editor]
Bookmarks: 2743,17974,29862,44722,56610,68497,86329,101560
DistanceSpacing: 1.3
BeatDivisor: 4
GridSize: 16
TimelineZoom: 2.300001

[Metadata]
Title:Mushi no Sumu Tokoro
TitleUnicode:蟲の棲む処
Artist:Camellia feat. Nana Takahashi
ArtistUnicode:かめりあ feat. Nana Takahashi
Creator:Deif
Version:Rain
Source:BeatStream アニムトライヴ
Tags:Secre chickenbible KamelCamellia かめりかめりあ Cametek 高橋菜々 Oya Masaya 大箭将也 a place where bugs live BeatStream2 AnimTribe KONAMI BEMANI jubeat plus Qubell pop'n music popn うさぎと猫と少年の夢 SOUND VOLTEX IV HEAVENLY HAVEN SDVX Gothic Dubstep Electronic Japanese
BeatmapID:3121803
BeatmapSetID:1525823

[Difficulty]
HPDrainRate:6
CircleSize:4
OverallDifficulty:9
ApproachRate:9
SliderMultiplier:1.9
SliderTickRate:1

[Events]
//Background and Video events
0,0,"BG.jpg",0,0
//Break Periods
//Storyboard Layer 0 (Background)
//Storyboard Layer 1 (Fail)
//Storyboard Layer 2 (Pass)
//Storyboard Layer 3 (Foreground)
//Storyboard Layer 4 (Overlay)
//Storyboard Sound Samples

[TimingPoints]
3115,371.494025137762,4,1,1,60,1,0
3115,-66.6666666666667,4,1,1,60,0,0
3393,-100,4,1,0,10,0,0
3440,-100,4,1,0,20,0,0
3486,-100,4,1,0,30,0,0
3532,-100,4,1,0,40,0,0
3579,-100,4,1,0,50,0,0
3672,-100,4,3,0,90,0,0
3857,-100,4,3,0,75,0,0
5343,-100,4,3,0,60,0,0
5715,-100,4,3,0,75,0,0
6086,-100,4,3,0,90,0,0
6458,-100,4,3,0,75,0,0
9058,-66.6666666666667,4,1,1,60,0,0
9337,-100,4,1,0,10,0,0
9384,-100,4,1,0,20,0,0
9430,-100,4,1,0,30,0,0
9476,-100,4,1,0,40,0,0
9523,-100,4,1,0,50,0,0
9616,-100,4,3,0,90,0,0
9801,-100,4,3,0,45,0,0
10544,-100,4,3,0,75,0,0
10730,-100,4,3,0,45,0,0
10916,-100,4,3,0,75,0,0
11102,-100,4,3,0,45,0,0
11659,-100,4,3,0,75,0,0
11845,-100,4,3,0,45,0,0
12031,-100,4,1,1,60,0,0
12123,-100,4,1,0,75,0,0
12588,-100,4,2,0,75,0,0
12680,-100,4,1,0,75,0,0
13238,-100,4,2,0,75,0,0
13331,-100,4,1,0,75,0,0
13423,-100,4,2,0,75,0,0
13609,-100,4,1,0,75,0,0
13888,-100,4,2,0,75,0,0
13981,-100,4,1,0,75,0,0
14166,-100,4,2,0,75,0,0
14259,-100,4,3,0,75,0,0
15002,-100,4,1,0,60,0,0
15374,-100,4,1,0,80,0,0
15745,-100,4,1,0,90,0,0
16117,-100,4,1,0,70,0,0
16488,-100,4,1,0,70,0,0
16860,-100,4,1,0,85,0,0
17231,-100,4,1,0,100,0,0
17603,-100,4,2,0,50,0,0
17727,-100,4,2,0,60,0,0
17850,-100,4,2,0,70,0,0
17974,-66.6666666666667,4,1,1,60,0,1
18160,-66.6666666666667,4,1,0,50,0,1
18346,-100,4,1,1,80,0,1
18717,-100,4,2,0,80,0,1
19089,-100,4,1,0,80,0,1
19367,-100,4,3,0,80,0,1
19832,-100,4,3,0,50,0,1
20017,-100,4,3,0,80,0,1
20203,-100,4,2,0,80,0,1
20482,-100,4,1,0,80,0,1
20505,-100,4,2,0,80,0,1
20668,-100,4,1,0,80,0,1
20691,-100,4,2,0,80,0,1
20853,-100,4,3,0,80,0,1
20946,-66.6666666666667,4,3,0,80,0,1
21132,-66.6666666666667,4,1,0,50,0,1
21318,-100,4,1,1,80,0,1
21689,-100,4,2,0,80,0,1
22061,-100,4,1,0,40,0,1
22339,-100,4,2,0,80,0,1
22432,-100,4,1,0,80,0,1
22525,-100,4,1,1,80,0,1
22618,-100,4,1,0,65,0,1
22711,-100,4,2,0,80,0,1
22804,-100,4,3,0,80,0,1
22897,-100,4,1,1,80,0,1
22990,-100,4,1,0,65,0,1
23083,-100,4,2,0,80,0,1
23175,-100,4,1,0,80,0,1
23268,-100,4,1,1,80,0,1
23361,-100,4,1,0,65,0,1
23454,-100,4,2,0,80,0,1
23547,-100,4,3,0,80,0,1
23640,-100,4,1,1,80,0,1
23732,-100,4,1,0,65,0,0
23825,-100,4,2,0,80,0,0
23918,-66.6666666666667,4,1,1,60,0,1
24104,-66.6666666666667,4,1,0,50,0,1
24290,-100,4,1,1,80,0,1
24661,-100,4,2,0,80,0,1
25033,-100,4,1,0,80,0,1
25311,-100,4,3,0,80,0,1
25776,-100,4,3,0,50,0,1
25961,-100,4,3,0,80,0,1
26147,-100,4,2,0,80,0,1
26426,-100,4,1,0,80,0,1
26449,-100,4,2,0,80,0,1
26612,-100,4,1,0,80,0,1
26635,-100,4,2,0,80,0,1
26797,-100,4,3,0,80,0,1
27262,-66.6666666666667,4,2,0,80,0,1
27447,-66.6666666666667,4,1,0,50,0,1
27633,-100,4,1,0,80,0,1
27680,-100,4,2,0,80,0,1
27819,-100,4,1,0,80,0,1
27865,-100,4,2,0,80,0,1
28005,-100,4,1,0,40,0,1
28283,-100,4,2,0,80,0,1
28376,-100,4,1,0,80,0,1
28469,-100,4,1,1,80,0,1
28562,-100,4,1,0,65,0,1
28655,-100,4,2,0,80,0,1
28748,-100,4,3,0,80,0,1
28841,-100,4,1,1,80,0,1
28934,-100,4,1,0,65,0,1
29027,-100,4,2,0,80,0,1
29119,-100,4,1,0,80,0,1
29212,-100,4,1,1,80,0,1
29305,-100,4,1,0,65,0,1
29398,-100,4,2,0,80,0,1
29491,-100,4,3,0,80,0,1
29584,-100,4,1,1,80,0,1
29676,-100,4,1,0,80,0,1
29769,-100,4,2,0,80,0,1
29862,-100,4,1,1,60,0,0
30234,-100,4,3,0,75,0,0
31348,-100,4,2,0,90,0,0
31720,-100,4,3,0,75,0,0
32834,-100,4,2,0,90,0,0
33206,-100,4,3,0,75,0,0
34320,-100,4,2,0,90,0,0
34691,-100,4,3,0,75,0,0
35063,-100,4,3,0,60,0,0
35434,-66.6666666666667,4,2,0,75,0,0
36177,-100,4,3,0,75,0,0
37292,-100,4,2,0,90,0,0
37478,-100,4,3,0,90,0,0
37664,-100,4,3,0,75,0,0
38406,-100,4,3,0,75,0,0
38778,-100,4,3,0,75,0,0
38964,-100,4,3,0,90,0,0
39057,-100,4,3,0,75,0,0
39335,-100,4,2,0,60,0,0
39428,-100,4,3,0,75,0,0
39707,-100,4,3,0,90,0,0
39800,-100,4,3,0,75,0,0
40078,-100,4,2,0,60,0,0
40171,-100,4,3,0,75,0,0
40450,-100,4,3,0,90,0,0
40543,-100,4,3,0,75,0,0
40821,-100,4,2,0,60,0,0
40914,-100,4,3,0,75,0,0
42121,-100,4,3,0,50,0,0
42493,-100,4,3,0,57,0,0
42864,-100,4,3,0,63,0,0
43236,-100,4,3,0,70,0,0
43607,-100,4,3,0,77,0,0
43979,-100,4,3,0,83,0,0
44350,-100,4,3,0,90,0,0
44722,-100,4,1,1,70,0,1
45093,-100,4,3,0,90,0,1
45186,-100,4,1,1,90,0,1
45836,-100,4,3,0,90,0,1
45929,-100,4,1,1,90,0,1
46579,-100,4,3,0,90,0,1
46672,-100,4,1,1,90,0,1
47044,-100,4,2,0,45,0,1
47137,-100,4,2,0,90,0,1
47229,-100,4,2,0,45,0,1
47322,-100,4,3,0,90,0,1
47415,-100,4,1,1,90,0,1
48065,-100,4,3,0,90,0,1
48158,-100,4,1,1,90,0,1
48808,-100,4,3,0,90,0,1
48901,-100,4,1,1,90,0,1
49551,-100,4,3,0,90,0,1
49644,-100,4,1,1,90,0,1
50108,-100,4,2,0,90,0,1
50201,-100,4,1,1,90,0,1
50294,-100,4,3,0,90,0,1
50387,-100,4,1,1,90,0,1
50480,-100,4,2,0,90,0,1
50573,-100,4,1,1,90,0,1
50666,-100,4,1,1,70,0,1
51037,-100,4,3,0,90,0,1
51130,-100,4,1,1,90,0,1
51780,-100,4,3,0,90,0,1
51873,-100,4,1,1,90,0,1
52523,-100,4,3,0,90,0,1
52616,-100,4,1,1,90,0,1
53266,-100,4,3,0,90,0,1
53359,-100,4,1,1,90,0,1
53638,-100,4,2,0,80,0,0
53823,-100,4,1,1,80,0,0
56052,-100,4,3,0,60,0,0
56145,-100,4,1,1,80,0,0
56424,-100,4,3,0,60,0,0
56517,-100,4,1,1,80,0,0
56610,-100,4,1,1,70,0,1
56795,-100,4,1,1,90,0,1
56981,-100,4,3,0,90,0,1
57074,-100,4,1,1,90,0,1
57724,-100,4,3,0,90,0,1
57817,-100,4,1,1,90,0,1
58467,-100,4,3,0,90,0,1
58560,-100,4,1,1,90,0,1
59210,-100,4,3,0,90,0,1
59303,-100,4,1,1,90,0,1
59582,-100,4,2,0,80,0,0
59767,-100,4,3,0,80,0,0
59953,-100,4,2,0,80,0,0
60139,-100,4,3,0,80,0,0
60371,-100,4,1,0,80,0,0
60417,-100,4,3,0,80,0,0
60464,-100,4,1,0,80,0,0
60510,-100,4,3,0,80,0,0
60557,-100,4,1,0,80,0,0
60603,-100,4,3,0,80,0,0
60650,-100,4,1,0,80,0,0
60696,-100,4,1,1,50,0,0
60882,-100,4,3,0,80,0,0
60975,-100,4,2,0,80,0,0
61253,-100,4,3,0,80,0,0
61439,-100,4,2,0,80,0,0
61624,-100,4,3,0,80,0,0
61811,-100,4,1,0,80,0,0
61996,-100,4,1,1,80,0,0
62089,-100,4,1,0,80,0,0
62275,-100,4,1,1,80,0,0
62368,-100,4,1,0,80,0,0
62461,-100,4,1,1,80,0,0
62554,-100,4,1,1,70,0,1
62739,-100,4,1,1,90,0,1
62925,-100,4,3,0,90,0,1
63018,-100,4,1,1,90,0,1
63668,-100,4,3,0,90,0,1
63761,-100,4,1,1,90,0,1
64411,-100,4,3,0,90,0,1
64504,-100,4,1,1,90,0,1
65061,-100,4,3,0,90,0,1
65154,-100,4,1,1,90,0,1
65525,-100,4,1,0,80,0,0
65711,-100,4,1,1,80,0,0
65804,-100,4,1,0,80,0,0
65990,-100,4,1,1,80,0,0
66083,-100,4,1,0,80,0,0
66454,-100,4,1,1,80,0,0
66547,-100,4,1,0,80,0,0
66733,-100,4,1,1,80,0,0
66826,-100,4,1,0,80,0,0
66919,-100,4,1,1,80,0,0
67012,-100,4,1,0,80,0,0
67197,-100,4,1,1,80,0,0
67290,-100,4,1,0,80,0,0
67476,-100,4,1,1,80,0,0
67569,-100,4,1,0,80,0,0
67754,-100,4,1,1,80,0,0
68497,-100,4,2,0,60,0,0
68683,-100,4,1,0,60,0,0
69240,-100,4,2,0,60,0,0
69426,-100,4,1,1,60,0,0
69983,-100,4,2,0,65,0,0
70169,-100,4,1,0,65,0,0
70726,-100,4,2,0,65,0,0
70912,-100,4,1,1,65,0,0
71469,-100,4,2,0,70,0,0
71562,-100,4,1,0,70,0,0
72212,-100,4,2,0,70,0,0
72305,-100,4,1,1,70,0,0
72955,-100,4,2,0,75,0,0
73002,-100,4,1,1,50,0,0
73327,-100,4,1,1,75,0,0
73373,-100,4,1,1,50,0,0
73698,-100,4,2,0,80,0,0
73745,-100,4,1,1,50,0,0
73884,-100,4,1,1,80,0,0
73930,-100,4,1,1,50,0,0
74070,-100,4,2,0,50,0,0
74163,-100,4,2,0,60,0,0
74256,-100,4,2,0,70,0,0
74348,-100,4,2,0,80,0,0
74441,-66.6666666666667,4,1,1,70,0,1
74627,-100,4,1,0,50,0,1
74813,-100,4,3,0,90,0,1
74906,-100,4,1,1,90,0,1
74999,-100,4,2,0,90,0,1
75091,-100,4,1,1,90,0,1
75370,-100,4,2,0,90,0,1
75462,-100,4,1,1,90,0,1
75556,-100,4,3,0,90,0,1
75649,-100,4,1,1,90,0,1
75742,-100,4,2,0,90,0,1
75834,-100,4,1,1,90,0,1
76113,-100,4,2,0,90,0,1
76205,-100,4,1,1,90,0,1
76299,-100,4,3,0,90,0,1
76392,-100,4,1,1,90,0,1
76485,-100,4,2,0,90,0,1
76577,-100,4,1,1,90,0,1
76856,-100,4,2,0,90,0,1
76948,-100,4,1,1,90,0,1
77042,-100,4,3,0,90,0,1
77135,-100,4,1,1,90,0,1
77228,-100,4,2,0,90,0,1
77320,-100,4,1,1,90,0,1
77413,-66.6666666666667,4,1,1,70,0,1
77599,-100,4,1,0,50,0,1
77785,-100,4,3,0,90,0,1
77878,-100,4,1,1,90,0,1
77971,-100,4,2,0,90,0,1
78063,-100,4,1,1,90,0,1
78342,-100,4,2,0,90,0,1
78434,-100,4,1,1,90,0,1
78528,-100,4,3,0,90,0,1
78621,-100,4,1,1,70,0,1
78806,-100,4,1,1,90,0,1
78899,-100,4,1,0,90,0,1
78992,-100,4,1,1,90,0,1
79085,-100,4,1,0,75,0,1
79178,-100,4,2,0,90,0,1
79271,-100,4,3,0,90,0,1
79364,-100,4,1,1,90,0,1
79457,-100,4,1,0,75,0,1
79550,-100,4,2,0,90,0,1
79642,-100,4,1,0,90,0,1
79735,-100,4,1,1,90,0,1
79828,-100,4,1,0,75,0,1
79921,-100,4,2,0,90,0,1
80014,-100,4,3,0,90,0,1
80107,-100,4,1,1,90,0,1
80200,-100,4,1,0,75,0,1
80293,-100,4,2,0,90,0,1
80385,-66.6666666666667,4,1,1,70,0,1
80571,-100,4,1,0,50,0,1
80757,-100,4,3,0,90,0,1
80850,-100,4,1,1,90,0,1
80943,-100,4,2,0,90,0,1
81035,-100,4,1,1,90,0,1
81314,-100,4,2,0,90,0,1
81406,-100,4,1,1,90,0,1
81500,-100,4,3,0,90,0,1
81593,-100,4,1,1,90,0,1
81686,-100,4,2,0,90,0,1
81778,-100,4,1,1,90,0,1
82057,-100,4,2,0,90,0,1
82149,-100,4,1,1,90,0,1
82243,-100,4,3,0,90,0,1
82336,-100,4,1,1,90,0,1
82429,-100,4,2,0,90,0,1
82521,-100,4,1,1,90,0,1
82800,-100,4,2,0,90,0,1
82892,-100,4,1,1,90,0,1
82986,-100,4,3,0,90,0,1
83079,-100,4,1,1,90,0,1
83172,-100,4,2,0,90,0,1
83264,-100,4,1,1,90,0,1
83729,-66.6666666666667,4,1,0,90,0,1
83914,-100,4,1,0,50,0,1
84100,-100,4,1,1,70,0,1
84286,-100,4,2,0,90,0,1
84378,-100,4,1,1,90,0,1
84472,-100,4,3,0,90,0,1
84565,-100,4,1,1,70,0,1
84750,-100,4,1,1,90,0,1
84843,-100,4,1,0,90,0,1
84936,-100,4,1,1,90,0,1
85029,-100,4,1,0,75,0,1
85122,-100,4,2,0,90,0,1
85215,-100,4,3,0,90,0,1
85308,-100,4,1,1,90,0,1
85401,-100,4,1,0,75,0,1
85494,-100,4,2,0,90,0,1
85586,-100,4,1,0,90,0,1
85772,-100,4,1,1,90,0,1
85865,-100,4,1,0,90,0,1
86051,-100,4,1,1,90,0,1
86144,-100,4,1,0,90,0,1
86236,-100,4,1,1,90,0,1
86329,-100,4,1,0,80,0,0
86608,-100,4,1,0,60,0,0
86886,-40.650406504065,4,1,0,100,0,0
87165,-100,4,1,0,80,0,0
87444,-100,4,1,0,90,0,0
87537,-100,4,1,0,80,0,0
87629,-100,4,1,0,70,0,0
87722,-100,4,1,0,60,0,0
87815,-40.650406504065,4,1,0,80,0,0
88094,-40.650406504065,4,1,0,60,0,0
88372,-100,4,1,0,80,0,0
88558,-100,4,1,1,90,0,0
88744,-100,4,1,1,80,0,0
88930,-100,4,1,1,70,0,0
89115,-100,4,1,1,60,0,0
89301,-100,4,1,0,80,0,0
89580,-100,4,1,0,60,0,0
89858,-40.650406504065,4,1,0,100,0,0
90137,-100,4,1,0,80,0,0
90416,-100,4,1,0,90,0,0
90509,-100,4,1,0,80,0,0
90601,-100,4,1,0,70,0,0
90694,-100,4,1,0,60,0,0
90787,-40.650406504065,4,1,0,80,0,0
91066,-40.650406504065,4,1,0,85,0,0
91344,-100,4,1,0,90,0,0
91437,-100,4,1,1,90,0,0
91902,-38.7596899224806,4,1,0,85,0,0
92180,-38.7596899224806,4,1,0,90,0,0
92459,-100,4,1,0,95,0,0
92552,-100,4,1,1,95,0,0
93016,-37.037037037037,4,1,0,90,0,0
93295,-37.037037037037,4,1,0,95,0,0
93573,-100,4,1,0,100,0,0
93666,-100,4,1,1,100,0,0
94038,-100,4,1,1,60,0,0
94131,-100,4,2,0,70,0,0
94874,-100,4,2,0,65,0,0
95617,-100,4,2,0,60,0,0
95802,-100,4,1,1,50,0,0
95989,-100,4,2,0,55,0,0
96731,-100,4,2,0,50,0,0
97474,-100,4,2,0,45,0,0
98217,-100,4,2,0,40,0,0
98960,-100,4,2,0,35,0,0
99703,-100,4,2,0,30,0,0
100446,-100,4,2,0,25,0,0
101189,-100,4,2,0,20,0,0

[Colours]
Combo1 : 213,213,0
Combo2 : 243,90,33
Combo3 : 112,196,193
Combo4 : 106,213,0

[HitObjects]
224,192,2743,6,0,L|208:144,1,47.5,8|2,0:0|2:0,0:0:0:0:
288,192,2929,2,0,L|304:144,1,47.5,8|2,0:0|2:0,0:0:0:0:
112,320,3115,6,0,B|64:320|64:192|64:80|112:64|112:64|256:64,1,427.500016307831,12|2,0:0|0:0,0:0:0:0:
312,128,3765,1,2,0:0:0:0:
256,192,3857,2,0,L|64:192,1,190,10|0,0:0|0:0,0:0:0:0:
256,192,4508,1,0,0:0:0:0:
320,192,4600,6,0,P|352:112|320:80,1,142.5,2|0,0:0|0:0,0:0:0:0:
256,80,4972,2,0,L|352:80,1,95,2|2,0:0|0:0,0:0:0:0:
161,80,5343,1,8,0:0:0:0:
351,192,5715,2,0,P|383:112|351:80,1,142.5,2|0,0:0|0:0,0:0:0:0:
256,80,6086,6,0,B|448:80|448:80|472:128|448:168,1,285,2|2,0:0|0:0,0:0:0:0:
392,208,6737,1,2,0:0:0:0:
448,240,6829,2,0,L|256:240,1,190,10|0,0:0|0:0,0:0:0:0:
352,192,7387,1,2,0:0:0:0:
208,192,7572,6,0,L|192:96,1,95,2|2,0:0|0:0,0:0:0:0:
352,192,7944,2,0,L|368:96,1,95,2|0,0:0|0:0,0:0:0:0:
176,192,8315,2,0,L|80:192,2,95,8|0|2,0:0|0:0|0:0,0:0:0:0:
32,192,8873,1,0,0:0:0:0:
320,192,9058,6,0,B|320:48|320:48|176:48|176:48|320:48,1,427.500016307831,12|2,0:0|0:0,0:0:0:0:
376,120,9709,1,2,0:0:0:0:
320,192,9801,2,0,L|224:192,1,95,10|8,0:0|0:0,0:0:0:0:
368,192,10173,2,0,L|384:96,1,95,10|8,0:0|0:0,0:0:0:0:
192,192,10544,6,0,L|288:192,1,95,10|8,0:0|0:0,0:0:0:0:
144,192,10916,2,0,L|128:288,1,95,10|8,0:0|0:0,0:0:0:0:
271,285,11287,2,0,L|287:192,1,95,8|8,0:0|0:0,0:0:0:0:
144,192,11659,2,0,L|48:192,1,95,10|8,0:0|0:0,0:0:0:0:
336,192,12030,5,12,0:0:0:0:
400,144,12123,1,0,0:0:0:0:
400,64,12216,1,0,0:0:0:0:
336,16,12309,1,0,0:0:0:0:
224,16,12402,2,0,L|224:64,1,47.5,2|0,0:0|0:0,0:0:0:0:
336,16,12588,2,0,L|336:64,1,47.5,2|0,0:0|0:0,0:0:0:0:
224,16,12773,5,2,0:0:0:0:
216,80,12866,1,0,0:0:0:0:
280,104,12959,1,0,0:0:0:0:
344,128,13052,1,0,0:0:0:0:
336,192,13145,1,0,0:0:0:0:
144,192,13238,1,12,0:0:0:0:
80,192,13331,1,2,0:0:0:0:
144,192,13423,1,2,0:0:0:0:
336,192,13516,5,12,0:0:0:0:
400,144,13609,1,0,0:0:0:0:
400,64,13702,1,0,0:0:0:0:
336,16,13795,1,0,0:0:0:0:
144,192,13888,1,12,0:0:0:0:
144,112,13981,1,0,0:0:0:0:
208,64,14074,1,2,0:0:0:0:
144,16,14166,1,2,0:0:0:0:
336,192,14259,6,0,L|400:192,2,63.3333333333333,12|8|8,0:0|0:0|0:0,0:0:0:0:
224,192,14631,2,0,L|224:128,1,63.3333333333333,8|8,0:0|0:0,0:0:0:0:
336,128,14878,1,8,0:0:0:0:
112,128,15002,5,0,0:0:0:0:
256,192,15374,12,0,17231,0:0:0:0:
176,192,17603,6,0,L|208:160,2,31.6666666666667,2|2|2,0:0|0:0|0:0,0:0:0:0:
144,192,17789,1,2,0:0:0:0:
96,192,17850,1,2,0:0:0:0:
144,192,17912,1,2,0:0:0:0:
320,80,17974,6,0,L|462:80,1,142.500005435944,12|2,0:0|0:0,0:0:0:0:
176,80,18346,2,0,L|112:80,2,63.3333333333333,10|8|8,0:0|0:0|0:0,0:0:0:0:
368,80,18717,1,10,0:0:0:0:
416,128,18810,1,10,0:0:0:0:
416,192,18903,1,10,0:0:0:0:
368,240,18996,1,10,0:0:0:0:
208,240,19089,2,0,P|192:192|192:144,1,95,8|0,0:0|0:0,0:0:0:0:
256,112,19367,1,8,0:0:0:0:
416,80,19460,6,0,L|320:80,1,95,10|8,0:0|0:0,0:0:0:0:
464,128,19832,2,0,L|480:224,1,95,2|8,0:0|0:0,0:0:0:0:
192,224,20203,2,0,L|192:176,1,47.5,10|10,0:0|0:0,0:0:0:0:
384,192,20482,1,10,0:0:0:0:
192,160,20668,2,0,L|192:208,1,47.5,10|2,0:0|0:0,0:0:0:0:
272,240,20853,1,8,0:0:0:0:
464,96,20946,6,0,L|322:96,1,142.500005435944,10|2,0:0|0:0,0:0:0:0:
32,96,21318,2,0,L|32:160,1,63.3333333333333,10|8,0:0|0:0,0:0:0:0:
112,192,21565,1,8,0:0:0:0:
304,96,21689,2,0,L|304:144,1,47.5,10|10,0:0|0:0,0:0:0:0:
240,96,21875,2,0,L|240:144,1,47.5,10|10,0:0|0:0,0:0:0:0:
400,192,22061,2,0,L|432:192,4,23.75,8|8|8|8|8,0:0|0:0|0:0|0:0|0:0,0:0:0:0:
112,192,22432,6,0,L|64:192,1,47.5,12|0,0:0|0:0,0:0:0:0:
224,192,22618,2,0,L|272:192,1,47.5,2|2,0:0|0:0,0:0:0:0:
224,192,22804,2,0,P|208:160|208:96,1,95,8|2,0:0|0:0,0:0:0:0:
256,96,23082,1,2,0:0:0:0:
416,192,23175,2,0,P|432:144|416:96,1,95,8|2,0:0|0:0,0:0:0:0:
256,96,23454,1,2,0:0:0:0:
208,144,23547,1,8,0:0:0:0:
208,208,23640,1,0,0:0:0:0:
368,240,23732,1,2,0:0:0:0:
416,240,23825,1,2,0:0:0:0:
192,304,23918,6,0,L|50:304,1,142.500005435944,12|2,0:0|0:0,0:0:0:0:
336,304,24290,2,0,L|400:304,2,63.3333333333333,10|8|8,0:0|0:0|0:0,0:0:0:0:
144,304,24661,1,10,0:0:0:0:
96,256,24754,1,10,0:0:0:0:
96,192,24847,1,10,0:0:0:0:
144,144,24940,1,10,0:0:0:0:
304,144,25033,2,0,P|320:192|320:240,1,95,8|0,0:0|0:0,0:0:0:0:
256,272,25311,1,8,0:0:0:0:
96,304,25404,6,0,L|192:304,1,95,10|8,0:0|0:0,0:0:0:0:
48,256,25776,2,0,L|32:160,1,95,2|8,0:0|0:0,0:0:0:0:
320,160,26147,2,0,L|320:208,1,47.5,10|10,0:0|0:0,0:0:0:0:
128,192,26426,1,10,0:0:0:0:
320,224,26611,2,0,L|320:176,1,47.5,10|2,0:0|0:0,0:0:0:0:
240,144,26797,1,8,0:0:0:0:
80,288,26890,6,0,P|64:224|80:144,1,142.5,8|0,0:0|0:0,0:0:0:0:
320,144,27262,2,0,L|464:144,1,142.500005435944,14|2,0:0|0:0,0:0:0:0:
176,192,27633,2,0,L|184:240,1,47.5,8|2,0:0|0:0,0:0:0:0:
264,238,27819,2,0,L|272:192,1,47.5,8|2,0:0|0:0,0:0:0:0:
112,192,28005,2,0,L|80:192,4,23.75,8|8|8|8|8,0:0|0:0|0:0|0:0|0:0,0:0:0:0:
400,192,28376,6,0,L|448:192,1,47.5,12|0,0:0|0:0,0:0:0:0:
288,192,28562,2,0,L|240:192,1,47.5,2|2,0:0|0:0,0:0:0:0:
288,192,28748,2,0,P|304:160|304:96,1,95,8|2,0:0|0:0,0:0:0:0:
256,96,29026,1,2,0:0:0:0:
96,192,29119,2,0,P|80:144|96:96,1,95,8|2,0:0|0:0,0:0:0:0:
256,96,29398,1,2,0:0:0:0:
304,144,29491,1,8,0:0:0:0:
256,192,29583,1,0,0:0:0:0:
96,240,29676,1,2,0:0:0:0:
48,240,29769,1,2,0:0:0:0:
240,272,29862,5,12,0:0:0:0:
416,192,30419,1,2,0:0:0:0:
256,192,30605,2,0,L|240:96,1,95,10|0,0:0|0:0,0:0:0:0:
352,192,30977,2,0,L|368:96,1,95,2|0,0:0|0:0,0:0:0:0:
256,192,31348,5,2,0:0:0:0:
96,192,31905,1,2,0:0:0:0:
256,192,32091,2,0,L|272:96,1,95,10|0,0:0|0:0,0:0:0:0:
160,192,32463,2,0,L|144:96,1,95,2|0,0:0|0:0,0:0:0:0:
256,320,32834,6,0,P|288:264|160:128,1,285,2|0,0:0|0:0,0:0:0:0:
320,112,33577,2,0,P|352:192|320:288,1,190,10|0,0:0|0:0,0:0:0:0:
80,288,34320,6,0,L|272:288,1,190,2|0,0:0|0:0,0:0:0:0:
32,288,35063,1,10,0:0:0:0:
368,192,35434,1,10,0:0:0:0:
256,192,35558,1,10,0:0:0:0:
144,192,35682,1,10,0:0:0:0:
256,192,35806,5,12,0:0:0:0:
416,192,36363,1,2,0:0:0:0:
256,192,36549,2,0,L|240:96,1,95,10|0,0:0|0:0,0:0:0:0:
352,192,36920,2,0,L|368:96,1,95,2|0,0:0|0:0,0:0:0:0:
256,192,37292,5,2,0:0:0:0:
160,192,37478,1,0,0:0:0:0:
160,288,37663,1,0,0:0:0:0:
256,288,37849,1,2,0:0:0:0:
416,288,38035,2,0,L|432:192,1,95,10|0,0:0|0:0,0:0:0:0:
320,144,38406,2,0,L|416:144,1,95,2|0,0:0|0:0,0:0:0:0:
256,144,38778,6,0,L|256:192,1,47.5,10|0,0:0|0:0,0:0:0:0:
352,208,38964,1,2,0:0:0:0:
400,256,39057,1,0,0:0:0:0:
400,320,39149,1,0,0:0:0:0:
352,368,39242,1,0,0:0:0:0:
256,368,39335,2,0,L|240:320,1,47.5,2|0,0:0|0:0,0:0:0:0:
336,368,39521,6,0,L|320:320,1,47.5,10|0,0:0|0:0,0:0:0:0:
224,368,39707,1,2,0:0:0:0:
176,320,39800,1,0,0:0:0:0:
176,256,39892,1,0,0:0:0:0:
224,208,39985,1,0,0:0:0:0:
320,208,40078,2,0,L|336:160,1,47.5,2|0,0:0|0:0,0:0:0:0:
240,208,40264,6,0,L|256:160,1,47.5,10|0,0:0|0:0,0:0:0:0:
352,208,40450,1,2,0:0:0:0:
384,160,40543,1,0,0:0:0:0:
352,112,40635,1,0,0:0:0:0:
288,112,40728,1,0,0:0:0:0:
192,112,40821,1,2,0:0:0:0:
128,112,40914,1,0,0:0:0:0:
288,48,41007,5,10,0:0:0:0:
316,57,41053,1,0,0:0:0:0:
342,71,41100,1,0,0:0:0:0:
364,90,41146,1,0,0:0:0:0:
383,113,41193,1,0,0:0:0:0:
396,140,41239,1,0,0:0:0:0:
405,168,41286,1,0,0:0:0:0:
408,198,41332,1,0,0:0:0:0:
405,227,41378,1,0,0:0:0:0:
396,255,41425,1,0,0:0:0:0:
383,282,41471,1,0,0:0:0:0:
364,305,41518,1,0,0:0:0:0:
341,324,41564,1,0,0:0:0:0:
316,338,41611,1,0,0:0:0:0:
287,348,41657,1,0,0:0:0:0:
96,352,41750,6,0,P|48:304|96:208,1,190,6|8,0:0|0:0,0:0:0:0:
336,208,42493,2,0,L|144:208,1,190,8|8,0:0|0:0,0:0:0:0:
384,208,43236,6,0,L|400:112,1,95,8|0,0:0|0:0,0:0:0:0:
256,208,43607,2,0,L|272:112,1,95,8|0,0:0|0:0,0:0:0:0:
128,208,43979,2,0,L|120:160,1,47.5,8|0,0:0|0:0,0:0:0:0:
200,208,44165,2,0,L|208:160,1,47.5,0|0,0:0|0:0,0:0:0:0:
48,96,44350,2,0,L|96:96,1,47.5,10|0,0:0|0:0,0:0:0:0:
256,96,44536,2,0,L|304:96,1,47.5,10|0,0:0|0:0,0:0:0:0:
112,192,44722,6,0,L|304:192,1,190,12|8,0:0|0:0,0:0:0:0:
112,192,45279,2,0,L|160:192,1,47.5,2|2,0:0|0:0,0:0:0:0:
352,192,45465,2,0,L|368:96,1,95,8|0,0:0|0:0,0:0:0:0:
224,96,45836,2,0,L|320:96,1,95,8|0,0:0|0:0,0:0:0:0:
32,192,46208,6,0,L|16:96,1,95,10|0,0:0|0:0,0:0:0:0:
160,96,46579,2,0,L|64:96,1,95,8|0,0:0|0:0,0:0:0:0:
208,96,46951,2,0,L|208:144,1,47.5,8|2,0:0|0:0,0:0:0:0:
144,192,47137,1,2,0:0:0:0:
208,240,47229,1,2,0:0:0:0:
400,240,47322,2,0,L|416:144,1,95,8|0,0:0|0:0,0:0:0:0:
128,144,47694,6,0,L|320:144,1,190,10|8,0:0|0:0,0:0:0:0:
128,144,48251,2,0,L|128:192,1,47.5,2|2,0:0|0:0,0:0:0:0:
320,192,48437,2,0,P|336:176|320:112,1,95,8|0,0:0|0:0,0:0:0:0:
128,191,48808,2,0,P|112:175|128:111,1,95,8|0,0:0|0:0,0:0:0:0:
416,112,49180,6,0,L|320:112,1,95,10|0,0:0|0:0,0:0:0:0:
464,192,49551,2,0,L|368:192,1,95,8|0,0:0|0:0,0:0:0:0:
176,192,49923,1,8,0:0:0:0:
112,192,50016,1,0,0:0:0:0:
112,128,50108,1,2,0:0:0:0:
176,128,50201,1,0,0:0:0:0:
352,128,50294,1,8,0:0:0:0:
352,128,50387,1,0,0:0:0:0:
160,192,50480,1,2,0:0:0:0:
208,192,50573,1,0,0:0:0:0:
400,192,50666,6,0,L|208:192,1,190,12|8,0:0|0:0,0:0:0:0:
400,192,51223,2,0,L|352:192,1,47.5,2|2,0:0|0:0,0:0:0:0:
160,192,51409,2,0,L|144:288,1,95,8|0,0:0|0:0,0:0:0:0:
288,288,51780,2,0,L|192:288,1,95,8|0,0:0|0:0,0:0:0:0:
480,192,52152,6,0,L|496:288,1,95,10|0,0:0|0:0,0:0:0:0:
352,288,52523,2,0,L|448:288,1,95,8|0,0:0|0:0,0:0:0:0:
304,288,52895,1,8,0:0:0:0:
464,192,52988,2,0,P|480:176|464:112,1,95,10|8,0:0|0:0,0:0:0:0:
304,112,53266,1,10,0:0:0:0:
224,112,53359,1,8,0:0:0:0:
224,192,53452,1,8,0:0:0:0:
304,192,53545,1,8,0:0:0:0:
112,240,53638,6,0,L|304:240,1,190,12|8,0:0|0:0,0:0:0:0:
112,240,54195,2,0,L|112:192,1,47.5,2|0,0:0|0:0,0:0:0:0:
288,192,54381,2,0,P|304:208|288:272,1,95,8|0,0:0|0:0,0:0:0:0:
112,240,54752,1,0,0:0:0:0:
304,192,54938,1,2,0:0:0:0:
240,192,55031,1,2,0:0:0:0:
48,192,55124,6,0,P|32:136|96:96,1,142.5,10|0,0:0|0:0,0:0:0:0:
288,192,55495,2,0,P|304:176|288:112,1,95,8|2,0:0|0:0,0:0:0:0:
224,112,55774,1,2,0:0:0:0:
416,112,55867,1,8,0:0:0:0:
480,112,55960,1,0,0:0:0:0:
480,176,56052,1,8,0:0:0:0:
416,176,56145,1,0,0:0:0:0:
224,176,56238,1,8,0:0:0:0:
160,176,56331,1,0,0:0:0:0:
352,176,56424,1,8,0:0:0:0:
416,176,56517,1,0,0:0:0:0:
224,176,56610,6,0,P|208:192|224:256,1,95,12|0,0:0|0:0,0:0:0:0:
416,256,56981,2,0,L|320:256,1,95,8|0,0:0|0:0,0:0:0:0:
464,176,57353,2,0,L|320:176,1,142.5,8|2,0:0|0:0,0:0:0:0:
416,176,57724,2,0,P|432:192|416:256,1,95,8|0,0:0|0:0,0:0:0:0:
128,176,58096,6,0,L|272:176,1,142.5,10|0,0:0|0:0,0:0:0:0:
176,176,58467,2,0,P|160:192|176:256,1,95,10|2,0:0|0:0,0:0:0:0:
464,208,58839,2,0,P|488:168|464:80,1,142.5,8|2,0:0|0:0,0:0:0:0:
368,80,59210,2,0,L|464:80,1,95,8|2,0:0|0:0,0:0:0:0:
176,192,59582,5,12,0:0:0:0:
464,304,59767,1,8,0:0:0:0:
368,304,59953,2,0,L|368:208,1,95,8|8,0:0|0:0,0:0:0:0:
80,192,60325,2,0,L|80:144,1,47.5,8|2,0:0|0:0,0:0:0:0:
160,192,60510,2,0,L|160:144,1,47.5,2|2,0:0|0:0,0:0:0:0:
80,192,60696,1,2,0:0:0:0:
44,192,60743,1,2,0:0:0:0:
28,144,60789,1,2,0:0:0:0:
44,96,60835,1,2,0:0:0:0:
80,96,60882,1,2,0:0:0:0:
160,96,60975,1,2,0:0:0:0:
352,96,61068,5,10,0:0:0:0:
240,96,61253,2,0,L|224:192,1,95,8|8,0:0|0:0,0:0:0:0:
368,192,61625,1,8,0:0:0:0:
80,192,61811,2,0,P|64:208|80:272,1,95,8|2,0:0|0:0,0:0:0:0:
272,192,62089,2,0,P|288:208|272:272,1,95,8|2,0:0|0:0,0:0:0:0:
80,192,62368,1,8,0:0:0:0:
144,192,62461,1,2,0:0:0:0:
336,208,62554,6,0,P|352:192|336:128,1,95,12|0,0:0|0:0,0:0:0:0:
144,128,62925,2,0,L|240:128,1,95,8|0,0:0|0:0,0:0:0:0:
384,208,63297,2,0,L|240:208,1,142.5,8|0,0:0|0:0,0:0:0:0:
336,208,63668,2,0,P|352:192|336:128,1,95,8|0,0:0|0:0,0:0:0:0:
48,128,64040,6,0,L|192:128,1,142.5,8|2,0:0|0:0,0:0:0:0:
96,128,64411,2,0,L|191:128,1,95,8|2,0:0|0:0,0:0:0:0:
480,192,64783,2,0,P|496:176|480:112,1,95,8|2,0:0|0:0,0:0:0:0:
320,192,65061,2,0,P|304:176|320:112,1,95,8|2,0:0|0:0,0:0:0:0:
400,112,65340,1,8,0:0:0:0:
112,192,65525,6,0,L|0:192,1,95,10|2,0:0|0:0,0:0:0:0:
192,192,65804,2,0,P|208:176|192:112,1,95,10|2,0:0|0:0,0:0:0:0:
112,112,66083,1,10,0:0:0:0:
400,192,66268,2,0,L|512:192,1,95,10|2,0:0|0:0,0:0:0:0:
320,192,66547,2,0,P|304:176|320:112,1,95,10|2,0:0|0:0,0:0:0:0:
400,112,66826,1,10,0:0:0:0:
319,112,66919,1,2,0:0:0:0:
128,192,67011,6,0,P|112:176|128:112,1,95,10|2,0:0|0:0,0:0:0:0:
288,192,67290,2,0,P|304:176|288:112,1,95,10|2,0:0|0:0,0:0:0:0:
208,112,67569,1,10,0:0:0:0:
496,112,67754,2,0,L|304:112,1,190,8|8,0:0|0:0,0:0:0:0:
368,176,68219,1,0,0:0:0:0:
368,240,68312,1,8,0:0:0:0:
304,288,68405,1,0,0:0:0:0:
96,112,68497,6,0,P|64:192|96:288,1,190,6|0,0:0|0:0,0:0:0:0:
336,112,69240,2,0,L|144:112,1,190,10|8,0:0|0:0,0:0:0:0:
80,192,69705,1,2,2:0:0:0:
144,272,69798,1,8,0:0:0:0:
416,112,69983,6,0,P|448:192|416:288,1,190,6|0,0:0|0:0,0:0:0:0:
176,112,70726,2,0,L|368:112,1,190,10|8,0:0|0:0,0:0:0:0:
368,192,71191,1,8,0:0:0:0:
288,192,71284,1,8,0:0:0:0:
288,112,71377,1,8,0:0:0:0:
480,192,71469,6,0,L|496:96,1,95,6|0,0:0|0:0,0:0:0:0:
352,192,71841,2,0,L|368:96,1,95,0|0,0:0|0:0,0:0:0:0:
176,192,72212,2,0,L|160:288,1,95,10|0,0:0|0:0,0:0:0:0:
304,192,72584,2,0,L|320:288,1,95,8|0,0:0|0:0,0:0:0:0:
128,192,72955,5,10,0:0:0:0:
64,192,73048,1,0,0:0:0:0:
64,128,73141,1,0,0:0:0:0:
128,128,73234,1,0,0:0:0:0:
240,192,73327,1,8,0:0:0:0:
304,192,73420,1,0,0:0:0:0:
304,128,73513,1,0,0:0:0:0:
240,128,73605,1,0,0:0:0:0:
128,64,73698,5,10,0:0:0:0:
192,64,73791,1,0,0:0:0:0:
384,64,73884,1,8,0:0:0:0:
448,64,73977,1,0,0:0:0:0:
256,64,74070,1,2,0:0:0:0:
248,96,74116,1,2,0:0:0:0:
253,132,74163,1,2,0:0:0:0:
265,164,74209,1,2,0:0:0:0:
287,193,74256,1,2,0:0:0:0:
317,217,74302,1,2,0:0:0:0:
356,227,74348,1,2,0:0:0:0:
160,208,74441,6,0,L|16:208,1,142.500005435944,12|2,0:0|0:0,0:0:0:0:
304,208,74813,2,0,P|320:192|304:128,1,95,8|2,0:0|0:0,0:0:0:0:
240,128,75091,1,2,0:0:0:0:
432,208,75184,2,0,P|448:192|432:128,1,95,8|2,0:0|0:0,0:0:0:0:
368,128,75463,1,0,0:0:0:0:
288,128,75556,1,8,0:0:0:0:
368,128,75649,1,0,0:0:0:0:
432,128,75742,1,2,0:0:0:0:
464,64,75834,1,2,0:0:0:0:
272,256,75927,6,0,L|176:256,1,95,8|2,0:0|0:0,0:0:0:0:
240,192,76206,1,2,0:0:0:0:
177,128,76299,2,0,L|272:128,1,95,8|2,0:0|0:0,0:0:0:0:
208,64,76577,1,2,0:0:0:0:
16,64,76670,2,0,L|111:64,1,95,8|2,0:0|0:0,0:0:0:0:
47,128,76949,1,2,0:0:0:0:
112,128,77042,2,0,L|112:176,1,47.5,8|0,0:0|0:0,0:0:0:0:
47,128,77228,2,2,L|48:176,1,47.5,2|0,0:0|0:0,0:0:0:0:
240,192,77413,6,0,L|384:192,1,142.500005435944,12|2,0:0|0:0,0:0:0:0:
96,192,77785,2,0,P|80:176|96:112,1,95,8|2,0:0|0:0,0:0:0:0:
160,112,78063,1,2,0:0:0:0:
352,192,78156,2,0,P|368:176|352:112,1,95,8|2,0:0|0:0,0:0:0:0:
288,112,78435,1,2,0:0:0:0:
96,112,78528,1,8,0:0:0:0:
32,144,78621,1,2,0:0:0:0:
16,192,78667,1,2,0:0:0:0:
32,240,78714,1,0,0:0:0:0:
96,272,78806,1,0,0:0:0:0:
288,272,78899,5,12,0:0:0:0:
288,208,78992,1,0,0:0:0:0:
240,160,79085,1,2,0:0:0:0:
176,160,79178,1,2,0:0:0:0:
368,192,79271,1,8,0:0:0:0:
368,128,79364,1,0,0:0:0:0:
320,80,79457,1,2,0:0:0:0:
256,80,79549,1,2,0:0:0:0:
64,192,79642,5,8,0:0:0:0:
40,128,79735,1,0,0:0:0:0:
64,64,79828,1,2,0:0:0:0:
128,64,79921,1,2,0:0:0:0:
320,64,80014,1,8,0:0:0:0:
352,112,80107,1,0,0:0:0:0:
160,192,80200,1,2,0:0:0:0:
160,128,80292,1,2,0:0:0:0:
352,176,80385,6,0,L|496:176,1,142.500005435944,12|2,0:0|0:0,0:0:0:0:
208,176,80757,2,0,P|192:192|208:256,1,95,8|2,0:0|0:0,0:0:0:0:
272,256,81035,1,2,0:0:0:0:
80,176,81128,2,0,P|64:192|80:256,1,95,8|2,0:0|0:0,0:0:0:0:
144,256,81407,1,0,0:0:0:0:
224,256,81500,1,8,0:0:0:0:
144,256,81593,1,0,0:0:0:0:
80,256,81685,1,2,0:0:0:0:
48,320,81778,1,2,0:0:0:0:
240,128,81871,6,0,L|336:128,1,95,8|2,0:0|0:0,0:0:0:0:
272,192,82150,1,2,0:0:0:0:
335,256,82243,2,0,L|240:256,1,95,8|2,0:0|0:0,0:0:0:0:
304,320,82521,1,2,0:0:0:0:
496,320,82614,2,0,L|401:320,1,95,8|2,0:0|0:0,0:0:0:0:
465,256,82893,1,2,0:0:0:0:
400,256,82986,2,0,L|400:208,1,47.5,8|0,0:0|0:0,0:0:0:0:
465,256,83171,2,2,L|464:208,1,47.5,2|0,0:0|0:0,0:0:0:0:
400,208,83357,6,0,P|384:176|400:144,1,71.25,8|0,0:0|0:0,0:0:0:0:
432,128,83543,1,0,0:0:0:0:
432,160,83589,1,0,0:0:0:0:
400,176,83636,1,0,0:0:0:0:
176,192,83729,2,0,L|32:192,1,142.500005435944,14|2,0:0|0:0,0:0:0:0:
32,128,84007,1,2,0:0:0:0:
224,192,84100,2,0,P|240:176|224:112,1,95,8|2,0:0|0:0,0:0:0:0:
192,112,84332,1,0,0:0:0:0:
160,112,84379,1,2,0:0:0:0:
352,112,84472,1,8,0:0:0:0:
416,144,84565,1,2,0:0:0:0:
432,192,84611,1,2,0:0:0:0:
416,240,84657,1,0,0:0:0:0:
352,272,84750,1,0,0:0:0:0:
160,304,84843,5,12,0:0:0:0:
160,240,84936,1,0,0:0:0:0:
208,192,85029,1,2,0:0:0:0:
272,192,85122,1,2,0:0:0:0:
208,192,85215,1,8,0:0:0:0:
160,144,85308,1,0,0:0:0:0:
208,96,85400,1,2,0:0:0:0:
272,96,85493,1,2,0:0:0:0:
464,192,85586,6,0,P|480:176|464:112,1,95,12|8,0:0|0:0,0:0:0:0:
272,192,85865,2,0,P|256:176|272:112,1,95,8|8,0:0|0:0,0:0:0:0:
464,112,86143,1,8,0:0:0:0:
400,112,86236,1,8,0:0:0:0:
208,112,86329,6,0,L|64:112,1,142.5,14|10,0:0|0:0,0:0:0:0:
416,192,86886,2,0,L|64:192,1,350.550005348969,10|10,0:0|0:0,0:0:0:0:
208,192,87444,1,0,0:0:0:0:
208,144,87490,1,0,0:0:0:0:
192,112,87537,1,0,0:0:0:0:
160,96,87583,1,0,0:0:0:0:
112,96,87629,1,0,0:0:0:0:
416,192,87815,6,0,L|64:192,2,350.550005348969,14|10|10,0:0|0:0|0:0,0:0:0:0:
320,192,88558,1,8,0:0:0:0:
284,192,88605,1,2,0:0:0:0:
260,172,88651,1,2,0:0:0:0:
284,144,88697,1,2,0:0:0:0:
320,144,88744,1,8,0:0:0:0:
352,96,88806,1,2,0:0:0:0:
320,48,88868,1,2,0:0:0:0:
256,48,88930,1,8,0:0:0:0:
176,48,89022,1,2,0:0:0:0:
112,112,89115,1,8,0:0:0:0:
112,192,89208,1,2,0:0:0:0:
304,272,89301,6,0,L|448:272,1,142.5,14|10,0:0|0:0,0:0:0:0:
96,192,89858,2,0,L|448:192,1,350.550005348969,10|10,0:0|0:0,0:0:0:0:
304,192,90416,1,0,0:0:0:0:
304,240,90462,1,0,0:0:0:0:
320,272,90508,1,0,0:0:0:0:
352,288,90555,1,0,0:0:0:0:
400,288,90601,1,0,0:0:0:0:
96,192,90787,6,0,L|448:192,2,350.550005348969,14|10|10,0:0|0:0|0:0,0:0:0:0:
48,192,91437,1,0,0:0:0:0:
96,128,91530,1,8,0:0:0:0:
160,128,91623,1,2,0:0:0:0:
96,128,91716,1,8,0:0:0:0:
416,192,91902,6,0,L|48:192,2,367.650005609894,14|10|10,0:0|0:0|0:0,0:0:0:0:
464,192,92552,1,0,0:0:0:0:
416,128,92645,1,8,0:0:0:0:
352,128,92737,1,2,0:0:0:0:
416,128,92830,1,8,0:0:0:0:
96,192,93016,6,0,L|480:192,2,384.750001467705,14|10|10,0:0|0:0|0:0,0:0:0:0:
32,192,93666,1,0,0:0:0:0:
32,128,93759,1,8,0:0:0:0:
96,128,93852,1,2,0:0:0:0:
416,128,94038,5,12,0:0:0:0:
256,192,94316,12,2,95617,0:0:0:0:
256,192,95802,5,12,0:0:0:0:
256,192,95988,12,2,101560,0:0:0:0:
