osu file format v14

[General]
AudioFilename: audio.mp3
AudioLeadIn: 0
PreviewTime: 44350
Countdown: 0
SampleSet: Normal
StackLeniency: 0.7
Mode: 2
LetterboxInBreaks: 0
WidescreenStoryboard: 0

[Editor]
Bookmarks: 2743,17974,29862,44722,56610,68497,86329,101560
DistanceSpacing: 1
BeatDivisor: 4
GridSize: 16
TimelineZoom: 1.400003

[Metadata]
Title:Mushi no Sumu Tokoro
TitleUnicode:蟲の棲む処
Artist:Camellia feat. Nana Takahashi
ArtistUnicode:かめりあ feat. Nana Takahashi
Creator:Deif
Version:Platter
Source:BeatStream アニムトライヴ
Tags:Secre chickenbible KamelCamellia かめりかめりあ Cametek 高橋菜々 Oya Masaya 大箭将也 a place where bugs live BeatStream2 AnimTribe KONAMI BEMANI jubeat plus Qubell pop'n music popn うさぎと猫と少年の夢 SOUND VOLTEX IV HEAVENLY HAVEN SDVX Gothic Dubstep Electronic Japanese
BeatmapID:3121802
BeatmapSetID:1525823

[Difficulty]
HPDrainRate:5
CircleSize:3.5
OverallDifficulty:8
ApproachRate:8
SliderMultiplier:1.6
SliderTickRate:1

[Events]
//Background and Video events
0,0,"BG.jpg",0,0
//Break Periods
//Storyboard Layer 0 (Background)
//Storyboard Layer 1 (Fail)
//Storyboard Layer 2 (Pass)
//Storyboard Layer 3 (Foreground)
//Storyboard Layer 4 (Overlay)
//Storyboard Sound Samples

[TimingPoints]
3115,371.494025137762,4,1,1,60,1,0
3393,-100,4,1,0,10,0,0
3440,-100,4,1,0,20,0,0
3486,-100,4,1,0,30,0,0
3532,-100,4,1,0,40,0,0
3579,-100,4,1,0,50,0,0
3672,-100,4,3,0,90,0,0
3857,-100,4,3,0,75,0,0
5343,-100,4,3,0,60,0,0
5715,-100,4,3,0,75,0,0
6086,-100,4,3,0,90,0,0
6458,-100,4,3,0,75,0,0
9058,-100,4,1,1,60,0,0
9337,-100,4,1,0,10,0,0
9384,-100,4,1,0,20,0,0
9430,-100,4,1,0,30,0,0
9476,-100,4,1,0,40,0,0
9523,-100,4,1,0,50,0,0
9616,-100,4,3,0,90,0,0
9801,-100,4,3,0,45,0,0
10544,-100,4,3,0,75,0,0
10730,-100,4,3,0,45,0,0
10916,-100,4,3,0,75,0,0
11102,-100,4,3,0,45,0,0
11659,-100,4,3,0,75,0,0
11845,-100,4,3,0,45,0,0
12031,-100,4,1,1,60,0,0
12123,-100,4,1,0,75,0,0
12588,-100,4,2,0,75,0,0
12680,-100,4,1,0,75,0,0
13238,-100,4,2,0,75,0,0
13331,-100,4,1,0,75,0,0
13423,-100,4,2,0,75,0,0
13609,-100,4,1,0,75,0,0
13888,-100,4,2,0,75,0,0
13981,-100,4,1,0,75,0,0
14166,-100,4,2,0,75,0,0
14259,-100,4,3,0,75,0,0
15002,-100,4,1,0,60,0,0
15374,-100,4,1,0,80,0,0
15745,-100,4,1,0,90,0,0
16117,-100,4,1,0,70,0,0
16488,-100,4,1,0,70,0,0
16860,-100,4,1,0,85,0,0
17231,-100,4,1,0,100,0,0
17603,-100,4,2,0,50,0,0
17727,-100,4,2,0,60,0,0
17850,-100,4,2,0,70,0,0
17974,-66.6666666666667,4,1,1,60,0,1
18160,-66.6666666666667,4,1,0,50,0,1
18346,-100,4,1,1,80,0,1
18717,-100,4,2,0,80,0,1
19089,-100,4,1,0,80,0,1
19367,-100,4,3,0,80,0,1
19832,-100,4,3,0,50,0,1
20017,-100,4,3,0,80,0,1
20203,-100,4,2,0,80,0,1
20482,-100,4,1,0,80,0,1
20505,-100,4,2,0,80,0,1
20668,-100,4,1,0,80,0,1
20691,-100,4,2,0,80,0,1
20853,-100,4,3,0,80,0,1
20946,-66.6666666666667,4,3,0,80,0,1
21132,-66.6666666666667,4,1,0,50,0,1
21318,-100,4,1,1,80,0,1
21689,-100,4,2,0,80,0,1
22061,-100,4,1,0,40,0,1
22339,-100,4,2,0,80,0,1
22432,-100,4,1,0,80,0,1
22525,-100,4,1,1,80,0,1
22618,-100,4,1,0,65,0,1
22711,-100,4,2,0,80,0,1
22804,-100,4,3,0,80,0,1
22897,-100,4,1,1,80,0,1
22990,-100,4,1,0,65,0,1
23083,-100,4,2,0,80,0,1
23175,-100,4,1,0,80,0,1
23268,-100,4,1,1,80,0,1
23361,-100,4,1,0,65,0,1
23454,-100,4,2,0,80,0,1
23547,-100,4,3,0,80,0,1
23640,-100,4,1,1,80,0,1
23732,-100,4,1,0,65,0,0
23825,-100,4,2,0,80,0,0
23918,-66.6666666666667,4,1,1,60,0,1
24104,-66.6666666666667,4,1,0,50,0,1
24290,-100,4,1,1,80,0,1
24661,-100,4,2,0,80,0,1
25033,-100,4,1,0,80,0,1
25311,-100,4,3,0,80,0,1
25776,-100,4,3,0,50,0,1
25961,-100,4,3,0,80,0,1
26147,-100,4,2,0,80,0,1
26426,-100,4,1,0,80,0,1
26449,-100,4,2,0,80,0,1
26612,-100,4,1,0,80,0,1
26635,-100,4,2,0,80,0,1
26797,-100,4,3,0,80,0,1
27262,-66.6666666666667,4,2,0,80,0,1
27447,-66.6666666666667,4,1,0,50,0,1
27633,-100,4,1,0,80,0,1
27680,-100,4,2,0,80,0,1
27819,-100,4,1,0,80,0,1
27865,-100,4,2,0,80,0,1
28005,-100,4,1,0,40,0,1
28283,-100,4,2,0,80,0,1
28376,-100,4,1,0,80,0,1
28469,-100,4,1,1,80,0,1
28562,-100,4,1,0,65,0,1
28655,-100,4,2,0,80,0,1
28748,-100,4,3,0,80,0,1
28841,-100,4,1,1,80,0,1
28934,-100,4,1,0,65,0,1
29027,-100,4,2,0,80,0,1
29119,-100,4,1,0,80,0,1
29212,-100,4,1,1,80,0,1
29305,-100,4,1,0,65,0,1
29398,-100,4,2,0,80,0,1
29491,-100,4,3,0,80,0,1
29584,-100,4,1,1,80,0,1
29676,-100,4,1,0,80,0,1
29769,-100,4,2,0,80,0,1
29862,-100,4,1,1,60,0,0
30234,-100,4,3,0,75,0,0
31348,-100,4,2,0,90,0,0
31720,-100,4,3,0,75,0,0
32834,-100,4,2,0,90,0,0
33206,-100,4,3,0,75,0,0
34320,-100,4,2,0,90,0,0
34691,-100,4,3,0,75,0,0
35063,-100,4,3,0,60,0,0
35434,-66.6666666666667,4,2,0,75,0,0
36177,-100,4,3,0,75,0,0
37292,-100,4,2,0,90,0,0
37478,-100,4,3,0,90,0,0
37664,-100,4,3,0,75,0,0
38406,-100,4,3,0,75,0,0
38778,-100,4,3,0,75,0,0
38964,-100,4,3,0,90,0,0
39057,-100,4,3,0,75,0,0
39335,-100,4,2,0,60,0,0
39428,-100,4,3,0,75,0,0
39707,-100,4,3,0,90,0,0
39800,-100,4,3,0,75,0,0
40078,-100,4,2,0,60,0,0
40171,-100,4,3,0,75,0,0
40450,-100,4,3,0,90,0,0
40543,-100,4,3,0,75,0,0
40821,-100,4,2,0,60,0,0
40914,-100,4,3,0,75,0,0
42121,-100,4,3,0,50,0,0
42493,-100,4,3,0,57,0,0
42864,-100,4,3,0,63,0,0
43236,-100,4,3,0,70,0,0
43607,-100,4,3,0,77,0,0
43979,-100,4,3,0,83,0,0
44350,-100,4,3,0,90,0,0
44722,-100,4,1,1,70,0,1
45093,-100,4,3,0,90,0,1
45186,-100,4,1,1,90,0,1
45836,-100,4,3,0,90,0,1
45929,-100,4,1,1,90,0,1
46579,-100,4,3,0,90,0,1
46672,-100,4,1,1,90,0,1
47044,-100,4,2,0,45,0,1
47137,-100,4,2,0,90,0,1
47229,-100,4,2,0,45,0,1
47322,-100,4,3,0,90,0,1
47415,-100,4,1,1,90,0,1
48065,-100,4,3,0,90,0,1
48158,-100,4,1,1,90,0,1
48808,-100,4,3,0,90,0,1
48901,-100,4,1,1,90,0,1
49551,-100,4,3,0,90,0,1
49644,-100,4,1,1,90,0,1
50108,-100,4,2,0,90,0,1
50201,-100,4,1,1,90,0,1
50294,-100,4,3,0,90,0,1
50387,-100,4,1,1,90,0,1
50480,-100,4,2,0,90,0,1
50573,-100,4,1,1,90,0,1
50666,-100,4,1,1,70,0,1
51037,-100,4,3,0,90,0,1
51130,-100,4,1,1,90,0,1
51780,-100,4,3,0,90,0,1
51873,-100,4,1,1,90,0,1
52523,-100,4,3,0,90,0,1
52616,-100,4,1,1,90,0,1
53266,-100,4,3,0,90,0,1
53359,-100,4,1,1,90,0,1
53638,-100,4,2,0,80,0,0
53823,-100,4,1,1,80,0,0
56052,-100,4,3,0,60,0,0
56145,-100,4,1,1,80,0,0
56424,-100,4,3,0,60,0,0
56517,-100,4,1,1,80,0,0
56610,-100,4,1,1,70,0,1
56795,-100,4,1,1,90,0,1
56981,-100,4,3,0,90,0,1
57074,-100,4,1,1,90,0,1
57724,-100,4,3,0,90,0,1
57817,-100,4,1,1,90,0,1
58467,-100,4,3,0,90,0,1
58560,-100,4,1,1,90,0,1
59210,-100,4,3,0,90,0,1
59303,-100,4,1,1,90,0,1
59582,-100,4,2,0,80,0,0
59767,-100,4,3,0,80,0,0
59953,-100,4,2,0,80,0,0
60139,-100,4,3,0,80,0,0
60371,-100,4,1,0,80,0,0
60417,-100,4,3,0,80,0,0
60464,-100,4,1,0,80,0,0
60510,-100,4,3,0,80,0,0
60557,-100,4,1,0,80,0,0
60603,-100,4,3,0,80,0,0
60650,-100,4,1,0,80,0,0
60696,-100,4,1,1,50,0,0
60882,-100,4,3,0,80,0,0
60975,-100,4,2,0,80,0,0
61253,-100,4,3,0,80,0,0
61439,-100,4,2,0,80,0,0
61624,-100,4,3,0,80,0,0
61811,-100,4,1,0,80,0,0
61996,-100,4,1,1,80,0,0
62089,-100,4,1,0,80,0,0
62275,-100,4,1,1,80,0,0
62368,-100,4,1,0,80,0,0
62461,-100,4,1,1,80,0,0
62554,-100,4,1,1,70,0,1
62739,-100,4,1,1,90,0,1
62925,-100,4,3,0,90,0,1
63018,-100,4,1,1,90,0,1
63668,-100,4,3,0,90,0,1
63761,-100,4,1,1,90,0,1
64411,-100,4,3,0,90,0,1
64504,-100,4,1,1,90,0,1
65061,-100,4,3,0,90,0,1
65154,-100,4,1,1,90,0,1
65525,-100,4,1,0,80,0,0
65711,-100,4,1,1,80,0,0
65804,-100,4,1,0,80,0,0
65990,-100,4,1,1,80,0,0
66083,-100,4,1,0,80,0,0
66454,-100,4,1,1,80,0,0
66547,-100,4,1,0,80,0,0
66733,-100,4,1,1,80,0,0
66826,-100,4,1,0,80,0,0
66919,-100,4,1,1,80,0,0
67012,-100,4,1,0,80,0,0
67197,-100,4,1,1,80,0,0
67290,-100,4,1,0,80,0,0
67476,-100,4,1,1,80,0,0
67569,-100,4,1,0,80,0,0
67754,-100,4,1,1,80,0,0
68497,-100,4,2,0,60,0,0
68683,-100,4,1,0,60,0,0
69240,-100,4,2,0,60,0,0
69426,-100,4,1,1,60,0,0
69983,-100,4,2,0,65,0,0
70169,-100,4,1,0,65,0,0
70726,-100,4,2,0,65,0,0
70912,-100,4,1,1,65,0,0
71469,-100,4,2,0,70,0,0
71562,-100,4,1,0,70,0,0
72212,-100,4,2,0,70,0,0
72305,-100,4,1,1,70,0,0
72955,-100,4,2,0,75,0,0
73002,-100,4,1,1,50,0,0
73327,-100,4,1,1,75,0,0
73373,-100,4,1,1,50,0,0
73698,-100,4,2,0,80,0,0
73745,-100,4,1,1,50,0,0
73884,-100,4,1,1,80,0,0
73930,-100,4,1,1,50,0,0
74070,-100,4,2,0,50,0,0
74163,-100,4,2,0,60,0,0
74256,-100,4,2,0,70,0,0
74348,-100,4,2,0,80,0,0
74441,-76.9230769230769,4,1,1,70,0,1
74627,-100,4,1,0,50,0,1
74813,-100,4,3,0,90,0,1
74906,-100,4,1,1,90,0,1
74999,-100,4,2,0,90,0,1
75091,-100,4,1,1,90,0,1
75370,-100,4,2,0,90,0,1
75462,-100,4,1,1,90,0,1
75556,-100,4,3,0,90,0,1
75649,-100,4,1,1,90,0,1
75742,-100,4,2,0,90,0,1
75834,-100,4,1,1,90,0,1
76113,-100,4,2,0,90,0,1
76205,-100,4,1,1,90,0,1
76299,-100,4,3,0,90,0,1
76392,-100,4,1,1,90,0,1
76485,-100,4,2,0,90,0,1
76577,-100,4,1,1,90,0,1
76856,-100,4,2,0,90,0,1
76948,-100,4,1,1,90,0,1
77042,-100,4,3,0,90,0,1
77135,-100,4,1,1,90,0,1
77228,-100,4,2,0,90,0,1
77320,-100,4,1,1,90,0,1
77413,-76.9230769230769,4,1,1,70,0,1
77599,-100,4,1,0,50,0,1
77785,-100,4,3,0,90,0,1
77878,-100,4,1,1,90,0,1
77971,-100,4,2,0,90,0,1
78063,-100,4,1,1,90,0,1
78342,-100,4,2,0,90,0,1
78434,-100,4,1,1,90,0,1
78528,-100,4,3,0,90,0,1
78621,-100,4,1,1,70,0,1
78806,-100,4,1,1,90,0,1
78899,-100,4,1,0,90,0,1
78992,-100,4,1,1,90,0,1
79085,-100,4,1,0,75,0,1
79178,-100,4,2,0,90,0,1
79271,-100,4,3,0,90,0,1
79364,-100,4,1,1,90,0,1
79457,-100,4,1,0,75,0,1
79550,-100,4,2,0,90,0,1
79642,-100,4,1,0,90,0,1
79735,-100,4,1,1,90,0,1
79828,-100,4,1,0,75,0,1
79921,-100,4,2,0,90,0,1
80014,-100,4,3,0,90,0,1
80107,-100,4,1,1,90,0,1
80200,-100,4,1,0,75,0,1
80293,-100,4,2,0,90,0,1
80385,-76.9230769230769,4,1,1,70,0,1
80571,-100,4,1,0,50,0,1
80757,-100,4,3,0,90,0,1
80850,-100,4,1,1,90,0,1
80943,-100,4,2,0,90,0,1
81035,-100,4,1,1,90,0,1
81314,-100,4,2,0,90,0,1
81406,-100,4,1,1,90,0,1
81500,-100,4,3,0,90,0,1
81593,-100,4,1,1,90,0,1
81686,-100,4,2,0,90,0,1
81778,-100,4,1,1,90,0,1
82057,-100,4,2,0,90,0,1
82149,-100,4,1,1,90,0,1
82243,-100,4,3,0,90,0,1
82336,-100,4,1,1,90,0,1
82429,-100,4,2,0,90,0,1
82521,-100,4,1,1,90,0,1
82800,-100,4,2,0,90,0,1
82892,-100,4,1,1,90,0,1
82986,-100,4,3,0,90,0,1
83079,-100,4,1,1,90,0,1
83172,-100,4,2,0,90,0,1
83264,-100,4,1,1,90,0,1
83729,-76.9230769230769,4,1,0,90,0,1
83914,-100,4,1,0,50,0,1
84100,-100,4,1,1,70,0,1
84286,-100,4,2,0,90,0,1
84378,-100,4,1,1,90,0,1
84472,-100,4,3,0,90,0,1
84565,-100,4,1,1,70,0,1
84750,-100,4,1,1,90,0,1
84843,-100,4,1,0,90,0,1
84936,-100,4,1,1,90,0,1
85029,-100,4,1,0,75,0,1
85122,-100,4,2,0,90,0,1
85215,-100,4,3,0,90,0,1
85308,-100,4,1,1,90,0,1
85401,-100,4,1,0,75,0,1
85494,-100,4,2,0,90,0,1
85586,-100,4,1,0,90,0,1
85772,-100,4,1,1,90,0,1
85865,-100,4,1,0,90,0,1
86051,-100,4,1,1,90,0,1
86144,-100,4,1,0,90,0,1
86236,-100,4,1,1,90,0,1
86329,-100,4,1,0,80,0,0
86608,-100,4,1,0,60,0,0
86886,-90.9090909090909,4,1,0,100,0,0
87165,-100,4,1,0,80,0,0
87444,-100,4,1,0,90,0,0
87537,-100,4,1,0,80,0,0
87629,-100,4,1,0,70,0,0
87722,-100,4,1,0,60,0,0
87815,-90.9090909090909,4,1,0,80,0,0
88094,-100,4,1,0,60,0,0
88372,-100,4,1,0,80,0,0
88558,-100,4,1,1,90,0,0
88744,-100,4,1,1,80,0,0
88930,-100,4,1,1,70,0,0
89115,-100,4,1,1,60,0,0
89301,-100,4,1,0,80,0,0
89580,-100,4,1,0,60,0,0
89858,-90.9090909090909,4,1,0,100,0,0
90137,-100,4,1,0,80,0,0
90416,-100,4,1,0,90,0,0
90509,-100,4,1,0,80,0,0
90601,-100,4,1,0,70,0,0
90694,-100,4,1,0,60,0,0
90787,-90.9090909090909,4,1,0,80,0,0
91066,-100,4,1,0,85,0,0
91344,-100,4,1,0,90,0,0
91437,-100,4,1,1,90,0,0
91902,-86.9565217391304,4,1,0,85,0,0
92180,-100,4,1,0,90,0,0
92459,-100,4,1,0,95,0,0
92552,-100,4,1,1,95,0,0
93016,-83.3333333333333,4,1,0,90,0,0
93295,-100,4,1,0,95,0,0
93573,-100,4,1,0,100,0,0
93666,-100,4,1,1,100,0,0
94038,-100,4,1,1,60,0,0
94131,-100,4,2,0,70,0,0
94874,-100,4,2,0,65,0,0
95617,-100,4,2,0,60,0,0
95802,-100,4,1,1,50,0,0
95989,-100,4,2,0,55,0,0
96731,-100,4,2,0,50,0,0
97474,-100,4,2,0,45,0,0
98217,-100,4,2,0,40,0,0
98960,-100,4,2,0,35,0,0
99703,-100,4,2,0,30,0,0
100446,-100,4,2,0,25,0,0
101189,-100,4,2,0,20,0,0

[Colours]
Combo1 : 213,213,0
Combo2 : 243,90,33
Combo3 : 112,196,193
Combo4 : 106,213,0

[HitObjects]
208,192,2743,5,8,0:0:0:0:
320,192,2929,1,8,0:0:0:0:
64,192,3115,6,0,B|32:160|24:120|32:80|64:48|64:48|144:48,1,240,12|2,0:0|0:0,0:0:0:0:
143,48,3765,1,2,0:0:0:0:
95,48,3857,2,0,P|63:112|95:192,1,160,10|0,0:0|0:0,0:0:0:0:
288,192,4600,6,0,L|128:208,1,160,2|2,0:0|0:0,0:0:0:0:
320,192,5343,1,8,0:0:0:0:
128,176,5715,1,2,0:0:0:0:
448,192,6086,6,0,B|480:160|488:120|480:80|448:48|448:48|368:48,1,240,2|2,0:0|0:0,0:0:0:0:
320,48,6737,1,2,0:0:0:0:
368,48,6829,2,0,P|400:112|368:192,1,160,10|0,0:0|0:0,0:0:0:0:
176,336,7572,6,0,P|144:272|176:192,1,160,2|2,0:0|0:0,0:0:0:0:
369,190,8315,1,8,0:0:0:0:
256,192,8501,2,0,P|192:160|192:80,1,160,0|0,0:0|0:0,0:0:0:0:
448,192,9058,6,0,B|480:224|488:264|480:304|448:336|448:336|368:336,1,240,12|2,0:0|0:0,0:0:0:0:
369,336,9709,1,2,0:0:0:0:
417,336,9801,2,0,L|432:256,1,80,10|8,0:0|0:0,0:0:0:0:
320,336,10173,2,0,L|336:256,1,80,10|8,0:0|0:0,0:0:0:0:
160,192,10544,6,0,L|145:112,1,80,10|8,0:0|0:0,0:0:0:0:
256,192,10916,2,0,L|271:112,1,80,10|8,0:0|0:0,0:0:0:0:
160,192,11287,2,0,L|175:112,1,80,8|8,0:0|0:0,0:0:0:0:
272,112,11659,1,10,0:0:0:0:
176,112,11845,1,8,0:0:0:0:
432,192,12030,6,0,L|272:208,1,160,12|2,0:0|0:0,0:0:0:0:
384,160,12588,1,2,0:0:0:0:
272,208,12773,1,2,0:0:0:0:
224,176,12866,1,0,0:0:0:0:
208,128,12959,1,0,0:0:0:0:
224,80,13052,1,0,0:0:0:0:
272,48,13145,1,0,0:0:0:0:
384,48,13331,1,2,0:0:0:0:
128,48,13516,6,0,L|128:144,1,80,12|0,0:0|0:0,0:0:0:0:
384,336,13888,2,0,L|384:240,1,80,12|2,0:0|0:0,0:0:0:0:
336,192,14166,1,2,0:0:0:0:
256,192,14259,2,0,L|176:192,1,80,12|8,0:0|0:0,0:0:0:0:
272,112,14631,2,0,L|192:112,1,80,8|0,0:0|0:0,0:0:0:0:
448,112,15002,5,0,0:0:0:0:
256,192,15374,12,2,17603,0:0:0:0:
352,192,17974,6,0,L|480:192,1,120.000004577637,12|2,0:0|0:0,0:0:0:0:
208,192,18346,2,0,L|144:192,2,53.3333333333333,10|8|8,0:0|0:0|0:0,0:0:0:0:
352,96,18717,2,0,L|352:176,1,80,10|10,0:0|0:0,0:0:0:0:
160,192,19089,2,0,P|128:140|160:96,1,120,8|8,0:0|0:0,0:0:0:0:
240,96,19460,6,0,L|320:96,1,80,10|8,0:0|0:0,0:0:0:0:
208,96,19832,2,0,L|208:176,1,80,2|8,0:0|0:0,0:0:0:0:
464,192,20203,2,0,L|464:144,1,40,10|10,0:0|0:0,0:0:0:0:
352,112,20482,2,0,L|432:112,2,80,10|10|8,0:0|0:0|0:0,0:0:0:0:
272,64,20946,6,0,L|400:64,1,120.000004577637,10|2,0:0|0:0,0:0:0:0:
128,192,21318,2,0,L|64:192,2,53.3333333333333,10|8|8,0:0|0:0|0:0,0:0:0:0:
272,96,21689,2,0,L|272:176,1,80,10|10,0:0|0:0,0:0:0:0:
80,192,22061,2,0,L|80:144,1,40,8|8,0:0|0:0,0:0:0:0:
144,96,22246,1,8,0:0:0:0:
400,96,22432,6,0,L|320:96,1,80,12|2,0:0|0:0,0:0:0:0:
320,96,22711,1,2,0:0:0:0:
400,96,22804,2,0,L|480:96,1,80,8|2,0:0|0:0,0:0:0:0:
272,192,23175,2,0,L|256:112,1,80,8|2,0:0|0:0,0:0:0:0:
336,192,23454,2,0,L|416:192,1,80,2|0,0:0|0:0,0:0:0:0:
416,192,23732,1,2,0:0:0:0:
160,192,23918,6,0,L|32:192,1,120.000004577637,12|2,0:0|0:0,0:0:0:0:
304,192,24290,2,0,L|368:192,2,53.3333333333333,10|8|8,0:0|0:0|0:0,0:0:0:0:
160,288,24661,2,0,L|160:208,1,80,10|10,0:0|0:0,0:0:0:0:
352,192,25033,2,0,P|384:244|352:288,1,120,8|8,0:0|0:0,0:0:0:0:
272,288,25404,6,0,L|192:288,1,80,10|8,0:0|0:0,0:0:0:0:
304,288,25776,2,0,L|304:208,1,80,2|8,0:0|0:0,0:0:0:0:
48,192,26147,2,0,L|48:240,1,40,10|10,0:0|0:0,0:0:0:0:
160,272,26426,2,0,L|80:272,2,80,10|10|8,0:0|0:0|0:0,0:0:0:0:
112,192,26890,6,0,L|112:112,1,80,8|0,0:0|0:0,0:0:0:0:
368,192,27262,2,0,L|496:192,1,120.000004577637,14|2,0:0|0:0,0:0:0:0:
240,192,27633,2,0,L|240:112,1,80,8|8,0:0|0:0,0:0:0:0:
432,192,28005,1,8,0:0:0:0:
432,112,28097,1,8,0:0:0:0:
368,64,28190,1,8,0:0:0:0:
112,288,28376,6,0,L|192:288,1,80,12|2,0:0|0:0,0:0:0:0:
192,288,28655,1,2,0:0:0:0:
112,288,28748,2,0,L|32:288,1,80,8|2,0:0|0:0,0:0:0:0:
240,192,29119,2,0,L|320:192,1,80,8|2,0:0|0:0,0:0:0:0:
240,192,29398,2,0,L|160:192,1,80,2|0,0:0|0:0,0:0:0:0:
160,192,29676,1,2,0:0:0:0:
416,192,29862,5,12,0:0:0:0:
416,192,30419,1,2,0:0:0:0:
256,192,30605,2,0,L|240:112,1,80,10|0,0:0|0:0,0:0:0:0:
336,192,30977,2,0,L|352:112,1,80,2|0,0:0|0:0,0:0:0:0:
256,192,31348,5,2,0:0:0:0:
96,192,31905,1,2,0:0:0:0:
256,192,32091,2,0,L|272:112,1,80,10|0,0:0|0:0,0:0:0:0:
176,192,32463,2,0,L|160:112,1,80,2|0,0:0|0:0,0:0:0:0:
256,192,32834,6,0,P|336:112|256:64,1,240,2|0,0:0|0:0,0:0:0:0:
96,64,33577,2,0,P|64:128|96:208,1,160,10|0,0:0|0:0,0:0:0:0:
336,192,34320,6,0,L|176:192,1,160,2|0,0:0|0:0,0:0:0:0:
416,208,35063,1,10,0:0:0:0:
176,256,35434,1,10,0:0:0:0:
96,240,35558,1,10,0:0:0:0:
96,144,35682,1,10,0:0:0:0:
176,128,35806,5,12,0:0:0:0:
336,192,36363,1,2,0:0:0:0:
176,192,36549,2,0,L|160:112,1,80,10|0,0:0|0:0,0:0:0:0:
256,192,36920,2,0,L|272:112,1,80,2|0,0:0|0:0,0:0:0:0:
176,192,37292,5,2,0:0:0:0:
80,192,37478,1,0,0:0:0:0:
80,288,37663,1,0,0:0:0:0:
176,288,37849,1,2,0:0:0:0:
336,192,38035,2,0,L|352:112,1,80,10|0,0:0|0:0,0:0:0:0:
256,112,38406,1,2,0:0:0:0:
352,112,38592,1,0,0:0:0:0:
191,285,38778,5,10,0:0:0:0:
287,333,38964,2,0,P|335:269|352:192,1,160,2|2,0:0|0:0,0:0:0:0:
191,99,39521,1,10,0:0:0:0:
287,51,39707,2,0,P|335:115|352:192,1,160,2|2,0:0|0:0,0:0:0:0:
192,192,40264,5,10,0:0:0:0:
288,192,40450,2,0,L|304:112,2,80,2|0|2,0:0|0:0|0:0,0:0:0:0:
128,304,41007,1,10,0:0:0:0:
32,240,41193,1,0,0:0:0:0:
32,144,41378,1,0,0:0:0:0:
128,80,41564,1,0,0:0:0:0:
384,112,41750,6,0,L|224:112,1,160,6|8,0:0|0:0,0:0:0:0:
432,240,42493,2,0,L|272:240,1,160,8|8,0:0|0:0,0:0:0:0:
480,112,43236,6,0,L|480:192,1,80,8|0,0:0|0:0,0:0:0:0:
352,272,43607,2,0,L|352:192,1,80,8|0,0:0|0:0,0:0:0:0:
224,112,43979,1,8,0:0:0:0:
176,144,44072,1,0,0:0:0:0:
160,192,44165,1,0,0:0:0:0:
176,240,44257,1,0,0:0:0:0:
224,272,44350,1,10,0:0:0:0:
352,192,44536,1,10,0:0:0:0:
96,192,44722,6,0,L|256:192,1,160,12|8,0:0|0:0,0:0:0:0:
96,192,45279,2,0,L|96:144,1,40,2|2,0:0|0:0,0:0:0:0:
176,128,45465,2,0,L|256:128,1,80,8|0,0:0|0:0,0:0:0:0:
144,128,45836,2,0,L|128:48,1,80,8|0,0:0|0:0,0:0:0:0:
288,192,46208,6,0,L|128:192,1,160,10|8,0:0|0:0,0:0:0:0:
320,192,46951,1,8,0:0:0:0:
368,144,47044,1,2,0:0:0:0:
368,80,47137,1,2,0:0:0:0:
320,32,47229,1,2,0:0:0:0:
240,32,47322,2,0,L|320:32,1,80,8|0,0:0|0:0,0:0:0:0:
160,192,47694,6,0,L|320:192,1,160,10|8,0:0|0:0,0:0:0:0:
160,192,48251,2,0,L|160:144,1,40,2|2,0:0|0:0,0:0:0:0:
240,128,48437,2,0,L|256:48,1,80,8|0,0:0|0:0,0:0:0:0:
144,128,48808,2,0,L|64:128,1,80,8|0,0:0|0:0,0:0:0:0:
224,256,49180,6,0,L|240:336,1,80,10|0,0:0|0:0,0:0:0:0:
128,256,49551,2,0,L|224:256,1,80,8|0,0:0|0:0,0:0:0:0:
368,256,49923,1,8,0:0:0:0:
416,208,50016,1,0,0:0:0:0:
368,160,50108,1,2,0:0:0:0:
208,256,50294,1,8,0:0:0:0:
160,208,50387,1,0,0:0:0:0:
208,160,50480,1,2,0:0:0:0:
464,192,50666,6,0,L|304:192,1,160,12|8,0:0|0:0,0:0:0:0:
464,192,51223,2,0,L|464:144,1,40,2|2,0:0|0:0,0:0:0:0:
384,128,51409,2,0,L|304:128,1,80,8|0,0:0|0:0,0:0:0:0:
416,128,51780,2,0,L|432:48,1,80,8|0,0:0|0:0,0:0:0:0:
272,192,52152,6,0,L|432:192,1,160,10|8,0:0|0:0,0:0:0:0:
240,192,52895,1,8,0:0:0:0:
288,160,52988,2,0,P|304:144|288:96,1,80,10|8,0:0|0:0,0:0:0:0:
224,96,53266,1,10,0:0:0:0:
160,96,53359,1,8,0:0:0:0:
224,96,53452,1,8,0:0:0:0:
480,192,53638,6,0,L|320:192,1,160,12|8,0:0|0:0,0:0:0:0:
400,192,54195,1,2,0:0:0:0:
144,192,54381,2,0,L|128:112,1,80,8|0,0:0|0:0,0:0:0:0:
240,96,54752,1,0,0:0:0:0:
128,96,54938,2,0,L|128:144,1,40,2|2,0:0|0:0,0:0:0:0:
208,160,55124,6,0,L|288:160,1,80,10|0,0:0|0:0,0:0:0:0:
288,160,55402,1,0,0:0:0:0:
208,224,55495,2,0,L|128:224,1,80,8|2,0:0|0:0,0:0:0:0:
128,224,55774,1,2,0:0:0:0:
208,224,55867,2,0,L|288:224,1,80,8|8,0:0|0:0,0:0:0:0:
128,224,56238,2,0,L|112:144,1,80,8|8,0:0|0:0,0:0:0:0:
368,144,56610,5,12,0:0:0:0:
208,144,56981,2,0,L|192:224,1,80,8|0,0:0|0:0,0:0:0:0:
304,224,57353,2,0,P|352:176|352:128,1,120,8|2,0:0|0:0,0:0:0:0:
272,128,57724,2,0,L|256:48,1,80,8|0,0:0|0:0,0:0:0:0:
416,288,58096,6,0,P|448:240|416:192,1,120,10|0,0:0|0:0,0:0:0:0:
336,192,58467,2,0,L|336:112,1,80,10|2,0:0|0:0,0:0:0:0:
496,192,58839,2,0,P|492:133|448:95,1,120,8|2,0:0|0:0,0:0:0:0:
368,80,59210,2,0,L|448:80,1,80,8|2,0:0|0:0,0:0:0:0:
192,192,59582,5,12,0:0:0:0:
272,192,59767,2,0,P|320:160|320:64,1,160,8|8,0:0|0:0,0:0:0:0:
64,64,60325,2,0,L|64:144,1,80,8|2,0:0|0:0,0:0:0:0:
176,192,60696,1,2,0:0:0:0:
64,240,60882,1,2,0:0:0:0:
320,192,61068,5,10,0:0:0:0:
240,192,61253,2,0,P|192:144|240:80,1,160,8|8,0:0|0:0,0:0:0:0:
400,80,61811,2,0,L|400:160,1,80,8|2,0:0|0:0,0:0:0:0:
320,192,62089,2,0,L|400:192,1,80,8|2,0:0|0:0,0:0:0:0:
400,192,62368,1,8,0:0:0:0:
144,240,62554,5,12,0:0:0:0:
304,240,62925,2,0,L|320:160,1,80,8|0,0:0|0:0,0:0:0:0:
208,160,63297,2,0,P|160:208|160:256,1,120,8|0,0:0|0:0,0:0:0:0:
240,256,63668,2,0,L|256:336,1,80,8|0,0:0|0:0,0:0:0:0:
96,96,64040,6,0,P|64:144|64:208,1,120,8|2,0:0|0:0,0:0:0:0:
144,208,64411,2,0,L|64:208,1,80,8|2,0:0|0:0,0:0:0:0:
224,208,64783,2,0,L|304:208,1,80,8|2,0:0|0:0,0:0:0:0:
224,208,65061,2,0,P|192:160|192:96,1,120,8|8,0:0|0:0,0:0:0:0:
448,96,65525,6,0,L|368:96,1,80,10|2,0:0|0:0,0:0:0:0:
448,96,65804,1,10,0:0:0:0:
320,192,66083,1,10,0:0:0:0:
64,96,66268,2,0,L|133:136,1,80,10|2,0:0|0:0,0:0:0:0:
64,96,66547,1,10,0:0:0:0:
192,192,66826,1,10,0:0:0:0:
448,96,67011,6,0,L|408:165,1,80,10|2,0:0|0:0,0:0:0:0:
448,96,67290,1,10,0:0:0:0:
320,192,67569,1,10,0:0:0:0:
64,96,67754,2,0,P|32:136|32:240,1,160,8|8,0:0|0:0,0:0:0:0:
480,240,68497,6,0,L|480:80,1,160,6|0,0:0|0:0,0:0:0:0:
240,80,69240,2,0,L|400:80,1,160,10|8,0:0|0:0,0:0:0:0:
288,192,69798,1,8,0:0:0:0:
32,144,69983,6,0,L|32:304,1,160,6|0,0:0|0:0,0:0:0:0:
272,304,70726,2,0,L|112:304,1,160,10|8,0:0|0:0,0:0:0:0:
224,192,71284,1,8,0:0:0:0:
480,240,71469,6,0,L|480:160,1,80,6|0,0:0|0:0,0:0:0:0:
368,192,71841,2,0,L|368:112,1,80,0|0,0:0|0:0,0:0:0:0:
208,192,72212,2,0,L|192:272,1,80,10|0,0:0|0:0,0:0:0:0:
304,240,72584,2,0,L|320:320,1,80,8|0,0:0|0:0,0:0:0:0:
160,192,72955,6,0,L|80:192,1,80,10|0,0:0|0:0,0:0:0:0:
192,192,73327,2,0,L|280:192,1,80,8|0,0:0|0:0,0:0:0:0:
112,96,73698,2,0,L|192:96,1,80,10|8,0:0|0:0,0:0:0:0:
352,96,74070,1,2,0:0:0:0:
400,96,74163,1,2,0:0:0:0:
416,192,74256,1,2,0:0:0:0:
160,192,74441,6,0,L|48:192,1,103.999995239258,12|2,0:0|0:0,0:0:0:0:
304,192,74813,2,0,L|304:112,1,80,8|2,0:0|0:0,0:0:0:0:
272,80,75091,1,2,0:0:0:0:
208,80,75184,1,8,0:0:0:0:
368,80,75370,1,2,0:0:0:0:
432,80,75463,1,0,0:0:0:0:
368,80,75556,1,8,0:0:0:0:
256,80,75742,1,2,0:0:0:0:
80,192,75927,6,0,L|80:112,1,80,8|2,0:0|0:0,0:0:0:0:
112,80,76206,1,2,0:0:0:0:
192,80,76299,2,0,L|192:160,1,80,8|2,0:0|0:0,0:0:0:0:
160,192,76577,1,2,0:0:0:0:
240,304,76670,2,0,L|288:240,1,80,8|2,0:0|0:0,0:0:0:0:
256,128,76949,1,2,0:0:0:0:
192,128,77042,1,8,0:0:0:0:
80,128,77228,1,2,0:0:0:0:
336,192,77413,6,0,L|448:192,1,103.999995239258,12|2,0:0|0:0,0:0:0:0:
192,192,77785,2,0,L|192:112,1,80,8|2,0:0|0:0,0:0:0:0:
224,80,78063,1,2,0:0:0:0:
288,80,78156,1,8,0:0:0:0:
128,80,78342,1,2,0:0:0:0:
80,112,78435,1,2,0:0:0:0:
128,144,78528,2,0,L|48:144,1,80,8|0,0:0|0:0,0:0:0:0:
304,192,78899,6,0,L|320:112,1,80,12|2,0:0|0:0,0:0:0:0:
304,80,79178,1,2,0:0:0:0:
224,80,79271,2,0,L|144:80,1,80,8|2,0:0|0:0,0:0:0:0:
176,48,79549,1,2,0:0:0:0:
256,192,79642,2,0,L|272:272,1,80,8|2,0:0|0:0,0:0:0:0:
256,304,79921,1,2,0:0:0:0:
176,304,80014,2,0,L|96:304,1,80,8|2,0:0|0:0,0:0:0:0:
352,192,80385,6,0,L|464:192,1,103.999995239258,12|2,0:0|0:0,0:0:0:0:
208,192,80757,2,0,L|208:272,1,80,8|2,0:0|0:0,0:0:0:0:
240,304,81035,1,2,0:0:0:0:
304,304,81128,1,8,0:0:0:0:
144,304,81314,1,2,0:0:0:0:
80,304,81407,1,0,0:0:0:0:
144,304,81500,1,8,0:0:0:0:
256,304,81685,1,2,0:0:0:0:
432,192,81871,6,0,L|432:272,1,80,8|2,0:0|0:0,0:0:0:0:
400,304,82150,1,2,0:0:0:0:
320,304,82243,2,0,L|320:224,1,80,8|2,0:0|0:0,0:0:0:0:
352,192,82521,1,2,0:0:0:0:
272,80,82614,2,0,L|192:80,1,80,8|2,0:0|0:0,0:0:0:0:
144,160,82893,1,2,0:0:0:0:
192,240,82986,1,8,0:0:0:0:
352,240,83171,1,2,0:0:0:0:
384,240,83264,1,0,0:0:0:0:
400,192,83357,6,0,L|400:112,1,80,8|0,0:0|0:0,0:0:0:0:
128,192,83729,2,0,L|23:192,1,103.999995239258,14|2,0:0|0:0,0:0:0:0:
23,192,84007,1,2,0:0:0:0:
96,144,84100,1,8,0:0:0:0:
256,208,84286,1,2,0:0:0:0:
304,176,84379,1,2,0:0:0:0:
256,144,84472,2,0,L|336:144,1,80,8|0,0:0|0:0,0:0:0:0:
80,192,84843,6,0,L|64:272,1,80,12|2,0:0|0:0,0:0:0:0:
112,304,85122,1,2,0:0:0:0:
192,192,85215,2,0,L|240:256,1,80,8|2,0:0|0:0,0:0:0:0:
192,304,85493,1,2,0:0:0:0:
112,192,85586,2,0,L|112:112,1,80,12|8,0:0|0:0,0:0:0:0:
192,192,85865,2,0,L|192:112,1,80,8|8,0:0|0:0,0:0:0:0:
112,192,86143,1,8,0:0:0:0:
368,64,86329,6,0,L|496:64,1,120,14|10,0:0|0:0,0:0:0:0:
144,80,86886,2,0,L|288:80,1,132.00000402832,10|10,0:0|0:0,0:0:0:0:
480,192,87444,2,0,L|496:144,2,40,0|0|0,0:0|0:0|0:0,0:0:0:0:
224,192,87815,6,0,L|80:192,1,132.00000402832,14|10,0:0|0:0,0:0:0:0:
432,192,88372,1,10,0:0:0:0:
336,192,88558,1,8,0:0:0:0:
320,128,88651,1,2,0:0:0:0:
368,80,88744,1,8,0:0:0:0:
480,64,88930,2,0,L|400:64,1,80,8|8,0:0|0:0,0:0:0:0:
144,64,89301,6,0,L|16:64,1,120,14|10,0:0|0:0,0:0:0:0:
368,80,89858,2,0,L|224:80,1,132.00000402832,10|10,0:0|0:0,0:0:0:0:
32,192,90416,2,0,L|16:144,2,40,0|0|0,0:0|0:0|0:0,0:0:0:0:
288,192,90787,6,0,L|144:192,1,132.00000402832,14|10,0:0|0:0,0:0:0:0:
496,192,91344,2,0,L|496:144,1,40,10|0,0:0|0:0,0:0:0:0:
448,112,91530,2,0,L|448:64,1,40,8|2,0:0|0:0,0:0:0:0:
496,32,91716,1,8,0:0:0:0:
224,192,91902,6,0,L|368:192,1,138.000002632141,14|10,0:0|0:0,0:0:0:0:
16,192,92459,2,0,L|16:144,1,40,10|0,0:0|0:0,0:0:0:0:
72,112,92645,2,0,L|72:64,1,40,8|2,0:0|0:0,0:0:0:0:
16,32,92830,1,8,0:0:0:0:
288,192,93016,6,0,L|144:192,1,143.999995605469,14|10,0:0|0:0,0:0:0:0:
496,192,93573,2,0,L|496:144,1,40,10|0,0:0|0:0,0:0:0:0:
448,112,93759,1,8,0:0:0:0:
384,112,93852,1,2,0:0:0:0:
64,112,94038,5,12,0:0:0:0:
256,192,94316,12,0,95431,0:0:0:0:
256,192,95802,5,12,0:0:0:0:
256,192,95988,12,2,101560,0:0:0:0:
