osu file format v14

[General]
AudioFilename: audio.mp3
AudioLeadIn: 0
PreviewTime: 44350
Countdown: 0
SampleSet: Soft
StackLeniency: 0.7
Mode: 2
LetterboxInBreaks: 0
WidescreenStoryboard: 0

[Editor]
Bookmarks: 2743,17974,29862,44722,56610,68497,86329,101560
DistanceSpacing: 1
BeatDivisor: 4
GridSize: 16
TimelineZoom: 3.200002

[Metadata]
Title:Mushi no Sumu Tokoro
TitleUnicode:蟲の棲む処
Artist:Camellia feat. Nana Takahashi
ArtistUnicode:かめりあ feat. Nana Takahashi
Creator:Deif
Version:Black Bride
Source:BeatStream アニムトライヴ
Tags:Secre chickenbible KamelCamellia かめりかめりあ Cametek 高橋菜々 Oya Masaya 大箭将也 a place where bugs live BeatStream2 AnimTribe KONAMI BEMANI jubeat plus Qubell pop'n music popn うさぎと猫と少年の夢 SOUND VOLTEX IV HEAVENLY HAVEN SDVX Gothic Dubstep Electronic Japanese
BeatmapID:3121800
BeatmapSetID:1525823

[Difficulty]
HPDrainRate:6
CircleSize:4.4
OverallDifficulty:9.6
ApproachRate:9.6
SliderMultiplier:2.2
SliderTickRate:1

[Events]
//Background and Video events
0,0,"BG.jpg",0,0
//Break Periods
//Storyboard Layer 0 (Background)
//Storyboard Layer 1 (Fail)
//Storyboard Layer 2 (Pass)
//Storyboard Layer 3 (Foreground)
//Storyboard Layer 4 (Overlay)
//Storyboard Sound Samples

[TimingPoints]
3115,371.494025137762,4,1,1,60,1,0
3393,-100,4,1,0,10,0,0
3440,-100,4,1,0,20,0,0
3486,-100,4,1,0,30,0,0
3532,-100,4,1,0,40,0,0
3579,-100,4,1,0,50,0,0
3672,-100,4,3,0,90,0,0
3857,-100,4,3,0,75,0,0
5343,-100,4,3,0,60,0,0
5715,-100,4,3,0,75,0,0
6086,-100,4,3,0,90,0,0
6458,-100,4,3,0,75,0,0
9058,-100,4,1,1,60,0,0
9337,-100,4,1,0,10,0,0
9384,-100,4,1,0,20,0,0
9430,-100,4,1,0,30,0,0
9476,-100,4,1,0,40,0,0
9523,-100,4,1,0,50,0,0
9616,-100,4,3,0,90,0,0
9801,-100,4,3,0,45,0,0
10544,-100,4,3,0,75,0,0
10730,-100,4,3,0,45,0,0
10916,-100,4,3,0,75,0,0
11102,-100,4,3,0,45,0,0
11659,-100,4,3,0,75,0,0
11845,-100,4,3,0,45,0,0
12031,-100,4,1,1,60,0,0
12123,-100,4,1,0,75,0,0
12588,-100,4,2,0,75,0,0
12680,-100,4,1,0,75,0,0
13238,-100,4,2,0,75,0,0
13331,-100,4,1,0,75,0,0
13423,-100,4,2,0,75,0,0
13609,-100,4,1,0,75,0,0
13888,-100,4,2,0,75,0,0
13981,-100,4,1,0,75,0,0
14166,-100,4,2,0,75,0,0
14259,-100,4,3,0,75,0,0
15002,-71.4285714285714,4,1,0,60,0,0
15374,-71.4285714285714,4,1,0,80,0,0
15745,-71.4285714285714,4,1,0,90,0,0
16117,-71.4285714285714,4,1,0,70,0,0
16488,-50,4,1,0,70,0,0
16860,-50,4,1,0,85,0,0
17231,-50,4,1,0,100,0,0
17603,-50,4,2,0,50,0,0
17727,-50,4,2,0,60,0,0
17850,-50,4,2,0,70,0,0
17974,-40,4,1,1,60,0,1
18160,-40,4,1,0,50,0,1
18346,-80,4,1,1,80,0,1
18717,-100,4,2,0,80,0,1
19089,-100,4,1,0,80,0,1
19367,-100,4,3,0,80,0,1
19832,-100,4,3,0,50,0,1
20017,-100,4,3,0,80,0,1
20203,-100,4,2,0,80,0,1
20482,-100,4,1,0,80,0,1
20505,-100,4,2,0,80,0,1
20668,-100,4,1,0,80,0,1
20691,-100,4,2,0,80,0,1
20853,-100,4,3,0,80,0,1
20946,-40,4,3,0,80,0,1
21132,-40,4,1,0,50,0,1
21318,-80,4,1,1,80,0,1
21689,-100,4,2,0,80,0,1
22061,-100,4,1,0,40,0,1
22339,-100,4,2,0,80,0,1
22432,-100,4,1,0,80,0,1
22525,-100,4,1,1,80,0,1
22618,-100,4,1,0,65,0,1
22711,-100,4,2,0,80,0,1
22804,-100,4,3,0,80,0,1
22897,-100,4,1,1,80,0,1
22990,-100,4,1,0,65,0,1
23083,-100,4,2,0,80,0,1
23175,-100,4,1,0,80,0,1
23268,-100,4,1,1,80,0,1
23361,-100,4,1,0,65,0,1
23454,-100,4,2,0,80,0,1
23547,-100,4,3,0,80,0,1
23640,-100,4,1,1,80,0,1
23732,-100,4,1,0,65,0,0
23825,-100,4,2,0,80,0,0
23918,-40,4,1,1,60,0,1
24104,-100,4,1,0,50,0,1
24290,-100,4,1,1,80,0,1
24661,-100,4,2,0,80,0,1
25033,-100,4,1,0,80,0,1
25311,-100,4,3,0,80,0,1
25776,-100,4,3,0,50,0,1
25961,-100,4,3,0,80,0,1
26147,-100,4,2,0,80,0,1
26426,-100,4,1,0,80,0,1
26449,-100,4,2,0,80,0,1
26612,-100,4,1,0,80,0,1
26635,-100,4,2,0,80,0,1
26797,-100,4,3,0,80,0,1
27262,-40,4,2,0,80,0,1
27447,-40,4,1,0,50,0,1
27633,-100,4,1,0,80,0,1
27680,-100,4,2,0,80,0,1
27819,-100,4,1,0,80,0,1
27865,-100,4,2,0,80,0,1
28005,-100,4,1,0,40,0,1
28283,-100,4,2,0,80,0,1
28376,-100,4,1,0,80,0,1
28469,-100,4,1,1,80,0,1
28562,-100,4,1,0,65,0,1
28655,-100,4,2,0,80,0,1
28748,-100,4,3,0,80,0,1
28841,-100,4,1,1,80,0,1
28934,-100,4,1,0,65,0,1
29027,-100,4,2,0,80,0,1
29119,-100,4,1,0,80,0,1
29212,-100,4,1,1,80,0,1
29305,-100,4,1,0,65,0,1
29398,-100,4,2,0,80,0,1
29491,-100,4,3,0,80,0,1
29584,-100,4,1,1,80,0,1
29676,-100,4,1,0,80,0,1
29769,-100,4,2,0,80,0,1
29862,-133.333333333333,4,1,1,60,0,0
30234,-133.333333333333,4,3,0,75,0,0
31348,-133.333333333333,4,2,0,90,0,0
31720,-133.333333333333,4,3,0,75,0,0
32834,-133.333333333333,4,2,0,90,0,0
33206,-133.333333333333,4,3,0,75,0,0
34320,-133.333333333333,4,2,0,90,0,0
34691,-133.333333333333,4,3,0,75,0,0
35063,-133.333333333333,4,3,0,60,0,0
35434,-133.333333333333,4,2,0,75,0,0
36177,-133.333333333333,4,3,0,75,0,0
37292,-133.333333333333,4,2,0,90,0,0
37478,-133.333333333333,4,3,0,90,0,0
37664,-133.333333333333,4,3,0,75,0,0
38406,-66.6666666666667,4,3,0,75,0,0
38778,-133.333333333333,4,3,0,75,0,0
38964,-133.333333333333,4,3,0,90,0,0
39057,-133.333333333333,4,3,0,75,0,0
39335,-133.333333333333,4,2,0,60,0,0
39428,-133.333333333333,4,3,0,75,0,0
39707,-133.333333333333,4,3,0,90,0,0
39800,-133.333333333333,4,3,0,75,0,0
40078,-133.333333333333,4,2,0,60,0,0
40171,-133.333333333333,4,3,0,75,0,0
40450,-133.333333333333,4,3,0,90,0,0
40543,-133.333333333333,4,3,0,75,0,0
40821,-133.333333333333,4,2,0,60,0,0
40914,-133.333333333333,4,3,0,75,0,0
42121,-133.333333333333,4,3,0,50,0,0
42493,-133.333333333333,4,3,0,57,0,0
42864,-133.333333333333,4,3,0,63,0,0
43236,-133.333333333333,4,3,0,70,0,0
43607,-133.333333333333,4,3,0,77,0,0
43979,-133.333333333333,4,3,0,83,0,0
44350,-133.333333333333,4,3,0,90,0,0
44722,-66.6666666666667,4,1,1,70,0,1
45093,-66.6666666666667,4,3,0,90,0,1
45186,-66.6666666666667,4,1,1,90,0,1
45836,-66.6666666666667,4,3,0,90,0,1
45929,-66.6666666666667,4,1,1,90,0,1
46579,-66.6666666666667,4,3,0,90,0,1
46672,-66.6666666666667,4,1,1,90,0,1
47044,-66.6666666666667,4,2,0,45,0,1
47137,-66.6666666666667,4,2,0,90,0,1
47229,-66.6666666666667,4,2,0,45,0,1
47322,-66.6666666666667,4,3,0,90,0,1
47415,-66.6666666666667,4,1,1,90,0,1
48065,-66.6666666666667,4,3,0,90,0,1
48158,-66.6666666666667,4,1,1,90,0,1
48808,-66.6666666666667,4,3,0,90,0,1
48901,-66.6666666666667,4,1,1,90,0,1
49551,-66.6666666666667,4,3,0,90,0,1
49644,-66.6666666666667,4,1,1,90,0,1
50108,-66.6666666666667,4,2,0,90,0,1
50201,-66.6666666666667,4,1,1,90,0,1
50294,-66.6666666666667,4,3,0,90,0,1
50387,-66.6666666666667,4,1,1,90,0,1
50480,-66.6666666666667,4,2,0,90,0,1
50573,-66.6666666666667,4,1,1,90,0,1
50666,-66.6666666666667,4,1,1,70,0,1
51037,-66.6666666666667,4,3,0,90,0,1
51130,-66.6666666666667,4,1,1,90,0,1
51780,-66.6666666666667,4,3,0,90,0,1
51873,-66.6666666666667,4,1,1,90,0,1
52523,-66.6666666666667,4,3,0,90,0,1
52616,-66.6666666666667,4,1,1,90,0,1
53266,-66.6666666666667,4,3,0,90,0,1
53359,-66.6666666666667,4,1,1,90,0,1
53638,-100,4,2,0,80,0,0
53823,-100,4,1,1,80,0,0
56052,-66.6666666666667,4,3,0,60,0,0
56145,-66.6666666666667,4,1,1,80,0,0
56424,-66.6666666666667,4,3,0,60,0,0
56517,-66.6666666666667,4,1,1,80,0,0
56610,-66.6666666666667,4,1,1,70,0,1
56795,-66.6666666666667,4,1,1,90,0,1
56981,-66.6666666666667,4,3,0,90,0,1
57074,-66.6666666666667,4,1,1,90,0,1
57724,-66.6666666666667,4,3,0,90,0,1
57817,-66.6666666666667,4,1,1,90,0,1
58467,-66.6666666666667,4,3,0,90,0,1
58560,-66.6666666666667,4,1,1,90,0,1
59210,-66.6666666666667,4,3,0,90,0,1
59303,-66.6666666666667,4,1,1,90,0,1
59582,-100,4,2,0,80,0,0
59767,-100,4,3,0,80,0,0
59953,-100,4,2,0,80,0,0
60139,-100,4,3,0,80,0,0
60371,-100,4,1,0,80,0,0
60417,-100,4,3,0,80,0,0
60464,-100,4,1,0,80,0,0
60510,-100,4,3,0,80,0,0
60557,-100,4,1,0,80,0,0
60603,-100,4,3,0,80,0,0
60650,-100,4,1,0,80,0,0
60696,-100,4,1,1,50,0,0
60882,-100,4,3,0,80,0,0
60975,-100,4,2,0,80,0,0
61253,-100,4,3,0,80,0,0
61439,-100,4,2,0,80,0,0
61624,-100,4,3,0,80,0,0
61811,-100,4,1,0,80,0,0
61996,-100,4,1,1,80,0,0
62089,-80,4,1,0,80,0,0
62275,-80,4,1,1,80,0,0
62368,-100,4,1,0,80,0,0
62461,-100,4,1,1,80,0,0
62554,-66.6666666666667,4,1,1,70,0,1
62739,-66.6666666666667,4,1,1,90,0,1
62925,-66.6666666666667,4,3,0,90,0,1
63018,-66.6666666666667,4,1,1,90,0,1
63668,-66.6666666666667,4,3,0,90,0,1
63761,-66.6666666666667,4,1,1,90,0,1
64411,-66.6666666666667,4,3,0,90,0,1
64504,-66.6666666666667,4,1,1,90,0,1
65061,-66.6666666666667,4,3,0,90,0,1
65154,-66.6666666666667,4,1,1,90,0,1
65525,-66.6666666666667,4,1,0,80,0,0
65711,-66.6666666666667,4,1,1,80,0,0
65804,-66.6666666666667,4,1,0,80,0,0
65990,-66.6666666666667,4,1,1,80,0,0
66083,-66.6666666666667,4,1,0,80,0,0
66454,-66.6666666666667,4,1,1,80,0,0
66547,-66.6666666666667,4,1,0,80,0,0
66733,-66.6666666666667,4,1,1,80,0,0
66826,-66.6666666666667,4,1,0,80,0,0
66919,-66.6666666666667,4,1,1,80,0,0
67012,-66.6666666666667,4,1,0,80,0,0
67197,-66.6666666666667,4,1,1,80,0,0
67290,-66.6666666666667,4,1,0,80,0,0
67476,-66.6666666666667,4,1,1,80,0,0
67569,-66.6666666666667,4,1,0,80,0,0
67754,-66.6666666666667,4,1,1,80,0,0
68497,-100,4,2,0,60,0,0
68683,-100,4,1,0,60,0,0
69240,-100,4,2,0,60,0,0
69426,-100,4,1,1,60,0,0
69983,-100,4,2,0,65,0,0
70169,-100,4,1,0,65,0,0
70726,-100,4,2,0,65,0,0
70912,-100,4,1,1,65,0,0
71469,-100,4,2,0,70,0,0
71562,-100,4,1,0,70,0,0
72212,-100,4,2,0,70,0,0
72305,-100,4,1,1,70,0,0
72955,-100,4,2,0,75,0,0
73002,-100,4,1,1,50,0,0
73327,-100,4,1,1,75,0,0
73373,-100,4,1,1,50,0,0
73698,-100,4,2,0,80,0,0
73745,-100,4,1,1,50,0,0
73884,-100,4,1,1,80,0,0
73930,-100,4,1,1,50,0,0
74070,-100,4,2,0,50,0,0
74163,-100,4,2,0,60,0,0
74256,-100,4,2,0,70,0,0
74348,-100,4,2,0,80,0,0
74441,-40,4,1,1,70,0,1
74627,-66.6666666666667,4,1,0,50,0,1
74813,-66.6666666666667,4,3,0,90,0,1
74906,-66.6666666666667,4,1,1,90,0,1
74999,-66.6666666666667,4,2,0,90,0,1
75091,-66.6666666666667,4,1,1,90,0,1
75370,-66.6666666666667,4,2,0,90,0,1
75462,-66.6666666666667,4,1,1,90,0,1
75556,-66.6666666666667,4,3,0,90,0,1
75649,-66.6666666666667,4,1,1,90,0,1
75742,-66.6666666666667,4,2,0,90,0,1
75834,-66.6666666666667,4,1,1,90,0,1
76113,-66.6666666666667,4,2,0,90,0,1
76205,-66.6666666666667,4,1,1,90,0,1
76299,-66.6666666666667,4,3,0,90,0,1
76392,-66.6666666666667,4,1,1,90,0,1
76485,-66.6666666666667,4,2,0,90,0,1
76577,-66.6666666666667,4,1,1,90,0,1
76856,-66.6666666666667,4,2,0,90,0,1
76948,-66.6666666666667,4,1,1,90,0,1
77042,-66.6666666666667,4,3,0,90,0,1
77135,-66.6666666666667,4,1,1,90,0,1
77228,-66.6666666666667,4,2,0,90,0,1
77320,-66.6666666666667,4,1,1,90,0,1
77413,-40,4,1,1,70,0,1
77599,-66.6666666666667,4,1,0,50,0,1
77785,-66.6666666666667,4,3,0,90,0,1
77878,-66.6666666666667,4,1,1,90,0,1
77971,-66.6666666666667,4,2,0,90,0,1
78063,-66.6666666666667,4,1,1,90,0,1
78342,-66.6666666666667,4,2,0,90,0,1
78434,-66.6666666666667,4,1,1,90,0,1
78528,-66.6666666666667,4,3,0,90,0,1
78621,-66.6666666666667,4,1,1,70,0,1
78806,-66.6666666666667,4,1,1,90,0,1
78899,-66.6666666666667,4,1,0,90,0,1
78992,-66.6666666666667,4,1,1,90,0,1
79085,-66.6666666666667,4,1,0,75,0,1
79178,-66.6666666666667,4,2,0,90,0,1
79271,-66.6666666666667,4,3,0,90,0,1
79364,-66.6666666666667,4,1,1,90,0,1
79457,-66.6666666666667,4,1,0,75,0,1
79550,-66.6666666666667,4,2,0,90,0,1
79642,-66.6666666666667,4,1,0,90,0,1
79735,-66.6666666666667,4,1,1,90,0,1
79828,-66.6666666666667,4,1,0,75,0,1
79921,-66.6666666666667,4,2,0,90,0,1
80014,-66.6666666666667,4,3,0,90,0,1
80107,-66.6666666666667,4,1,1,90,0,1
80200,-66.6666666666667,4,1,0,75,0,1
80293,-66.6666666666667,4,2,0,90,0,1
80385,-40,4,1,1,70,0,1
80571,-66.6666666666667,4,1,0,50,0,1
80757,-66.6666666666667,4,3,0,90,0,1
80850,-66.6666666666667,4,1,1,90,0,1
80943,-66.6666666666667,4,2,0,90,0,1
81035,-66.6666666666667,4,1,1,90,0,1
81314,-66.6666666666667,4,2,0,90,0,1
81406,-66.6666666666667,4,1,1,90,0,1
81500,-66.6666666666667,4,3,0,90,0,1
81593,-66.6666666666667,4,1,1,90,0,1
81686,-66.6666666666667,4,2,0,90,0,1
81778,-66.6666666666667,4,1,1,90,0,1
82057,-66.6666666666667,4,2,0,90,0,1
82149,-66.6666666666667,4,1,1,90,0,1
82243,-66.6666666666667,4,3,0,90,0,1
82336,-66.6666666666667,4,1,1,90,0,1
82429,-66.6666666666667,4,2,0,90,0,1
82521,-66.6666666666667,4,1,1,90,0,1
82800,-66.6666666666667,4,2,0,90,0,1
82892,-66.6666666666667,4,1,1,90,0,1
82986,-66.6666666666667,4,3,0,90,0,1
83079,-66.6666666666667,4,1,1,90,0,1
83172,-66.6666666666667,4,2,0,90,0,1
83264,-66.6666666666667,4,1,1,90,0,1
83729,-40,4,1,0,90,0,1
83914,-66.6666666666667,4,1,0,50,0,1
84100,-66.6666666666667,4,1,1,70,0,1
84286,-66.6666666666667,4,2,0,90,0,1
84378,-66.6666666666667,4,1,1,90,0,1
84472,-66.6666666666667,4,3,0,90,0,1
84565,-66.6666666666667,4,1,1,70,0,1
84750,-66.6666666666667,4,1,1,90,0,1
84843,-66.6666666666667,4,1,0,90,0,1
84936,-66.6666666666667,4,1,1,90,0,1
85029,-66.6666666666667,4,1,0,75,0,1
85122,-66.6666666666667,4,2,0,90,0,1
85215,-66.6666666666667,4,3,0,90,0,1
85308,-66.6666666666667,4,1,1,90,0,1
85401,-66.6666666666667,4,1,0,75,0,1
85494,-66.6666666666667,4,2,0,90,0,1
85586,-66.6666666666667,4,1,0,90,0,1
85772,-66.6666666666667,4,1,1,90,0,1
85865,-66.6666666666667,4,1,0,90,0,1
86051,-66.6666666666667,4,1,1,90,0,1
86144,-66.6666666666667,4,1,0,90,0,1
86236,-66.6666666666667,4,1,1,90,0,1
86329,-71.4285714285714,4,1,0,80,0,0
86608,-71.4285714285714,4,1,0,60,0,0
86886,-35.7142857142857,4,1,0,100,0,0
87165,-35.7142857142857,4,1,0,80,0,0
87444,-66.6666666666667,4,1,0,90,0,0
87537,-66.6666666666667,4,1,0,80,0,0
87629,-66.6666666666667,4,1,0,70,0,0
87722,-66.6666666666667,4,1,0,60,0,0
87815,-45.4545454545455,4,1,0,80,0,0
88094,-45.4545454545455,4,1,0,60,0,0
88372,-45.4545454545455,4,1,0,80,0,0
88558,-66.6666666666667,4,1,1,90,0,0
88744,-66.6666666666667,4,1,1,80,0,0
88930,-66.6666666666667,4,1,1,70,0,0
89115,-66.6666666666667,4,1,1,60,0,0
89301,-71.4285714285714,4,1,0,80,0,0
89580,-71.4285714285714,4,1,0,60,0,0
89858,-35.7142857142857,4,1,0,100,0,0
90137,-35.7142857142857,4,1,0,80,0,0
90416,-66.6666666666667,4,1,0,90,0,0
90509,-66.6666666666667,4,1,0,80,0,0
90601,-66.6666666666667,4,1,0,70,0,0
90694,-66.6666666666667,4,1,0,60,0,0
90787,-45.4545454545455,4,1,0,80,0,0
91066,-45.4545454545455,4,1,0,85,0,0
91344,-45.4545454545455,4,1,0,90,0,0
91437,-45.4545454545455,4,1,1,90,0,0
91902,-40,4,1,0,85,0,0
92180,-40,4,1,0,90,0,0
92459,-40,4,1,0,95,0,0
92552,-40,4,1,1,95,0,0
93016,-35.7142857142857,4,1,0,90,0,0
93295,-35.7142857142857,4,1,0,95,0,0
93573,-35.7142857142857,4,1,0,100,0,0
93666,-35.7142857142857,4,1,1,100,0,0
94038,-35.7142857142857,4,1,1,60,0,0
94131,-35.7142857142857,4,2,0,70,0,0
94874,-35.7142857142857,4,2,0,65,0,0
95617,-35.7142857142857,4,2,0,60,0,0
95802,-35.7142857142857,4,1,1,50,0,0
95989,-100,4,2,0,55,0,0
96731,-100,4,2,0,50,0,0
97474,-100,4,2,0,45,0,0
98217,-100,4,2,0,40,0,0
98960,-100,4,2,0,35,0,0
99703,-100,4,2,0,30,0,0
100446,-100,4,2,0,25,0,0
101189,-100,4,2,0,20,0,0

[Colours]
Combo1 : 213,213,0
Combo2 : 243,90,33
Combo3 : 112,196,193
Combo4 : 106,213,0

[HitObjects]
304,272,2743,5,8,0:0:0:0:
312,240,2789,1,2,2:0:0:0:
320,208,2836,1,2,2:0:0:0:
144,272,2929,1,8,0:0:0:0:
112,272,2975,1,2,2:0:0:0:
80,272,3022,1,2,2:0:0:0:
304,272,3115,6,0,P|368:224|368:144,1,165,12|2,0:0|0:0,0:0:0:0:
376,144,3416,1,2,0:0:0:0:
360,144,3440,1,2,0:0:0:0:
380,96,3463,1,2,0:0:0:0:
360,96,3486,1,2,0:0:0:0:
384,48,3509,1,2,0:0:0:0:
360,48,3532,1,2,0:0:0:0:
388,0,3556,1,2,0:0:0:0:
360,0,3579,1,2,0:0:0:0:
144,112,3672,5,2,0:0:0:0:
224,112,3765,1,2,0:0:0:0:
416,112,3857,2,0,B|416:224|416:224|304:224,1,220,10|0,0:0|0:0,0:0:0:0:
64,224,4508,2,0,L|64:192,1,27.5,0|0,0:0|0:0,0:0:0:0:
128,224,4600,6,0,P|176:152|128:112,1,165,2|0,0:0|0:0,0:0:0:0:
48,112,4972,2,0,L|160:112,2,110,2|2|8,0:0|0:0|0:0,0:0:0:0:
368,224,5715,2,0,P|416:152|368:112,1,165,2|0,0:0|0:0,0:0:0:0:
176,112,6086,6,0,B|400:112,1,220,2|0,0:0|0:0,0:0:0:0:
224,112,6644,1,2,0:0:0:0:
304,112,6737,1,2,0:0:0:0:
112,112,6829,2,0,B|112:224|112:224|224:224,1,220,10|0,0:0|0:0,0:0:0:0:
368,224,7387,1,2,0:0:0:0:
192,112,7572,6,0,L|176:224,1,110,2|2,0:0|0:0,0:0:0:0:
352,224,7944,2,0,L|240:224,1,110,2|0,0:0|0:0,0:0:0:0:
416,288,8315,1,8,0:0:0:0:
272,288,8501,1,0,0:0:0:0:
448,288,8687,2,0,L|464:176,1,110,2|0,0:0|0:0,0:0:0:0:
208,304,9058,6,0,P|144:256|144:176,1,165,12|2,0:0|0:0,0:0:0:0:
136,144,9360,1,2,0:0:0:0:
152,144,9383,1,2,0:0:0:0:
132,96,9407,1,2,0:0:0:0:
152,96,9430,1,2,0:0:0:0:
128,48,9453,1,2,0:0:0:0:
152,48,9476,1,2,0:0:0:0:
124,0,9500,1,2,0:0:0:0:
152,0,9523,1,2,0:0:0:0:
368,112,9616,5,2,0:0:0:0:
288,112,9709,1,2,0:0:0:0:
96,112,9801,2,0,L|208:112,1,110,10|8,0:0|0:0,0:0:0:0:
32,192,10173,2,0,L|144:192,1,110,10|8,0:0|0:0,0:0:0:0:
336,272,10544,6,0,L|352:160,1,110,10|8,0:0|0:0,0:0:0:0:
176,272,10916,2,0,L|160:160,1,110,10|8,0:0|0:0,0:0:0:0:
336,112,11287,2,0,L|224:112,1,110,8|8,0:0|0:0,0:0:0:0:
48,192,11659,2,0,L|160:192,1,110,10|8,0:0|0:0,0:0:0:0:
448,128,12030,5,12,0:0:0:0:
448,192,12123,1,0,0:0:0:0:
384,128,12216,1,0,0:0:0:0:
448,128,12309,1,0,0:0:0:0:
256,192,12402,1,2,0:0:0:0:
256,128,12495,1,0,0:0:0:0:
448,64,12588,1,2,0:0:0:0:
384,64,12680,1,0,0:0:0:0:
160,64,12773,5,2,0:0:0:0:
80,64,12866,1,0,0:0:0:0:
160,64,12959,1,0,0:0:0:0:
80,64,13052,1,0,0:0:0:0:
160,64,13145,1,0,0:0:0:0:
384,192,13238,1,12,0:0:0:0:
192,256,13331,1,2,0:0:0:0:
192,192,13423,1,2,0:0:0:0:
416,80,13516,5,12,0:0:0:0:
480,80,13609,1,0,0:0:0:0:
480,144,13702,1,0,0:0:0:0:
416,144,13795,1,0,0:0:0:0:
224,192,13888,1,12,0:0:0:0:
160,192,13981,1,0,0:0:0:0:
352,112,14074,1,2,0:0:0:0:
288,112,14166,1,2,0:0:0:0:
64,112,14259,6,0,P|48:144|64:176,1,73.3333333333333,12|8,0:0|0:0,0:0:0:0:
256,224,14445,1,8,0:0:0:0:
450,175,14507,2,0,P|465:143|448:112,1,73.3333333333333,8|8,0:0|0:0,0:0:0:0:
256,80,14755,1,8,0:0:0:0:
448,111,14878,1,8,0:0:0:0:
102,192,15002,6,4,B|410:192|410:192|102:192|102:192|410:192,1,923.999971801759,0|0,0:0|0:0,0:0:0:0:
36,192,16488,6,0,B|476:192|476:192|36:192|36:192|476:192,1,1320,0|2,0:0|0:0,0:0:0:0:
416,160,17665,1,2,0:0:0:0:
416,112,17727,1,2,0:0:0:0:
480,80,17789,1,2,0:0:0:0:
480,32,17850,1,2,0:0:0:0:
416,0,17912,1,2,0:0:0:0:
208,192,17974,6,0,L|480:144,1,275,12|2,0:0|0:0,0:0:0:0:
448,96,18191,1,2,0:0:0:0:
480,96,18222,1,2,0:0:0:0:
448,96,18253,1,2,0:0:0:0:
480,96,18284,1,2,0:0:0:0:
304,96,18346,2,0,L|208:96,2,91.6666666666667,10|8|8,0:0|0:0|0:0,0:0:0:0:
64,192,18717,6,0,L|64:176,1,13.75,10|0,0:0|0:0,0:0:0:0:
192,192,18810,2,0,L|192:176,1,13.75,10|0,0:0|0:0,0:0:0:0:
64,192,18903,2,0,L|64:208,1,13.75,10|0,0:0|0:0,0:0:0:0:
192,192,18996,2,0,L|192:208,1,13.75,10|0,0:0|0:0,0:0:0:0:
320,192,19089,1,8,0:0:0:0:
272,192,19135,2,0,P|248:160|272:128,1,82.5,2|0,0:0|0:0,0:0:0:0:
360,128,19367,1,8,0:0:0:0:
256,96,19414,1,8,0:0:0:0:
152,128,19460,6,0,L|144:64,1,55,10|0,0:0|0:0,0:0:0:0:
368,64,19646,1,8,0:0:0:0:
144,64,19739,1,10,0:0:0:0:
64,112,19832,1,2,0:0:0:0:
48,144,19855,1,2,0:0:0:0:
64,176,19878,1,2,0:0:0:0:
48,208,19901,1,2,0:0:0:0:
64,240,19925,1,2,0:0:0:0:
256,240,20017,2,0,L|192:240,1,55,8|2,0:0|0:0,0:0:0:0:
201,240,20157,1,0,0:0:0:0:
320,240,20203,5,10,0:0:0:0:
256,240,20296,2,0,L|256:176,1,55,10|0,0:0|0:0,0:0:0:0:
256,144,20435,1,0,0:0:0:0:
400,144,20482,1,10,0:0:0:0:
432,136,20505,1,2,0:0:0:0:
464,128,20528,1,2,0:0:0:0:
464,96,20552,1,2,0:0:0:0:
464,64,20575,1,2,0:0:0:0:
256,144,20668,1,10,0:0:0:0:
224,136,20691,1,2,0:0:0:0:
192,128,20714,1,2,0:0:0:0:
192,96,20737,1,2,0:0:0:0:
192,64,20760,1,2,0:0:0:0:
288,64,20853,1,8,0:0:0:0:
32,192,20946,6,0,L|304:144,1,275,10|2,0:0|0:0,0:0:0:0:
272,96,21163,1,2,0:0:0:0:
304,96,21194,1,2,0:0:0:0:
272,96,21225,1,2,0:0:0:0:
304,96,21256,1,2,0:0:0:0:
128,96,21318,2,0,L|224:96,2,91.6666666666667,10|8|8,0:0|0:0|0:0,0:0:0:0:
368,192,21689,6,0,L|368:176,1,13.75,10|0,0:0|0:0,0:0:0:0:
240,192,21782,2,0,L|240:176,1,13.75,10|0,0:0|0:0,0:0:0:0:
368,192,21875,2,0,L|368:208,1,13.75,10|0,0:0|0:0,0:0:0:0:
496,192,21968,2,0,L|496:208,1,13.75,10|0,0:0|0:0,0:0:0:0:
256,48,22061,1,8,0:0:0:0:
229,54,22084,1,8,0:0:0:0:
206,69,22107,1,8,0:0:0:0:
191,92,22130,1,8,0:0:0:0:
186,119,22154,1,8,0:0:0:0:
191,146,22177,1,8,0:0:0:0:
205,169,22200,1,8,0:0:0:0:
228,185,22223,1,8,0:0:0:0:
254,191,22246,1,8,0:0:0:0:
336,192,22339,1,2,0:0:0:0:
128,192,22432,6,0,L|112:128,1,55,12|0,0:0|0:0,0:0:0:0:
320,80,22618,1,2,0:0:0:0:
240,80,22711,1,2,0:0:0:0:
448,192,22804,2,0,L|464:128,1,55,8|0,0:0|0:0,0:0:0:0:
256,192,22989,1,2,0:0:0:0:
336,192,23082,1,2,0:0:0:0:
144,192,23175,5,8,0:0:0:0:
64,192,23268,1,0,0:0:0:0:
272,80,23361,1,2,0:0:0:0:
64,80,23454,1,2,0:0:0:0:
144,80,23547,1,8,0:0:0:0:
336,80,23640,1,0,0:0:0:0:
144,80,23732,1,2,0:0:0:0:
64,80,23825,1,2,0:0:0:0:
304,192,23918,6,0,L|32:144,1,275,12|2,0:0|0:0,0:0:0:0:
64,96,24135,1,2,0:0:0:0:
32,96,24166,1,2,0:0:0:0:
64,96,24197,1,2,0:0:0:0:
32,96,24228,1,2,0:0:0:0:
208,96,24290,2,0,L|288:96,2,73.3333333333333,10|8|8,0:0|0:0|0:0,0:0:0:0:
448,192,24661,6,0,L|448:176,1,13.75,10|0,0:0|0:0,0:0:0:0:
320,192,24754,2,0,L|320:176,1,13.75,10|0,0:0|0:0,0:0:0:0:
448,192,24847,2,0,L|448:208,1,13.75,10|0,0:0|0:0,0:0:0:0:
320,192,24940,2,0,L|320:208,1,13.75,10|0,0:0|0:0,0:0:0:0:
192,192,25033,1,8,0:0:0:0:
240,192,25079,2,0,P|264:160|240:128,1,82.5,2|0,0:0|0:0,0:0:0:0:
152,128,25311,1,8,0:0:0:0:
256,96,25358,1,8,0:0:0:0:
360,128,25404,6,0,L|368:64,1,55,10|0,0:0|0:0,0:0:0:0:
144,64,25590,1,8,0:0:0:0:
368,64,25683,1,10,0:0:0:0:
448,112,25776,1,2,0:0:0:0:
464,144,25799,1,2,0:0:0:0:
448,176,25822,1,2,0:0:0:0:
464,208,25845,1,2,0:0:0:0:
448,240,25869,1,2,0:0:0:0:
256,240,25961,2,0,L|320:240,1,55,8|2,0:0|0:0,0:0:0:0:
311,240,26101,1,0,0:0:0:0:
176,240,26147,5,10,0:0:0:0:
96,240,26240,1,10,0:0:0:0:
80,192,26286,1,0,0:0:0:0:
80,144,26333,1,0,0:0:0:0:
96,96,26379,1,0,0:0:0:0:
236,96,26426,1,10,0:0:0:0:
276,96,26472,1,2,0:0:0:0:
236,96,26519,1,2,0:0:0:0:
276,96,26565,1,0,0:0:0:0:
416,96,26611,1,10,0:0:0:0:
432,144,26658,1,2,0:0:0:0:
432,192,26704,1,2,0:0:0:0:
416,240,26751,1,0,0:0:0:0:
276,96,26797,1,8,0:0:0:0:
236,96,26844,1,0,0:0:0:0:
96,96,26890,6,0,L|96:160,1,55,8|0,0:0|0:0,0:0:0:0:
144,96,27029,2,0,L|176:96,2,27.5,0|0|0,0:0|0:0|0:0,0:0:0:0:
96,96,27169,1,0,0:0:0:0:
336,192,27262,2,0,L|64:144,1,275,14|2,0:0|0:0,0:0:0:0:
96,96,27478,1,2,0:0:0:0:
64,96,27509,1,2,0:0:0:0:
96,96,27540,1,2,0:0:0:0:
64,96,27571,1,2,0:0:0:0:
240,96,27633,5,8,0:0:0:0:
232,144,27680,1,2,0:0:0:0:
216,192,27726,1,2,0:0:0:0:
120,192,27819,1,8,0:0:0:0:
104,144,27865,1,2,0:0:0:0:
96,96,27912,1,2,0:0:0:0:
256,48,28005,1,8,0:0:0:0:
283,54,28028,1,8,0:0:0:0:
306,69,28051,1,8,0:0:0:0:
321,92,28074,1,8,0:0:0:0:
326,119,28097,1,8,0:0:0:0:
321,146,28121,1,8,0:0:0:0:
307,169,28144,1,8,0:0:0:0:
284,185,28167,1,8,0:0:0:0:
258,191,28190,1,8,0:0:0:0:
176,192,28283,1,2,0:0:0:0:
384,192,28376,6,0,L|400:256,1,55,12|0,0:0|0:0,0:0:0:0:
192,304,28562,1,2,0:0:0:0:
272,304,28655,1,2,0:0:0:0:
64,192,28748,2,0,L|48:256,1,55,8|0,0:0|0:0,0:0:0:0:
256,192,28933,1,2,0:0:0:0:
176,192,29026,1,2,0:0:0:0:
368,192,29119,5,8,0:0:0:0:
448,192,29212,1,0,0:0:0:0:
240,304,29305,1,2,0:0:0:0:
448,304,29398,1,2,0:0:0:0:
368,304,29491,1,8,0:0:0:0:
176,304,29583,1,0,0:0:0:0:
368,304,29676,1,2,0:0:0:0:
160,192,29769,1,2,0:0:0:0:
384,192,29862,5,12,0:0:0:0:
128,192,30419,1,2,0:0:0:0:
384,192,30605,2,0,L|400:112,1,82.5000031471254,10|0,0:0|0:0,0:0:0:0:
256,192,30977,2,0,L|272:112,1,82.5000031471254,2|0,0:0|0:0,0:0:0:0:
128,192,31348,5,2,0:0:0:0:
384,192,31905,1,2,0:0:0:0:
128,192,32091,2,0,L|112:112,1,82.5000031471254,10|0,0:0|0:0,0:0:0:0:
256,192,32463,2,0,L|240:112,1,82.5000031471254,2|0,0:0|0:0,0:0:0:0:
384,192,32834,6,0,P|448:64|384:32,1,247.500009441376,2|0,0:0|0:0,0:0:0:0:
224,32,33577,2,0,L|400:32,1,165.000006294251,10|0,0:0|0:0,0:0:0:0:
128,32,34320,5,2,0:0:0:0:
320,192,34691,1,0,0:0:0:0:
96,32,35063,1,10,0:0:0:0:
448,32,35434,2,0,L|448:48,1,13.7500005245209,10|0,0:0|0:0,0:0:0:0:
256,64,35558,2,0,L|256:80,1,13.7500005245209,10|0,0:0|0:0,0:0:0:0:
64,32,35682,2,0,L|64:48,1,13.7500005245209,10|0,0:0|0:0,0:0:0:0:
384,192,35806,5,12,0:0:0:0:
128,192,36363,1,2,0:0:0:0:
384,192,36549,2,0,L|400:112,1,82.5000031471254,10|0,0:0|0:0,0:0:0:0:
256,192,36920,2,0,L|272:112,1,82.5000031471254,2|0,0:0|0:0,0:0:0:0:
128,192,37292,6,0,L|112:112,1,82.5000031471254,2|0,0:0|0:0,0:0:0:0:
256,192,37663,2,0,L|240:112,1,82.5000031471254,0|2,0:0|0:0,0:0:0:0:
384,192,38035,2,0,L|480:192,1,82.5000031471254,10|0,0:0|0:0,0:0:0:0:
272,112,38406,2,0,L|448:112,1,165.000006294251,2|0,0:0|0:0,0:0:0:0:
176,192,38778,6,0,L|160:240,5,41.2500015735627,10|0|2|0|0|0,0:0|0:0|0:0|0:0|0:0|0:0,0:0:0:0:
80,192,39335,2,0,L|64:240,1,41.2500015735627,2|0,0:0|0:0,0:0:0:0:
240,192,39521,6,0,L|224:144,5,41.2500015735627,10|0|2|0|0|0,0:0|0:0|0:0|0:0|0:0|0:0,0:0:0:0:
144,192,40078,2,0,L|128:144,1,41.2500015735627,2|0,0:0|0:0,0:0:0:0:
304,336,40264,5,10,0:0:0:0:
352,320,40357,1,0,0:0:0:0:
384,288,40450,1,2,0:0:0:0:
384,240,40543,1,0,0:0:0:0:
352,208,40635,1,0,0:0:0:0:
304,192,40728,1,0,0:0:0:0:
224,128,40821,1,2,0:0:0:0:
288,128,40914,1,0,0:0:0:0:
112,48,41007,5,10,0:0:0:0:
82,48,41053,1,0,0:0:0:0:
112,48,41100,1,0,0:0:0:0:
146,48,41146,1,0,0:0:0:0:
112,48,41193,1,0,0:0:0:0:
82,48,41239,1,0,0:0:0:0:
112,48,41286,1,0,0:0:0:0:
146,48,41332,1,0,0:0:0:0:
112,48,41378,1,0,0:0:0:0:
76,48,41425,1,0,0:0:0:0:
112,48,41471,1,0,0:0:0:0:
148,48,41518,1,0,0:0:0:0:
112,48,41564,1,0,0:0:0:0:
76,48,41611,1,0,0:0:0:0:
112,48,41657,1,0,0:0:0:0:
148,48,41703,1,0,0:0:0:0:
400,48,41750,6,0,P|444:104|400:176,1,165.000006294251,6|8,0:0|0:0,0:0:0:0:
112,48,42493,5,8,0:0:0:0:
48,48,42586,1,0,0:0:0:0:
48,112,42679,1,0,0:0:0:0:
112,112,42771,1,0,0:0:0:0:
176,128,42864,1,8,0:0:0:0:
240,128,42957,1,0,0:0:0:0:
240,192,43050,1,0,0:0:0:0:
176,192,43143,1,0,0:0:0:0:
336,48,43236,5,8,0:0:0:0:
400,48,43329,1,0,0:0:0:0:
336,112,43422,1,0,0:0:0:0:
400,112,43514,1,0,0:0:0:0:
240,176,43607,1,8,0:0:0:0:
320,176,43700,1,0,0:0:0:0:
240,256,43793,1,0,0:0:0:0:
320,256,43886,1,0,0:0:0:0:
160,48,43979,5,8,0:0:0:0:
256,48,44072,1,0,0:0:0:0:
160,144,44165,1,0,0:0:0:0:
256,144,44257,1,0,0:0:0:0:
416,192,44350,1,10,0:0:0:0:
320,192,44443,1,0,0:0:0:0:
160,192,44536,1,10,0:0:0:0:
64,192,44629,1,0,0:0:0:0:
320,304,44722,6,0,P|416:224|320:80,1,330.000012588501,12|8,0:0|0:0,0:0:0:0:
64,80,45279,1,2,0:0:0:0:
176,80,45372,1,2,0:0:0:0:
64,80,45465,2,0,P|32:128|64:224,1,165.000006294251,8|0,0:0|0:0,0:0:0:0:
176,224,45743,1,0,0:0:0:0:
336,224,45836,2,0,L|176:176,1,165.000006294251,8|0,0:0|0:0,0:0:0:0:
448,304,46208,6,0,P|480:256|448:160,1,165.000006294251,10|0,0:0|0:0,0:0:0:0:
176,224,46579,2,0,L|336:176,1,165.000006294251,8|0,0:0|0:0,0:0:0:0:
334,176,46858,1,0,0:0:0:0:
144,64,46951,1,8,0:0:0:0:
224,64,47044,1,2,0:0:0:0:
112,144,47137,1,2,0:0:0:0:
192,144,47229,1,2,0:0:0:0:
368,224,47322,2,0,L|208:176,1,165.000006294251,8|0,0:0|0:0,0:0:0:0:
210,176,47601,1,0,0:0:0:0:
384,304,47694,6,0,P|480:224|384:80,1,330.000012588501,10|8,0:0|0:0,0:0:0:0:
128,80,48251,1,2,0:0:0:0:
16,80,48344,1,2,0:0:0:0:
128,80,48437,2,0,P|160:128|128:224,1,165.000006294251,8|0,0:0|0:0,0:0:0:0:
16,224,48715,1,0,0:0:0:0:
192,224,48808,2,0,L|32:176,1,165.000006294251,8|0,0:0|0:0,0:0:0:0:
288,304,49180,6,0,P|320:256|288:160,1,165.000006294251,10|0,0:0|0:0,0:0:0:0:
176,160,49458,1,0,0:0:0:0:
352,224,49551,2,0,P|416:176|416:96,1,165.000006294251,8|0,0:0|0:0,0:0:0:0:
304,80,49830,1,0,0:0:0:0:
128,192,49923,1,8,0:0:0:0:
208,192,50016,1,0,0:0:0:0:
96,272,50108,1,2,0:0:0:0:
176,272,50201,1,0,0:0:0:0:
352,272,50294,1,8,0:0:0:0:
272,272,50387,1,0,0:0:0:0:
448,192,50480,1,2,0:0:0:0:
368,192,50573,1,0,0:0:0:0:
192,304,50666,6,0,P|96:224|192:80,1,330.000012588501,12|8,0:0|0:0,0:0:0:0:
448,80,51223,1,2,0:0:0:0:
336,80,51316,1,2,0:0:0:0:
448,80,51409,2,0,P|480:128|448:224,1,165.000006294251,8|0,0:0|0:0,0:0:0:0:
336,224,51687,1,0,0:0:0:0:
176,224,51780,2,0,L|336:176,1,165.000006294251,8|0,0:0|0:0,0:0:0:0:
64,304,52152,6,0,P|32:256|64:160,1,165.000006294251,10|0,0:0|0:0,0:0:0:0:
336,224,52523,2,0,L|176:176,1,165.000006294251,8|0,0:0|0:0,0:0:0:0:
178,176,52802,1,0,0:0:0:0:
352,64,52895,1,8,0:0:0:0:
176,56,52988,2,0,B|92:72|92:72|176:72,1,165.000006294251,10|8,0:0|0:0,0:0:0:0:
352,208,53266,1,10,0:0:0:0:
464,208,53359,1,8,0:0:0:0:
352,96,53452,1,8,0:0:0:0:
464,96,53545,1,8,0:0:0:0:
176,208,53638,6,0,P|144:160|176:64,1,165,12|0,0:0|0:0,0:0:0:0:
384,64,54009,2,0,L|272:64,1,110,8|2,0:0|0:0,0:0:0:0:
368,112,54288,1,0,0:0:0:0:
160,192,54381,2,0,L|272:192,1,110,8|0,0:0|0:0,0:0:0:0:
112,112,54752,1,0,0:0:0:0:
400,112,54938,1,2,0:0:0:0:
288,112,55031,1,2,0:0:0:0:
80,176,55124,6,0,P|48:224|80:320,1,165,10|0,0:0|0:0,0:0:0:0:
288,320,55495,1,8,0:0:0:0:
32,176,55681,1,2,0:0:0:0:
128,192,55774,1,2,0:0:0:0:
368,192,55867,1,8,0:0:0:0:
464,176,55960,1,0,0:0:0:0:
256,224,56052,1,8,0:0:0:0:
256,112,56145,1,0,0:0:0:0:
464,64,56238,1,8,0:0:0:0:
368,80,56331,1,0,0:0:0:0:
160,80,56424,1,8,0:0:0:0:
256,48,56517,1,0,0:0:0:0:
48,64,56610,6,0,L|32:240,1,165.000006294251,12|0,0:0|0:0,0:0:0:0:
336,216,56981,2,0,L|176:168,1,165.000006294251,8|0,0:0|0:0,0:0:0:0:
464,320,57353,2,0,B|479:144|479:144|400:144,1,247.500009441376,8|2,0:0|0:0,0:0:0:0:
177,215,57724,2,0,L|336:168,1,165.000006294251,8|0,0:0|0:0,0:0:0:0:
48,320,58096,6,0,B|32:144|32:144|112:144,1,247.500009441376,10|0,0:0|0:0,0:0:0:0:
334,215,58467,2,0,L|176:168,1,165.000006294251,10|2,0:0|0:0,0:0:0:0:
464,320,58839,2,0,L|306:273,1,165.000006294251,8|0,0:0|0:0,0:0:0:0:
232,248,59117,1,2,0:0:0:0:
464,224,59210,2,0,L|306:177,1,165.000006294251,8|2,0:0|0:0,0:0:0:0:
48,192,59582,5,12,0:0:0:0:
384,192,59767,2,0,L|384:160,1,27.5,8|2,0:0|0:0,0:0:0:0:
256,192,59953,1,8,0:0:0:0:
384,192,60139,2,0,L|384:224,1,27.5,8|2,0:0|0:0,0:0:0:0:
160,112,60325,6,0,L|128:112,1,27.5,8|0,0:0|0:0,0:0:0:0:
132,64,60417,2,0,L|160:64,1,27.5,2|0,0:0|0:0,0:0:0:0:
208,64,60510,2,0,L|236:64,1,27.5,2|0,0:0|0:0,0:0:0:0:
236,112,60603,2,0,L|208:112,1,27.5,2|0,0:0|0:0,0:0:0:0:
80,192,60696,1,2,0:0:0:0:
53,198,60719,1,2,0:0:0:0:
30,213,60743,1,2,0:0:0:0:
15,236,60766,1,2,0:0:0:0:
10,263,60789,1,2,0:0:0:0:
15,290,60812,1,2,0:0:0:0:
29,313,60835,1,2,0:0:0:0:
52,329,60859,1,2,0:0:0:0:
78,335,60882,1,2,0:0:0:0:
240,336,60975,1,2,0:0:0:0:
192,336,61021,1,2,0:0:0:0:
64,192,61068,5,10,0:0:0:0:
336,192,61253,1,8,0:0:0:0:
192,192,61439,1,8,0:0:0:0:
464,192,61625,1,8,0:0:0:0:
48,192,61811,5,8,0:0:0:0:
208,192,61996,1,2,0:0:0:0:
16,192,62089,2,0,L|160:192,1,137.5,8|2,0:0|0:0,0:0:0:0:
352,192,62368,1,8,0:0:0:0:
256,192,62461,1,2,0:0:0:0:
464,64,62554,6,0,L|480:240,1,165.000006294251,12|0,0:0|0:0,0:0:0:0:
176,192,62925,1,8,0:0:0:0:
336,288,63018,1,0,0:0:0:0:
384,240,63111,1,0,0:0:0:0:
336,192,63204,1,0,0:0:0:0:
128,256,63297,1,8,0:0:0:0:
40,232,63389,2,0,B|33:144|33:144|112:144,1,165.000006294251,0|0,0:0|0:0,0:0:0:0:
335,215,63668,2,0,L|176:168,1,165.000006294251,8|0,0:0|0:0,0:0:0:0:
464,320,64040,6,0,L|480:144,1,165.000006294251,8|0,0:0|0:0,0:0:0:0:
384,112,64318,1,2,0:0:0:0:
177,215,64411,2,0,L|336:168,1,165.000006294251,8|2,0:0|0:0,0:0:0:0:
48,320,64783,2,0,L|207:273,1,165.000006294251,8|2,0:0|0:0,0:0:0:0:
48,64,65061,2,0,L|207:111,1,165.000006294251,8|2,0:0|0:0,0:0:0:0:
48,192,65340,1,8,0:0:0:0:
464,64,65525,6,0,L|305:111,1,165.000006294251,10|2,0:0|0:0,0:0:0:0:
96,192,65804,2,0,L|255:239,1,165.000006294251,10|2,0:0|0:0,0:0:0:0:
464,320,66083,1,10,0:0:0:0:
48,64,66268,2,0,L|207:111,1,165.000006294251,10|2,0:0|0:0,0:0:0:0:
416,192,66547,2,0,L|257:239,1,165.000006294251,10|2,0:0|0:0,0:0:0:0:
48,320,66826,1,10,0:0:0:0:
144,336,66919,1,2,0:0:0:0:
368,336,67011,6,0,L|400:160,1,165.000006294251,10|2,0:0|0:0,0:0:0:0:
144,336,67290,2,0,L|112:160,1,165.000006294251,10|2,0:0|0:0,0:0:0:0:
400,112,67569,1,10,0:0:0:0:
112,112,67754,2,0,L|448:112,1,330.000012588501,8|8,0:0|0:0,0:0:0:0:
256,192,68219,1,0,0:0:0:0:
70,112,68312,1,8,0:0:0:0:
256,48,68405,1,0,0:0:0:0:
440,352,68497,6,0,P|456:256|440:136,1,220,6|0,0:0|0:0,0:0:0:0:
72,352,69240,2,0,P|56:248|72:136,1,220,10|8,0:0|0:0,0:0:0:0:
88,88,69658,1,2,2:0:0:0:
144,64,69705,1,2,2:0:0:0:
376,132,69798,1,8,0:0:0:0:
360,88,69844,1,2,2:0:0:0:
304,64,69891,1,2,2:0:0:0:
80,352,69983,6,0,P|56:240|72:136,1,220,6|0,0:0|0:0,0:0:0:0:
448,352,70726,2,0,P|472:240|456:136,1,220,10|8,0:0|0:0,0:0:0:0:
385,131,71191,1,8,0:0:0:0:
455,135,71284,1,8,0:0:0:0:
385,131,71377,1,8,0:0:0:0:
144,192,71469,6,0,L|144:80,1,110,6|0,0:0|0:0,0:0:0:0:
352,192,71841,2,0,L|352:80,1,110
144,192,72212,5,10,0:0:0:0:
64,192,72305,1,0,0:0:0:0:
64,272,72398,1,0,0:0:0:0:
144,272,72491,1,0,0:0:0:0:
256,192,72584,1,8,0:0:0:0:
336,192,72677,1,0,0:0:0:0:
336,272,72770,1,0,0:0:0:0:
256,272,72863,1,0,0:0:0:0:
144,272,72955,5,10,0:0:0:0:
131,245,73002,1,0,0:0:0:0:
128,219,73048,1,0,0:0:0:0:
133,192,73095,1,0,0:0:0:0:
145,168,73141,1,0,0:0:0:0:
166,148,73188,1,0,0:0:0:0:
190,137,73234,1,0,0:0:0:0:
218,133,73280,1,0,0:0:0:0:
294,133,73327,5,8,0:0:0:0:
322,137,73373,1,0,0:0:0:0:
346,148,73420,1,0,0:0:0:0:
367,168,73466,1,0,0:0:0:0:
379,192,73513,1,0,0:0:0:0:
384,219,73559,1,0,0:0:0:0:
381,245,73605,1,0,0:0:0:0:
368,272,73652,1,0,0:0:0:0:
224,320,73698,6,0,L|192:320,1,27.5,10|0,0:0|0:0,0:0:0:0:
197,256,73791,2,0,L|224:256,1,27.5,0|0,0:0|0:0,0:0:0:0:
288,320,73884,2,0,L|320:320,1,27.5,8|0,0:0|0:0,0:0:0:0:
316,256,73977,2,0,L|288:256,1,27.5,0|0,0:0|0:0,0:0:0:0:
112,256,74070,6,0,L|104:224,1,27.5,2|2,0:0|0:0,0:0:0:0:
232,176,74163,1,2,0:0:0:0:
280,176,74209,1,2,0:0:0:0:
400,256,74256,2,0,L|408:224,1,27.5,2|2,0:0|0:0,0:0:0:0:
280,176,74348,1,2,0:0:0:0:
232,176,74395,1,2,0:0:0:0:
112,96,74441,6,0,L|384:48,1,275,12|2,0:0|0:0,0:0:0:0:
368,48,74650,1,2,0:0:0:0:
382,48,74674,1,2,0:0:0:0:
400,48,74697,1,2,0:0:0:0:
382,48,74720,1,2,0:0:0:0:
160,112,74813,1,8,0:0:0:0:
160,192,74906,1,0,0:0:0:0:
240,192,74999,1,2,0:0:0:0:
160,192,75091,1,2,0:0:0:0:
368,192,75184,6,0,P|432:144|432:64,1,165.000006294251,8|2,0:0|0:0,0:0:0:0:
224,80,75463,1,0,0:0:0:0:
432,192,75556,1,8,0:0:0:0:
344,192,75649,1,0,0:0:0:0:
448,80,75742,1,2,0:0:0:0:
360,80,75834,1,2,0:0:0:0:
144,192,75927,6,0,P|128:112|192:80,1,165.000006294251,8|2,0:0|0:0,0:0:0:0:
288,192,76206,1,2,0:0:0:0:
80,112,76299,1,8,0:0:0:0:
80,192,76392,1,0,0:0:0:0:
160,192,76485,1,2,0:0:0:0:
80,192,76577,1,2,0:0:0:0:
288,192,76670,6,0,L|368:208,1,82.5000031471254,8|0,0:0|0:0,0:0:0:0:
368,208,76810,1,0,0:0:0:0:
256,112,76856,2,0,L|336:128,1,82.5000031471254,2|2,0:0|0:0,0:0:0:0:
336,128,76995,1,0,0:0:0:0:
224,192,77042,2,0,L|144:208,1,82.5000031471254,8|0,0:0|0:0,0:0:0:0:
143,208,77181,1,0,0:0:0:0:
256,112,77228,2,2,L|176:128,1,82.5000031471254,2|0,0:0|0:0,0:0:0:0:
175,128,77367,1,0,0:0:0:0:
288,192,77413,6,0,L|16:144,1,275,12|2,0:0|0:0,0:0:0:0:
40,144,77622,1,2,0:0:0:0:
17,144,77645,1,2,0:0:0:0:
40,144,77669,1,2,0:0:0:0:
17,144,77692,1,2,0:0:0:0:
224,208,77785,1,8,0:0:0:0:
312,208,77878,1,0,0:0:0:0:
208,112,77971,1,2,0:0:0:0:
296,112,78063,1,2,0:0:0:0:
96,208,78156,6,0,P|80:288|144:320,1,165.000006294251,8|2,0:0|0:0,0:0:0:0:
352,320,78435,1,2,0:0:0:0:
144,320,78528,2,0,L|48:320,1,82.5000031471254,8|2,0:0|0:0,0:0:0:0:
64,192,78644,1,2,0:0:0:0:
48,192,78667,1,2,0:0:0:0:
64,192,78690,1,2,0:0:0:0:
61,64,78714,2,0,L|144:64,1,82.5000031471254,0|0,0:0|0:0,0:0:0:0:
352,64,78899,5,12,0:0:0:0:
432,64,78992,1,0,0:0:0:0:
240,192,79085,1,2,0:0:0:0:
320,192,79178,1,2,0:0:0:0:
128,64,79271,1,8,0:0:0:0:
49,64,79364,1,0,0:0:0:0:
240,192,79457,1,2,0:0:0:0:
160,192,79549,1,2,0:0:0:0:
352,192,79642,5,8,0:0:0:0:
352,112,79735,1,0,0:0:0:0:
160,96,79828,1,2,0:0:0:0:
240,96,79921,1,2,0:0:0:0:
48,192,80014,1,8,0:0:0:0:
48,272,80107,1,0,0:0:0:0:
240,288,80200,1,2,0:0:0:0:
160,288,80292,1,2,0:0:0:0:
400,96,80385,6,0,L|128:48,1,275,12|2,0:0|0:0,0:0:0:0:
144,48,80594,1,2,0:0:0:0:
130,48,80617,1,2,0:0:0:0:
112,48,80641,1,2,0:0:0:0:
130,48,80664,1,2,0:0:0:0:
352,112,80757,1,8,0:0:0:0:
352,192,80850,1,0,0:0:0:0:
272,192,80942,1,2,0:0:0:0:
352,192,81035,1,2,0:0:0:0:
144,192,81128,5,8,0:0:0:0:
144,112,81221,1,0,0:0:0:0:
352,80,81314,1,2,0:0:0:0:
272,80,81407,1,0,0:0:0:0:
64,192,81500,1,8,0:0:0:0:
152,192,81593,2,0,L|152:160,1,20.6250007867813
64,80,81685,1,2,0:0:0:0:
152,80,81778,2,0,L|184:80,1,20.6250007867813,2|0,0:0|0:0,0:0:0:0:
368,192,81871,6,0,P|384:112|320:80,1,165.000006294251,8|2,0:0|0:0,0:0:0:0:
319,80,82080,1,0,0:0:0:0:
224,192,82150,1,2,0:0:0:0:
432,112,82243,1,8,0:0:0:0:
432,192,82336,1,0,0:0:0:0:
352,192,82428,1,2,0:0:0:0:
432,192,82521,1,2,0:0:0:0:
224,192,82614,6,0,L|144:208,1,82.5000031471254,8|0,0:0|0:0,0:0:0:0:
144,208,82754,1,0,0:0:0:0:
256,112,82800,2,0,L|176:128,1,82.5000031471254,2|2,0:0|0:0,0:0:0:0:
176,128,82939,1,0,0:0:0:0:
288,192,82986,2,0,L|368:208,1,82.5000031471254,8|0,0:0|0:0,0:0:0:0:
369,208,83125,1,0,0:0:0:0:
256,112,83171,2,2,L|336:128,1,82.5000031471254,2|0,0:0|0:0,0:0:0:0:
337,128,83311,1,0,0:0:0:0:
224,192,83357,6,0,P|192:224|224:288,1,123.750004720688,8|0,0:0|0:0,0:0:0:0:
272,240,83543,1,0,0:0:0:0:
301,266,83589,1,0,0:0:0:0:
302,306,83636,1,0,0:0:0:0:
274,335,83682,1,0,0:0:0:0:
144,192,83729,2,0,L|416:144,1,275,14|2,0:0|0:0,0:0:0:0:
392,144,83938,1,2,0:0:0:0:
415,144,83961,1,2,0:0:0:0:
392,144,83984,1,2,0:0:0:0:
415,144,84007,1,2,0:0:0:0:
208,192,84100,6,0,P|192:112|256:80,1,165.000006294251,8|2,0:0|0:0,0:0:0:0:
257,80,84309,1,0,0:0:0:0:
464,192,84379,1,2,0:0:0:0:
256,320,84472,2,0,L|160:320,1,82.5000031471254,8|2,0:0|0:0,0:0:0:0:
176,192,84588,1,2,0:0:0:0:
160,192,84611,1,2,0:0:0:0:
176,192,84634,1,2,0:0:0:0:
173,64,84657,2,0,L|256:64,1,82.5000031471254,0|0,0:0|0:0,0:0:0:0:
448,192,84843,5,12,0:0:0:0:
448,112,84936,1,0,0:0:0:0:
256,96,85029,1,2,0:0:0:0:
336,96,85122,1,2,0:0:0:0:
144,192,85215,1,8,0:0:0:0:
144,272,85308,1,0,0:0:0:0:
336,288,85400,1,2,0:0:0:0:
256,288,85493,2,0,L|256:240,1,41.2500015735627,2|0,0:0|0:0,0:0:0:0:
384,192,85586,6,0,L|208:192,1,165.000006294251,12|8,0:0|0:0,0:0:0:0:
432,112,85865,2,0,L|256:112,1,165.000006294251,8|8,0:0|0:0,0:0:0:0:
480,32,86143,1,8,0:0:0:0:
272,192,86236,1,8,0:0:0:0:
64,32,86329,6,0,L|304:32,1,230.99999295044,14|10,0:0|0:0,0:0:0:0:
24,192,86886,2,0,L|488:192,1,461.999985900879,10|10,0:0|0:0,0:0:0:0:
24,192,87444,5,0,0:0:0:0:
80,192,87490,1,0,0:0:0:0:
112,144,87537,1,0,0:0:0:0:
112,96,87583,1,0,0:0:0:0:
80,48,87629,1,0,0:0:0:0:
24,48,87676,1,0,0:0:0:0:
80,48,87722,1,0,0:0:0:0:
440,192,87815,6,0,L|72:192,2,363.000011077881,14|10|10,0:0|0:0|0:0,0:0:0:0:
440,192,88465,1,0,0:0:0:0:
72,192,88558,5,8,0:0:0:0:
32,160,88605,1,2,0:0:0:0:
24,128,88651,1,2,0:0:0:0:
32,96,88697,1,2,0:0:0:0:
72,64,88744,1,8,0:0:0:0:
128,64,88806,1,2,0:0:0:0:
72,64,88868,1,2,0:0:0:0:
128,64,88930,1,8,0:0:0:0:
208,192,89022,1,2,0:0:0:0:
128,192,89115,1,8,0:0:0:0:
48,192,89208,1,2,0:0:0:0:
448,352,89301,6,0,L|208:352,1,230.99999295044,14|10,0:0|0:0,0:0:0:0:
488,192,89858,2,0,L|24:192,1,461.999985900879,10|10,0:0|0:0,0:0:0:0:
488,192,90416,5,0,0:0:0:0:
468,192,90439,1,0,0:0:0:0:
448,192,90462,1,0,0:0:0:0:
468,192,90485,1,0,0:0:0:0:
488,192,90508,1,0,0:0:0:0:
468,192,90532,1,0,0:0:0:0:
448,192,90555,1,0,0:0:0:0:
468,192,90578,1,0,0:0:0:0:
488,192,90601,1,0,0:0:0:0:
448,192,90648,1,0,0:0:0:0:
488,192,90694,1,0,0:0:0:0:
72,192,90787,6,0,L|440:192,2,363.000011077881,14|10|10,0:0|0:0|0:0,0:0:0:0:
152,184,91437,2,0,L|152:120,1,60.5000018463135,0|0,0:0|0:0,0:0:0:0:
72,128,91530,1,8,0:0:0:0:
152,128,91623,1,2,0:0:0:0:
72,128,91716,1,8,0:0:0:0:
460,192,91902,6,0,L|48:192,2,412.5,14|10|10,0:0|0:0|0:0,0:0:0:0:
380,188,92552,2,0,L|380:120,1,68.75,0|0,0:0|0:0,0:0:0:0:
460,128,92645,1,8,0:0:0:0:
380,128,92737,1,2,0:0:0:0:
460,128,92830,1,8,0:0:0:0:
24,192,93016,6,0,L|488:192,2,461.999985900879,14|10|10,0:0|0:0|0:0,0:0:0:0:
112,192,93666,1,0,0:0:0:0:
68,192,93713,1,0,0:0:0:0:
24,192,93759,2,0,L|8:112,2,76.9999976501466,8|0|2,0:0|0:0|0:0,0:0:0:0:
488,192,94038,5,12,0:0:0:0:
256,192,94316,12,2,95617,0:0:0:0:
256,192,95802,5,12,0:0:0:0:
256,192,95988,12,2,101560,0:0:0:0:
