osu file format v14

[General]
AudioFilename: audio.mp3
AudioLeadIn: 0
PreviewTime: 158980
Countdown: 0
SampleSet: Soft
StackLeniency: 0.7
Mode: 0
LetterboxInBreaks: 0
WidescreenStoryboard: 1

[Editor]
DistanceSpacing: 1.3
BeatDivisor: 4
GridSize: 32
TimelineZoom: 2.5

[Metadata]
Title:re:||BIRTH
TitleUnicode:re:||BIRTH
Artist:Camellia feat. Morinaga Mayumi
ArtistUnicode:かめりあ feat. 森永真由美
Creator:UberFazz
Version:nor:||MAL
Source:NOISZ
Tags:japanese english electronic rebirth re:birth re:||VERSE OST re:verse reverse moimoi senya cametek kamelcamellia featured artist
BeatmapID:3719421
BeatmapSetID:1779714

[Difficulty]
HPDrainRate:5
CircleSize:3
OverallDifficulty:5
ApproachRate:5
SliderMultiplier:1.2
SliderTickRate:1

[Events]
//Background and Video events
0,0,"long bg.jpg",0,0
//Break Periods
2,12179,21280
2,141180,147280
2,159930,169030
//Storyboard Layer 0 (Background)
//Storyboard Layer 1 (Fail)
//Storyboard Layer 2 (Pass)
//Storyboard Layer 3 (Foreground)
//Storyboard Layer 4 (Overlay)
//Storyboard Sound Samples

[TimingPoints]
1480,375,7,2,1,80,1,0
32980,375,4,2,1,80,1,0
80980,375,7,2,1,80,1,0
112480,375,4,2,1,80,1,0
148480,-111.111111111111,4,2,1,60,0,0
154480,375,7,2,1,70,1,0
154480,-111.111111111111,4,2,1,70,0,0
179230,-111.111111111111,4,2,1,80,0,0
179605,-99.9999999999999,4,2,1,80,0,0
191230,-90.9090909090909,7,2,1,90,0,1
209605,-100,7,2,1,80,0,0
212230,375,4,2,1,90,1,0
212230,-90.9090909090909,7,2,1,90,0,1
224230,-90.9090909090909,7,2,1,80,0,0
230230,375,7,2,1,80,1,0
240730,750,7,2,1,80,1,0
245980,-100,7,2,1,10,0,0

[Colours]
Combo1 : 133,252,245
Combo2 : 255,179,184
Combo3 : 247,157,233
Combo4 : 17,254,176

[HitObjects]
44,26,1480,6,0,P|45:91|59:188,1,150,12|12,0:0|0:0,0:0:0:0:
116,242,2230,2,0,P|166:233|218:213,1,90,12|12,0:0|0:0,0:0:0:0:
256,192,2698,1,12,0:0:0:0:
345,202,2980,2,0,P|348:254|368:316,2,90,14|14|14,0:0|0:0|0:0,0:0:0:0:
484,88,4105,6,0,P|415:64|329:54,1,150,12|12,0:0|0:0,0:0:0:0:
250,70,4855,2,0,P|250:103|239:169,1,90,12|12,0:0|0:0,0:0:0:0:
227,217,5323,1,12,0:0:0:0:
186,297,5605,2,0,P|152:340|115:371,2,90,14|14|14,0:0|0:0|0:0,0:0:0:0:
353,363,6730,6,0,P|335:299|325:196,1,150,12|12,0:0|0:0,0:0:0:0:
357,132,7480,2,0,P|399:142|445:142,1,90,12|12,0:0|0:0,0:0:0:0:
504,134,7948,1,12,0:0:0:0:
510,224,8230,5,12,0:0:0:0:
430,265,8511,1,12,0:0:0:0:
340,255,8792,1,12,0:0:0:0:
196,363,9355,6,0,P|192:291|173:214,1,150,14|14,0:0|0:0,0:0:0:0:
94,171,10105,1,14,0:0:0:0:
30,107,10386,1,14,0:0:0:0:
28,47,10573,1,14,0:0:0:0:
112,14,10855,5,14,0:0:0:0:
197,41,11136,1,14,0:0:0:0:
283,16,11417,1,14,0:0:0:0:
283,16,11605,6,2,P|289:85|304:144,1,120,2|4,0:0|1:0,0:2:0:0:
430,137,22480,6,0,L|426:269,1,120,0|2,1:0|0:0,0:0:0:0:
425,316,23042,1,0,1:0:0:0:
425,316,23230,2,0,P|353:303|290:301,1,120,8|2,0:1|0:0,0:0:0:0:
248,314,23792,1,2,1:2:0:0:
149,376,24167,1,2,0:0:0:0:
149,376,24355,1,2,0:0:0:0:
149,376,24542,2,0,P|155:319|145:242,1,120,8|2,0:1|0:0,0:0:0:0:
123,201,25105,5,0,1:0:0:0:
83,87,25480,2,0,P|78:54|78:4,2,60,2|2|8,0:0|0:0|0:1,0:0:0:0:
139,106,26042,2,0,P|168:104|198:99,1,60
256,84,26417,5,0,1:0:0:0:
360,24,26792,1,2,0:0:0:0:
360,24,26980,2,0,P|362:66|369:107,1,60,2|8,0:0|0:1,0:0:0:0:
410,122,27355,2,0,P|408:164|401:205,1,60,0|2,0:0|0:0,0:0:0:0:
394,240,27730,5,2,1:2:0:0:
401,359,28105,2,0,P|363:352|336:350,1,60,2|2,0:0|0:0,0:0:0:0:
282,337,28480,2,0,P|244:344|217:346,2,60,8|0|2,0:1|0:0|0:0,0:0:0:0:
294,278,29042,5,2,1:2:0:0:
183,231,29417,2,0,P|127:222|36:220,1,120,2|8,0:0|0:1,0:0:0:0:
52,159,29980,2,0,P|51:122|46:85,1,60,0|2,0:0|0:0,0:0:0:0:
40,39,30355,5,6,1:0:0:0:
357,35,31855,2,2,P|356:83|346:148,1,90,4|4,1:2|1:2,0:1:0:0:
285,186,32417,2,2,P|286:234|296:299,1,90,4|4,1:2|1:2,0:1:0:0:
332,355,32980,5,4,1:0:0:0:
213,371,33355,2,0,L|208:307,1,60,0|8,1:0|0:0,0:0:0:0:
152,289,33730,2,0,L|142:162,1,120,0|0,1:0|1:0,0:0:0:0:
136,109,34292,1,8,0:0:0:0:
136,109,34480,5,0,1:0:0:0:
191,17,34855,1,0,1:0:0:0:
248,32,35042,1,8,0:0:0:0:
307,20,35230,2,0,P|312:77|322:127,1,90,0|8,1:0|0:0,0:0:0:0:
354,191,35792,1,8,0:0:0:0:
293,191,35980,6,0,P|229:207|174:248,1,120,0|0,1:0|1:0,0:0:0:0:
149,285,36542,1,8,0:0:0:0:
149,285,36730,1,0,1:0:0:0:
41,337,37105,2,0,L|34:270,1,60,0|8,1:0|0:0,0:0:0:0:
70,228,37480,6,0,L|79:139,1,90,0|8,1:0|0:0,0:0:0:0:
91,53,38042,1,10,0:0:0:0:
91,53,38230,2,0,P|146:45|199:23,1,90,0|8,1:0|0:0,0:0:0:0:
263,3,38792,1,8,0:0:0:0:
270,62,38980,6,0,P|279:128|301:202,1,120,4|0,1:0|1:0,0:0:0:0:
185,233,39730,2,0,P|176:299|154:373,1,120,0|0,1:0|1:0,0:0:0:0:
278,379,40480,2,0,L|349:374,1,60,0|0,1:0|1:0,0:0:0:0:
359,318,40855,2,0,L|430:323,1,60,0|0,1:0|1:0,0:0:0:0:
451,271,41230,2,0,L|460:137,1,120,0|0,1:0|1:0,0:0:0:0:
475,32,41980,5,8,0:1:0:0:
475,32,42167,1,0,1:0:0:0:
475,32,42355,2,0,L|396:41,1,60,8|0,0:1|1:0,0:0:0:0:
369,77,42730,2,0,L|309:70,1,60,8|0,0:1|1:0,0:0:0:0:
250,57,43105,6,8,L|120:71,1,120,8|0,0:1|1:0,0:0:0:0:
0,192,44605,5,10,0:1:0:0:
88,272,44980,2,0,P|136:298|210:310,1,120,6|2,1:0|1:2,0:0:0:0:
259,308,45542,1,2,1:2:0:0:
318,299,45730,2,0,P|370:283|431:239,1,120,2|2,1:2|1:2,0:0:0:0:
459,198,46292,1,2,1:2:0:0:
459,198,46480,5,2,1:2:0:0:
462,86,46855,1,2,1:2:0:0:
462,86,47042,1,2,1:2:0:0:
462,86,47230,2,0,P|411:77|354:78,2,90,2|2|2,1:2|0:0|1:2,0:0:0:0:
509,122,47980,5,2,1:2:0:0:
400,172,48355,2,0,P|366:179|327:182,1,60,2|2,1:2|1:2,0:0:0:0:
281,172,48730,2,0,P|218:173|161:184,1,120,2|2,1:2|1:2,0:0:0:0:
114,219,49292,1,2,1:2:0:0:
114,219,49480,6,0,L|124:287,1,60,2|2,1:2|0:0,0:0:0:0:
178,299,49855,2,0,L|188:367,1,60,2|2,1:2|0:0,0:0:0:0:
246,367,50230,2,0,B|276:356|276:356|310:362,2,60,2|2|2,1:0|1:0|1:0,0:0:0:0:
319,272,50980,6,0,P|327:226|314:143,1,120,6|2,1:2|1:2,0:0:0:0:
303,95,51542,1,2,1:2:0:0:
325,39,51730,2,0,P|369:56|457:65,1,120,2|2,1:2|1:2,0:0:0:0:
500,61,52292,1,2,1:2:0:0:
500,61,52480,5,0,1:0:0:0:
499,188,52855,1,2,1:2:0:0:
499,188,53042,1,2,1:2:0:0:
499,188,53230,2,0,P|501:242|494:298,2,90,2|2|2,1:2|0:0|0:0,0:0:0:0:
452,149,53980,6,0,P|420:150|376:158,1,60,0|0,1:0|1:0,0:0:0:0:
336,176,54355,1,0,1:0:0:0:
319,294,54730,2,0,P|260:308|182:307,1,120,0|2,1:0|1:2,0:0:0:0:
141,300,55292,1,2,1:2:0:0:
152,240,55480,6,0,B|153:194|153:194|125:140,2,90,4|4|4,1:2|1:2|1:2,0:0:0:0:
15,73,56980,5,4,1:2:0:0:
494,89,58480,1,4,1:0:0:0:
383,136,58855,2,0,L|371:51,1,60,2|2,0:0|0:0,0:0:0:0:
365,22,59230,1,2,0:0:0:0:
365,22,59417,1,0,1:0:0:0:
365,22,59605,2,0,L|305:30,1,60,8|0,0:0|1:0,0:0:0:0:
246,39,59980,6,0,P|262:102|257:169,1,120,6|2,1:0|1:2,0:0:0:0:
241,213,60542,1,2,1:2:0:0:
184,193,60730,2,0,P|129:175|46:176,1,120,8|2,0:1|1:2,0:0:0:0:
12,198,61292,1,2,1:2:0:0:
37,252,61480,6,0,P|48:290|54:323,1,60,2|2,1:2|0:2,0:0:0:0:
71,367,61855,2,0,P|100:360|129:351,2,60,2|2|8,1:2|0:2|0:1,0:0:0:0:
140,268,62605,1,2,0:0:0:0:
241,332,62980,6,0,B|281:350|281:350|369:329,1,120,6|2,1:2|0:0,0:0:0:0:
412,316,63542,1,2,1:2:0:0:
468,295,63730,2,0,P|468:238|486:160,1,120,8|2,0:1|1:2,0:0:0:0:
502,120,64292,1,2,1:2:0:0:
445,99,64480,6,0,P|413:92|368:92,1,60,0|2,1:0|1:2,0:0:0:0:
333,119,64855,1,2,1:2:0:0:
219,79,65230,6,2,B|240:132|240:132|217:265,1,180,8|2,0:1|0:0,0:1:0:0:
200,310,65980,2,0,B|144:285|144:285|71:295,1,120,2|2,1:0|1:2,0:0:0:0:
28,308,66542,1,2,1:2:0:0:
14,249,66730,2,0,P|11:217|15:168,1,60,8|2,0:1|0:0,0:0:0:0:
21,133,67105,1,2,1:2:0:0:
21,133,67292,1,2,1:2:0:0:
256,192,67480,12,12,68980,0:0:0:0:
448,59,69542,6,0,P|451:110|443:163,1,90,12|12,0:0|0:0,0:0:0:0:
414,233,70105,1,12,0:0:0:0:
325,248,70386,2,0,P|318:193|286:86,1,150,12|12,0:0|0:0,0:0:0:0:
243,26,71136,2,0,P|199:43|137:49,1,90,12|12,0:0|0:0,0:0:0:0:
12,156,71980,6,0,P|76:208|137:291,1,180,12|12,0:0|0:0,0:0:0:0:
187,358,72823,1,12,0:0:0:0:
229,278,73105,2,0,P|244:234|270:120,1,150,12|12,0:0|0:0,0:0:0:0:
285,44,73855,2,0,P|329:59|371:85,2,90,12|12|12,0:0|0:0|0:0,0:0:0:0:
434,144,74980,5,12,0:0:0:0:
445,323,75542,2,0,P|400:340|338:345,1,90,12|12,0:0|0:0,0:0:0:0:
268,335,76105,1,12,0:0:0:0:
206,269,76386,2,0,P|128:269|45:291,1,150,12|12,0:0|0:0,0:0:0:0:
16,205,77136,1,12,0:0:0:0:
40,118,77417,1,12,0:0:0:0:
188,16,77980,5,14,0:0:0:0:
9,37,78542,1,14,0:0:0:0:
69,103,78823,2,0,P|97:139|124:191,1,90,14|14,0:0|0:0,0:0:0:0:
167,260,79386,5,14,0:0:0:0:
167,260,79573,1,14,0:0:0:0:
238,205,79855,1,14,0:0:0:0:
327,217,80136,1,14,0:0:0:0:
402,168,80417,1,2,1:0:0:0:
402,168,80605,2,0,P|386:108|384:42,1,120,14|4,0:0|1:0,0:0:0:0:
256,192,81073,12,2,86230,1:2:0:0:
486,92,86980,6,0,P|481:131|483:172,1,60,2|2,1:2|1:2,0:0:0:0:
445,200,87355,2,0,P|450:239|448:280,1,60,2|2,1:2|1:2,0:0:0:0:
469,316,87730,2,0,P|406:307|330:306,1,120,2|2,1:2|1:2,0:0:0:0:
291,321,88292,1,2,1:2:0:0:
233,304,88480,2,0,P|230:272|233:232,1,60,2|2,1:2|1:2,0:0:0:0:
241,184,88855,6,0,P|193:187|133:177,2,90,2|2|2,1:0|1:0|1:0,0:0:0:0:
296,160,89605,1,2,1:0:0:0:
296,160,89792,1,0,1:0:0:0:
296,160,89980,2,0,L|299:27,1,120,0|4,1:0|1:0,0:0:0:0:
298,40,91105,1,10,0:0:0:0:
401,100,91480,6,2,P|404:167|395:233,1,120,4|2,1:0|1:2,0:1:0:0:
310,302,92230,2,0,L|303:192,1,90,8|8,1:0|1:0,0:0:0:0:
214,214,92792,2,0,L|207:104,1,90,8|8,1:0|1:0,0:0:0:0:
118,126,93355,2,0,L|111:16,1,90,8|8,1:0|1:0,0:0:0:0:
22,39,93917,1,8,1:0:0:0:
3,96,94105,6,2,P|2:161|21:238,1,120,6|2,1:0|1:2,0:1:0:0:
106,289,94855,2,0,L|109:395,2,90,8|8|8,1:0|1:0|1:0,0:0:0:0:
159,216,95698,1,8,1:0:0:0:
214,287,95980,2,0,L|217:393,2,90,8|8|8,1:0|1:0|1:0,0:0:0:0:
269,263,96730,6,0,P|327:259|392:239,1,120,4|0,1:0|1:0,0:0:0:0:
437,210,97292,1,2,1:2:0:0:
413,154,97480,2,0,P|355:150|290:130,1,120,0|0,1:0|1:0,0:0:0:0:
246,109,98042,1,0,1:0:0:0:
246,109,98230,5,2,1:2:0:0:
134,154,98605,2,0,P|145:215|145:285,2,120,2|2|2,1:2|1:2|1:2,0:0:0:0:
87,43,99730,1,0,1:0:0:0:
146,41,99917,2,0,P|191:35|271:13,1,120,2|0,1:2|1:0,0:0:0:0:
323,11,100480,2,0,P|368:17|448:39,2,120,2|0|0,1:2|1:0|1:0,0:0:0:0:
290,126,101605,1,0,1:0:0:0:
256,241,101980,6,2,P|194:230|116:232,1,120,6|2,1:0|1:2,0:1:0:0:
35,346,102730,2,0,P|29:301|20:258,1,90,8|8,1:0|1:0,0:0:0:0:
105,230,103292,2,0,P|91:187|74:145,1,90,8|8,1:0|1:0,0:0:0:0:
153,103,103855,2,0,P|132:62|108:25,1,90,8|8,1:0|1:0,0:0:0:0:
108,25,104417,1,8,1:0:0:0:
167,14,104605,6,2,P|230:13|301:27,1,120,6|2,1:0|1:2,1:0:0:0:
392,78,105355,2,0,P|373:127|349:164,2,90,8|8|8,1:0|1:0|1:0,0:0:0:0:
478,53,106198,1,8,1:0:0:0:
474,143,106480,2,0,P|463:194|446:235,2,90,8|8|8,1:0|1:0|1:0,0:0:0:0:
416,126,107230,6,0,P|347:117|286:120,1,120,4|2,1:0|1:2,0:0:0:0:
260,167,107792,2,0,P|191:176|130:173,1,120,2|0,1:2|1:0,0:0:0:0:
81,164,108355,1,0,1:0:0:0:
85,283,108730,2,0,P|127:323|165:376,2,120,2|2|2,1:2|1:2|1:2,0:0:0:0:
31,256,109667,1,0,1:0:0:0:
31,256,109855,5,6,1:0:0:0:
256,192,109948,12,8,111355,3:0:0:0:
382,372,112480,6,2,P|372:313|378:239,1,120,6|2,1:0|1:2,0:1:0:0:
388,133,113230,2,0,L|289:127,1,90,8|8,1:0|1:0,0:0:0:0:
233,190,113792,2,0,L|143:195,1,90,8|8,1:0|1:0,0:0:0:0:
94,119,114355,2,0,L|4:113,1,90,8|8,1:0|1:0,0:0:0:0:
4,113,114917,1,2,1:0:0:0:
11,172,115105,2,0,L|14:237,1,60,10|2,1:0|1:0,0:0:0:0:
17,292,115480,6,2,P|81:299|135:288,1,120,6|2,1:0|1:2,0:1:0:0:
246,243,116230,2,0,L|253:340,2,90,8|8|8,1:0|1:0|1:0,0:0:0:0:
315,185,117073,1,8,1:0:0:0:
383,125,117355,2,0,L|376:28,2,90,8|8|8,1:0|1:0|1:0,0:0:0:0:
391,244,118292,1,0,1:0:0:0:
391,244,118480,6,0,P|323:250|265:273,1,120,4|0,1:0|1:0,0:0:0:0:
216,253,119042,2,0,P|159:272|99:276,1,120,2|0,1:2|1:0,0:0:0:0:
58,232,119605,2,0,L|47:159,1,60,0|0,1:0|1:0,0:0:0:0:
69,116,119980,5,0,1:0:0:0:
20,6,120355,2,0,P|54:9|89:6,1,60,2|0,1:2|1:0,0:0:0:0:
137,22,120730,2,0,P|171:19|281:35,1,120,2|2,1:2|1:2,0:0:0:0:
368,71,121480,2,0,P|353:127|347:195,1,120,2|0,1:0|1:0,0:0:0:0:
340,248,122042,2,0,P|280:242|222:227,1,120,2|0,1:0|1:0,0:0:0:0:
172,192,122605,2,0,P|177:269|166:353,1,150,2|2,1:0|1:2,0:0:0:0:
116,372,123261,1,2,1:2:0:0:
31,287,123636,1,2,1:2:0:0:
41,17,124480,6,2,P|55:78|56:150,1,120,6|2,1:0|1:2,0:1:0:0:
116,239,125230,2,0,P|147:208|205:178,1,90,8|8,1:0|1:0,0:0:0:0:
246,252,125792,2,0,P|283:230|347:216,1,90,8|8,1:0|1:0,0:0:0:0:
368,298,126355,2,0,P|410:286|475:289,1,90,8|8,1:0|1:0,0:0:0:0:
456,286,126917,1,2,1:0:0:0:
448,226,127105,2,0,P|443:186|442:150,1,60,10|2,1:0|1:0,0:0:0:0:
445,106,127480,6,2,P|385:129|321:131,1,120,6|2,1:0|1:2,1:0:0:0:
215,94,128230,2,0,P|227:149|228:202,2,90,8|8|8,1:0|1:0|1:0,0:0:0:0:
142,41,129073,1,8,1:0:0:0:
131,130,129355,2,0,P|113:183|88:230,2,90,8|8|8,1:0|1:0|1:0,0:0:0:0:
131,130,130292,1,0,1:0:0:0:
186,153,130480,6,0,P|199:184|209:232,1,60,4|0,1:0|1:0,0:0:0:0:
241,257,130855,2,0,P|220:283|184:316,1,60,0|0,1:0|1:0,0:0:0:0:
155,340,131230,2,0,P|95:331|35:302,1,120,0|0,1:0|1:0,0:0:0:0:
9,358,131792,1,0,1:0:0:0:
9,358,131980,5,2,1:2:0:0:
126,382,132355,2,0,L|204:380,1,60,2|2,1:2|1:2,0:0:0:0:
239,353,132730,2,0,L|298:354,1,60,2|2,1:2|1:2,0:0:0:0:
356,371,133105,1,2,1:2:0:0:
462,315,133480,5,12,0:1:0:0:
462,315,133667,1,0,1:0:0:0:
462,315,133855,2,0,L|458:246,1,60,8|0,0:1|1:0,0:0:0:0:
414,214,134230,2,0,L|418:145,1,60,8|0,0:1|1:0,0:0:0:0:
450,104,134605,1,8,1:0:0:0:
332,79,134980,6,0,P|273:75|80:110,1,240,2|2,1:2|1:0,0:0:0:0:
102,224,136105,2,0,L|107:303,1,60,10|0,1:0|0:0,0:0:0:0:
110,343,136480,5,4,1:0:0:0:
256,192,136573,12,2,140980,0:0:0:0:
368,369,148480,6,0,P|361:317|369:244,1,107.999996704102,8|8,0:0|0:0,0:0:0:0:
406,161,149230,1,8,0:0:0:0:
378,56,149605,1,4,3:0:0:0:
216,57,150167,1,4,3:0:0:0:
14,134,150917,6,0,L|20:206,1,53.9999983520508,0|4,1:0|3:0,0:0:0:0:
114,237,151480,2,0,L|123:121,1,107.999996704102,4|4,3:0|3:0,0:0:0:0:
230,135,152230,2,0,L|221:242,1,107.999996704102,8|4,3:0|3:0,0:0:0:0:
221,242,153167,1,8,0:0:0:0:
436,261,153917,1,8,0:0:0:0:
436,261,154105,1,0,1:0:0:0:
336,194,154480,5,0,1:0:0:0:
256,192,154573,12,4,159730,1:0:0:0:
490,369,170230,6,0,L|477:194,1,161.999995056153,4|2,1:0|0:0,0:0:0:0:
362,93,171355,2,0,L|349:254,1,161.999995056153,2|2,0:0|0:0,0:0:0:0:
229,362,172480,2,0,L|164:356,1,53.9999983520508,2|2,0:0|0:0,0:0:0:0:
121,350,172855,2,0,P|125:299|125:232,1,107.999996704102,2|2,0:0|0:0,0:0:0:0:
29,192,173605,2,0,P|33:243|33:310,2,107.999996704102,2|2|2,0:0|0:0|0:0,0:0:0:0:
20,138,174542,1,2,0:0:0:0:
71,44,174917,1,2,0:0:0:0:
71,44,175105,1,2,0:0:0:0:
168,90,175480,6,0,P|210:94|291:89,1,107.999996704102,2|2,1:2|0:0,0:0:0:0:
380,64,176230,2,0,L|385:139,1,53.9999983520508,2|2,0:0|0:0,0:0:0:0:
424,152,176605,2,0,L|419:227,1,53.9999983520508,2|2,0:0|0:0,0:0:0:0:
413,259,176980,5,0,1:0:0:0:
307,237,177355,1,0,1:0:0:0:
201,260,177730,2,0,P|167:271|135:287,1,53.9999983520508,0|0,1:0|1:0,0:0:0:0:
148,332,178105,2,0,P|201:347|258:350,1,107.999996704102,0|0,1:0|1:0,0:0:0:0:
361,348,178855,2,0,P|389:347|435:351,1,53.9999983520508,0|0,1:0|0:0,0:0:0:0:
466,364,179230,5,2,0:0:0:0:
466,364,179417,1,2,0:0:0:0:
466,364,179605,2,0,B|478:337|478:337|467:258,1,90,12|12,0:0|0:0,0:0:0:0:
412,207,180167,2,0,B|400:180|400:180|411:101,1,90,12|12,0:0|0:0,0:0:0:0:
431,32,180730,6,0,P|380:21|301:31,1,120,6|0,1:0|1:0,0:0:0:0:
259,52,181292,1,0,1:2:0:0:
259,52,181480,1,2,1:0:0:0:
209,85,181667,2,0,P|149:91|90:80,1,120,2|2,1:0|1:0,0:0:0:0:
33,61,182230,1,2,1:0:0:0:
52,117,182417,2,0,P|66:183|70:255,1,120,2|0,1:0|1:2,0:0:0:0:
67,295,182980,1,2,1:0:0:0:
174,370,183355,5,2,1:0:0:0:
174,370,183542,1,0,1:2:0:0:
174,370,183730,2,0,L|179:284,1,60,0|0,1:0|1:2,0:0:0:0:
179,249,184105,1,2,1:0:0:0:
230,218,184292,2,0,P|287:212|356:223,1,120,2|2,1:0|1:0,0:0:0:0:
407,234,184855,1,2,1:0:0:0:
454,197,185042,2,0,P|455:137|442:61,1,120,2|0,1:0|1:2,0:0:0:0:
429,20,185605,1,2,1:0:0:0:
309,16,185980,5,2,1:0:0:0:
315,75,186167,2,0,P|315:112|307:162,1,60,2|0,1:0|1:0,0:0:0:0:
275,182,186542,2,0,P|275:219|283:269,1,60,2|0,1:0|1:0,0:0:0:0:
296,298,186917,1,2,1:0:0:0:
177,280,187292,1,2,1:0:0:0:
118,266,187480,2,0,P|86:262|52:261,2,60,2|2|0,1:0|1:0|1:0,0:0:0:0:
32,181,188230,6,0,P|26:144|20:116,1,60,2|0,1:0|1:0,0:0:0:0:
24,61,188605,1,2,1:0:0:0:
83,53,188792,2,0,P|119:54|158:62,1,60,2|0,1:0|1:0,0:0:0:0:
201,67,189167,2,0,P|237:66|276:58,1,60,2|0,1:0|1:0,0:0:0:0:
323,45,189542,1,2,1:0:0:0:
323,45,189730,1,2,1:0:0:0:
323,45,189917,1,2,1:0:0:0:
414,200,190480,2,0,L|421:61,1,120,2|6,0:1|0:1,0:0:0:0:
319,165,191230,6,0,P|316:208|324:256,1,66.0000020141602,4|2,1:0|0:0,0:0:0:0:
356,307,191605,1,2,1:2:0:0:
270,308,191792,2,0,P|215:314|141:343,1,132.00000402832,2|2,0:2|0:2,0:0:0:0:
59,361,192355,2,0,P|54:321|44:285,1,66.0000020141602,2|2,1:2|0:2,0:0:0:0:
16,215,192730,1,2,1:2:0:0:
43,133,192917,2,0,P|53:87|50:1,1,132.00000402832,2|2,0:2|0:2,0:0:0:0:
140,6,193480,1,2,1:2:0:0:
140,6,193667,1,2,0:2:0:0:
184,79,193855,6,0,P|196:129|204:216,1,132.00000402832,2|2,1:0|1:2,0:0:0:0:
289,210,194417,2,0,P|301:160|309:73,1,132.00000402832,2|2,1:0|0:0,0:0:0:0:
361,11,194980,1,2,1:2:0:0:
361,11,195167,1,2,0:2:0:0:
361,11,195355,2,0,P|416:28|489:82,2,132.00000402832,2|0|2,1:2|1:0|1:2,0:0:0:0:
288,56,196292,1,2,1:2:0:0:
345,120,196480,6,0,P|361:157|374:197,1,66.0000020141602,2|0,1:2|1:0,0:0:0:0:
401,260,196855,1,0,1:0:0:0:
484,283,197042,2,0,P|420:300|368:339,1,132.00000402832,2|2,1:2|0:2,0:0:0:0:
281,341,197605,2,0,P|267:307|247:278,1,66.0000020141602,2|2,1:2|0:2,0:0:0:0:
190,221,197980,1,2,1:2:0:0:
131,282,198167,2,0,P|76:323|18:354,1,132.00000402832,2|0,1:2|0:0,0:0:0:0:
0,269,198730,2,0,P|6:233|9:198,1,66.0000020141602,2|0,1:0|0:0,0:0:0:0:
20,118,199105,6,0,P|64:112|101:101,1,66.0000020141602,2|2,1:0|0:0,0:0:0:0:
166,79,199480,1,2,1:2:0:0:
245,47,199667,1,2,1:0:0:0:
328,25,199855,2,0,P|372:31|409:42,1,66.0000020141602,2|2,1:2|0:0,0:0:0:0:
474,64,200230,1,2,1:2:0:0:
459,234,200605,2,0,L|451:323,1,66.0000020141602,0|0,1:0|1:0,0:0:0:0:
381,347,200980,1,8,0:0:0:0:
299,320,201167,1,0,1:0:0:0:
215,339,201355,2,0,L|209:253,1,66.0000020141602,8|8,0:0|0:0,0:0:0:0:
205,187,201730,6,2,B|251:199|251:199|346:161,1,132.00000402832,2|2,1:0|0:0,0:1:0:0:
406,130,202292,1,2,0:0:0:0:
396,44,202480,2,0,B|350:32|350:32|255:70,1,132.00000402832,8|2,0:1|0:0,0:0:0:0:
193,99,203042,1,2,1:0:0:0:
36,28,203417,1,2,0:0:0:0:
98,87,203605,2,0,L|105:168,2,66.0000020141602,2|8|2,0:0|0:1|0:0,0:0:0:0:
25,242,204355,6,2,P|71:258|169:257,1,132.00000402832,2|2,1:0|0:0,0:1:0:0:
236,237,204917,1,2,0:0:0:0:
319,217,205105,2,0,P|384:216|447:235,1,132.00000402832,8|2,0:1|0:0,0:0:0:0:
505,298,205667,1,2,1:0:0:0:
350,371,206042,1,2,0:0:0:0:
350,371,206230,1,2,0:0:0:0:
267,346,206417,2,2,P|222:337|108:339,1,132.00000402832,10|0,0:1|0:0,0:1:0:0:
50,333,206980,6,2,B|59:292|59:292|30:181,1,132.00000402832,6|2,1:2|0:0,0:1:0:0:
9,123,207542,1,2,0:0:0:0:
33,40,207730,1,8,0:1:0:0:
203,18,208105,1,2,0:0:0:0:
226,100,208292,2,0,P|246:153|292:222,1,132.00000402832,2|2,1:0|0:0,0:0:0:0:
355,268,208855,1,2,0:0:0:0:
355,268,209042,1,10,0:0:0:0:
497,364,209417,1,0,0:0:0:0:
465,283,209605,6,0,P|455:228|475:30,1,240,4|0,1:0|1:0,0:0:0:0:
470,45,210730,1,0,1:0:0:0:
328,71,211105,2,0,P|278:70|214:53,1,90,12|12,0:0|0:0,0:0:0:0:
131,47,211667,2,0,P|81:48|17:65,1,90,12|12,0:0|0:0,0:0:0:0:
5,158,212230,5,0,1:0:0:0:
18,329,212605,2,0,P|37:288|62:260,1,66.0000020141602,2|2,1:2|0:2,0:0:0:0:
127,235,212980,2,0,P|188:252|263:257,1,132.00000402832,2|2,1:2|1:2,0:0:0:0:
335,224,213542,2,0,P|366:219|404:217,1,66.0000020141602,2|2,0:2|1:0,0:0:0:0:
486,211,213917,1,0,0:0:0:0:
449,133,214105,2,0,P|434:74|433:0,1,132.00000402832,2|2,1:0|1:0,0:0:0:0:
347,14,214667,1,2,0:0:0:0:
262,30,214855,2,0,P|219:34|189:31,1,66.0000020141602,2|2,1:0|0:0,0:0:0:0:
111,46,215230,6,2,B|133:85|133:85|127:189,1,132.00000402832,6|0,1:0|0:0,0:1:0:0:
115,343,215980,2,0,P|167:332|223:336,1,99.0000030212403,8|8,1:0|1:0,0:0:0:0:
252,211,216542,2,0,P|302:227|349:258,1,99.0000030212403,8|8,1:0|1:0,0:0:0:0:
437,165,217105,2,0,P|472:204|497:255,1,99.0000030212403,8|8,1:0|1:0,0:0:0:0:
492,373,217667,1,8,1:0:0:0:
492,373,217855,2,0,P|452:366|422:356,1,66.0000020141602,2|0,0:0|0:0,0:0:0:0:
343,342,218230,6,0,P|277:347|183:331,1,132.00000402832,6|0,1:0|1:0,0:0:0:0:
128,317,218792,1,2,1:2:0:0:
156,235,218980,2,0,P|164:198|165:162,1,66.0000020141602,2|2,1:2|1:2,0:0:0:0:
120,96,219355,2,0,P|112:59|111:23,1,66.0000020141602,2|2,1:2|1:2,0:0:0:0:
194,9,219730,5,2,1:2:0:0:
194,9,219917,1,0,1:0:0:0:
194,9,220105,2,0,P|231:15|285:15,1,66.0000020141602,2|0,1:2|0:0,0:0:0:0:
345,20,220480,2,0,P|334:91|335:159,1,132.00000402832,10|2,0:0|1:0,0:0:0:0:
363,231,221042,1,8,0:0:0:0:
443,261,221230,6,2,B|402:244|402:244|301:261,1,132.00000402832,6|0,1:0|0:0,0:2:0:0:
144,242,221980,2,0,P|158:289|162:338,2,99.0000030212403,8|8|8,1:0|1:0|1:0,0:0:0:0:
61,143,222823,1,8,1:0:0:0:
39,270,223105,2,0,P|28:318|7:362,2,99.0000030212403,8|8|8,1:0|1:0|1:0,0:0:0:0:
55,102,224042,1,0,1:0:0:0:
55,102,224230,5,4,1:0:0:0:
256,192,225730,12,2,228730,1:0:0:0:
468,354,230230,6,0,P|467:289|453:192,1,150,12|12,0:0|0:0,0:0:0:0:
396,138,230980,2,0,P|346:147|294:167,1,90,12|12,0:0|0:0,0:0:0:0:
256,188,231448,1,12,0:0:0:0:
167,178,231730,2,0,P|164:126|144:64,2,90,14|14|14,0:0|0:0|0:0,0:0:0:0:
28,292,232855,6,0,P|97:316|183:326,1,150,12|12,0:0|0:0,0:0:0:0:
262,310,233605,2,0,P|262:277|273:211,1,90,12|12,0:0|0:0,0:0:0:0:
285,163,234073,1,12,0:0:0:0:
326,83,234355,2,0,P|360:40|397:9,2,90,14|14|14,0:0|0:0|0:0,0:0:0:0:
159,17,235480,6,0,P|177:81|187:184,1,150,12|12,0:0|0:0,0:0:0:0:
155,248,236230,2,0,P|113:238|67:238,1,90,12|12,0:0|0:0,0:0:0:0:
8,246,236698,1,12,0:0:0:0:
2,156,236980,5,12,0:0:0:0:
82,115,237261,1,12,0:0:0:0:
172,125,237542,1,12,0:0:0:0:
316,17,238105,6,0,P|320:89|339:166,1,150,14|14,0:0|0:0,0:0:0:0:
418,209,238855,1,14,0:0:0:0:
482,273,239136,1,14,0:0:0:0:
484,333,239323,1,14,0:0:0:0:
400,366,239605,5,14,0:0:0:0:
315,339,239886,1,14,0:0:0:0:
229,364,240167,1,14,0:0:0:0:
229,364,240355,6,2,P|223:295|208:236,1,120,2|4,0:0|1:0,0:2:0:0:
256,192,240917,12,0,245980,0:0:0:0:
