osu file format v14

[General]
AudioFilename: audio.mp3
AudioLeadIn: 0
PreviewTime: 158980
Countdown: 0
SampleSet: Soft
StackLeniency: 0.7
Mode: 0
LetterboxInBreaks: 0
WidescreenStoryboard: 1

[Editor]
DistanceSpacing: 1.3
BeatDivisor: 4
GridSize: 32
TimelineZoom: 2.5

[Metadata]
Title:re:||BIRTH
TitleUnicode:re:||BIRTH
Artist:Camellia feat. Morinaga Mayumi
ArtistUnicode:かめりあ feat. 森永真由美
Creator:UberFazz
Version:ha:||RD
Source:NOISZ
Tags:japanese english electronic rebirth re:birth re:||VERSE OST re:verse reverse moimoi senya cametek kamelcamellia featured artist
BeatmapID:3644896
BeatmapSetID:1779714

[Difficulty]
HPDrainRate:5
CircleSize:3.5
OverallDifficulty:6.5
ApproachRate:8
SliderMultiplier:1.4
SliderTickRate:1

[Events]
//Background and Video events
0,0,"long bg.jpg",0,0
//Break Periods
2,12179,21655
2,141180,147655
2,159930,169405
//Storyboard Layer 0 (Background)
//Storyboard Layer 1 (Fail)
//Storyboard Layer 2 (Pass)
//Storyboard Layer 3 (Foreground)
//Storyboard Layer 4 (Overlay)
//Storyboard Sound Samples

[TimingPoints]
1480,375,7,2,1,80,1,0
1480,-83.3333333333333,7,2,1,80,0,0
32980,375,4,2,1,80,1,0
38980,-83.3333333333333,7,2,1,80,0,0
80980,375,7,2,1,80,1,0
91480,-71.4285714285714,7,2,1,80,0,0
112480,375,4,2,1,80,1,0
112480,-66.6666666666667,7,2,1,80,0,0
135355,-100,7,2,1,80,0,0
148480,-100,7,2,1,60,0,0
154480,375,7,2,1,70,1,0
170230,-125,7,2,1,70,0,0
175480,-100,7,2,1,70,0,0
179230,-100,7,2,1,80,0,0
179605,-83.3333333333333,7,2,1,80,0,0
191230,-71.4285714285714,7,2,1,90,0,1
209605,-71.4285714285714,7,2,1,80,0,0
212230,375,4,2,1,90,1,0
212230,-83.3333333333333,7,2,1,90,0,1
215230,-71.4285714285714,7,2,1,90,0,1
218605,-83.3333333333333,7,2,1,90,0,1
221980,-71.4285714285714,7,2,1,90,0,1
224230,-71.4285714285714,7,2,1,80,0,0
230230,375,7,2,1,80,1,0
230230,-83.3333333333333,7,2,1,80,0,0
240730,750,7,2,1,80,1,0
245980,-100,7,2,1,10,0,0

[Colours]
Combo1 : 133,252,245
Combo2 : 255,179,184
Combo3 : 247,157,233
Combo4 : 17,254,176

[HitObjects]
61,25,1480,6,0,L|52:131,1,83.9999974365235,12|12,0:0|0:0,0:0:0:0:
49,199,1855,1,0,1:0:0:0:
49,199,1948,2,0,P|109:202|176:219,1,125.999996154785,12|12,0:0|0:0,0:0:0:0:
255,247,2417,1,8,0:0:0:0:
255,247,2511,1,12,0:0:0:0:
337,222,2698,1,12,0:0:0:0:
433,151,2980,6,0,P|425:222|441:297,2,125.999996154785,14|14|14,0:0|0:0|0:0,0:0:0:0:
502,0,4105,6,0,L|495:82,1,83.9999974365235,12|12,0:0|0:0,0:0:0:0:
406,66,4480,1,0,1:0:0:0:
406,66,4573,2,0,P|344:56|267:61,1,125.999996154785,12|12,0:0|0:0,0:0:0:0:
197,77,5042,1,12,0:0:0:0:
197,77,5136,1,12,0:0:0:0:
122,38,5323,1,12,0:0:0:0:
22,107,5605,6,0,L|34:256,2,125.999996154785,14|14|14,0:0|0:0|0:0,0:0:0:0:
151,362,6730,6,0,P|152:314|159:263,1,83.9999974365235,12|12,0:0|0:0,0:0:0:0:
206,208,7105,1,0,1:0:0:0:
206,208,7198,2,0,L|292:204,1,83.9999974365235,12|0,0:0|0:0,0:0:0:0:
289,204,7480,1,12,0:0:0:0:
366,261,7667,1,12,0:0:0:0:
366,261,7761,1,12,0:0:0:0:
446,245,7948,1,12,0:0:0:0:
510,338,8230,6,0,P|446:351|376:382,2,125.999996154785,12|12|12,0:0|0:0|0:0,0:0:0:0:
497,48,9355,5,14,0:0:0:0:
424,86,9542,1,14,0:0:0:0:
424,86,9636,1,14,0:0:0:0:
342,65,9823,2,0,P|294:60|252:64,1,83.9999974365235,14|0,0:0|0:0,0:0:0:0:
258,62,10105,1,14,0:0:0:0:
178,35,10292,1,14,0:0:0:0:
178,35,10386,1,14,0:0:0:0:
104,80,10573,1,14,0:0:0:0:
114,220,10855,5,14,0:0:0:0:
245,259,11136,5,14,0:0:0:0:
365,205,11417,5,14,0:0:0:0:
365,205,11605,2,2,P|356:285|352:378,1,167.999994873047,2|4,0:0|1:0,0:2:0:0:
448,11,22480,6,0,L|441:116,1,83.9999974365235,0|2,1:0|0:0,0:0:0:0:
497,208,22855,2,0,L|493:155,2,41.9999987182618,2|0|0,0:0|0:0|1:0,0:0:0:0:
412,224,23230,2,0,P|404:270|407:331,1,83.9999974365235,8|2,0:1|0:0,0:0:0:0:
404,307,23511,1,2,0:0:0:0:
404,307,23605,2,0,L|455:309,2,41.9999987182618,2|0|2,0:0|0:0|1:2,0:0:0:0:
254,371,24167,6,0,L|250:279,2,83.9999974365235,2|2|8,0:0|0:0|0:1,0:0:0:0:
153,378,24730,1,2,0:0:0:0:
153,378,24823,1,0,0:0:0:0:
153,378,24917,2,0,L|157:286,1,83.9999974365235,2|0,0:0|1:0,0:0:0:0:
161,208,25292,1,2,0:0:0:0:
123,131,25480,2,0,P|78:127|14:132,1,83.9999974365235,2|2,0:0|0:0,0:0:0:0:
19,217,25855,6,0,P|28:265|31:311,2,83.9999974365235,8|0|0,0:1|0:0|0:0,0:0:0:0:
39,128,26417,1,0,1:0:0:0:
111,9,26792,1,2,0:0:0:0:
183,59,26980,2,0,L|281:54,1,83.9999974365235,2|8,0:0|0:1,0:0:0:0:
355,25,27355,1,0,0:0:0:0:
402,101,27542,1,2,0:0:0:0:
366,182,27730,6,0,P|395:235|412:349,1,167.999994873047,2|2,1:2|0:0,0:0:0:0:
329,365,28292,2,0,P|287:353|233:348,1,83.9999974365235,2|8,0:0|0:1,0:0:0:0:
162,358,28667,1,0,0:0:0:0:
80,337,28855,2,0,L|74:286,1,41.9999987182618,2|2,0:0|0:0,0:0:0:0:
75,295,29042,1,2,1:2:0:0:
28,182,29417,1,2,0:0:0:0:
28,182,29511,1,0,0:0:0:0:
28,182,29605,2,0,L|23:223,2,41.9999987182618,2|0|8,0:0|0:0|0:1,0:0:0:0:
132,193,29980,2,0,L|127:151,3,41.9999987182618,0|0|2|2,0:0|0:0|0:0|0:0,0:0:0:0:
172,221,30355,5,6,1:0:0:0:
429,133,31855,6,2,L|411:275,1,125.999996154785,4|4,1:2|1:2,0:1:0:0:
306,183,32417,6,2,L|324:325,1,125.999996154785,4|4,1:2|1:2,0:1:0:0:
208,241,32980,6,0,P|208:187|195:131,1,105,4|8,1:0|0:0,0:0:0:0:
197,137,33355,1,0,1:0:0:0:
245,66,33542,1,8,0:0:0:0:
325,37,33730,2,0,L|443:44,1,105,0|8,1:0|0:0,0:0:0:0:
495,121,34198,2,0,L|491:175,2,35,8|8|8,0:0|0:0|0:0,0:0:0:0:
461,185,34480,6,0,P|410:174|344:172,1,105,0|8,1:0|0:0,0:0:0:0:
357,171,34855,1,0,1:0:0:0:
274,187,35042,1,8,0:0:0:0:
312,264,35230,2,0,P|328:318|339:374,1,105,0|8,1:0|0:0,0:0:0:0:
447,341,35698,2,0,L|497:328,2,35,8|8|8,0:0|0:0|0:0,0:0:0:0:
414,329,35980,5,0,1:0:0:0:
256,379,36261,1,8,0:0:0:0:
116,345,36542,1,8,0:0:0:0:
116,345,36730,2,0,L|108:230,1,105,0|8,1:0|0:0,0:0:0:0:
70,157,37198,2,0,L|29:162,2,35,8|8|8,0:0|0:0|0:0,0:0:0:0:
116,86,37480,5,0,1:0:0:0:
244,51,37761,1,8,0:0:0:0:
370,82,38042,1,10,0:0:0:0:
370,82,38230,2,0,L|379:209,1,105,0|8,1:0|0:0,0:0:0:0:
384,272,38698,2,0,L|426:271,2,35,8|8|8,0:0|0:0|0:0,0:0:0:0:
337,261,38980,6,0,P|293:278|242:314,1,83.9999974365235,4|0,1:0|1:0,0:0:0:0:
253,198,39355,2,0,P|245:244|251:306,1,83.9999974365235,0|0,1:0|1:0,0:0:0:0:
156,239,39730,2,0,P|192:268|249:294,1,83.9999974365235,0|0,1:0|1:0,0:0:0:0:
143,343,40105,2,0,P|187:326|238:290,1,83.9999974365235,0|0,1:0|1:0,0:0:0:0:
77,283,40480,5,0,1:0:0:0:
77,283,40667,1,0,1:0:0:0:
83,189,40855,1,0,1:0:0:0:
83,189,41042,1,0,1:0:0:0:
0,134,41230,1,0,1:0:0:0:
0,134,41417,1,0,1:0:0:0:
6,40,41605,1,0,1:0:0:0:
6,40,41792,1,0,1:0:0:0:
95,9,41980,6,0,L|101:75,3,41.9999987182618,8|0|0|0,0:1|1:0|1:0|1:0,0:0:0:0:
151,68,42355,2,0,L|145:134,3,41.9999987182618,8|0|0|0,0:1|1:0|1:0|1:0,0:0:0:0:
192,39,42730,5,8,0:1:0:0:
205,37,42823,1,0,1:0:0:0:
218,35,42917,1,0,1:0:0:0:
231,33,43011,1,0,1:0:0:0:
244,31,43105,2,8,L|248:60,8,20.9999993591309
371,1,43667,6,0,L|362:92,1,83.9999974365235,2|2,0:0|0:0,0:0:0:0:
440,126,44042,2,0,L|449:217,1,83.9999974365235,2|2,0:0|0:0,0:0:0:0:
459,293,44417,1,2,1:0:0:0:
377,265,44605,2,2,P|316:251|231:249,1,125.999996154785,10|0,0:1|0:0,0:1:0:0:
252,247,44980,5,6,1:0:0:0:
38,308,45355,1,2,1:2:0:0:
38,308,45448,1,2,1:2:0:0:
38,308,45542,1,2,1:2:0:0:
136,331,45730,1,2,1:2:0:0:
107,245,45917,1,2,0:0:0:0:
107,245,46011,1,0,0:0:0:0:
107,245,46105,2,0,L|107:185,2,41.9999987182618,2|2|2,1:2|1:2|1:2,0:0:0:0:
16,214,46480,5,2,1:2:0:0:
0,125,46667,2,0,L|7:69,4,41.9999987182618,2|2|2|2|2,1:2|1:2|1:2|1:2|1:2,0:0:0:0:
93,84,47230,5,2,1:2:0:0:
214,52,47511,1,2,0:0:0:0:
347,76,47792,1,2,1:2:0:0:
347,76,47980,2,0,L|327:249,1,167.999994873047,2|2,1:2|1:2,0:0:0:0:
327,242,48448,1,2,1:2:0:0:
327,242,48542,1,2,1:2:0:0:
410,289,48730,5,2,1:2:0:0:
499,270,48917,1,2,0:0:0:0:
499,270,49011,1,0,0:0:0:0:
499,270,49105,2,0,L|504:210,2,41.9999987182618,2|2|2,1:2|1:2|1:2,0:0:0:0:
476,360,49480,1,2,1:2:0:0:
476,360,49667,1,2,0:0:0:0:
377,368,49855,1,2,1:2:0:0:
377,368,50042,1,2,0:0:0:0:
296,313,50230,6,0,L|182:326,1,83.9999974365235,2|2,1:0|1:0,0:0:0:0:
119,332,50605,2,0,B|146:250|69:249|110:152,1,167.999994873047,2|6,1:0|1:2,0:0:0:0:
171,9,51355,5,2,1:2:0:0:
171,9,51448,1,2,1:2:0:0:
171,9,51542,1,2,1:2:0:0:
154,97,51730,2,0,P|203:126|248:139,1,83.9999974365235,2|2,1:2|0:0,0:0:0:0:
228,134,52011,1,0,0:0:0:0:
228,134,52105,2,0,L|248:88,2,41.9999987182618,2|2|2,1:2|1:2|1:2,0:0:0:0:
330,142,52480,2,0,P|333:193|341:248,1,83.9999974365235,0|2,1:0|1:2,0:0:0:0:
337,225,52761,1,2,1:2:0:0:
337,225,52855,2,0,L|386:222,2,41.9999987182618,2|2|2,1:2|1:2|1:2,0:0:0:0:
384,313,53230,5,2,1:2:0:0:
259,352,53511,1,2,0:0:0:0:
129,325,53792,1,2,0:0:0:0:
129,325,53980,2,0,L|136:222,2,83.9999974365235,0|0|0,1:0|1:0|1:0,0:0:0:0:
0,139,54730,6,0,L|5:222,1,83.9999974365235,0|0,1:0|0:0,0:0:0:0:
5,222,55011,1,2,1:2:0:0:
5,222,55105,1,2,1:2:0:0:
91,174,55292,1,2,1:2:0:0:
186,178,55480,6,0,L|190:123,1,41.9999987182618,4|0,1:2|0:0,0:0:0:0:
305,85,55761,2,0,L|309:140,1,41.9999987182618,4|0,1:2|0:0,0:0:0:0:
420,182,56042,2,0,L|424:127,1,41.9999987182618,4|0,1:2|0:0,0:0:0:0:
256,192,56230,12,4,56980,1:2:0:0:
309,259,57355,6,2,L|307:295,8,20.9999993591309
392,325,57917,2,0,L|484:335,2,83.9999974365235,2|2|2,0:0|0:0|0:0,0:0:0:0:
396,233,58480,6,0,B|431:149|368:135|414:48,1,167.999994873047,4|2,1:0|0:0,0:0:0:0:
455,5,59042,1,2,0:0:0:0:
363,0,59230,1,2,0:0:0:0:
300,64,59417,2,0,L|308:105,3,27.9999991455078,0|0|0|8,1:0|1:0|1:0|0:0,0:0:0:0:
327,176,59792,1,0,1:0:0:0:
240,151,59980,6,0,B|194:133|194:133|75:181,1,167.999994873047,6|2,1:0|1:2,0:0:0:0:
84,178,60448,1,2,1:2:0:0:
84,178,60542,1,2,1:2:0:0:
101,276,60730,2,0,L|110:359,1,83.9999974365235,8|2,0:1|0:0,0:0:0:0:
22,384,61105,1,2,1:2:0:0:
22,384,61198,1,2,1:2:0:0:
22,384,61292,1,2,1:2:0:0:
11,287,61480,2,0,L|18:223,1,41.9999987182618,2|2,1:2|0:2,0:0:0:0:
42,196,61667,2,0,L|35:132,1,41.9999987182618,2|2,0:2|0:2,0:0:0:0:
13,119,61855,1,2,1:2:0:0:
13,119,61948,1,2,0:2:0:0:
13,119,62042,2,0,L|20:55,2,41.9999987182618,2|2|8,0:2|0:2|0:1,0:0:0:0:
96,47,62417,1,2,0:0:0:0:
181,67,62605,2,0,L|186:118,3,27.9999991455078,2|2|2|2,0:0|0:0|0:0|0:0,0:0:0:0:
260,20,62980,6,0,B|299:56|299:56|422:44,1,167.999994873047,6|2,1:2|0:0,0:0:0:0:
413,44,63448,1,2,1:2:0:0:
413,44,63542,1,2,1:2:0:0:
490,116,63730,1,8,0:1:0:0:
469,201,63917,1,2,0:0:0:0:
512,276,64105,2,0,L|503:325,2,41.9999987182618,2|2|2,1:2|1:2|1:2,0:0:0:0:
426,356,64480,6,0,L|326:338,1,83.9999974365235,0|2,1:0|1:2,0:0:0:0:
343,341,64761,1,2,1:2:0:0:
343,341,64855,2,0,L|358:285,1,41.9999987182618,2|2,1:2|1:2,0:0:0:0:
364,251,65042,1,2,1:2:0:0:
288,222,65230,6,2,B|282:260|282:260|130:279,1,167.999994873047,8|2,0:1|0:0,0:1:0:0:
158,309,65698,1,2,0:0:0:0:
158,309,65792,2,0,L|166:372,1,41.9999987182618,2|2,0:0|0:0,0:0:0:0:
169,384,65980,2,0,L|53:381,1,83.9999974365235,2|0,1:0|0:0,0:0:0:0:
0,370,66355,1,2,1:2:0:0:
0,370,66448,1,2,1:2:0:0:
0,370,66542,1,2,1:2:0:0:
47,292,66730,2,0,P|51:251|39:195,1,83.9999974365235,8|2,0:1|0:0,0:0:0:0:
43,209,67011,1,0,0:0:0:0:
43,209,67105,2,0,L|-10:207,2,41.9999987182618,2|2|2,1:2|1:2|1:2,0:0:0:0:
256,192,67480,12,2,68605,0:0:0:0:
376,90,68980,6,0,L|361:299,1,209.999993591309,12|12,0:0|0:0,0:0:0:0:
361,299,69542,1,12,0:0:0:0:
217,280,69823,1,12,0:0:0:0:
80,328,70105,2,0,L|75:224,1,83.9999974365235,12|12,0:0|0:0,0:0:0:0:
75,244,70386,1,12,0:0:0:0:
28,170,70573,1,12,0:0:0:0:
145,91,70855,6,0,P|161:153|162:228,2,125.999996154785,12|12|12,0:0|0:0|0:0,0:0:0:0:
504,238,71980,6,0,P|447:225|271:236,1,209.999993591309,12|12,0:0|0:0,0:0:0:0:
296,229,72542,1,12,0:0:0:0:
246,105,72823,1,12,0:0:0:0:
336,9,73105,1,12,0:0:0:0:
421,49,73292,1,12,0:0:0:0:
421,49,73386,2,0,L|429:154,1,83.9999974365235,12|12,0:0|0:0,0:0:0:0:
329,245,73855,2,0,L|338:114,2,125.999996154785,12|12|12,0:0|0:0|0:0,0:0:0:0:
512,358,74980,6,0,P|439:335|318:342,1,167.999994873047,12|0,0:0|0:0,0:0:0:0:
348,335,75448,1,12,0:0:0:0:
348,335,75542,1,12,0:0:0:0:
191,383,75823,1,12,0:0:0:0:
31,333,76105,1,12,0:0:0:0:
124,306,76292,1,12,0:0:0:0:
124,306,76386,2,0,P|141:250|146:214,1,83.9999974365235,12|12,0:0|0:0,0:0:0:0:
145,71,76855,2,0,P|201:122|268:148,2,125.999996154785,12|12|12,0:0|0:0|0:0,0:0:0:0:
2,12,77980,6,0,L|17:193,1,167.999994873047,14|0,0:0|0:0,0:0:0:0:
15,179,78448,1,14,0:0:0:0:
15,179,78542,1,14,0:0:0:0:
115,304,78823,2,0,L|172:294,1,41.9999987182618,14|0,0:0|0:0,0:0:0:0:
289,374,79105,2,0,L|330:366,1,41.9999987182618,14|0,0:0|0:0,0:0:0:0:
376,355,79292,1,14,0:0:0:0:
376,355,79386,6,0,P|382:311|378:243,1,83.9999974365235,14|14,0:0|0:0,0:0:0:0:
465,54,79855,6,0,P|455:94|463:166,1,83.9999974365235,14|0,0:0|0:0,0:0:0:0:
459,137,80136,2,0,P|465:181|461:249,1,83.9999974365235,14|0,0:0|0:0,0:0:0:0:
464,220,80417,1,2,1:0:0:0:
381,189,80605,2,0,P|308:164|201:160,1,167.999994873047,14|4,0:0|1:0,0:0:0:0:
72,191,81261,6,0,P|87:247|89:320,1,105,8|8,0:0|0:0,0:0:0:0:
74,377,81730,2,0,P|59:321|57:248,1,105,0|8,1:0|0:0,0:0:0:0:
72,191,82198,2,0,L|114:191,2,35,8|8|8,0:0|0:0|0:0,0:0:0:0:
64,179,82480,6,0,L|55:56,2,105,0|8|8,1:0|0:0|0:0,0:0:0:0:
169,172,83230,1,0,1:0:0:0:
169,172,83323,1,0,1:0:0:0:
169,172,83417,1,8,0:0:0:0:
214,95,83605,6,0,P|247:49|298:19,2,105,0|8|8,1:0|0:0|0:0,0:0:0:0:
260,172,84355,1,0,1:0:0:0:
397,195,84636,1,8,0:0:0:0:
468,145,84823,2,0,L|471:97,2,35,8|8|8,0:0|0:0|0:0,0:0:0:0:
485,157,85105,5,0,1:0:0:0:
492,291,85386,1,8,0:0:0:0:
405,383,85667,1,8,0:0:0:0:
326,339,85855,1,0,1:0:0:0:
326,339,85948,1,0,1:0:0:0:
326,339,86042,1,8,0:0:0:0:
236,365,86230,6,0,L|147:355,1,70,2|2,1:2|1:2,0:0:0:0:
72,310,86605,2,0,L|141:317,1,70,2|2,1:2|1:2,0:0:0:0:
247,281,86980,2,0,L|158:271,1,70,2|2,1:2|1:2,0:0:0:0:
83,226,87355,2,0,L|152:233,1,70,2|2,1:2|1:2,0:0:0:0:
236,193,87730,6,0,P|240:138|260:78,2,105,2|2|2,1:2|0:0|1:2,0:0:0:0:
159,139,88480,1,2,1:2:0:0:
70,140,88667,1,2,1:2:0:0:
7,78,88855,6,0,L|12:37,2,35,2|0|0,1:0|1:0|1:0,0:0:0:0:
47,4,89136,2,0,L|52:45,2,35,2|0|0,1:0|1:0|1:0,0:0:0:0:
104,63,89417,2,0,L|109:22,1,35,2|0,1:0|1:0,0:0:0:0:
160,9,89605,1,2,1:0:0:0:
176,12,89698,1,0,1:0:0:0:
192,15,89792,1,0,1:0:0:0:
208,18,89886,1,0,1:0:0:0:
224,21,89980,2,0,L|219:55,4,35,0|0|0|0|4,1:0|1:0|1:0|1:0|1:0,0:0:0:0:
256,192,90448,12,10,91105,0:0:0:0:
249,24,91480,6,2,P|184:64|265:106,1,195.999994018555,4|0,1:0|0:0,0:1:0:0:
140,287,92230,6,0,L|160:243,1,48.9999985046387,8|0,1:0|0:0,0:0:0:0:
286,342,92511,2,0,L|257:303,1,48.9999985046387,8|0,1:0|0:0,0:0:0:0:
405,243,92792,2,0,L|357:249,1,48.9999985046387,8|0,1:0|0:0,0:0:0:0:
379,89,93074,2,0,L|360:134,1,48.9999985046387,8|0,1:0|0:0,0:0:0:0:
233,35,93355,2,0,L|263:75,1,48.9999985046387,8|0,1:0|0:0,0:0:0:0:
114,134,93636,2,0,L|163:129,1,48.9999985046387,8|0,1:0|0:0,0:0:0:0:
256,192,93917,1,8,1:0:0:0:
256,192,94105,6,2,B|226:220|226:220|276:327|276:327|230:366,1,195.999994018555,6|0,1:0|0:0,0:1:0:0:
163,129,94855,6,0,L|114:134,1,48.9999985046387,8|0,1:0|0:0,0:0:0:0:
263,75,95136,2,0,L|233:35,1,48.9999985046387,8|0,1:0|0:0,0:0:0:0:
360,134,95417,2,0,L|379:89,1,48.9999985046387,8|0,1:0|0:0,0:0:0:0:
357,249,95699,2,0,L|405:243,1,48.9999985046387,8|0,1:0|0:0,0:0:0:0:
257,303,95980,2,0,L|286:342,1,48.9999985046387,8|0,1:0|0:0,0:0:0:0:
160,243,96261,2,0,L|140:287,1,48.9999985046387,8|0,1:0|0:0,0:0:0:0:
256,192,96542,1,8,1:0:0:0:
256,192,96730,6,0,P|304:170|351:138,1,97.9999970092774,4|0,1:0|1:0,0:0:0:0:
341,145,97011,1,0,1:0:0:0:
341,145,97105,1,0,1:0:0:0:
395,75,97292,2,0,L|390:23,2,48.9999985046387,0|0|0,1:0|1:0|1:0,0:0:0:0:
443,160,97667,1,0,1:0:0:0:
443,160,97761,1,0,1:0:0:0:
443,160,97855,2,0,L|448:212,2,48.9999985046387,0|0|0,1:0|1:0|1:0,0:0:0:0:
488,83,98230,5,0,1:0:0:0:
506,266,98605,2,0,P|459:265|400:280,1,97.9999970092774,0|0,1:0|1:0,0:0:0:0:
336,314,98980,1,0,1:0:0:0:
336,314,99073,1,0,1:0:0:0:
336,314,99167,1,0,1:0:0:0:
261,367,99355,6,0,L|82:354,1,146.999995513916,0|0,1:0|1:0,0:0:0:0:
114,356,99730,1,0,1:0:0:0:
64,287,99917,1,0,1:0:0:0:
64,287,100011,1,0,1:0:0:0:
64,287,100105,1,0,1:0:0:0:
104,210,100292,1,0,1:0:0:0:
55,134,100480,2,0,L|5:138,2,48.9999985046387,0|0|2,1:0|1:0|1:2,0:0:0:0:
63,122,100761,6,0,L|169:114,1,97.9999970092774,2|2,1:2|1:2,0:0:0:0:
7,49,101230,1,0,1:0:0:0:
7,49,101323,1,0,1:0:0:0:
7,49,101417,1,0,1:0:0:0:
103,12,101605,2,0,L|109:61,3,48.9999985046387,0|0|0|0,1:0|1:0|1:0|1:0,0:0:0:0:
122,3,101980,6,2,P|176:7|312:52,1,195.999994018555,6|0,1:0|0:0,0:1:0:0:
371,287,102730,6,0,P|359:267|352:243,1,48.9999985046387,8|0,1:0|0:0,0:0:0:0:
230,340,103011,2,0,P|242:318|259:300,1,48.9999985046387,8|0,1:0|0:0,0:0:0:0:
114,244,103292,2,0,P|138:243|162:249,1,48.9999985046387,8|0,1:0|0:0,0:0:0:0:
139,95,103574,2,0,P|151:115|158:139,1,48.9999985046387,8|0,1:0|0:0,0:0:0:0:
280,42,103855,2,0,P|268:63|250:81,1,48.9999985046387,8|0,1:0|0:0,0:0:0:0:
396,137,104136,2,0,P|371:137|347:131,1,48.9999985046387,8|0,1:0|0:0,0:0:0:0:
256,192,104417,1,8,1:0:0:0:
256,192,104605,6,2,B|286:220|286:220|236:327|236:327|282:366,1,195.999994018555,6|0,1:0|0:0,1:0:0:0:
347,131,105355,6,0,P|371:137|396:137,1,48.9999985046387,8|0,1:0|0:0,0:0:0:0:
251,81,105636,2,0,P|268:63|280:42,1,48.9999985046387,8|0,1:0|0:0,0:0:0:0:
158,139,105917,2,0,P|151:115|139:95,1,48.9999985046387,8|0,1:0|0:0,0:0:0:0:
162,249,106199,2,0,P|138:243|114:244,1,48.9999985046387,8|0,1:0|0:0,0:0:0:0:
259,300,106480,2,0,P|242:318|230:340,1,48.9999985046387,8|0,1:0|0:0,0:0:0:0:
352,243,106761,2,0,P|358:266|371:287,1,48.9999985046387,8|0,1:0|0:0,0:0:0:0:
256,192,107042,1,8,1:0:0:0:
256,192,107230,6,0,P|211:166|168:122,1,97.9999970092774,4|0,1:0|1:0,0:0:0:0:
177,134,107511,1,0,1:0:0:0:
177,134,107605,1,0,1:0:0:0:
103,101,107792,1,0,1:0:0:0:
30,143,107980,1,0,1:0:0:0:
41,307,108261,1,0,1:0:0:0:
41,307,108355,2,0,L|91:304,4,48.9999985046387,0|0|0|0|0,1:0|1:0|1:0|1:0|1:0,0:0:0:0:
182,356,109011,1,0,1:0:0:0:
182,356,109105,6,0,P|189:300|183:252,1,97.9999970092774,0|0,1:0|1:0,0:0:0:0:
276,305,109480,1,0,1:0:0:0:
358,345,109667,1,0,1:0:0:0:
358,345,109761,1,0,1:0:0:0:
358,345,109855,5,6,1:0:0:0:
256,192,109948,12,8,111355,3:0:0:0:
451,16,112480,6,2,P|465:113|427:246,1,210.000008010865,6|0,1:0|0:0,0:1:0:0:
128,87,113230,6,0,L|150:135,1,52.5000020027161,8|0,1:0|0:0,0:0:0:0:
288,26,113511,2,0,L|256:69,1,52.5000020027161,8|0,1:0|0:0,0:0:0:0:
419,135,113792,2,0,L|366:128,1,52.5000020027161,8|0,1:0|0:0,0:0:0:0:
390,304,114074,2,0,L|370:255,1,52.5000020027161,8|0,1:0|0:0,0:0:0:0:
230,364,114355,2,0,L|263:320,1,52.5000020027161,8|0,1:0|0:0,0:0:0:0:
99,255,114636,2,0,L|153:260,1,52.5000020027161,8|0,1:0|0:0,0:0:0:0:
256,192,114917,1,2,1:0:0:0:
256,192,115105,1,10,1:0:0:0:
327,244,115292,1,2,1:0:0:0:
256,192,115480,6,2,B|223:161|223:161|278:43|278:43|227:0,1,210.000008010865,6|0,1:0|0:0,0:1:0:0:
151,260,116230,6,0,L|99:255,1,52.5000020027161,8|0,1:0|0:0,0:0:0:0:
261,322,116511,2,0,L|230:364,1,52.5000020027161,8|0,1:0|0:0,0:0:0:0:
370,256,116792,2,0,L|390:304,1,52.5000020027161,8|0,1:0|0:0,0:0:0:0:
366,128,117074,2,0,L|419:135,1,52.5000020027161,8|0,1:0|0:0,0:0:0:0:
256,69,117355,2,0,L|288:26,1,52.5000020027161,8|0,1:0|0:0,0:0:0:0:
150,135,117636,2,0,L|128:87,1,52.5000020027161,8|0,1:0|0:0,0:0:0:0:
256,192,117917,1,8,1:0:0:0:
77,176,118292,1,0,1:0:0:0:
106,255,118480,6,0,P|114:317|111:366,1,105.000004005432,4|0,1:0|1:0,0:0:0:0:
111,359,118761,1,0,1:0:0:0:
111,359,118855,1,0,1:0:0:0:
204,318,119042,1,0,1:0:0:0:
204,318,119136,1,0,1:0:0:0:
204,318,119230,1,0,1:0:0:0:
335,371,119511,1,0,1:0:0:0:
335,371,119605,6,0,L|328:263,2,105.000004005432,0|0|0,1:0|1:0|1:0,0:0:0:0:
494,306,120261,1,0,1:0:0:0:
494,306,120355,2,0,L|501:198,1,105.000004005432,0|0,1:0|1:0,0:0:0:0:
509,116,120730,2,0,P|449:104|387:108,1,105.000004005432,0|0,1:0|1:0,0:0:0:0:
325,129,121105,1,0,1:0:0:0:
325,129,121198,1,0,1:0:0:0:
325,129,121292,1,0,1:0:0:0:
245,169,121480,6,0,L|253:236,1,52.5000020027161,0|0,1:0|1:0,0:0:0:0:
156,144,121761,1,0,1:0:0:0:
156,144,121855,2,0,L|162:91,2,52.5000020027161,0|0|0,1:0|0:0|1:0,0:0:0:0:
76,193,122230,1,0,1:0:0:0:
123,267,122417,1,0,0:0:0:0:
60,330,122605,2,0,L|-2:320,2,52.5000020027161,0|0|0,1:0|1:0|1:0,0:0:0:0:
130,384,122980,5,2,1:2:0:0:
130,384,123073,2,0,L|192:374,1,52.5000020027161,2|0,1:2|1:0,0:0:0:0:
217,340,123261,2,0,L|279:330,1,52.5000020027161,2|0,1:2|1:0,0:0:0:0:
368,313,123542,1,2,1:2:0:0:
368,313,123636,1,2,1:2:0:0:
428,186,123917,1,0,1:0:0:0:
383,109,124105,2,8,L|386:67,4,26.2500010013581,8|8|8|8|0,0:0|0:0|0:0|0:0|1:0,0:0:0:0:
305,21,124480,6,2,P|215:35|274:98,1,210.000008010865,6|0,1:0|0:0,0:1:0:0:
383,296,125230,6,0,P|369:276|361:248,1,52.5000020027161,8|0,1:0|0:0,0:0:0:0:
225,357,125511,2,0,P|235:333|255:313,1,52.5000020027161,8|0,1:0|0:0,0:0:0:0:
93,249,125792,2,0,P|118:246|145:254,1,52.5000020027161,8|0,1:0|0:0,0:0:0:0:
120,81,126074,2,0,P|134:101|142:129,1,52.5000020027161,8|0,1:0|0:0,0:0:0:0:
279,20,126355,2,0,P|268:43|248:63,1,52.5000020027161,8|0,1:0|0:0,0:0:0:0:
411,127,126636,2,0,P|385:129|358:121,1,52.5000020027161,8|0,1:0|0:0,0:0:0:0:
256,192,126917,1,2,1:0:0:0:
256,192,127105,1,10,1:0:0:0:
178,144,127292,1,2,1:0:0:0:
256,192,127480,6,2,B|289:222|289:222|234:340|234:340|284:383,1,210.000008010865,6|0,1:0|0:0,1:0:0:0:
359,121,128230,6,0,P|384:128|411:127,1,52.5000020027161,8|0,1:0|0:0,0:0:0:0:
249,62,128511,2,0,P|267:43|279:20,1,52.5000020027161,8|0,1:0|0:0,0:0:0:0:
141,127,128792,2,0,P|134:102|120:81,1,52.5000020027161,8|0,1:0|0:0,0:0:0:0:
143,253,129074,2,0,P|118:246|93:249,1,52.5000020027161,8|0,1:0|0:0,0:0:0:0:
253,314,129355,2,0,P|235:332|225:357,1,52.5000020027161,8|0,1:0|0:0,0:0:0:0:
361,249,129636,2,0,P|368:274|383:296,1,52.5000020027161,8|0,1:0|0:0,0:0:0:0:
256,192,129917,1,8,1:0:0:0:
437,207,130292,1,0,1:0:0:0:
497,273,130480,6,0,P|478:324|468:376,1,105.000004005432,4|0,1:0|1:0,0:0:0:0:
380,374,130855,2,0,P|369:322|351:273,1,105.000004005432,0|0,1:0|1:0,0:0:0:0:
265,277,131230,2,0,P|246:328|236:380,1,105.000004005432,0|0,1:0|1:0,0:0:0:0:
148,378,131605,2,0,P|137:326|119:277,1,105.000004005432,0|0,1:0|1:0,0:0:0:0:
52,226,131980,5,2,1:2:0:0:
52,226,132167,1,2,1:2:0:0:
115,159,132355,1,2,1:2:0:0:
115,159,132542,1,2,1:2:0:0:
206,189,132730,1,2,1:2:0:0:
206,189,132917,1,2,1:2:0:0:
269,122,133105,1,2,1:2:0:0:
269,122,133292,1,2,1:2:0:0:
221,49,133480,6,0,L|235:-6,3,52.5000020027161,12|0|0|0,0:1|1:0|1:0|1:0,0:0:0:0:
169,50,133855,2,0,L|155:-5,3,52.5000020027161,8|0|0|0,0:1|1:0|1:0|1:0,0:0:0:0:
118,49,134230,5,8,0:1:0:0:
105,47,134323,1,0,1:0:0:0:
92,45,134417,1,0,1:0:0:0:
79,43,134511,1,0,1:0:0:0:
66,41,134605,2,0,L|58:89,8,26.2500010013581,8|0|8|0|8|0|8|0|2,1:0|0:0|1:0|0:0|1:0|0:0|1:0|0:0|1:2,0:0:0:0:
370,9,135355,6,0,L|378:63,2,46.6666666666667,2|2|2,1:2|1:2|1:2,0:0:0:0:
424,74,135730,2,0,L|416:128,2,46.6666666666667,2|2|2,1:0|1:0|1:0,0:0:0:0:
375,145,136105,1,10,1:0:0:0:
256,192,136480,5,4,1:0:0:0:
256,192,136573,12,2,140980,0:0:0:0:
389,90,148480,5,8,0:0:0:0:
386,227,148855,1,8,0:0:0:0:
383,364,149230,2,0,L|461:369,2,70,8|0|4,0:0|1:0|3:0,0:0:0:0:
320,297,149792,2,0,L|168:287,1,140,0|4,0:0|3:0,0:0:0:0:
22,384,150917,2,0,L|14:314,1,70,0|4,1:0|3:0,0:0:0:0:
0,174,151480,5,4,3:0:0:0:
104,29,151855,1,4,3:0:0:0:
289,90,152230,2,0,L|275:176,2,70,8|8|4,3:0|3:0|3:0,0:0:0:0:
308,10,152792,1,4,3:0:0:0:
259,239,153167,1,8,0:0:0:0:
505,46,153917,1,8,0:0:0:0:
505,46,154105,1,0,1:0:0:0:
479,200,154480,5,0,1:0:0:0:
256,192,154573,12,2,159355,0:0:0:0:
256,192,159730,5,4,1:0:0:0:
467,126,170230,6,0,L|454:311,1,168,4|2,1:0|0:0,0:0:0:0:
344,27,171355,2,0,L|357:212,1,168,2|2,0:0|0:0,0:0:0:0:
157,213,172667,1,2,0:0:0:0:
242,244,172855,6,0,P|248:302|241:369,1,112,2|2,0:0|0:0,0:0:0:0:
20,350,173605,2,0,L|92:356,1,56,2|2,0:0|0:0,0:0:0:0:
162,359,173980,1,2,0:0:0:0:
32,263,174355,2,0,L|76:259,2,28,2|2|2,0:0|0:0|0:0,0:0:0:0:
61,113,174917,2,0,L|16:109,2,28,2|2|2,0:0|0:0|0:0,0:0:0:0:
196,14,175480,6,0,P|181:87|179:156,1,140,2|2,1:2|0:0,0:0:0:0:
342,183,176230,1,2,0:0:0:0:
342,183,176417,1,2,0:0:0:0:
257,216,176605,1,2,0:0:0:0:
257,216,176792,1,2,0:0:0:0:
204,285,176980,6,0,L|200:370,1,70,0|0,1:0|0:0,0:0:0:0:
307,357,177355,2,0,L|310:287,1,70,0|0,1:0|0:0,0:0:0:0:
390,259,177730,1,0,1:0:0:0:
471,282,177917,1,0,1:0:0:0:
512,208,178105,6,0,P|510:135|490:61,1,140,0|0,1:0|1:0,0:0:0:0:
320,45,178855,1,0,1:0:0:0:
320,45,179042,1,0,0:0:0:0:
405,84,179230,2,0,L|402:140,3,35,2|2|2|2,0:0|0:0|0:0|0:0,0:0:0:0:
376,162,179605,6,0,P|312:152|252:111,1,125.999996154785,12|12,0:0|0:0,0:0:0:0:
205,240,180167,2,0,P|266:249|320:282,1,125.999996154785,12|12,0:0|0:0,0:0:0:0:
418,259,180730,6,0,L|429:350,2,83.9999974365235,6|0|0,1:0|1:2|1:0,0:0:0:0:
509,249,181292,1,0,1:2:0:0:
509,249,181480,1,2,1:0:0:0:
499,163,181667,2,0,L|488:79,1,83.9999974365235,2|0,1:0|1:0,0:0:0:0:
481,0,182042,1,2,1:0:0:0:
481,0,182230,1,2,1:0:0:0:
393,5,182417,2,0,P|347:13|304:32,1,83.9999974365235,2|0,1:0|1:0,0:0:0:0:
245,69,182792,1,0,1:2:0:0:
173,28,182980,2,0,P|134:12|92:5,1,83.9999974365235,2|0,1:0|1:2,0:0:0:0:
18,60,183355,6,0,L|30:158,3,83.9999974365235,2|0|0|0,1:0|1:2|1:0|1:2,0:0:0:0:
113,170,184105,1,2,1:0:0:0:
126,253,184292,2,0,L|138:351,1,83.9999974365235,2|0,1:0|1:0,0:0:0:0:
223,359,184667,1,2,1:0:0:0:
298,312,184855,1,2,1:0:0:0:
391,340,185042,2,0,L|380:256,1,83.9999974365235,2|0,1:0|1:0,0:0:0:0:
441,190,185417,1,0,1:2:0:0:
441,190,185605,2,0,L|430:106,1,83.9999974365235,2|0,1:0|1:2,0:0:0:0:
339,60,185980,6,0,L|283:66,3,41.9999987182618,2|0|2|0,1:0|1:0|1:0|1:0,0:0:0:0:
347,112,186355,2,0,L|388:107,3,41.9999987182618,0|0|2|0,1:0|1:0|1:0|1:0,0:0:0:0:
349,165,186730,2,0,L|293:171,3,41.9999987182618,0|0|2|0,1:0|1:0|1:0|1:0,0:0:0:0:
357,217,187105,2,0,L|398:212,3,41.9999987182618,0|0|2|0,1:0|1:0|1:0|1:0,0:0:0:0:
332,264,187480,1,2,1:0:0:0:
326,278,187573,1,0,1:0:0:0:
320,292,187667,1,2,1:0:0:0:
314,306,187761,1,0,1:0:0:0:
308,320,187855,2,0,L|239:323,3,41.9999987182618,0|0|0|0,1:0|1:0|1:0|1:0,0:0:0:0:
208,326,188230,1,2,1:0:0:0:
202,312,188323,1,0,1:0:0:0:
196,298,188417,2,0,L|199:236,1,41.9999987182618,0|0,1:0|1:0,0:0:0:0:
199,200,188605,6,0,L|161:198,6,20.9999993591309,2|0|0|0|2|0|0,1:0|1:0|1:0|1:0|1:0|1:0|1:0,1:0:0:0:
230,154,188980,2,0,L|250:155,6,20.9999993591309,0|0|0|0|2|0|0,1:0|1:0|1:0|1:0|1:0|1:0|1:0,1:0:0:0:
199,108,189355,2,0,L|178:106,6,20.9999993591309,0|0|0|0|2|0|0,1:0|1:0|1:0|1:0|1:0|1:0|1:0,1:0:0:0:
234,72,189730,1,2,1:0:0:0:
250,66,189823,1,0,1:0:0:0:
266,60,189917,1,2,1:0:0:0:
282,54,190011,1,0,1:0:0:0:
256,192,190480,5,2,0:1:0:0:
256,192,190855,1,6,0:1:0:0:
410,229,191230,6,0,P|412:280|402:338,1,97.9999970092774,4|2,1:0|0:0,0:0:0:0:
405,326,191511,1,2,0:0:0:0:
405,326,191605,2,0,L|346:322,1,48.9999985046387,2|2,1:2|0:2,0:0:0:0:
313,345,191792,2,0,L|264:348,1,48.9999985046387,2|2,0:2|0:2,0:0:0:0:
217,324,191980,1,2,1:2:0:0:
217,324,192073,1,2,0:2:0:0:
217,324,192167,2,0,L|157:319,2,48.9999985046387,2|2|2,0:2|0:2|1:2,0:0:0:0:
98,367,192542,1,2,0:2:0:0:
98,367,192636,1,0,0:0:0:0:
98,367,192730,5,2,1:2:0:0:
29,308,192917,2,0,L|28:272,3,32.6666656697591,2|0|0|2,0:2|0:0|0:0|1:2,0:0:0:0:
68,202,193292,1,2,0:2:0:0:
153,230,193480,1,2,1:2:0:0:
221,181,193667,1,2,0:2:0:0:
297,208,193855,5,2,1:0:0:0:
358,63,194230,2,0,L|372:119,1,48.9999985046387,2|2,1:2|0:2,0:0:0:0:
393,162,194417,1,2,0:2:0:0:
393,162,194511,1,2,0:2:0:0:
393,162,194605,1,2,1:2:0:0:
456,227,194792,1,2,0:0:0:0:
438,311,194980,1,2,1:2:0:0:
438,311,195073,1,2,0:2:0:0:
438,311,195167,2,0,L|386:326,1,48.9999985046387,2|2,0:2|0:2,0:0:0:0:
342,305,195355,6,0,B|231:290|268:364|146:344,2,195.999994018555,2|0|0,1:2|1:0|1:2,0:0:0:0:
438,311,196292,1,0,1:2:0:0:
359,263,196480,2,0,P|312:240|244:227,1,97.9999970092774,0|0,1:0|1:0,0:0:0:0:
267,229,196761,1,0,1:0:0:0:
267,229,196855,1,0,1:0:0:0:
188,261,197042,1,2,1:2:0:0:
188,261,197136,1,2,0:0:0:0:
188,261,197230,2,0,L|183:205,1,48.9999985046387,2|2,1:2|0:2,0:0:0:0:
178,162,197417,2,0,L|238:157,2,48.9999985046387,2|2|2,0:2|0:2|1:2,0:0:0:0:
97,218,197792,1,2,0:2:0:0:
97,218,197886,1,2,0:2:0:0:
97,218,197980,6,0,B|71:169|71:169|116:25,3,195.999994018555,2|2|2|2,1:0|1:0|1:0|1:0,0:0:0:0:
205,29,199292,2,2,L|192:85,3,32.6666656697591,2|2|2|2,0:0|0:0|0:0|1:2,0:0:0:0:
292,12,199667,5,2,0:2:0:0:
357,64,199855,1,2,1:2:0:0:
443,43,200042,1,2,0:0:0:0:
443,43,200136,1,0,0:0:0:0:
443,43,200230,1,2,1:2:0:0:
510,93,200417,1,2,0:0:0:0:
512,180,200605,6,0,P|504:241|483:294,1,97.9999970092774,0|0,1:0|1:0,0:0:0:0:
492,275,200886,1,0,1:0:0:0:
492,275,200980,1,8,0:0:0:0:
432,336,201167,1,0,1:0:0:0:
432,336,201261,1,0,1:0:0:0:
432,336,201355,1,8,0:0:0:0:
343,324,201542,2,0,L|346:290,2,32.6666656697591,8|8|8,0:0|0:0|0:0,0:0:0:0:
310,346,201730,6,2,P|274:360|106:360,1,195.999994018555,2|2,1:0|0:0,0:1:0:0:
118,363,202198,1,2,0:0:0:0:
118,363,202292,1,2,0:0:0:0:
86,290,202480,1,8,0:1:0:0:
120,212,202667,1,0,0:0:0:0:
92,132,202855,1,2,0:0:0:0:
92,132,202948,1,2,0:0:0:0:
92,132,203042,1,2,1:0:0:0:
107,47,203230,6,0,L|207:57,1,97.9999970092774,2|2,1:2|0:0,0:0:0:0:
204,56,203511,1,2,0:0:0:0:
204,56,203605,1,2,0:0:0:0:
269,133,203792,1,8,0:1:0:0:
248,218,203980,1,2,0:0:0:0:
248,218,204073,6,0,L|260:277,1,48.9999985046387,2|0,0:0|0:0,0:0:0:0:
304,338,204355,6,2,B|336:308|336:308|491:355,1,195.999994018555,2|2,1:0|0:0,0:1:0:0:
481,352,204823,1,2,0:0:0:0:
481,352,204917,1,2,0:0:0:0:
508,273,205105,1,8,0:1:0:0:
477,192,205292,1,2,0:0:0:0:
499,110,205480,1,2,0:0:0:0:
499,110,205573,1,2,0:0:0:0:
499,110,205667,1,2,1:0:0:0:
469,25,205855,6,0,L|346:39,1,97.9999970092774,2|2,1:2|0:0,0:0:0:0:
371,36,206136,1,2,0:0:0:0:
371,36,206230,1,2,0:0:0:0:
296,87,206417,2,2,B|326:118|326:118|290:232|290:232|330:273,1,195.999994018555,10|0,0:1|0:0,0:1:0:0:
395,210,206980,6,2,B|335:151|272:222|196:142,1,195.999994018555,6|2,1:2|0:0,0:1:0:0:
212,157,207448,1,2,0:0:0:0:
212,157,207542,1,2,0:0:0:0:
207,78,207730,1,8,0:1:0:0:
126,50,207917,1,2,0:0:0:0:
54,98,208105,1,2,0:0:0:0:
54,98,208198,1,2,0:0:0:0:
54,98,208292,2,0,L|58:204,1,97.9999970092774,2|2,1:0|0:0,0:0:0:0:
144,243,208667,2,0,L|142:194,2,48.9999985046387,2|2|2,0:0|0:0|0:0,0:0:0:0:
86,310,209042,1,10,0:0:0:0:
148,372,209230,1,2,0:0:0:0:
148,372,209323,2,0,L|286:367,1,97.9999970092774,2|0,0:0|0:0,0:0:0:0:
266,327,209605,6,0,L|264:277,3,48.9999985046387,4|0|0|0,1:0|1:0|1:0|1:0,0:0:0:0:
309,252,209980,2,0,L|311:202,3,48.9999985046387,0|0|0|0,1:0|1:0|1:0|1:0,0:0:0:0:
271,170,210355,2,0,L|269:120,3,48.9999985046387,0|0|0|0,1:0|1:0|1:0|1:0,0:0:0:0:
308,78,210730,1,0,1:0:0:0:
311,62,210823,1,0,1:0:0:0:
314,46,210917,1,0,1:0:0:0:
317,30,211011,1,0,1:0:0:0:
320,14,211105,6,0,B|361:43|361:43|479:27,1,146.999995513916,12|12,0:0|0:0,0:0:0:0:
512,139,211667,2,0,B|471:110|471:110|353:126,1,146.999995513916,12|12,0:0|0:0,0:0:0:0:
256,192,212230,5,0,1:0:0:0:
374,332,212605,2,0,L|366:238,1,83.9999974365235,2|2,1:2|0:2,0:0:0:0:
451,200,212980,2,0,L|463:367,1,167.999994873047,2|2,1:2|1:2,0:0:0:0:
463,367,213542,1,2,0:2:0:0:
374,332,213730,2,0,P|297:321|203:339,1,167.999994873047,2|2,1:0|1:0,0:0:0:0:
132,359,214292,1,2,0:0:0:0:
63,300,214480,2,0,L|55:211,1,83.9999974365235,2|2,1:0|0:0,0:0:0:0:
137,190,214855,2,0,L|129:101,1,83.9999974365235,2|2,1:0|0:0,0:0:0:0:
81,36,215230,6,2,P|163:6|277:34,1,195.999994018555,6|0,1:0|0:0,0:1:0:0:
140,287,215980,6,0,L|160:243,1,48.9999985046387,8|0,1:0|0:0,0:0:0:0:
286,342,216261,2,0,L|257:303,1,48.9999985046387,8|0,1:0|0:0,0:0:0:0:
405,243,216542,2,0,L|357:249,1,48.9999985046387,8|0,1:0|0:0,0:0:0:0:
379,89,216824,2,0,L|360:134,1,48.9999985046387,8|0,1:0|0:0,0:0:0:0:
233,35,217105,2,0,L|263:75,1,48.9999985046387,8|0,1:0|0:0,0:0:0:0:
114,134,217386,2,0,L|163:129,1,48.9999985046387,8|0,1:0|0:0,0:0:0:0:
256,192,217667,1,8,1:0:0:0:
256,192,217855,6,0,B|226:220|226:220|276:327|276:327|230:366,1,195.999994018555,2|6,0:0|1:0,0:0:0:0:
465,357,218605,2,0,P|469:314|464:265,1,83.9999974365235,0|2,1:0|1:2,0:0:0:0:
413,209,218980,2,0,P|408:166|413:117,1,83.9999974365235,2|2,1:2|1:2,0:0:0:0:
437,44,219355,1,2,1:2:0:0:
344,25,219542,2,0,P|287:27|231:50,2,83.9999974365235,2|2|0,1:2|1:2|1:0,0:0:0:0:
437,44,220105,1,2,1:2:0:0:
512,193,220480,5,10,0:0:0:0:
512,193,220573,2,0,L|504:280,1,83.9999974365235,8|10,0:0|0:0,0:0:0:0:
414,359,221042,2,8,L|417:325,2,20.9999993591309
394,306,221230,6,2,B|356:275|356:275|219:295,1,167.999994873047,6|0,1:0|0:0,0:2:0:0:
163,129,221980,6,0,L|114:134,1,48.9999985046387,8|0,1:0|0:0,0:0:0:0:
263,75,222261,2,0,L|233:35,1,48.9999985046387,8|0,1:0|0:0,0:0:0:0:
360,134,222542,2,0,L|379:89,1,48.9999985046387,8|0,1:0|0:0,0:0:0:0:
357,249,222824,2,0,L|405:243,1,48.9999985046387,8|0,1:0|0:0,0:0:0:0:
257,303,223105,2,0,L|286:342,1,48.9999985046387,8|0,1:0|0:0,0:0:0:0:
160,243,223386,2,0,L|140:287,1,48.9999985046387,8|0,1:0|0:0,0:0:0:0:
256,192,223667,1,8,1:0:0:0:
256,0,224042,1,0,1:0:0:0:
256,0,224230,5,4,1:0:0:0:
256,192,225730,12,2,228730,1:0:0:0:
451,25,230230,6,0,L|460:131,1,83.9999974365235,12|12,0:0|0:0,0:0:0:0:
463,199,230605,1,0,1:0:0:0:
463,199,230698,2,0,P|403:202|336:219,1,125.999996154785,12|12,0:0|0:0,0:0:0:0:
257,247,231167,1,8,0:0:0:0:
257,247,231261,1,12,0:0:0:0:
175,222,231448,1,12,0:0:0:0:
79,151,231730,6,0,P|87:222|71:297,2,125.999996154785,14|14|14,0:0|0:0|0:0,0:0:0:0:
10,0,232855,6,0,L|17:82,1,83.9999974365235,12|12,0:0|0:0,0:0:0:0:
106,66,233230,1,0,1:0:0:0:
106,66,233323,2,0,P|168:56|245:61,1,125.999996154785,12|12,0:0|0:0,0:0:0:0:
315,77,233792,1,12,0:0:0:0:
315,77,233886,1,12,0:0:0:0:
390,38,234073,1,12,0:0:0:0:
490,107,234355,6,0,L|478:256,2,125.999996154785,14|14|14,0:0|0:0|0:0,0:0:0:0:
361,362,235480,6,0,P|360:314|353:263,1,83.9999974365235,12|12,0:0|0:0,0:0:0:0:
306,208,235855,1,0,1:0:0:0:
306,208,235948,2,0,L|220:204,1,83.9999974365235,12|0,0:0|0:0,0:0:0:0:
223,204,236230,1,12,0:0:0:0:
146,261,236417,1,12,0:0:0:0:
146,261,236511,1,12,0:0:0:0:
66,245,236698,1,12,0:0:0:0:
2,338,236980,6,0,P|66:351|136:382,2,125.999996154785,12|12|12,0:0|0:0|0:0,0:0:0:0:
15,48,238105,5,14,0:0:0:0:
88,86,238292,1,14,0:0:0:0:
88,86,238386,1,14,0:0:0:0:
170,65,238573,2,0,P|218:60|260:64,1,83.9999974365235,14|0,0:0|0:0,0:0:0:0:
254,62,238855,1,14,0:0:0:0:
334,35,239042,1,14,0:0:0:0:
334,35,239136,1,14,0:0:0:0:
408,80,239323,1,14,0:0:0:0:
398,220,239605,5,14,0:0:0:0:
267,259,239886,5,14,0:0:0:0:
147,205,240167,5,14,0:0:0:0:
147,205,240355,2,2,P|156:285|160:378,1,167.999994873047,2|4,0:0|1:0,0:2:0:0:
256,192,240917,12,2,245980,0:0:0:0:
