osu file format v14

[General]
AudioFilename: audio.mp3
AudioLeadIn: 0
PreviewTime: 158980
Countdown: 0
SampleSet: Soft
StackLeniency: 0.7
Mode: 0
LetterboxInBreaks: 0
WidescreenStoryboard: 0

[Editor]
DistanceSpacing: 1.3
BeatDivisor: 4
GridSize: 32
TimelineZoom: 2.7

[Metadata]
Title:re:||BIRTH
TitleUnicode:re:||BIRTH
Artist:Camellia feat. Morinaga Mayumi
ArtistUnicode:かめりあ feat. 森永真由美
Creator:UberFazz
Version:ex:||TRA
Source:NOISZ
Tags:japanese english electronic rebirth re:birth re:||VERSE OST re:verse reverse moimoi senya cametek kamelcamellia featured artist
BeatmapID:3644812
BeatmapSetID:1779714

[Difficulty]
HPDrainRate:5
CircleSize:4
OverallDifficulty:8.5
ApproachRate:9.4
SliderMultiplier:1.8
SliderTickRate:1

[Events]
//Background and Video events
0,0,"long bg.jpg",0,0
//Break Periods
2,12179,21940
2,141180,147940
2,159930,169690
//Storyboard Layer 0 (Background)
//Storyboard Layer 1 (Fail)
//Storyboard Layer 2 (Pass)
//Storyboard Layer 3 (Foreground)
//Storyboard Layer 4 (Overlay)
//Storyboard Sound Samples

[TimingPoints]
1480,375,7,2,1,80,1,0
1480,-62.5,4,2,1,80,0,0
4105,-55.5555555555556,4,2,1,80,0,0
10855,-50,4,2,1,80,0,0
11605,-100,4,2,1,80,0,0
31855,-50,4,2,1,80,0,0
32980,375,4,2,1,80,1,0
32980,-100,4,2,1,80,0,0
38980,-71.4285714285714,4,2,1,80,0,0
43667,-55.5555555555556,4,2,1,80,0,0
44511,-111.111111111111,4,2,1,80,0,0
44980,-55.5555555555556,4,2,1,80,0,0
45167,-62.5,4,2,1,80,0,0
47980,-125,4,2,1,80,0,0
48730,-62.5,4,2,1,80,0,0
50230,-50,4,2,1,80,0,0
50980,-55.5555555555556,4,2,1,80,0,0
51167,-62.5,4,2,1,80,0,0
53980,-100,4,2,1,80,0,0
54730,-71.4285714285714,4,2,1,80,0,0
55105,-62.5,4,2,1,80,0,0
55480,-55.5555555555556,4,2,1,80,0,0
56230,-100,4,2,1,80,0,0
58480,-76.9230769230769,4,2,1,80,0,0
59042,-62.5,4,2,1,80,0,0
59230,-55.5555555555556,4,2,1,80,0,0
59605,-83.3333333333333,4,2,1,80,0,0
59980,-55.5555555555556,4,2,1,80,0,0
62980,-100,4,2,1,80,0,0
63730,-55.5555555555556,4,2,1,80,0,0
65230,-83.3333333333333,4,2,1,80,0,0
65698,-55.5555555555556,4,2,1,80,0,0
65980,-71.4285714285714,4,2,1,80,0,0
66355,-55.5555555555556,4,2,1,80,0,0
68980,-50,4,2,1,80,0,0
77980,-41.6666666666667,4,2,1,80,0,0
80605,-83.3333333333333,4,2,1,80,0,0
80980,375,7,2,1,80,1,0
86230,-71.4285714285714,4,2,1,80,0,0
91480,-50,4,2,1,80,0,0
96730,-62.5,4,2,1,80,0,0
101980,-50,4,2,1,80,0,0
107230,-62.5,4,2,1,80,0,0
112105,-125,4,2,1,80,0,0
112480,375,4,2,1,80,1,0
112480,-50,4,2,1,80,0,0
118480,-62.5,4,2,1,80,0,0
124480,-50,4,2,1,80,0,0
130480,-62.5,4,2,1,80,0,0
134980,-125,4,2,1,80,0,0
148480,-166.666666666667,4,2,1,60,0,0
154480,375,7,2,1,70,1,0
170230,-166.666666666667,4,2,1,70,0,0
172855,-125,4,2,1,70,0,0
179230,-83.3333333333333,4,2,1,80,0,0
179605,-62.5,4,2,1,80,0,0
180730,-100,4,2,1,80,0,0
185980,-62.5,4,2,1,80,0,0
191230,-55.5555555555556,4,2,1,90,0,1
200605,-50,4,2,1,90,0,1
206417,-45.4545454545455,4,2,1,90,0,1
206980,-50,4,2,1,90,0,1
209605,-55.5555555555556,4,2,1,80,0,0
211105,-50,4,2,1,80,0,0
212230,375,4,2,1,80,1,0
212230,-62.5,4,2,1,90,0,1
215230,-50,4,2,1,90,0,1
218230,-62.5,4,2,1,90,0,1
221230,-50,4,2,1,90,0,1
224230,-83.3333333333333,4,2,1,80,0,0
230230,375,7,2,1,80,1,0
230230,-62.5,4,2,1,80,0,0
235480,-55.5555555555556,4,2,1,80,0,0
239605,-50,4,2,1,80,0,0
240355,-100,4,2,1,80,0,0
240730,750,7,2,1,80,1,0
245980,-100,7,2,1,10,0,0

[Colours]
Combo1 : 133,252,245
Combo2 : 255,179,184
Combo3 : 247,157,233
Combo4 : 17,254,176

[HitObjects]
13,12,1480,6,0,L|19:98,1,72,12|0,0:0|0:0,0:0:0:0:
155,71,1667,2,0,L|138:155,1,72,12|0,0:0|0:0,0:0:0:0:
282,151,1855,1,0,1:0:0:0:
282,151,1948,2,0,L|244:228,1,72,12|0,0:0|0:0,0:0:0:0:
52,311,2230,6,0,L|57:230,1,72,12|0,0:0|0:0,0:0:0:0:
65,157,2417,1,8,0:0:0:0:
65,157,2511,2,0,L|70:238,1,72,12|0,0:0|0:0,0:0:0:0:
65,300,2698,2,0,L|70:219,1,72,12|0,0:0|0:0,0:0:0:0:
353,281,2980,6,0,P|283:273|204:288,1,144,14|0,0:0|0:0,0:0:0:0:
140,320,3261,2,0,P|209:327|288:312,1,144,14|0,0:0|0:0,0:0:0:0:
353,281,3542,1,14,0:0:0:0:
446,90,4105,6,0,B|465:126|465:126|452:175,1,80.9999975280763,12|0,0:0|0:0,0:0:0:0:
353,281,4292,2,0,B|333:244|333:244|346:195,1,80.9999975280763,12|0,0:0|0:0,0:0:0:0:
378,138,4480,1,0,1:0:0:0:
378,138,4573,2,0,P|295:116|195:120,1,161.999995056153,12|0,0:0|0:0,0:0:0:0:
227,196,4855,2,0,L|218:106,1,80.9999975280763,12|0,0:0|0:0,0:0:0:0:
294,8,5042,1,12,0:0:0:0:
294,8,5136,2,0,L|302:88,1,80.9999975280763,12|0,0:0|0:0,0:0:0:0:
378,138,5323,1,12,0:0:0:0:
227,196,5605,6,0,B|248:248|248:248|207:370,1,161.999995056153,14|0,0:0|0:0,0:0:0:0:
137,349,5886,2,0,B|116:297|116:297|157:175,1,161.999995056153,14|0,0:0|0:0,0:0:0:0:
53,352,6167,1,14,0:0:0:0:
7,20,6730,6,0,L|97:30,1,80.9999975280763,12|0,0:0|0:0,0:0:0:0:
159,66,6917,2,0,L|340:45,1,161.999995056153,12|0,0:0|1:0,0:0:0:0:
397,18,7198,2,0,L|235:35,1,161.999995056153,12|0,0:0|0:0,0:0:0:0:
407,97,7480,6,0,P|398:56|397:11,1,80.9999975280763,12|0,0:0|0:0,0:0:0:0:
302,141,7667,1,12,0:0:0:0:
313,154,7761,2,0,P|322:195|323:240,1,80.9999975280763,12|0,0:0|0:0,0:0:0:0:
430,256,7948,2,0,P|410:167|408:69,1,161.999995056153,12|0,0:0|0:0,0:0:0:0:
430,256,8230,6,0,B|416:300|416:300|291:325,1,161.999995056153,12|0,0:0|0:0,0:0:0:0:
195,300,8511,2,0,B|209:256|209:256|334:231,1,161.999995056153,12|0,0:0|0:0,0:0:0:0:
205,380,8792,2,0,L|194:299,1,80.9999975280763,12|0,0:0|0:0,0:0:0:0:
12,8,9355,6,0,L|19:94,1,80.9999975280763,14|0,0:0|0:0,0:0:0:0:
197,163,9542,1,14,0:0:0:0:
205,88,9636,2,0,L|212:2,1,80.9999975280763,14|0,0:0|0:0,0:0:0:0:
18,88,9823,2,0,B|-3:148|-3:148|23:246,1,161.999995056153,14|0,0:0|0:0,0:0:0:0:
114,40,10105,6,0,P|118:81|113:126,1,80.9999975280763,14|0,0:0|0:0,0:0:0:0:
95,196,10292,1,14,0:0:0:0:
182,243,10386,2,0,P|178:202|183:157,1,80.9999975280763,14|0,0:0|0:0,0:0:0:0:
22,243,10573,2,0,P|26:284|21:329,1,80.9999975280763,14|0,0:0|0:0,0:0:0:0:
289,333,10855,6,2,B|247:315|247:315|148:338|148:338|98:311,1,180,14|0,0:0|0:0,0:1:0:0:
265,235,11136,2,2,P|317:322|272:330,1,180,14|0,0:0|0:0,0:1:0:0:
270,145,11417,2,2,L|264:242,1,90,14|0,0:0|0:0,0:1:0:0:
468,196,11605,6,2,P|481:293|498:375,1,180,2|4,0:0|1:0,0:2:0:0:
481,16,22480,6,0,L|472:85,1,45,0|0,1:0|0:0,0:0:0:0:
395,50,22667,2,0,L|404:118,1,45,2|0,0:0|0:0,0:0:0:0:
323,108,22855,2,0,L|349:172,1,45,2|0,0:0|0:0,0:0:0:0:
340,149,23042,1,0,1:0:0:0:
472,263,23230,6,0,L|464:153,1,90,8|2,0:1|0:0,0:0:0:0:
465,173,23511,1,2,0:0:0:0:
465,173,23605,2,0,L|409:165,1,45,2|0,0:0|0:0,0:0:0:0:
420,166,23792,1,2,1:2:0:0:
375,327,23980,5,2,0:0:0:0:
366,306,24073,1,0,0:0:0:0:
364,284,24167,1,2,0:0:0:0:
370,262,24261,1,0,0:0:0:0:
383,243,24355,1,2,0:0:0:0:
445,288,24542,1,8,0:1:0:0:
302,369,24730,6,0,L|241:365,1,45,2|0,0:0|0:0,0:0:0:0:
254,357,24917,2,0,L|315:353,1,45,2|0,0:0|0:0,0:0:0:0:
298,354,25105,1,0,1:0:0:0:
180,316,25292,6,0,L|169:370,1,45,2|0,0:0|0:0,0:0:0:0:
171,271,25480,2,0,L|182:325,1,45,2|0,0:0|0:0,0:0:0:0:
179,226,25667,2,0,L|168:280,1,45,2|0,0:0|0:0,0:0:0:0:
85,359,25855,2,0,B|98:315|98:315|80:253,1,90,8|0,0:1|0:0,0:0:0:0:
85,272,26136,1,0,0:0:0:0:
85,272,26230,2,0,L|32:288,1,45
22,213,26417,5,0,1:0:0:0:
38,125,26605,1,2,0:0:0:0:
34,147,26698,1,0,0:0:0:0:
30,169,26792,1,2,0:0:0:0:
26,191,26886,1,0,0:0:0:0:
22,213,26980,2,0,L|71:225,1,45,2|0,0:0|0:0,0:0:0:0:
136,74,27167,2,0,P|132:119|120:181,2,90,8|0|2,0:1|0:0|0:0,0:0:0:0:
135,67,27636,1,2,0:0:0:0:
134,58,27730,6,0,L|246:54,1,90,2|0,1:2|0:0,0:0:0:0:
303,34,28105,1,2,0:0:0:0:
303,52,28198,1,0,0:0:0:0:
304,74,28292,1,2,0:0:0:0:
198,188,28480,2,0,P|215:122|220:45,1,135,8|0,0:1|0:0,0:0:0:0:
296,160,28855,1,2,0:0:0:0:
296,160,28948,1,2,0:0:0:0:
296,160,29042,2,0,P|279:226|274:303,1,135,2|0,1:2|0:0,0:0:0:0:
273,292,29417,2,0,L|323:299,1,45,2|0,0:0|0:0,0:0:0:0:
198,226,29605,2,0,L|242:220,1,45,2|0,0:0|0:0,0:0:0:0:
104,294,29792,6,0,L|194:305,1,90,8|0,0:1|0:0,0:0:0:0:
332,384,30167,1,2,0:0:0:0:
327,375,30261,1,2,0:0:0:0:
318,298,30355,5,6,1:0:0:0:
256,192,30448,12,2,31480,0:0:0:0:
401,382,31855,6,2,P|409:304|437:195,1,180,4|0,1:2|0:0,0:1:0:0:
392,97,32136,2,2,P|357:180|335:267,1,180,4|0,1:2|0:0,0:1:0:0:
234,354,32417,6,2,P|156:346|47:318,1,180,4|0,1:2|0:0,0:1:0:0:
177,262,32698,2,2,P|100:243|-3:200,1,180,4|0,1:2|0:0,0:1:0:0:
256,275,32980,5,4,1:0:0:0:
6,205,33261,1,8,0:0:0:0:
6,205,33355,1,0,1:0:0:0:
149,141,33542,1,8,0:0:0:0:
64,63,33730,6,0,L|69:152,1,90,0|0,1:0|0:0,0:0:0:0:
69,152,34011,1,8,0:0:0:0:
69,152,34105,2,0,L|18:159,3,45,0|8|8|8,1:0|0:0|0:0|0:0,0:0:0:0:
149,141,34480,5,0,1:0:0:0:
415,189,34761,1,8,0:0:0:0:
415,189,34855,1,0,1:0:0:0:
232,115,35042,2,0,L|236:159,1,45,8|0,0:0|0:0,0:0:0:0:
315,69,35230,2,0,L|327:203,1,135,0|8,1:0|0:0,0:0:0:0:
497,300,35698,1,8,0:0:0:0:
497,300,35792,1,8,0:0:0:0:
497,300,35886,1,8,0:0:0:0:
497,300,35980,6,0,B|517:260|517:260|507:159,2,135,0|8|8,1:0|0:0|0:0,0:0:0:0:
498,384,36730,1,0,1:0:0:0:
428,177,37011,1,8,0:0:0:0:
507,92,37198,1,8,0:0:0:0:
507,92,37292,1,8,0:0:0:0:
507,92,37386,1,8,0:0:0:0:
507,92,37480,6,0,P|461:91|396:101,1,90,0|0,1:0|0:0,0:0:0:0:
327,276,37855,2,0,L|330:244,3,30,2|2|2|2,0:0|0:0|0:0|0:0,0:0:0:0:
361,159,38230,2,0,P|315:160|250:150,1,90,0|0,1:0|0:0,0:0:0:0:
271,154,38511,2,0,P|248:153|215:158,1,45,8|0,0:0|0:0,0:0:0:0:
151,173,38698,1,8,0:0:0:0:
151,173,38792,1,8,0:0:0:0:
151,173,38886,1,8,0:0:0:0:
151,173,38980,6,0,L|141:260,1,62.9999980773926,4|0,1:0|0:0,0:0:0:0:
48,144,39167,2,0,L|58:231,1,62.9999980773926,0|0,1:0|0:0,0:0:0:0:
173,29,39355,2,0,L|163:116,1,62.9999980773926,0|0,1:0|0:0,0:0:0:0:
30,0,39542,2,0,L|40:87,1,62.9999980773926,0|0,1:0|0:0,0:0:0:0:
173,29,39730,6,0,L|255:19,1,62.9999980773926,0|0,1:0|0:0,0:0:0:0:
375,55,39917,2,0,L|312:62,1,62.9999980773926,0|0,1:0|0:0,0:0:0:0:
187,131,40105,2,0,L|269:121,1,62.9999980773926,0|0,1:0|0:0,0:0:0:0:
389,157,40292,2,0,L|326:164,1,62.9999980773926,0|0,1:0|0:0,0:0:0:0:
375,55,40480,6,0,L|437:62,7,62.9999980773926,0|0|0|0|0|0|0|0,1:0|1:0|1:0|1:0|1:0|1:0|1:0|1:0,0:0:0:0:
441,236,41230,2,0,L|378:243,7,62.9999980773926,0|0|0|0|0|0|0|0,1:0|1:0|1:0|1:0|1:0|1:0|1:0|1:0,0:0:0:0:
300,382,41980,5,8,0:1:0:0:
316,336,42073,1,0,1:0:0:0:
314,289,42167,1,0,1:0:0:0:
294,247,42261,1,0,1:0:0:0:
255,217,42355,1,8,0:1:0:0:
210,207,42448,1,0,1:0:0:0:
164,217,42542,1,0,1:0:0:0:
126,247,42636,1,0,1:0:0:0:
105,289,42730,5,8,0:1:0:0:
50,238,42823,1,0,1:0:0:0:
36,165,42917,1,0,1:0:0:0:
68,97,43011,1,0,1:0:0:0:
134,63,43105,2,8,L|150:114,8,31.4999990386963
382,22,43667,6,0,P|387:49|386:22,1,80.9999975280763,2|0,0:0|0:0,0:0:0:0:
235,51,43855,2,0,P|230:78|231:51,1,80.9999975280763,2|0,0:0|0:0,0:0:0:0:
373,132,44042,6,0,P|378:159|377:132,1,80.9999975280763,2|0,0:0|0:0,0:0:0:0:
264,160,44230,2,0,P|259:187|260:160,1,80.9999975280763,2|0,0:0|0:0,0:0:0:0:
332,240,44417,6,0,L|340:333,1,80.9999975280763,2|0,1:0|0:0,0:0:0:0:
339,347,44605,2,2,B|321:282|355:290|332:215,1,121.499996292114,10|0,0:1|0:0,0:1:0:0:
254,271,44980,6,0,B|210:248|210:248|179:293|179:293|143:273|143:273|117:297|117:297|86:294|33:308,1,242.999992584229,6|0,1:0|0:0,0:0:0:0:
91,378,45355,1,2,1:2:0:0:
170,372,45448,1,2,1:2:0:0:
249,366,45542,1,2,1:2:0:0:
55,224,45730,6,0,B|43:256|43:256|51:293,1,72,2|0,1:2|0:0,0:0:0:0:
213,86,45917,2,0,B|221:49|221:49|209:16,1,72,2|0,0:0|0:0,0:0:0:0:
141,236,46105,1,2,1:2:0:0:
135,157,46199,1,2,1:2:0:0:
129,78,46292,1,2,1:2:0:0:
282,187,46480,6,0,L|196:193,1,72,2|0,1:2|0:0,0:0:0:0:
366,257,46667,1,2,1:2:0:0:
361,247,46761,1,2,1:2:0:0:
356,237,46855,1,2,1:2:0:0:
362,158,46949,1,2,1:2:0:0:
368,79,47042,1,2,1:2:0:0:
492,2,47230,6,0,P|473:71|521:131,1,144,2|2,1:2|0:0,0:0:0:0:
512,126,47511,1,2,0:0:0:0:
484,168,47605,1,2,1:2:0:0:
511,210,47698,1,2,0:0:0:0:
477,251,47792,1,2,1:2:0:0:
511,289,47885,1,2,0:0:0:0:
512,368,47980,6,0,B|490:374|490:374|473:363|473:363|452:370|452:370|432:359|432:359|414:363|385:363,1,108,2|0,1:2|0:0,0:0:0:0:
245,351,48355,1,2,1:2:0:0:
324,357,48449,1,2,1:2:0:0:
245,351,48542,1,2,1:2:0:0:
24,369,48730,6,0,P|59:367|95:360,1,72,2|0,1:2|0:0,0:0:0:0:
157,174,48917,2,0,P|121:175|85:182,1,72,2|0,0:0|0:0,0:0:0:0:
54,273,49105,1,2,1:2:0:0:
133,267,49198,1,2,1:2:0:0:
54,273,49292,1,2,1:2:0:0:
78,107,49480,5,2,1:2:0:0:
97,32,49573,1,2,0:0:0:0:
144,42,49667,1,2,0:0:0:0:
130,96,49760,1,2,0:0:0:0:
178,95,49855,1,2,1:2:0:0:
188,52,49948,1,2,0:0:0:0:
220,64,50042,1,2,0:0:0:0:
212,98,50135,1,2,0:0:0:0:
262,95,50230,6,0,B|250:168|250:168|261:195|261:195|247:288,2,180,2|2|2,1:0|1:0|1:0,0:0:0:0:
483,12,50792,1,2,1:2:0:0:
512,83,50886,1,2,1:2:0:0:
493,159,50980,6,0,B|475:200|475:200|496:224|496:224|487:256|487:256|502:284|502:325,1,161.999995056153,6|2,1:2|1:2,0:0:0:0:
379,319,51261,1,2,1:2:0:0:
387,308,51355,1,2,1:2:0:0:
397,229,51449,1,2,1:2:0:0:
407,151,51542,1,2,1:2:0:0:
303,351,51730,6,0,B|293:315|293:315|310:269,1,72,2|0,1:2|0:0,0:0:0:0:
469,281,51917,2,0,B|479:317|479:317|462:363,1,72,2|0,0:0|0:0,0:0:0:0:
328,182,52105,1,2,1:2:0:0:
250,198,52199,1,2,1:2:0:0:
173,215,52292,1,2,1:2:0:0:
16,192,52480,6,0,L|-5:281,1,72,0|0,1:0|0:0,0:0:0:0:
77,336,52667,1,2,1:2:0:0:
73,325,52761,1,2,1:2:0:0:
70,314,52855,1,2,1:2:0:0:
90,237,52949,1,2,1:2:0:0:
109,161,53042,1,2,1:2:0:0:
11,10,53230,6,0,L|101:25,1,72,2|0,1:2|0:0,0:0:0:0:
142,74,53417,1,2,0:0:0:0:
218,61,53511,2,0,L|289:49,1,72,2|0,0:0|1:0,0:0:0:0:
347,0,53698,1,2,0:0:0:0:
423,13,53792,2,0,L|494:24,1,72,2|0,0:0|0:0,0:0:0:0:
499,186,53980,6,0,B|496:152|496:152|509:129|509:129|505:84,2,90,0|0|0,1:0|1:0|1:0,0:0:0:0:
494,264,54448,1,2,1:2:0:0:
488,344,54542,1,2,1:2:0:0:
368,254,54730,6,0,L|499:264,1,125.999996154785,0|0,1:0|0:0,0:0:0:0:
494,264,55011,1,2,1:2:0:0:
403,339,55105,2,0,P|366:342|315:331,1,72,2|0,1:2|0:0,0:0:0:0:
336,172,55292,2,0,P|373:169|424:180,1,72,2|0,1:2|0:0,0:0:0:0:
301,13,55480,6,0,L|339:189,1,161.999995056153,4|0,1:2|0:0,0:0:0:0:
135,51,55761,2,0,L|306:106,1,161.999995056153,4|0,1:2|0:0,0:0:0:0:
146,161,56042,2,0,L|212:100,1,80.9999975280763,4|0,1:2|0:0,0:0:0:0:
59,185,56230,6,0,L|62:133,3,45,8|8|8|8,3:0|3:0|3:0|3:0,0:0:0:0:
16,256,56605,1,4,3:0:0:0:
20,268,56698,1,4,3:0:0:0:
24,280,56792,1,4,3:0:0:0:
28,292,56886,1,4,3:0:0:0:
32,304,56980,5,4,1:2:0:0:
480,304,57355,2,2,L|443:310,8,22.5
254,384,57917,1,2,0:0:0:0:
251,371,58011,1,2,0:0:0:0:
263,343,58105,1,2,0:0:0:0:
266,330,58199,1,2,0:0:0:0:
249,306,58292,1,2,0:0:0:0:
246,293,58386,1,2,0:0:0:0:
270,210,58480,6,0,B|246:178|246:178|258:24,1,175.499991966248,4|0,1:0|0:0,0:0:0:0:
174,35,58855,6,0,P|173:50|176:38,1,58.4999973220826,2|0,0:0|0:0,0:0:0:0:
336,98,59042,2,0,P|337:120|332:102,1,72,2|0,0:0|0:0,0:0:0:0:
165,163,59230,2,0,P|163:183|167:167,1,80.9999975280763,2|0,0:0|0:0,0:0:0:0:
355,216,59417,5,0,1:0:0:0:
354,221,59480,5,0,1:0:0:0:
353,226,59542,5,0,1:0:0:0:
352,231,59605,6,0,L|363:353,1,107.999996704102,8|0,0:0|1:0,0:0:0:0:
482,384,59980,6,0,B|480:334|486:290|486:290|462:256|462:256|471:203|470:144,1,242.999992584229,6|0,1:0|0:0,0:0:0:0:
414,85,60355,1,2,1:2:0:0:
512,77,60448,1,2,1:2:0:0:
414,85,60542,1,2,1:2:0:0:
119,10,60730,6,0,B|106:44|106:44|115:105,1,80.9999975280763,8|0,0:1|0:0,0:0:0:0:
326,168,60917,2,0,B|339:134|339:134|330:73,1,80.9999975280763,2|0,0:0|0:0,0:0:0:0:
191,63,61105,1,2,1:2:0:0:
255,124,61198,1,2,1:2:0:0:
191,63,61292,1,2,1:2:0:0:
9,243,61480,5,2,1:2:0:0:
32,161,61573,1,2,0:2:0:0:
32,161,61667,1,2,0:2:0:0:
32,161,61760,1,2,0:2:0:0:
122,144,61855,5,2,1:2:0:0:
99,226,61948,1,2,0:2:0:0:
99,226,62042,1,2,0:2:0:0:
99,226,62135,1,2,0:2:0:0:
32,161,62230,6,0,P|31:121|40:66,1,80.9999975280763,8|0,0:1|0:0,0:0:0:0:
155,301,62417,2,0,P|156:340|147:395,1,80.9999975280763,2|0,0:0|0:0,0:0:0:0:
255,242,62605,5,2,0:0:0:0:
250,236,62667,5,2,0:0:0:0:
245,230,62730,5,2,0:0:0:0:
240,224,62792,6,0,L|176:229,2,53.9999983520508,2|2|2,0:0|0:0|0:0,0:0:0:0:
305,365,62980,6,0,B|282:359|261:347|261:347|238:367|238:367|216:358|216:358|181:391|120:383,1,180,6|2,1:2|0:0,0:0:0:0:
68,364,63448,1,2,1:2:0:0:
155,301,63542,1,2,1:2:0:0:
394,384,63730,6,0,B|382:318|382:318|405:297,1,80.9999975280763,8|0,0:1|0:0,0:0:0:0:
509,144,63917,2,0,B|521:210|521:210|498:231,1,80.9999975280763,2|0,0:0|0:0,0:0:0:0:
466,342,64105,1,2,1:2:0:0:
439,244,64198,1,2,1:2:0:0:
466,342,64292,1,2,1:2:0:0:
509,144,64480,6,0,B|465:142|465:142|432:108,1,80.9999975280763,0|0,1:0|0:0,0:0:0:0:
413,42,64667,1,2,1:2:0:0:
414,30,64761,1,2,1:2:0:0:
415,18,64855,1,2,1:2:0:0:
503,66,64948,1,2,1:2:0:0:
416,6,65042,1,2,1:2:0:0:
247,15,65230,6,2,B|227:60|251:114|251:114|244:123|244:123|279:170|256:245,1,215.999993408203,8|2,0:1|0:0,0:1:0:0:
262,220,65698,1,2,0:0:0:0:
108,205,65792,2,0,P|146:191|186:188,1,80.9999975280763,2|2,0:0|0:0,0:0:0:0:
317,60,65980,6,0,B|189:42|189:42|201:75|198:112,1,188.999994232178,2|0,1:0|0:0,0:0:0:0:
118,86,66355,1,2,1:2:0:0:
108,205,66448,1,2,1:2:0:0:
118,86,66542,1,2,1:2:0:0:
62,272,66730,6,0,B|87:300|87:300|88:343,1,80.9999975280763,8|0,0:1|0:0,0:0:0:0:
303,266,66917,2,0,B|277:294|277:294|276:337,1,80.9999975280763,2|0,0:0|0:0,0:0:0:0:
187,376,67105,1,2,1:2:0:0:
184,251,67198,1,2,1:2:0:0:
187,376,67292,1,2,1:2:0:0:
256,192,67480,12,2,68605,0:0:0:0:
28,33,68980,6,0,L|118:25,1,90,12|0,0:0|0:0,0:0:0:0:
117,25,69448,5,12,0:0:0:0:
143,109,69542,2,0,L|233:117,1,90,12|0,0:0|0:0,0:0:0:0:
260,35,69823,6,0,L|350:27,1,90,12|0,0:0|0:0,0:0:0:0:
389,103,70105,6,0,L|479:111,1,90,12|0,0:0|0:0,0:0:0:0:
485,191,70292,1,12,0:0:0:0:
479,273,70386,2,0,L|389:281,1,90,12|0,0:0|0:0,0:0:0:0:
339,205,70573,2,0,L|249:197,1,90,12|0,0:0|0:0,0:0:0:0:
218,300,70855,6,0,L|128:308,1,90,12|0,0:0|0:0,0:0:0:0:
91,190,71136,6,0,L|1:182,1,90,12|0,0:0|0:0,0:0:0:0:
219,312,71417,6,0,L|129:320,1,90,12|0,0:0|0:0,0:0:0:0:
484,33,71980,6,0,P|442:25|394:25,1,90,12|0,0:0|0:0,0:0:0:0:
394,24,72448,5,12,0:0:0:0:
372,120,72542,2,0,P|330:128|282:128,1,90,12|0,0:0|0:0,0:0:0:0:
252,35,72823,6,0,P|207:26|162:27,1,90,12|0,0:0|0:0,0:0:0:0:
121,120,73105,6,0,P|77:129|31:128,1,90,12|0,0:0|0:0,0:0:0:0:
24,214,73292,1,12,0:0:0:0:
30,303,73386,2,0,P|78:301|120:311,1,90,12|0,0:0|0:0,0:0:0:0:
188,195,73573,2,0,P|235:195|278:187,1,90,12|0,0:0|0:0,0:0:0:0:
301,326,73855,6,0,P|346:327|388:340,1,90,12|0,0:0|0:0,0:0:0:0:
422,167,74136,6,0,P|470:166|509:154,1,90,12|0,0:0|0:0,0:0:0:0:
295,342,74417,6,0,P|340:343|382:356,1,90,12|0,0:0|0:0,0:0:0:0:
28,33,74980,6,0,B|64:18|64:18|118:25,1,90,12|0,0:0|0:0,0:0:0:0:
114,24,75448,5,12,0:0:0:0:
147,153,75542,2,0,B|183:168|183:168|237:161,1,90,12|0,0:0|0:0,0:0:0:0:
260,35,75823,6,0,B|296:20|296:20|350:27,1,90,12|0,0:0|0:0,0:0:0:0:
395,138,76105,6,0,B|431:153|431:153|485:146,1,90,12|0,0:0|0:0,0:0:0:0:
503,243,76292,1,12,0:0:0:0:
491,338,76386,2,0,B|455:323|455:323|401:330,1,90,12|0,0:0|0:0,0:0:0:0:
313,145,76573,2,0,B|277:160|277:160|223:153,1,90,12|0,0:0|0:0,0:0:0:0:
211,326,76855,6,0,P|166:327|124:340,1,90,12|0,0:0|0:0,0:0:0:0:
90,167,77136,6,0,P|42:166|3:154,1,90,12|0,0:0|0:0,0:0:0:0:
217,342,77417,6,0,P|172:343|130:356,1,90,12|0,0:0|0:0,0:0:0:0:
98,44,77980,6,0,L|84:159,1,107.999996704102,14|0,0:0|0:0,0:0:0:0:
264,104,78448,5,14,0:0:0:0:
189,210,78542,2,0,P|179:156|176:102,1,107.999996704102,14|0,0:0|0:0,0:0:0:0:
329,43,78823,6,0,B|351:84|351:84|344:147,1,107.999996704102,14|0,0:0|0:0,0:0:0:0:
459,286,79105,6,0,L|341:275,1,107.999996704102,14|0,0:0|0:0,0:0:0:0:
277,210,79292,1,14,0:0:0:0:
344,145,79386,2,0,L|451:134,1,107.999996704102,14|0,0:0|0:0,0:0:0:0:
352,288,79573,2,0,L|459:298,1,107.999996704102,14|0,0:0|0:0,0:0:0:0:
105,275,79855,6,0,P|143:234|205:205,1,107.999996704102,14|0,0:0|0:0,0:0:0:0:
224,9,80136,6,0,B|254:37|254:37|265:111,1,107.999996704102,14|0,0:0|0:0,0:0:0:0:
453,147,80417,6,0,L|345:157,1,107.999996704102,2|0,1:0|0:0,0:0:0:0:
64,60,80605,2,0,B|160:22|163:140|271:100,1,215.999993408203,14|4,0:0|1:0,0:0:0:0:
442,374,81261,5,8,0:0:0:0:
223,355,81542,1,8,0:0:0:0:
94,377,81730,1,0,1:0:0:0:
139,262,81917,1,0,1:0:0:0:
136,250,82011,1,8,0:0:0:0:
54,159,82198,1,8,0:0:0:0:
56,174,82292,1,8,0:0:0:0:
58,189,82386,1,8,0:0:0:0:
60,204,82480,5,0,1:0:0:0:
204,195,82667,1,0,1:0:0:0:
207,183,82761,1,8,0:0:0:0:
462,178,83042,1,8,0:0:0:0:
371,221,83230,1,0,1:0:0:0:
368,208,83323,1,0,1:0:0:0:
365,195,83417,1,8,0:0:0:0:
362,182,83511,1,8,0:0:0:0:
359,169,83605,5,0,1:0:0:0:
256,192,83698,12,8,86042,0:0:0:0:
75,5,86230,6,0,L|68:95,1,62.9999980773926,2|0,1:2|0:0,0:0:0:0:
179,76,86417,2,0,L|186:166,1,62.9999980773926,2|0,1:2|0:0,0:0:0:0:
68,158,86605,2,0,L|61:248,1,62.9999980773926,2|0,1:2|0:0,0:0:0:0:
172,229,86792,2,0,L|179:319,1,62.9999980773926,2|0,1:2|0:0,0:0:0:0:
246,132,86980,6,0,L|164:140,1,62.9999980773926,2|0,1:2|0:0,0:0:0:0:
258,262,87167,2,0,L|340:270,1,62.9999980773926,2|0,1:2|0:0,0:0:0:0:
395,132,87355,2,0,L|313:140,1,62.9999980773926,2|0,1:2|0:0,0:0:0:0:
407,262,87542,2,0,L|489:270,1,62.9999980773926,2|0,1:2|0:0,0:0:0:0:
502,117,87730,6,0,L|494:179,3,62.9999980773926,2|2|2|2,1:2|0:0|1:2|0:0,0:0:0:0:
387,69,88105,2,0,L|394:131,3,62.9999980773926,2|2|2|2,1:2|0:0|1:2|0:0,0:0:0:0:
505,30,88480,2,0,L|497:92,3,62.9999980773926,2|2|2|2,1:2|0:0|1:2|0:0,0:0:0:0:
312,28,88855,5,2,1:0:0:0:
269,11,88948,1,0,1:0:0:0:
222,10,89042,1,0,1:0:0:0:
190,44,89136,5,2,1:0:0:0:
147,61,89229,1,0,1:0:0:0:
100,62,89323,1,0,1:0:0:0:
61,85,89417,5,2,1:0:0:0:
55,133,89511,1,0,1:0:0:0:
83,169,89605,5,2,1:0:0:0:
135,153,89698,1,0,1:0:0:0:
186,169,89792,1,0,1:0:0:0:
220,212,89886,1,0,1:0:0:0:
224,266,89980,1,0,1:0:0:0:
197,313,90073,1,0,1:0:0:0:
148,337,90167,1,0,1:0:0:0:
94,329,90261,1,0,1:0:0:0:
54,292,90355,5,4,1:0:0:0:
256,192,90448,12,10,91105,0:0:0:0:
460,54,91480,6,2,B|476:22|514:-4|514:-4|516:25|508:54|508:54|481:75|468:104|468:104|475:130|470:162|470:162|493:195|529:214|529:214|537:259|530:290|530:290|501:314|482:353|482:353|462:315|426:292|426:292|417:264|427:221,1,630,4|0,1:0|0:0,0:1:0:0:
260,69,92230,2,0,B|307:66|307:66|397:183,1,180,8|0,1:0|0:0,0:0:0:0:
152,236,92511,2,0,B|125:196|125:196|182:60,1,180,8|0,1:0|0:0,0:0:0:0:
350,246,92792,2,0,B|329:288|329:288|182:307,1,180,8|0,1:0|0:0,0:0:0:0:
261,46,93073,2,0,B|317:42|317:42|425:182,1,180,8|0,1:0|0:0,0:0:0:0:
131,246,93354,2,0,B|100:199|100:199|167:35,1,180,8|0,1:0|0:0,0:0:0:0:
369,258,93636,2,0,B|344:309|344:309|168:332,1,180,8|0,1:0|0:0,0:0:0:0:
259,141,93917,2,8,B|256:188|256:188|250:192|250:192|246:248,1,90,8|0,1:0|0:0,0:0:0:0:
9,384,94105,6,2,B|60:335|60:335|7:298|7:298|58:269|58:269|23:241|23:241|55:231|55:231|25:212|25:212|54:199|54:199|27:187|27:187|53:179|53:179|31:170|31:170|51:162|51:162|37:156|37:156|53:151|53:151|37:147|37:147|52:143|52:143|38:140|38:140|51:137|51:137|39:132|39:132|49:130|49:130|40:125|40:125|48:123|48:123|40:119|40:119|48:117|48:117|40:113|40:113|48:111|48:111|40:107|40:107|47:106|47:106|40:102|40:102|46:101|46:101|40:96|40:96|45:95|45:95,1,630,6|0,1:0|0:0,0:1:0:0:
290,23,94855,2,0,L|110:72,1,180,8|0,1:0|0:0,0:0:0:0:
421,136,95136,2,0,L|288:4,1,180,8|0,1:0|0:0,0:0:0:0:
388,305,95417,2,0,L|435:124,1,180,8|0,1:0|0:0,0:0:0:0:
224,361,95699,2,0,L|403:311,1,180,8|0,1:0|0:0,0:0:0:0:
94,248,95980,2,0,L|226:379,1,180,8|0,1:0|0:0,0:0:0:0:
126,78,96261,2,0,L|78:258,1,180,8|0,1:0|0:0,0:0:0:0:
281,137,96542,2,0,L|256:240,1,90,8|0,1:0|0:0,0:0:0:0:
483,363,96730,6,0,P|483:290|502:205,1,144,4|0,1:0|1:0,0:0:0:0:
497,220,97011,1,0,1:0:0:0:
497,220,97105,2,0,L|418:213,1,72,0|0,1:0|1:0,0:0:0:0:
395,290,97292,1,0,1:0:0:0:
395,290,97386,1,0,1:0:0:0:
395,290,97480,1,0,1:0:0:0:
506,135,97667,5,0,1:0:0:0:
508,121,97761,1,0,1:0:0:0:
509,109,97855,1,0,1:0:0:0:
511,97,97948,1,0,1:0:0:0:
512,85,98042,2,0,L|506:12,1,72,0|0,1:0|1:0,0:0:0:0:
425,213,98230,1,0,1:0:0:0:
353,72,98417,5,0,1:0:0:0:
353,72,98511,1,0,1:0:0:0:
353,72,98605,2,0,L|432:76,1,72,0|0,1:0|1:0,0:0:0:0:
353,216,98792,2,0,L|424:212,1,72,0|0,1:0|1:0,0:0:0:0:
317,143,98980,1,0,1:0:0:0:
301,143,99073,1,0,1:0:0:0:
285,143,99167,1,0,1:0:0:0:
269,143,99261,1,0,1:0:0:0:
253,143,99355,5,0,1:0:0:0:
4,158,99636,1,0,1:0:0:0:
22,154,99730,2,0,L|29:77,1,72,0|0,1:0|1:0,0:0:0:0:
112,226,99917,2,0,L|138:153,1,72,0|0,1:0|1:0,0:0:0:0:
180,319,100105,2,0,L|224:255,1,72,0|0,1:0|1:0,0:0:0:0:
23,240,100292,5,0,1:0:0:0:
25,257,100386,1,0,1:0:0:0:
27,274,100480,1,0,1:0:0:0:
29,291,100573,1,0,1:0:0:0:
21,331,100667,5,2,1:2:0:0:
31,323,100761,2,0,P|68:310|106:304,1,72,2|0,1:2|1:0,0:0:0:0:
251,324,100948,2,0,P|214:311|176:305,1,72,2|0,1:2|1:0,0:0:0:0:
338,311,101136,1,2,1:2:0:0:
342,315,101230,2,0,L|321:390,3,72,0|0|0|0,1:0|1:0|1:0|1:0,0:0:0:0:
493,314,101605,2,0,L|514:389,3,72,0|0|0|0,1:0|1:0|1:0|1:0,0:0:0:0:
418,273,101980,6,2,B|495:162|456:28|456:28|431:133|350:204|350:204|372:134|369:36,1,630,6|0,1:0|0:0,0:1:0:0:
244,78,102730,2,0,P|320:120|350:211,1,180,8|0,1:0|0:0,0:0:0:0:
108,242,103011,2,0,P|106:155|170:83,1,180,8|0,1:0|0:0,0:0:0:0:
318,277,103292,2,0,P|243:321|149:302,1,180,8|0,1:0|0:0,0:0:0:0:
260,53,103573,2,0,P|346:111|373:223,1,180,8|0,1:0|0:0,0:0:0:0:
80,235,103854,2,0,P|87:131|171:52,1,180,8|0,1:0|0:0,0:0:0:0:
327,299,104135,2,0,P|234:345|124:311,1,180,8|0,1:0|0:0,0:0:0:0:
212,196,104417,2,0,P|238:178|214:198,1,90,8|0,1:0|0:0,0:0:0:0:
0,74,104605,6,2,B|-24:128|-24:128|18:365|18:365|94:379|94:379|51:136|51:136|61:117,1,630,6|0,1:0|0:0,1:0:0:0:
276,39,105355,2,0,B|259:83|259:83|109:114,1,180,8|0,1:0|0:0,0:0:0:0:
413,117,105636,2,0,B|366:124|366:124|264:9,1,180,8|0,1:0|0:0,0:0:0:0:
413,274,105917,2,0,B|383:237|383:237|431:91,1,180,8|0,1:0|0:0,0:0:0:0:
276,353,106199,2,0,B|293:308|293:308|443:278,1,180,8|0,1:0|0:0,0:0:0:0:
140,275,106480,2,0,B|186:267|186:267|288:382,1,180,8|0,1:0|0:0,0:0:0:0:
139,118,106761,2,0,B|168:154|168:154|120:300,1,180,8|0,1:0|0:0,0:0:0:0:
292,149,107042,2,0,L|264:240,1,90,8|0,1:0|0:0,0:0:0:0:
490,5,107230,6,0,P|486:75|514:159,1,144,4|0,1:0|1:0,0:0:0:0:
506,145,107511,1,0,1:0:0:0:
506,145,107605,2,0,L|495:237,1,72,0|0,1:0|1:0,0:0:0:0:
480,297,107792,1,0,1:0:0:0:
486,304,107886,1,0,1:0:0:0:
492,311,107980,1,0,1:0:0:0:
402,384,108167,1,0,1:0:0:0:
400,360,108260,1,0,1:0:0:0:
398,336,108354,1,0,1:0:0:0:
396,312,108448,1,0,1:0:0:0:
394,288,108542,1,0,1:0:0:0:
391,264,108635,1,0,1:0:0:0:
389,240,108729,5,0,1:0:0:0:
431,77,108917,1,0,1:0:0:0:
427,94,109011,1,0,1:0:0:0:
423,111,109105,2,0,L|338:116,1,72,0|0,1:0|1:0,0:0:0:0:
290,56,109292,2,0,L|218:51,1,72,0|0,1:0|1:0,0:0:0:0:
153,100,109480,1,0,1:0:0:0:
321,193,109667,1,0,1:0:0:0:
312,180,109761,1,0,1:0:0:0:
246,224,109855,5,6,1:0:0:0:
256,192,109948,12,8,111355,3:0:0:0:
76,149,111542,5,8,3:0:0:0:
73,162,111636,1,8,3:0:0:0:
70,175,111730,1,4,3:0:0:0:
156,262,111917,1,4,3:0:0:0:
153,249,112011,1,4,3:0:0:0:
150,236,112105,2,0,L|171:115,1,108,4|0,1:2|0:0,0:0:0:0:
363,33,112480,6,2,B|296:12|193:36|193:36|222:79|259:106|259:106|376:86|371:158|500:108|500:108|469:164|482:242,1,630,6|0,1:0|0:0,0:1:0:0:
259,306,113230,2,0,B|306:309|306:309|396:192,1,180,8|0,1:0|0:0,0:0:0:0:
137,142,113511,2,0,B|110:182|110:182|167:318,1,180,8|0,1:0|0:0,0:0:0:0:
362,105,113792,2,0,B|341:63|341:63|194:44,1,180,8|0,1:0|0:0,0:0:0:0:
260,336,114073,2,0,B|316:340|316:340|424:200,1,180,8|0,1:0|0:0,0:0:0:0:
98,118,114354,2,0,B|67:165|67:165|134:329,1,180,8|0,1:0|0:0,0:0:0:0:
392,76,114635,2,0,B|367:25|367:25|191:2,1,180,8|0,1:0|0:0,0:0:0:0:
258,234,114917,2,0,B|245:127,1,90,2|0,1:0|0:0,0:0:0:0:
0,180,115105,2,0,B|10:269,1,90,10|0,1:0|0:0,0:0:0:0:
114,119,115292,1,2,1:0:0:0:
114,292,115480,6,2,B|176:374|176:374|40:5|40:5|125:119,1,630,6|0,1:0|0:0,0:1:0:0:
293,379,116230,2,0,L|93:325,1,180,8|0,1:0|0:0,0:0:0:0:
439,254,116511,2,0,L|291:400,1,180,8|0,1:0|0:0,0:0:0:0:
402,66,116792,2,0,L|454:267,1,180,8|0,1:0|0:0,0:0:0:0:
220,4,117074,2,0,L|419:59,1,180,8|0,1:0|0:0,0:0:0:0:
75,129,117355,2,0,L|222:-15,1,180,8|0,1:0|0:0,0:0:0:0:
111,318,117636,2,0,L|58:118,1,180,8|0,1:0|0:0,0:0:0:0:
281,247,117917,2,0,L|256:144,1,90,8|0,1:0|1:0,0:0:0:0:
238,86,118105,1,0,1:0:0:0:
303,321,118292,1,0,1:0:0:0:
490,122,118480,6,0,L|476:278,1,144,4|0,1:0|1:0,0:0:0:0:
477,265,118761,1,0,1:0:0:0:
477,265,118855,1,0,1:0:0:0:
421,350,119042,1,0,1:0:0:0:
416,335,119136,1,0,1:0:0:0:
411,320,119230,1,0,1:0:0:0:
403,120,119511,1,0,1:0:0:0:
403,120,119605,2,0,L|394:213,1,72,0|0,1:0|1:0,0:0:0:0:
330,67,119792,2,0,L|297:154,1,72,0|0,1:0|1:0,0:0:0:0:
265,6,119980,6,0,L|210:82,1,72,0|0,1:0|1:0,0:0:0:0:
9,21,120261,1,0,1:0:0:0:
9,21,120355,2,0,P|23:58|31:106,1,72,0|0,1:0|1:0,0:0:0:0:
150,197,120542,2,0,P|157:161|170:128,1,72,0|0,1:0|1:0,0:0:0:0:
69,167,120730,1,0,1:0:0:0:
37,312,120917,1,0,1:0:0:0:
37,312,121011,1,0,1:0:0:0:
37,312,121105,2,0,L|32:228,1,72,0|0,1:0|1:0,0:0:0:0:
143,363,121292,1,0,1:0:0:0:
143,363,121386,1,0,1:0:0:0:
143,363,121480,6,0,L|148:279,1,72,0|0,1:0|1:0,0:0:0:0:
222,248,121667,1,0,1:0:0:0:
222,248,121761,1,0,1:0:0:0:
222,248,121855,1,0,1:0:0:0:
353,205,122042,2,0,L|348:289,1,72,0|0,1:0|1:0,0:0:0:0:
274,320,122229,1,0,1:0:0:0:
510,384,122511,1,0,1:0:0:0:
510,384,122605,2,0,L|505:312,1,72,0|0,1:0|1:0,0:0:0:0:
435,272,122792,1,0,1:0:0:0:
512,137,122980,5,2,1:2:0:0:
502,148,123073,2,0,B|482:181|482:181|490:228,1,72,2|0,1:2|1:0,0:0:0:0:
366,108,123261,2,0,B|386:75|386:75|378:28,1,72,2|0,1:2|1:0,0:0:0:0:
183,107,123542,1,2,1:2:0:0:
173,119,123636,2,0,B|153:86|153:86|161:39,1,72,2|0,1:2|1:0,0:0:0:0:
265,5,123917,5,0,1:0:0:0:
267,35,124011,1,0,1:0:0:0:
269,65,124105,2,8,L|272:117,4,36,8|8|8|8|0,0:0|0:0|0:0|0:0|1:0,0:0:0:0:
2,52,124480,6,2,B|83:194|33:359|33:359|114:336|146:253|146:253|161:339|247:371,1,630,6|0,1:0|0:0,0:1:0:0:
342,127,125230,2,0,P|366:210|322:295,1,180,8|0,1:0|0:0,0:0:0:0:
124,136,125511,2,0,P|184:73|280:67,1,180,8|0,1:0|0:0,0:0:0:0:
242,338,125792,2,0,P|157:316|104:236,1,180,8|0,1:0|0:0,0:0:0:0:
381,122,126073,2,0,P|400:223|340:322,1,180,8|0,1:0|0:0,0:0:0:0:
93,115,126355,2,0,P|171:46|286:49,1,180,8|0,1:0|0:0,0:0:0:0:
230,383,126636,2,0,P|131:349|77:247,1,180,8|0,1:0|0:0,0:0:0:0:
235,187,126917,2,0,P|266:192|235:189,1,90,2|0,1:0|0:0,0:0:0:0:
512,156,127105,2,0,P|480:161|512:158,1,90,10|0,1:0|0:0,0:0:0:0:
363,109,127292,1,2,1:0:0:0:
408,383,127480,6,2,B|496:169|365:34|365:34|317:185|414:297,1,630,6|0,1:0|0:0,1:0:0:0:
251,366,128230,2,0,B|270:317|270:317|437:282,1,180,8|0,1:0|0:0,0:0:0:0:
97,279,128511,2,0,B|150:271|150:271|264:400,1,180,8|0,1:0|0:0,0:0:0:0:
97,103,128792,2,0,B|131:145|131:145|77:308,1,180,8|0,1:0|0:0,0:0:0:0:
251,15,129074,2,0,B|232:65|232:65|64:99,1,180,8|0,1:0|0:0,0:0:0:0:
403,102,129355,2,0,B|351:111|351:111|237:-16,1,180,8|0,1:0|0:0,0:0:0:0:
404,278,129636,2,0,B|371:237|371:237|425:74,1,180,8|0,1:0|0:0,0:0:0:0:
222,243,129917,2,0,L|258:153,1,90,8|0,1:0|1:0,0:0:0:0:
283,90,130105,1,0,1:0:0:0:
194,314,130292,1,0,1:0:0:0:
40,186,130480,5,4,1:0:0:0:
66,346,130667,1,0,1:0:0:0:
67,170,130855,5,0,1:0:0:0:
66,346,131042,1,0,1:0:0:0:
139,130,131230,5,0,1:0:0:0:
66,346,131417,1,0,1:0:0:0:
212,89,131605,5,0,1:0:0:0:
66,346,131792,1,0,1:0:0:0:
472,186,131980,6,0,L|453:268,1,72,2|0,1:2|0:0,0:0:0:0:
446,346,132167,2,0,L|465:264,1,72,2|0,1:2|0:0,0:0:0:0:
445,170,132355,6,0,L|443:263,1,72,2|0,1:2|0:0,0:0:0:0:
446,346,132542,2,0,L|447:274,1,72,2|0,1:2|0:0,0:0:0:0:
373,130,132730,6,0,L|405:226,1,72,2|0,1:2|0:0,0:0:0:0:
446,346,132917,2,0,L|422:277,1,72,2|0,1:2|0:0,0:0:0:0:
300,89,133105,6,0,L|349:173,1,72,2|0,1:2|0:0,0:0:0:0:
446,346,133292,2,0,L|409:283,1,72,2|0,1:2|0:0,0:0:0:0:
209,361,133480,5,12,0:1:0:0:
160,363,133573,1,0,1:0:0:0:
117,344,133667,1,0,1:0:0:0:
85,309,133761,1,0,1:0:0:0:
72,263,133855,1,8,0:1:0:0:
80,216,133948,1,0,1:0:0:0:
107,177,134042,1,0,1:0:0:0:
149,154,134136,1,0,1:0:0:0:
197,152,134230,5,8,0:1:0:0:
148,154,134323,1,0,1:0:0:0:
105,135,134417,1,0,1:0:0:0:
73,100,134511,1,0,1:0:0:0:
60,54,134605,5,8,1:0:0:0:
136,51,134698,1,8,1:0:0:0:
212,48,134792,1,8,1:0:0:0:
287,47,134886,1,8,1:0:0:0:
362,46,134980,6,0,L|350:108,2,48,2|2|2,1:2|1:2|1:2,0:0:0:0:
512,89,135355,2,0,L|502:41,2,48,2|2|2,1:2|1:2|1:2,0:0:0:0:
458,267,135730,5,2,1:0:0:0:
442,225,135855,1,2,1:0:0:0:
471,178,135980,1,2,1:0:0:0:
430,112,136105,5,10,1:0:0:0:
256,192,136480,5,4,1:0:0:0:
256,192,136573,12,2,140980,0:0:0:0:
17,141,148480,6,0,L|8:264,1,107.999996704102,8|8,0:0|0:0,0:0:0:0:
0,368,149230,5,8,0:0:0:0:
70,330,149417,1,0,1:0:0:0:
145,350,149605,1,4,3:0:0:0:
317,237,150167,1,4,3:0:0:0:
131,20,150917,1,0,1:0:0:0:
93,87,151105,1,4,3:0:0:0:
391,34,151480,5,4,3:0:0:0:
466,190,151855,1,4,3:0:0:0:
434,380,152230,1,8,3:0:0:0:
390,315,152417,1,8,3:0:0:0:
455,271,152605,1,4,3:0:0:0:
499,336,152792,1,4,3:0:0:0:
127,274,153167,1,8,0:0:0:0:
380,145,153917,1,8,0:0:0:0:
391,220,154105,6,0,L|278:234,1,107.999996704102,0|0,1:0|1:0,0:0:0:0:
256,192,154573,12,2,159355,0:0:0:0:
256,192,159730,5,4,1:0:0:0:
484,119,170230,6,0,L|465:284,1,161.999995056153,4|2,1:0|0:0,0:0:0:0:
365,38,171355,2,0,L|384:203,1,161.999995056153,2|2,0:0|0:0,0:0:0:0:
512,351,172480,1,2,0:0:0:0:
439,304,172667,1,2,0:0:0:0:
368,358,172855,6,0,L|205:338,1,144,2|2,0:0|0:0,0:0:0:0:
16,324,173605,1,2,0:0:0:0:
99,313,173792,1,2,0:0:0:0:
140,384,173980,1,2,0:0:0:0:
38,187,174355,1,2,0:0:0:0:
38,187,174448,1,2,0:0:0:0:
38,187,174542,1,2,0:0:0:0:
119,14,174917,1,2,0:0:0:0:
119,14,175010,1,2,0:0:0:0:
119,14,175105,2,0,L|196:19,1,72,2|0,0:0|0:0,0:0:0:0:
71,97,175480,6,0,L|231:107,1,144,2|2,1:2|0:0,0:0:0:0:
296,74,176230,1,2,0:0:0:0:
371,163,176417,1,2,0:0:0:0:
378,81,176605,1,2,0:0:0:0:
289,156,176792,1,2,0:0:0:0:
453,126,176980,6,0,L|460:221,1,72,0|0,1:0|0:0,0:0:0:0:
396,256,177355,2,0,L|389:351,1,72,0|0,1:0|0:0,0:0:0:0:
473,353,177730,1,0,1:0:0:0:
473,353,177917,1,0,1:0:0:0:
318,352,178105,2,0,P|249:356|167:371,1,144,0|0,1:0|1:0,0:0:0:0:
0,313,178855,6,0,L|7:395,1,72,0|0,1:0|0:0,0:0:0:0:
98,319,179230,2,0,L|93:372,3,53.9999983520508,2|2|2|2,0:0|0:0|0:0|0:0,0:0:0:0:
132,229,179605,6,0,P|126:153|103:69,1,144,12|0,0:0|0:0,0:0:0:0:
0,31,179886,2,0,P|28:96|46:166,1,144,12|0,0:0|0:0,0:0:0:0:
230,11,180167,6,0,P|165:61|95:92,1,144,12|0,0:0|0:0,0:0:0:0:
322,39,180448,2,0,P|264:97|198:137,1,144,12|0,0:0|0:0,0:0:0:0:
109,303,180730,5,6,1:0:0:0:
121,384,180917,1,0,1:0:0:0:
403,303,181105,5,0,1:0:0:0:
391,384,181292,1,0,1:0:0:0:
88,214,181480,5,2,1:0:0:0:
100,295,181667,2,0,L|111:383,1,90,2|0,1:0|1:0,0:0:0:0:
424,214,182042,5,2,1:0:0:0:
412,295,182230,1,2,1:0:0:0:
424,214,182417,2,0,L|435:125,1,90,2|0,1:0|1:0,0:0:0:0:
91,202,182792,5,0,1:0:0:0:
79,121,182979,2,0,L|67:32,1,90,2|0,1:0|1:0,0:0:0:0:
403,81,183355,5,2,1:0:0:0:
391,0,183542,1,0,1:0:0:0:
109,81,183730,5,0,1:0:0:0:
121,0,183917,1,0,1:0:0:0:
424,170,184105,5,2,1:0:0:0:
400,1,184292,2,0,L|412:89,1,90,2|0,1:0|1:0,0:0:0:0:
76,259,184667,5,2,1:0:0:0:
100,89,184855,1,2,1:0:0:0:
76,259,185042,2,0,L|88:170,1,90,2|0,1:0|1:0,0:0:0:0:
421,182,185417,5,0,1:0:0:0:
444,352,185604,2,0,L|433:263,1,90,2|0,1:0|1:0,0:0:0:0:
336,272,185980,5,2,1:0:0:0:
380,242,186073,1,0,1:0:0:0:
402,193,186167,1,2,1:0:0:0:
396,140,186261,1,0,1:0:0:0:
364,98,186355,1,0,1:0:0:0:
314,79,186448,1,0,1:0:0:0:
261,89,186542,1,2,1:0:0:0:
222,124,186636,1,0,1:0:0:0:
206,175,186730,5,0,1:0:0:0:
242,213,186824,1,0,1:0:0:0:
253,266,186918,1,2,1:0:0:0:
235,316,187012,1,0,1:0:0:0:
194,349,187105,1,0,1:0:0:0:
141,357,187199,1,0,1:0:0:0:
92,335,187293,1,2,1:0:0:0:
61,292,187387,1,0,1:0:0:0:
58,238,187480,5,2,1:0:0:0:
111,235,187573,1,0,1:0:0:0:
165,233,187667,1,2,1:0:0:0:
219,231,187761,1,0,1:0:0:0:
273,229,187855,1,0,1:0:0:0:
327,227,187948,1,0,1:0:0:0:
381,225,188042,1,0,1:0:0:0:
435,222,188136,1,0,1:0:0:0:
488,219,188230,5,2,1:0:0:0:
415,238,188323,1,0,1:0:0:0:
373,174,188417,1,0,1:0:0:0:
421,114,188511,1,0,1:0:0:0:
491,140,188605,6,0,L|495:82,6,36,2|0|0|0|2|0|0,1:0|1:0|1:0|1:0|1:0|1:0|1:0,1:0:0:0:
446,6,188980,2,0,L|448:41,6,36,0|0|0|0|2|0|0,1:0|1:0|1:0|1:0|1:0|1:0|1:0,1:0:0:0:
342,99,189355,6,0,L|344:63,1,36,0|0,1:0|1:0,1:0:0:0:
314,98,189448,2,0,L|316:62,1,36,0|0,1:0|1:0,1:0:0:0:
286,97,189542,2,0,L|288:61,1,36,0|0,1:0|1:0,1:0:0:0:
258,96,189636,2,0,L|260:60,1,36,0|0,1:0|1:0,1:0:0:0:
234,115,189730,6,0,L|236:151,1,36,0|0,1:0|1:0,1:0:0:0:
206,116,189823,2,0,L|208:152,1,36,0|0,1:0|1:0,1:0:0:0:
178,117,189917,2,0,L|180:153,1,36,0|0,1:0|1:0,1:0:0:0:
150,118,190011,2,0,L|152:154,1,36,0|0,1:0|1:0,1:0:0:0:
248,342,190480,6,0,L|263:39,1,288,2|6,0:1|0:1,0:0:0:0:
478,27,191230,6,0,P|474:109|503:217,1,161.999995056153,6|2,1:0|0:0,0:0:0:0:
499,198,191511,1,2,0:0:0:0:
508,274,191605,5,2,1:2:0:0:
473,342,191698,1,2,0:2:0:0:
403,368,191792,1,2,0:2:0:0:
356,354,191886,1,2,0:2:0:0:
335,319,191980,1,2,1:2:0:0:
330,288,192073,1,2,0:2:0:0:
339,263,192167,1,2,0:2:0:0:
349,249,192261,1,2,0:2:0:0:
358,239,192355,6,0,P|359:197|350:142,1,80.9999975280763,2|0,1:2|0:0,0:0:0:0:
276,30,192542,2,0,P|275:72|284:127,1,80.9999975280763,2|0,0:2|0:0,0:0:0:0:
174,285,192730,5,2,1:2:0:0:
221,167,192917,5,2,0:2:0:0:
230,176,192980,5,2,0:2:0:0:
239,185,193042,5,2,0:2:0:0:
248,194,193105,5,2,0:2:0:0:
253,365,193292,1,2,0:2:0:0:
31,384,193480,6,0,P|23:343|22:303,1,80.9999975280763,2|0,1:2|0:0,0:0:0:0:
133,116,193667,2,0,P|140:154|141:195,1,80.9999975280763,2|0,0:2|0:0,0:0:0:0:
85,256,193855,5,2,1:0:0:0:
42,58,194042,5,2,0:0:0:0:
45,43,194105,5,2,0:0:0:0:
50,29,194167,5,2,0:0:0:0:
54,16,194230,6,0,P|92:18|153:32,1,80.9999975280763,0|0,1:0|0:0,0:0:0:0:
222,48,194417,1,2,0:2:0:0:
265,64,194511,1,2,0:2:0:0:
296,78,194605,1,2,1:2:0:0:
403,0,194792,6,0,P|397:44|377:96,1,80.9999975280763,2|0,0:0|0:0,0:0:0:0:
312,256,194980,1,2,1:2:0:0:
298,244,195073,1,2,0:2:0:0:
287,218,195167,1,2,0:2:0:0:
296,171,195261,1,2,0:2:0:0:
344,147,195355,1,2,1:2:0:0:
404,293,195542,1,0,1:0:0:0:
404,293,195636,1,0,1:0:0:0:
404,293,195730,2,0,L|396:202,1,80.9999975280763,0|0,1:0|0:0,0:0:0:0:
387,83,195917,1,0,1:0:0:0:
486,319,196105,1,0,1:2:0:0:
465,353,196198,1,0,1:2:0:0:
432,375,196292,1,0,1:2:0:0:
392,381,196386,1,0,1:2:0:0:
354,368,196480,6,0,P|315:351|265:349,1,80.9999975280763,0|0,1:0|0:0,0:0:0:0:
290,259,196667,2,0,P|247:263|203:287,1,80.9999975280763,0|0,1:0|0:0,0:0:0:0:
180,196,196855,2,0,P|145:221|119:263,1,80.9999975280763,0|0,1:0|0:0,0:0:0:0:
164,363,197042,1,0,1:0:0:0:
34,291,197230,1,2,1:2:0:0:
20,257,197323,1,2,0:2:0:0:
21,211,197417,1,2,0:2:0:0:
41,163,197511,1,2,0:2:0:0:
82,125,197605,1,2,1:2:0:0:
153,109,197698,1,2,0:2:0:0:
229,116,197792,1,2,0:2:0:0:
302,148,197886,1,2,0:2:0:0:
360,210,197980,5,2,1:0:0:0:
385,382,198167,1,0,1:0:0:0:
385,382,198261,1,0,1:0:0:0:
385,382,198355,2,0,P|383:339|375:295,1,80.9999975280763,2|0,1:0|0:0,0:0:0:0:
425,162,198542,1,0,1:0:0:0:
425,162,198636,1,0,1:0:0:0:
425,162,198730,2,0,P|388:185|354:214,1,80.9999975280763,2|0,1:0|0:0,0:0:0:0:
215,238,198917,1,0,1:0:0:0:
215,238,199011,1,0,1:0:0:0:
215,238,199105,6,0,P|253:257|295:272,1,80.9999975280763,2|0,1:0|0:0,0:0:0:0:
470,238,199292,2,2,L|462:300,2,53.9999983520508
499,133,199480,1,2,1:2:0:0:
454,73,199573,1,2,0:2:0:0:
408,42,199667,1,2,0:2:0:0:
365,25,199761,1,2,0:2:0:0:
329,17,199855,1,2,1:2:0:0:
202,15,200042,5,2,0:0:0:0:
200,21,200105,5,2,0:0:0:0:
198,27,200167,5,2,0:0:0:0:
196,33,200230,6,0,L|210:126,1,80.9999975280763,2|0,1:2|0:0,0:0:0:0:
24,32,200417,2,0,L|10:125,1,80.9999975280763,2|0,0:0|0:0,0:0:0:0:
117,185,200605,6,0,B|141:93|81:87|114:-16,1,180,0|0,1:0|1:0,0:0:0:0:
107,7,200886,1,0,1:0:0:0:
208,113,200980,1,8,0:0:0:0:
79,332,201167,5,0,1:0:0:0:
49,247,201261,1,0,1:0:0:0:
117,185,201355,2,0,P|152:217|190:273,1,90,8|0,0:0|0:0,0:0:0:0:
202,379,201542,5,8,0:0:0:0:
206,361,201605,5,8,0:0:0:0:
210,343,201667,5,8,0:0:0:0:
214,325,201730,6,2,B|252:298|283:294|283:294|301:330|335:350|335:350|357:328|384:322|384:322|410:342|441:349,1,270,2|0,1:0|0:0,0:1:0:0:
483,186,202105,1,2,0:0:0:0:
454,267,202198,1,2,0:0:0:0:
483,186,202292,1,2,0:0:0:0:
401,20,202480,6,0,B|452:13|452:13|495:32,1,90,8|0,0:1|0:0,0:0:0:0:
391,190,202667,2,0,B|340:197|340:197|297:178,1,90
512,105,202855,1,2,0:0:0:0:
433,107,202948,1,2,0:0:0:0:
354,109,203042,1,2,1:0:0:0:
259,13,203230,6,0,L|266:114,1,90,2|0,1:2|0:0,0:0:0:0:
223,178,203417,1,2,0:0:0:0:
220,227,203511,1,2,0:0:0:0:
216,276,203605,2,0,L|209:377,1,90,2|0,0:0|0:0,0:0:0:0:
150,22,203792,2,0,L|157:123,1,90,8|0,0:1|0:0,0:0:0:0:
85,274,203980,1,2,0:0:0:0:
78,254,204073,2,0,P|104:215|148:184,2,90,2|0|0,0:0|0:0|0:0,0:0:0:0:
27,367,204355,6,2,B|49:340|77:324|77:324|47:253|29:151|29:151|61:161,1,270,2|0,1:0|0:0,0:1:0:0:
124,109,204730,1,2,0:0:0:0:
50,73,204823,1,2,0:0:0:0:
119,27,204917,1,2,0:0:0:0:
260,283,205105,6,0,P|215:270|155:270,1,90,8|0,0:1|0:0,0:0:0:0:
196,63,205292,2,0,P|241:76|301:76,1,90,2|0,0:0|0:0,0:0:0:0:
278,182,205480,1,2,0:0:0:0:
184,167,205573,1,2,0:0:0:0:
278,182,205667,1,2,1:0:0:0:
371,89,205855,6,0,B|355:130|355:130|370:185,1,90,2|0,1:2|0:0,0:0:0:0:
512,323,206042,1,2,0:0:0:0:
482,250,206136,1,2,0:0:0:0:
484,171,206230,2,0,B|499:129|499:129|484:74,1,90,2|0,0:0|0:0,0:0:0:0:
429,379,206417,2,2,B|512:323|512:323|416:285|416:285|482:249|482:249|426:214|426:214|484:171|484:171|438:146|438:146|470:128,1,495.000015106202,10|0,0:1|0:0,0:1:0:0:
421,28,206980,6,2,P|453:164|444:311,1,270,6|0,1:2|0:0,0:1:0:0:
355,332,207355,1,2,0:0:0:0:
277,327,207448,1,2,0:0:0:0:
199,322,207542,1,2,0:0:0:0:
1,286,207730,6,0,B|-14:331|-14:331|4:382,1,90,8|0,0:1|0:0,0:0:0:0:
248,253,207917,2,0,B|263:208|263:208|245:157,1,90,2|0,0:0|0:0,0:0:0:0:
23,207,208105,1,2,0:0:0:0:
83,265,208198,1,2,0:0:0:0:
104,185,208292,1,2,1:0:0:0:
1,17,208480,6,0,L|99:29,1,90,2|0,0:0|0:0,0:0:0:0:
154,84,208667,1,2,0:0:0:0:
203,81,208761,1,2,0:0:0:0:
252,78,208855,2,0,L|351:73,1,90,2|0,0:0|0:0,0:0:0:0:
501,21,209042,2,0,L|402:16,1,90,10|0,0:0|0:0,0:0:0:0:
400,140,209230,1,2,0:0:0:0:
404,188,209323,1,2,0:0:0:0:
408,236,209417,1,2,0:0:0:0:
255,381,209605,5,4,1:0:0:0:
260,376,209698,1,0,1:0:0:0:
263,368,209792,1,0,1:0:0:0:
267,360,209886,1,0,1:0:0:0:
272,349,209980,1,0,1:0:0:0:
275,337,210073,1,0,1:0:0:0:
277,316,210167,1,0,1:0:0:0:
273,293,210261,1,0,1:0:0:0:
266,263,210355,1,0,1:0:0:0:
251,226,210448,1,0,1:0:0:0:
238,181,210542,1,0,1:0:0:0:
240,130,210636,1,0,1:0:0:0:
257,79,210730,6,0,L|297:81,6,40.4999987640381,0|0|0|0|0|0|0,1:0|1:0|1:0|1:0|1:0|1:0|1:0,1:0:0:0:
112,24,211105,6,0,P|134:108|150:222,1,180,12|0,0:0|0:0,0:0:0:0:
68,300,211386,2,0,P|62:210|47:121,1,180,12|0,0:0|0:0,0:0:0:0:
148,200,211667,6,0,P|236:201|344:177,1,180,12|0,0:0|0:0,0:0:0:0:
201,285,211948,2,0,P|288:278|394:245,1,180,12|0,0:0|0:0,0:0:0:0:
408,179,212230,6,0,P|406:139|397:88,1,72,0|0,1:0|0:0,0:0:0:0:
469,46,212417,1,2,0:2:0:0:
469,46,212511,1,2,0:2:0:0:
469,46,212605,1,2,1:2:0:0:
499,226,212792,1,2,0:2:0:0:
491,275,212886,1,2,0:2:0:0:
466,318,212980,1,2,1:2:0:0:
434,346,213073,1,2,0:2:0:0:
401,362,213167,1,2,0:2:0:0:
372,366,213261,1,2,0:2:0:0:
339,364,213355,1,2,1:2:0:0:
317,358,213448,1,2,0:2:0:0:
302,351,213542,1,2,0:2:0:0:
196,223,213730,6,0,P|210:258|218:296,1,72,2|0,1:0|0:0,0:0:0:0:
264,79,213917,2,0,P|287:49|316:23,1,72,2|0,0:0|0:0,0:0:0:0:
105,92,214105,2,0,P|67:86|30:74,1,72,2|0,1:0|0:0,0:0:0:0:
187,134,214292,1,2,0:0:0:0:
187,134,214386,1,2,0:0:0:0:
187,134,214480,6,0,P|224:146|262:172,1,72,2|0,1:0|0:0,0:0:0:0:
421,133,214667,2,0,P|384:121|346:95,1,72,2|0,0:0|0:0,0:0:0:0:
190,105,214855,2,0,P|222:126|252:161,1,72,2|0,1:0|0:0,0:0:0:0:
416,164,215042,2,0,P|383:142|353:107,1,72,2|0,0:0|0:0,0:0:0:0:
312,11,215230,6,2,B|367:186|296:364|296:364|236:232|81:172,1,630,6|0,1:0|0:0,0:1:0:0:
170,127,215980,2,0,P|146:210|190:295,1,180,8|0,1:0|0:0,0:0:0:0:
383,146,216261,2,0,P|323:83|227:77,1,180,8|0,1:0|0:0,0:0:0:0:
259,320,216542,2,0,P|344:298|397:218,1,180,8|0,1:0|0:0,0:0:0:0:
142,120,216823,2,0,P|123:221|183:320,1,180,8|0,1:0|0:0,0:0:0:0:
397,122,217105,2,0,P|319:53|204:56,1,180,8|0,1:0|0:0,0:0:0:0:
268,341,217385,2,0,P|367:307|421:205,1,180,8|0,1:0|0:0,0:0:0:0:
277,187,217667,2,0,P|246:192|277:189,1,90,8|0,1:0|0:0,0:0:0:0:
152,289,217855,2,0,P|123:301|152:290,1,90,2|0,0:0|0:0,0:0:0:0:
79,384,218042,1,2,1:2:0:0:
0,208,218230,6,0,L|11:63,1,144,6|0,1:0|1:0,0:0:0:0:
10,64,218511,1,0,1:0:0:0:
10,64,218605,2,0,L|85:69,1,72,0|0,1:0|1:0,0:0:0:0:
83,157,218792,1,2,1:2:0:0:
83,157,218886,1,2,1:2:0:0:
83,157,218980,1,2,1:2:0:0:
159,32,219167,1,2,1:2:0:0:
171,22,219261,1,2,1:2:0:0:
190,11,219355,1,2,1:2:0:0:
217,3,219448,1,2,1:2:0:0:
257,0,219542,1,2,1:2:0:0:
306,6,219636,1,2,1:2:0:0:
354,26,219730,5,2,1:2:0:0:
468,193,219917,1,0,1:0:0:0:
468,193,220011,1,0,1:0:0:0:
468,193,220105,2,0,L|476:105,1,72,2|0,1:2|1:0,0:0:0:0:
354,26,220292,2,0,L|360:97,1,72,2|0,1:2|1:0,0:0:0:0:
368,204,220480,5,10,0:0:0:0:
363,190,220573,2,0,P|325:176|278:168,1,72,8|0,0:0|1:0,0:0:0:0:
216,300,220761,1,10,0:0:0:0:
221,286,220854,2,0,P|259:272|306:264,1,72,2|0,1:2|1:0,0:0:0:0:
324,379,221042,2,8,P|305:372|281:368,2,36
483,380,221230,6,2,B|514:94|514:94|449:44|449:44|419:314,1,630,6|0,1:0|0:0,0:2:0:0:
251,348,221980,2,0,B|268:304|268:304|418:273,1,180,8|0,1:0|0:0,0:0:0:0:
114,270,222261,2,0,B|161:263|161:263|263:378,1,180,8|0,1:0|0:0,0:0:0:0:
114,113,222542,2,0,B|144:150|144:150|96:296,1,180,8|0,1:0|0:0,0:0:0:0:
251,34,222824,2,0,B|234:79|234:79|84:109,1,180,8|0,1:0|0:0,0:0:0:0:
387,112,223105,2,0,B|341:120|341:120|239:5,1,180,8|0,1:0|0:0,0:0:0:0:
388,269,223386,2,0,B|359:233|359:233|407:87,1,180,8|0,1:0|0:0,0:0:0:0:
224,260,223667,2,0,L|258:174,1,90,8|0,1:0|1:0,0:0:0:0:
286,103,223855,1,0,1:0:0:0:
54,175,224042,1,0,1:0:0:0:
446,213,224230,5,4,1:0:0:0:
229,378,225730,2,0,L|226:317,3,53.9999983520508,0|0|0|0,1:0|1:0|1:0|1:0,0:0:0:0:
295,262,226105,2,0,L|298:201,3,53.9999983520508,0|0|0|0,1:0|1:0|1:0|1:0,0:0:0:0:
213,164,226480,2,0,L|210:103,3,53.9999983520508,0|0|0|0,1:0|1:0|1:0|1:0,0:0:0:0:
295,55,226855,2,0,L|298:-6,3,53.9999983520508,0|0|0|0,1:0|1:0|1:0|1:0,0:0:0:0:
448,37,227230,6,0,L|451:84,6,26.9999991760254,0|0|0|0|0|0|0,1:0|1:0|1:0|1:0|1:0|1:0|1:0,0:0:0:0:
387,148,227605,2,0,L|390:101,6,26.9999991760254,0|0|0|0|0|0|0,1:0|1:0|1:0|1:0|1:0|1:0|1:0,0:0:0:0:
460,212,227980,2,0,L|463:259,6,26.9999991760254,0|0|0|0|0|0|0,1:0|1:0|1:0|1:0|1:0|1:0|1:0,0:0:0:0:
405,314,228355,6,0,L|409:360,1,26.9999991760254,2|0,1:2|1:0,0:0:0:0:
385,316,228448,2,0,L|389:362,1,26.9999991760254,2|0,1:2|1:0,0:0:0:0:
365,318,228542,2,0,L|369:364,1,26.9999991760254,2|0,1:2|1:0,0:0:0:0:
345,320,228636,2,0,L|349:366,1,26.9999991760254,2|0,1:2|1:0,0:0:0:0:
318,304,228730,5,2,1:0:0:0:
256,192,228823,12,8,229855,0:0:0:0:
43,14,230230,6,0,L|32:98,1,72,12|0,0:0|0:0,0:0:0:0:
212,18,230417,2,0,L|223:102,1,72,12|0,0:0|0:0,0:0:0:0:
127,0,230605,1,0,1:0:0:0:
127,0,230698,2,0,B|150:82|100:80|132:160,1,144,12|0,0:0|0:0,0:0:0:0:
55,157,230980,2,0,P|97:144|132:141,1,72,12|0,0:0|0:0,0:0:0:0:
161,322,231167,1,8,0:0:0:0:
161,322,231261,2,0,P|119:335|84:338,1,72,12|0,0:0|0:0,0:0:0:0:
53,141,231448,2,0,P|95:128|130:125,1,72,12|0,0:0|0:0,0:0:0:0:
192,218,231730,6,0,P|119:225|28:253,1,144,14|0,0:0|0:0,0:0:0:0:
35,254,232011,2,0,P|108:247|199:219,1,144,14|0,0:0|0:0,0:0:0:0:
261,180,232292,1,14,0:0:0:0:
282,327,232855,6,0,P|269:287|265:246,1,72,12|0,0:0|0:0,0:0:0:0:
282,41,233042,2,0,P|295:81|299:122,1,72,12|0,0:0|0:0,0:0:0:0:
261,180,233230,1,0,1:0:0:0:
261,180,233323,2,0,P|336:204|401:258,1,144,12|0,0:0|0:0,0:0:0:0:
437,191,233605,2,0,P|409:215|385:246,1,72,12|0,0:0|0:0,0:0:0:0:
211,128,233792,1,12,0:0:0:0:
211,128,233886,2,0,P|239:152|263:183,1,72,12|0,0:0|0:0,0:0:0:0:
426,82,234073,2,0,P|398:106|374:137,1,72,12|0,0:0|0:0,0:0:0:0:
132,80,234355,6,0,B|117:116|117:116|145:243,1,144,14|0,0:0|0:0,0:0:0:0:
42,279,234636,2,0,B|57:243|57:243|29:116,1,144,14|0,0:0|0:0,0:0:0:0:
53,65,234917,1,14,0:0:0:0:
42,279,235480,6,0,P|81:280|131:297,1,80.9999975280763,12|0,0:0|0:0,0:0:0:0:
280,228,235667,1,12,0:0:0:0:
286,242,235761,2,0,P|247:243|197:260,1,80.9999975280763,0|0,0:0|1:0,0:0:0:0:
74,174,235948,6,0,P|119:182|217:276,1,161.999995056153,12|0,0:0|0:0,0:0:0:0:
115,372,236230,2,0,L|122:271,1,80.9999975280763,12|0,0:0|0:0,0:0:0:0:
174,85,236417,1,12,0:0:0:0:
166,100,236511,2,0,L|171:180,1,80.9999975280763,12|0,0:0|0:0,0:0:0:0:
253,368,236698,2,0,L|265:193,1,161.999995056153,12|0,0:0|0:0,0:0:0:0:
403,125,236980,6,0,P|337:174|253:209,1,161.999995056153,12|0,0:0|0:0,0:0:0:0:
488,284,237261,2,0,P|412:251|340:196,1,161.999995056153,12|0,0:0|0:0,0:0:0:0:
408,384,237542,1,12,0:0:0:0:
409,46,238105,6,0,B|416:84|416:84|401:130,1,80.9999975280763,14|0,0:0|0:0,0:0:0:0:
328,291,238292,1,14,0:0:0:0:
275,234,238386,2,0,B|268:196|268:196|283:150,1,80.9999975280763,14|0,0:0|0:0,0:0:0:0:
330,81,238573,2,0,B|279:65|279:65|155:104,1,161.999995056153,14|0,0:0|0:0,0:0:0:0:
179,178,238855,6,0,L|174:84,1,80.9999975280763,14|0,0:0|0:0,0:0:0:0:
153,329,239042,1,14,0:0:0:0:
183,258,239136,2,0,L|178:164,1,80.9999975280763,14|0,0:0|0:0,0:0:0:0:
0,185,239323,2,0,L|4:265,1,80.9999975280763,14|0,0:0|0:0,0:0:0:0:
126,27,239605,6,2,P|91:111|97:217,1,180,14|0,0:0|0:0,0:1:0:0:
63,321,239886,2,2,B|96:340|96:340|91:191,1,180,14|0,0:0|0:0,0:1:0:0:
4,95,240167,2,2,L|-1:192,1,90,14|0,0:0|0:0,0:1:0:0:
211,196,240355,6,2,P|216:297|233:379,1,180,2|4,0:0|1:0,0:2:0:0:
256,192,240917,12,2,245980,0:0:0:0:
