osu file format v14

[General]
AudioFilename: audio.mp3
AudioLeadIn: 0
PreviewTime: 211628
Countdown: 0
SampleSet: Soft
StackLeniency: 0.7
Mode: 0
LetterboxInBreaks: 0
WidescreenStoryboard: 1

[Editor]
Bookmarks: 29295,54895,80495,106095,131695,143695,157295,171745,171761,171770,171828,171845,171870,171895,171945,171961,171970,171995,172020,172028,172045,172095,172120,172145,172161,172195,172220,172228,172245,172320,172361,172370,172395,172428,172445,172470,172495,172545,172561,172570,172595,172620,172661,172695,172745,172770,172828,172845,172870,172920,172945,172961,172970,172995,173028,173045,173095,173120,173161,173170,173195,173245,182895,211695,212895,234095,259695,272495
DistanceSpacing: 3.1
BeatDivisor: 6
GridSize: 32
TimelineZoom: 1.919999

[Metadata]
Title:Night Fog
TitleUnicode:Night Fog
Artist:Camellia feat. Luschel
ArtistUnicode:かめりあ feat. Luschel
Creator:Mir
Version:yaspo's Insane
Source:
Tags:cametek spd gar megarex 27 speed garage swing chiga kowari yaspo pentori cubby cubbby electronic english instrumental 001
BeatmapID:2818329
BeatmapSetID:1242304

[Difficulty]
HPDrainRate:5
CircleSize:3.7
OverallDifficulty:7
ApproachRate:9
SliderMultiplier:2.2
SliderTickRate:1

[Events]
//Background and Video events
0,0,"night fog.jpg",0,0
//Break Periods
2,131895,143095
//Storyboard Layer 0 (Background)
//Storyboard Layer 1 (Fail)
//Storyboard Layer 2 (Pass)
//Storyboard Layer 3 (Foreground)
//Storyboard Layer 4 (Overlay)
//Storyboard Sound Samples

[TimingPoints]
22895,400,4,2,1,50,1,0
28695,-200,4,2,1,50,0,0
29295,-133.333333333333,4,2,1,50,0,0
30495,-111.111111111111,4,2,1,50,0,0
30895,-133.333333333333,4,2,1,50,0,0
36895,-111.111111111111,4,2,1,50,0,0
37295,-133.333333333333,4,2,1,50,0,0
42095,-111.111111111111,4,2,1,50,0,0
42628,-133.333333333333,4,2,1,50,0,0
43295,-90.9090909090908,4,2,1,50,0,0
43695,-133.333333333333,4,2,1,50,0,0
45295,-111.111111111111,4,2,1,50,0,0
45828,-133.333333333333,4,2,1,50,0,0
46895,-111.111111111111,4,2,1,50,0,0
47828,-133.333333333333,4,2,1,50,0,0
48695,-111.111111111111,4,2,1,50,0,0
49695,-90.9090909090908,4,2,1,50,0,0
50095,-133.333333333333,4,2,1,50,0,0
51895,-111.111111111111,4,2,1,50,0,0
52428,-133.333333333333,4,2,1,50,0,0
55295,-250,4,2,1,50,0,0
61695,-200,4,2,1,50,0,0
67695,-133.333333333333,4,2,1,65,0,0
70895,-117.647058823529,4,2,1,65,0,0
80428,-117.647058823529,4,2,1,5,0,0
80495,-100,4,2,2,75,0,0
81295,-83.3333333333333,4,2,2,75,0,0
81895,-100,4,2,2,75,0,0
82828,-83.3333333333333,4,2,2,75,0,0
83295,-71.4285714285714,4,2,2,75,0,0
83628,-71.4285714285714,4,2,2,5,0,0
83695,-100,4,2,2,75,0,0
84495,-83.3333333333333,4,2,2,75,0,0
85095,-100,4,2,2,75,0,0
85695,-83.3333333333333,4,2,2,75,0,0
85961,-83.3333333333333,4,2,2,5,0,0
86095,-83.3333333333333,4,2,2,75,0,0
86361,-83.3333333333333,4,2,2,5,0,0
86495,-66.6666666666667,4,2,2,75,0,0
86828,-66.6666666666667,4,2,2,5,0,0
86895,-100,4,2,2,75,0,0
87695,-83.3333333333333,4,2,2,75,0,0
88295,-100,4,2,2,75,0,0
89228,-83.3333333333333,4,2,2,75,0,0
89695,-71.4285714285714,4,2,2,75,0,0
90028,-71.4285714285714,4,2,2,5,0,0
90095,-100,4,2,2,75,0,0
90895,-83.3333333333333,4,2,2,75,0,0
91695,-125,4,2,2,75,0,0
93295,-100,4,2,2,75,0,0
93628,-100,4,2,2,75,0,0
93695,-100,4,2,2,75,0,0
94095,-83.3333333333333,4,2,2,75,0,0
94695,-100,4,2,2,75,0,0
95628,-83.3333333333333,4,2,2,75,0,0
96095,-71.4285714285714,4,2,2,75,0,0
96428,-71.4285714285714,4,2,2,5,0,0
96495,-100,4,2,2,75,0,0
97295,-83.3333333333333,4,2,2,75,0,0
97895,-100,4,2,2,75,0,0
98495,-83.3333333333333,4,2,2,75,0,0
98628,-83.3333333333333,4,2,2,75,0,0
98761,-83.3333333333333,4,2,2,5,0,0
98895,-83.3333333333333,4,2,2,75,0,0
99695,-100,4,2,2,75,0,0
100495,-83.3333333333333,4,2,2,75,0,0
101095,-100,4,2,2,75,0,0
102028,-83.3333333333333,4,2,2,75,0,0
102495,-71.4285714285714,4,2,2,75,0,0
102828,-71.4285714285714,4,2,2,5,0,0
102895,-100,4,2,2,75,0,0
106028,-100,4,2,2,75,0,0
106095,-71.4285714285714,4,2,2,75,0,0
106361,-71.4285714285714,4,2,2,5,0,0
106428,-71.4285714285714,4,2,2,75,0,0
106561,-71.4285714285714,4,2,2,5,0,0
106628,-71.4285714285714,4,2,2,75,0,0
106961,-71.4285714285714,4,2,2,5,0,0
107028,-71.4285714285714,4,2,2,75,0,0
107161,-71.4285714285714,4,2,2,5,0,0
107228,-71.4285714285714,4,2,2,75,0,0
107295,-166.666666666667,4,2,2,75,0,0
107695,-100,4,2,2,75,0,0
109295,-71.4285714285714,4,2,2,75,0,0
109561,-71.4285714285714,4,2,2,5,0,0
109628,-71.4285714285714,4,2,2,75,0,0
109761,-71.4285714285714,4,2,2,5,0,0
109828,-71.4285714285714,4,2,2,75,0,0
110161,-71.4285714285714,4,2,2,5,0,0
110228,-71.4285714285714,4,2,2,75,0,0
110361,-71.4285714285714,4,2,2,5,0,0
110428,-71.4285714285714,4,2,2,75,0,0
110895,-100,4,2,2,75,0,0
111295,-71.4285714285714,4,2,2,75,0,0
111561,-71.4285714285714,4,2,2,5,0,0
111695,-71.4285714285714,4,2,2,75,0,0
111961,-71.4285714285714,4,2,2,5,0,0
112095,-71.4285714285714,4,2,2,75,0,0
112361,-71.4285714285714,4,2,2,5,0,0
112495,-71.4285714285714,4,2,2,75,0,0
112761,-71.4285714285714,4,2,2,5,0,0
112828,-71.4285714285714,4,2,2,75,0,0
112961,-71.4285714285714,4,2,2,5,0,0
113028,-71.4285714285714,4,2,2,75,0,0
113361,-71.4285714285714,4,2,2,5,0,0
113428,-71.4285714285714,4,2,2,75,0,0
113561,-71.4285714285714,4,2,2,5,0,0
113628,-71.4285714285714,4,2,2,75,0,0
113695,-166.666666666667,4,2,2,75,0,0
114095,-100,4,2,2,75,0,0
115628,-83.3333333333333,4,2,2,75,0,0
116895,-71.4285714285714,4,2,2,75,0,0
117295,-83.3333333333333,4,2,2,75,0,0
118828,-166.666666666667,4,2,2,75,0,0
119228,-71.4285714285714,4,2,2,5,0,0
119295,-71.4285714285714,4,2,2,75,0,0
119761,-71.4285714285714,4,2,2,5,0,0
119828,-71.4285714285714,4,2,2,75,0,0
119961,-71.4285714285714,4,2,2,5,0,0
120028,-71.4285714285714,4,2,2,75,0,0
120095,-166.666666666667,4,2,2,75,0,0
120495,-100,4,2,2,75,0,0
122095,-71.4285714285714,4,2,2,75,0,0
122361,-71.4285714285714,4,2,2,5,0,0
122428,-71.4285714285714,4,2,2,75,0,0
122561,-71.4285714285714,4,2,2,5,0,0
122628,-71.4285714285714,4,2,2,75,0,0
122961,-71.4285714285714,4,2,2,5,0,0
123028,-71.4285714285714,4,2,2,75,0,0
123161,-71.4285714285714,4,2,2,5,0,0
123228,-71.4285714285714,4,2,2,75,0,0
123695,-100,4,2,2,75,0,0
124095,-71.4285714285714,4,2,2,75,0,0
124361,-71.4285714285714,4,2,2,5,0,0
124495,-71.4285714285714,4,2,2,75,0,0
124761,-71.4285714285714,4,2,2,5,0,0
124895,-71.4285714285714,4,2,2,75,0,0
125161,-71.4285714285714,4,2,2,5,0,0
125295,-100,4,2,2,75,0,0
126495,-166.666666666667,4,2,2,75,0,0
127095,-100,4,2,2,75,0,0
143695,-200,4,2,2,50,0,0
144495,-200,4,2,1,50,0,0
156695,-200,4,2,1,50,0,0
157295,-133.333333333333,4,2,1,50,0,0
158495,-111.111111111111,4,2,1,50,0,0
158895,-133.333333333333,4,2,1,50,0,0
164895,-111.111111111111,4,2,1,50,0,0
165295,-133.333333333333,4,2,1,50,0,0
170095,-200,4,2,1,50,0,0
170628,-133.333333333333,4,2,1,50,0,0
171295,-90.9090909090908,4,2,1,50,0,0
171695,-133.333333333333,4,2,1,50,0,0
173295,-111.111111111111,4,2,1,50,0,0
173828,-133.333333333333,4,2,1,50,0,0
174895,-111.111111111111,4,2,1,50,0,0
175828,-133.333333333333,4,2,1,50,0,0
176695,-111.111111111111,4,2,1,50,0,0
177695,-90.9090909090908,4,2,1,50,0,0
178095,-133.333333333333,4,2,1,50,0,0
179895,-111.111111111111,4,2,1,50,0,0
180428,-133.333333333333,4,2,1,50,0,0
183295,-250,4,2,1,50,0,0
189695,-200,4,2,1,50,0,0
195695,-133.333333333333,4,2,1,65,0,0
198895,-117.647058823529,4,2,1,65,0,0
202095,-117.647058823529,4,2,1,70,0,0
206895,-117.647058823529,4,2,1,40,0,0
208495,-100,4,2,1,70,0,0
209295,-83.3333333333333,4,2,1,70,0,0
209895,-100,4,2,1,70,0,0
210828,-83.3333333333333,4,2,1,70,0,0
211295,-142.857142857143,4,2,1,70,0,0
211695,-83.3333333333333,4,2,2,75,0,0
212495,-83.3333333333333,4,2,2,75,0,0
213095,-100,4,2,2,75,0,0
213695,-71.4285714285714,4,2,2,75,0,0
213961,-71.4285714285714,4,2,2,5,0,0
214095,-71.4285714285714,4,2,2,75,0,0
214361,-71.4285714285714,4,2,2,5,0,0
214495,-58.8235294117647,4,2,2,75,0,0
214828,-58.8235294117647,4,2,2,5,0,0
214895,-83.3333333333333,4,2,2,75,0,0
215695,-83.3333333333333,4,2,2,75,0,0
216095,-71.4285714285714,4,2,2,75,0,0
216695,-100,4,2,2,75,0,0
217228,-83.3333333333333,4,2,2,75,0,0
217695,-71.4285714285714,4,2,2,75,0,0
218028,-71.4285714285714,4,2,2,5,0,0
218095,-83.3333333333333,4,2,2,75,0,0
219695,-66.6666666666667,4,2,2,75,0,0
220895,-125,4,2,2,75,0,0
221295,-142.857142857143,4,2,2,75,0,0
221695,-83.3333333333333,4,2,2,75,0,0
222495,-71.4285714285714,4,2,2,75,0,0
223095,-100,4,2,2,75,0,0
223628,-83.3333333333333,4,2,2,75,0,0
224095,-71.4285714285714,4,2,2,75,0,0
224428,-71.4285714285714,4,2,2,5,0,0
224495,-83.3333333333333,4,2,2,75,0,0
225895,-100,4,2,2,75,0,0
226495,-71.4285714285714,4,2,2,75,0,0
226761,-71.4285714285714,4,2,2,5,0,0
226895,-71.4285714285714,4,2,2,75,0,0
227295,-58.8235294117647,4,2,2,75,0,0
227628,-58.8235294117647,4,2,2,5,0,0
227695,-83.3333333333333,4,2,2,75,0,0
229095,-100,4,2,2,75,0,0
230028,-83.3333333333333,4,2,2,75,0,0
230495,-71.4285714285714,4,2,2,75,0,0
230828,-71.4285714285714,4,2,2,5,0,0
230895,-100,4,2,2,75,0,0
234095,-71.4285714285714,4,2,2,75,0,0
234361,-71.4285714285714,4,2,2,5,0,0
234428,-71.4285714285714,4,2,2,75,0,0
234961,-71.4285714285714,4,2,2,5,0,0
235028,-71.4285714285714,4,2,2,75,0,0
235295,-166.666666666667,4,2,2,75,0,0
235695,-100,4,2,2,75,0,0
237295,-71.4285714285714,4,2,2,75,0,0
237561,-71.4285714285714,4,2,2,5,0,0
237628,-71.4285714285714,4,2,2,75,0,0
238161,-71.4285714285714,4,2,2,5,0,0
238228,-71.4285714285714,4,2,2,75,0,0
238895,-100,4,2,2,75,0,0
239295,-71.4285714285714,4,2,2,75,0,0
239561,-71.4285714285714,4,2,2,5,0,0
239695,-71.4285714285714,4,2,2,75,0,0
239961,-71.4285714285714,4,2,2,5,0,0
240095,-71.4285714285714,4,2,2,75,0,0
240361,-71.4285714285714,4,2,2,5,0,0
240495,-71.4285714285714,4,2,2,75,0,0
240761,-71.4285714285714,4,2,2,5,0,0
240828,-71.4285714285714,4,2,2,75,0,0
241361,-71.4285714285714,4,2,2,5,0,0
241428,-71.4285714285714,4,2,2,75,0,0
241695,-166.666666666667,4,2,2,75,0,0
242095,-100,4,2,2,75,0,0
243628,-83.3333333333333,4,2,2,75,0,0
244895,-71.4285714285714,4,2,2,75,0,0
245295,-66.6666666666667,4,2,2,75,0,0
246828,-166.666666666667,4,2,2,75,0,0
247228,-71.4285714285714,4,2,2,5,0,0
247295,-71.4285714285714,4,2,2,75,0,0
247761,-71.4285714285714,4,2,2,5,0,0
247828,-71.4285714285714,4,2,2,75,0,0
248095,-166.666666666667,4,2,2,75,0,0
248495,-100,4,2,2,75,0,0
250095,-71.4285714285714,4,2,2,75,0,0
250361,-71.4285714285714,4,2,2,5,0,0
250428,-71.4285714285714,4,2,2,75,0,0
250961,-71.4285714285714,4,2,2,5,0,0
251028,-71.4285714285714,4,2,2,75,0,0
251695,-100,4,2,2,75,0,0
252095,-66.6666666666667,4,2,2,75,0,0
252361,-66.6666666666667,4,2,2,5,0,0
252495,-66.6666666666667,4,2,2,75,0,0
252761,-66.6666666666667,4,2,2,5,0,0
252895,-66.6666666666667,4,2,2,75,0,0
253161,-66.6666666666667,4,2,2,5,0,0
253295,-100,4,2,2,75,0,0
254495,-166.666666666667,4,2,2,75,0,0
255095,-100,4,2,2,75,0,0
259695,-166.666666666667,4,2,1,40,0,0
262895,-125,4,2,1,40,0,0
263561,-166.666666666667,4,2,1,40,0,0
264895,-123.456790123457,4,2,1,40,0,0
265295,-135.135135135135,4,2,1,40,0,0
265695,-149.253731343284,4,2,1,40,0,0
266095,-166.666666666667,4,2,1,40,0,0
270228,-166.666666666667,4,2,1,30,0,0
270895,-166.666666666667,4,2,1,20,0,0
271295,-123.456790123457,4,2,1,20,0,0
271695,-135.135135135135,4,2,1,20,0,0
272095,-149.253731343284,4,2,1,20,0,0
272495,-166.666666666667,4,2,1,20,0,0
272628,-166.666666666667,4,2,1,5,0,0
272695,-166.666666666667,4,2,1,20,0,0

[Colours]
Combo1 : 233,129,155
Combo2 : 255,113,113
Combo3 : 255,128,64
Combo4 : 255,203,179

[HitObjects]
254,320,28695,6,0,P|239:291|233:261,2,55,2|2|0,0:2|0:2|0:0,0:0:0:0:
412,292,29295,6,0,P|381:297|362:320,1,55.0000020980836,2|0,3:2|0:0,0:2:0:0:
364,347,29495,2,0,P|402:342|445:294,1,82.5000031471254,0|8,0:0|0:2,0:0:0:0:
417,195,29828,2,0,P|466:206|501:245,2,82.5000031471254,0|0|0,0:0|0:2|3:2,0:0:0:0:
408,187,30295,1,0,3:2:0:0:
341,20,30495,6,0,B|312:54|309:80|309:80|318:159|318:159|313:200|290:224,1,197.99999395752,10|0,0:2|3:2,0:2:0:0:
406,98,31095,1,0,3:2:0:0:
406,98,31295,1,8,0:2:0:0:
184,191,31828,1,0,3:2:0:0:
184,191,31895,1,0,3:2:0:0:
19,46,32228,1,0,3:2:0:0:
177,44,32495,6,0,P|176:73|161:105,1,55.0000020980836,0|0,3:2|0:0,0:2:0:0:
123,103,32695,2,0,P|120:68|150:13,1,82.5000031471254,0|8,0:0|0:2,0:0:0:0:
289,24,33095,1,2,0:0:0:0:
289,24,33228,1,2,0:2:0:0:
257,143,33428,1,0,3:2:0:0:
257,143,33495,2,0,P|221:173|179:186,2,82.5000031471254,0|10|0,3:2|0:2|0:2,0:0:0:0:
294,333,34095,6,0,B|272:318|272:318|238:324,1,55.0000020980836,0|0,3:2|0:2,0:2:0:0:
225,344,34295,2,0,B|266:336|266:336|299:358,1,82.5000031471254,0|10,3:2|0:2,0:2:0:0:
506,277,34695,2,0,B|468:294|468:294|454:332,1,82.5000031471254,0|2,0:0|0:2,0:0:0:0:
353,239,35028,1,0,3:2:0:0:
353,239,35095,1,0,3:2:0:0:
131,315,35428,1,0,3:2:0:0:
33,115,35695,5,2,3:2:0:0:
59,272,35895,2,0,P|55:238|75:197,1,55.0000020980836
25,200,36095,2,0,P|32:236|64:276,1,82.5000031471254,8|0,0:2|0:2,0:0:0:0:
156,301,36428,1,0,0:2:0:0:
227,177,36628,1,0,3:2:0:0:
227,177,36695,1,0,3:2:0:0:
308,342,36895,6,0,B|293:278|293:278|301:244|320:197|320:197|311:133,1,197.99999395752,10|0,0:2|3:2,0:2:0:0:
512,343,37495,1,0,3:2:0:0:
512,343,37695,2,0,P|458:276|376:284,3,165.000006294251,10|2|2|2,0:2|0:0|0:0|3:2,0:0:0:0:
439,135,39095,6,0,P|442:101|422:60,1,55.0000020980836
473,63,39295,2,0,P|465:99|433:139,1,82.5000031471254,8|0,0:2|0:2,0:0:0:0:
354,208,39628,1,0,0:2:0:0:
245,54,39828,1,0,3:2:0:0:
245,54,39895,1,0,3:2:0:0:
356,114,40095,2,0,L|262:128,1,82.5000031471254,8|0,0:2|0:0,0:2:0:0:
128,153,40495,6,0,L|153:223,1,55.0000020980836,0|0,3:2|0:2,0:2:0:0:
146,204,40695,2,0,L|110:261,1,55.0000020980836,0|0,3:2|0:2,0:2:0:0:
38,255,40895,2,0,B|20:189|20:189|54:119,1,137.500005245209,10|0,0:2|0:2,0:0:0:0:
144,361,41428,1,0,3:2:0:0:
144,361,41495,1,2,3:2:0:0:
263,343,41828,1,2,3:2:0:0:
263,343,41895,1,0,2:0:0:0:
433,266,42095,6,0,P|404:291|392:318,1,65.9999979858399,2|0,3:2|0:0,0:2:0:0:
406,355,42295,2,0,P|447:322|468:275,1,98.9999969787599,0|8,0:0|0:2,0:0:0:0:
436,152,42628,2,0,P|403:111|393:61,2,82.5000031471254,0|0|0,0:0|0:2|3:2,0:0:0:0:
446,151,43095,1,0,3:2:0:0:
225,125,43295,6,0,B|298:132|337:212|337:212|310:253|302:312,1,242.000007385254,10|0,0:2|3:2,0:2:0:0:
323,58,43895,1,0,3:2:0:0:
323,58,44095,1,8,0:2:0:0:
145,264,44628,1,0,3:2:0:0:
145,264,44695,1,2,3:2:0:0:
158,36,45028,1,2,3:2:0:0:
100,141,45295,6,0,P|134:126|171:132,1,65.9999979858399,2|0,3:2|0:0,0:2:0:0:
182,159,45495,2,0,P|137:180|87:174,1,98.9999969787599,0|8,0:0|0:2,0:0:0:0:
0,248,45895,1,2,0:0:0:0:
0,248,46028,1,2,0:2:0:0:
126,357,46228,1,0,3:2:0:0:
126,357,46295,2,0,P|95:327|57:314,2,82.5000031471254,0|8|0,3:2|0:2|0:2,0:0:0:0:
290,283,46895,6,0,B|299:260|299:260|277:219,1,65.9999979858399,2|0,3:2|0:2,0:2:0:0:
266,148,47095,2,0,L|325:241,1,98.9999969787599,0|10,3:2|0:2,0:2:0:0:
509,17,47495,2,0,L|483:121,1,98.9999969787599,0|2,0:0|0:2,0:0:0:0:
450,255,47828,1,0,3:2:0:0:
450,255,47895,1,0,3:2:0:0:
352,47,48228,1,0,3:2:0:0:
104,46,48495,5,2,3:2:0:0:
65,228,48695,2,0,P|35:216|4:179,1,65.9999979858399
57,130,48895,2,0,P|52:192|76:248,1,98.9999969787599,8|0,0:2|0:2,0:0:0:0:
162,285,49228,1,0,0:2:0:0:
246,100,49428,1,0,3:2:0:0:
246,100,49495,1,0,3:2:0:0:
512,175,49695,6,0,B|476:156|459:116|459:116|358:98|289:185,1,242.000007385254,10|0,0:2|3:2,0:2:0:0:
462,357,50295,1,0,3:2:0:0:
462,357,50495,2,0,P|453:280|400:204,3,165.000006294251,8|2|2|0,0:2|0:0|0:0|3:2,0:0:0:0:
394,94,51895,6,0,P|425:90|465:62,1,65.9999979858399
427,1,52095,2,0,P|414:62|377:110,1,98.9999969787599,8|0,0:2|0:2,0:0:0:0:
292,136,52428,1,0,0:2:0:0:
114,28,52628,1,0,3:2:0:0:
114,28,52695,1,0,3:2:0:0:
0,118,52895,2,0,L|83:108,1,82.5000031471254,8|0,0:2|0:2,0:2:0:0:
242,67,53295,5,0,3:2:0:0:
335,250,53495,1,0,3:2:0:0:
335,250,53695,2,0,P|360:222|403:203,2,82.5000031471254,8|0|0,0:2|0:2|0:0,0:0:0:0:
245,365,54228,1,0,3:2:0:0:
245,365,54295,2,0,P|200:319|189:251,1,110.000004196167,0|0,3:2|0:0,0:0:0:0:
175,260,54628,2,0,L|50:266,1,110.000004196167,0|6,3:2|3:2,0:0:0:0:
65,265,55295,6,0,B|38:187|95:96|95:96|154:114|154:114|192:199|292:226|292:226|293:163|328:118,1,528,2|0,0:2|0:0,0:2:0:0:
389,67,58095,1,2,0:2:0:0:
389,67,58495,6,0,B|346:91|324:127|324:127|350:227|440:252,1,264,2|0,0:2|0:0,0:2:0:0:
496,163,59895,6,0,P|495:140|488:116,1,44,2|0,0:2|0:0,0:2:0:0:
329,188,60295,2,0,P|312:172|290:160,1,44,2|0,0:2|0:0,0:2:0:0:
246,279,60695,2,0,P|223:273|198:274,1,44,2|0,0:2|0:0,0:2:0:0:
213,363,61095,2,0,P|191:369|169:382,1,44,2|0,0:2|0:2,0:2:0:0:
399,366,61695,6,0,B|367:322|369:263|369:263|427:238|449:194|449:194|413:143|413:84,1,330,2|0,0:2|0:0,0:2:0:0:
413,88,63095,1,2,0:2:0:0:
484,29,63295,2,0,P|502:62|509:102,1,55,2|2,0:2|0:2,0:0:0:0:
321,134,63695,2,0,P|320:83|340:25,1,110,2|2,0:2|0:2,0:2:0:0:
333,221,64495,6,0,P|301:240|268:265,1,55,10|0,0:1|0:2,0:0:0:0:
220,310,64895,1,10,0:1:0:0:
6,340,65295,2,0,P|38:321|71:296,1,55,10|0,0:1|0:2,0:2:0:0:
116,256,65695,1,10,0:1:0:0:
333,221,66095,1,10,0:1:0:0:
265,252,66295,1,10,0:1:0:0:
220,310,66495,1,10,0:1:0:0:
188,154,66895,2,0,P|189:173|196:193,2,27.5,10|0|0,0:1|0:0|0:2,0:2:0:0:
131,97,67295,2,0,P|138:54|160:6,1,82.5,0|0,3:0|0:0,0:0:0:0:
170,4,67695,5,8,3:1:0:0:
402,52,68028,1,8,0:1:0:0:
402,52,68095,2,0,L|463:125,2,82.5000031471254,2|8|2,3:2|2:1|3:2,0:2:0:0:
225,297,68829,1,8,0:1:0:0:
225,297,68895,2,0,L|286:370,2,82.5000031471254,2|8|2,3:2|2:1|3:2,0:2:0:0:
226,26,69628,5,8,0:1:0:0:
226,26,69695,2,0,L|174:89,1,82.5000031471254,2|8,3:2|2:1,0:2:0:0:
107,171,70095,2,0,P|70:131|17:128,1,110.000004196167,2|0,3:2|0:0,0:0:0:0:
92,251,70495,2,0,P|147:247|186:189,1,110.000004196167,2|0,3:2|0:0,0:0:0:0:
246,147,70895,5,0,3:1:0:0:
471,222,71228,1,8,0:1:0:0:
471,222,71295,2,0,L|385:270,1,93.500001783371,2|8,3:2|2:1,0:2:0:0:
284,359,71695,1,2,3:2:0:0:
322,1,72028,1,8,0:1:0:0:
322,1,72095,2,0,L|236:49,1,93.500001783371,2|8,3:2|2:1,0:0:0:0:
135,138,72495,1,2,3:2:0:0:
488,112,72828,5,8,0:1:0:0:
488,112,72895,2,0,P|471:75|409:46,1,93.500001783371,2|8,3:2|3:1,0:0:0:0:
281,130,73295,2,8,P|284:175|313:212,1,93.500001783371,2|8,3:2|0:1,0:1:0:0:
248,274,73628,1,8,0:1:0:0:
248,274,73695,1,8,3:1:0:0:
161,379,73895,1,0,3:1:0:0:
23,276,74095,6,0,L|39:343,1,62.3333345222473,2|8,3:2|2:1,3:2:0:0:
82,104,74428,1,2,3:2:0:0:
82,104,74495,2,0,L|80:172,1,62.3333345222473,2|8,3:2|2:1,3:2:0:0:
225,0,74828,1,2,3:2:0:0:
225,0,74895,2,0,L|188:58,1,62.3333345222473,2|8,3:2|2:1,0:0:0:0:
379,311,75228,1,2,3:2:0:0:
379,311,75295,2,0,L|411:257,1,62.3333345222473,2|8,3:2|2:1,0:0:0:0:
430,253,75495,2,0,L|462:199,1,62.3333345222473,0|8,3:2|2:1,0:0:0:0:
458,182,75695,6,0,L|459:119,1,62.3333345222473,2|8,3:2|2:1,3:2:0:0:
274,320,76028,1,0,3:2:0:0:
274,320,76095,2,0,L|291:259,1,62.3333345222473,2|8,3:2|2:1,3:2:0:0:
32,369,76428,1,0,3:2:0:0:
32,369,76495,2,0,L|64:314,1,62.3333345222473,2|8,3:2|2:1,0:0:0:0:
50,9,76828,1,2,3:2:0:0:
50,9,76895,2,0,L|19:63,1,62.3333345222473,2|8,3:2|2:1,0:0:0:0:
27,76,77095,2,0,L|-6:144,1,62.3333345222473,0|8,3:2|2:1,0:0:0:0:
7,145,77295,6,0,L|80:129,1,62.3333345222473,2|0,3:2|3:2,0:0:0:0:
147,119,77561,1,0,3:2:0:0:
227,104,77695,2,0,L|267:166,1,62.3333345222473,2|0,3:2|3:2,0:0:0:0:
306,222,77961,1,0,3:2:0:0:
356,286,78095,2,0,L|429:270,1,62.3333345222473,2|0,3:2|3:2,0:0:0:0:
496,258,78361,1,0,3:2:0:0:
507,177,78495,2,0,L|514:130,6,31.1666672611237,2|0|2|0|2|0|2,3:2|0:0|3:2|0:0|3:2|0:0|3:2,0:0:0:0:
44,112,80028,5,0,3:2:0:0:
44,112,80095,2,0,B|26:34|26:34|83:88,1,155.833336305618,0|0,1:0|0:2,0:2:0:0:
92,92,80495,6,0,L|253:83,1,146.666666666667,6|0,3:2|0:0,0:2:0:0:
367,5,80895,2,0,P|385:36|412:60,1,73.3333333333333,8|8,3:2|0:1,0:0:0:0:
432,69,81095,1,8,0:1:0:0:
352,127,81228,1,8,0:1:0:0:
352,127,81295,2,0,P|301:146|256:211,2,131.99999597168,2|2|10,3:2|0:2|3:2,0:2:0:0:
467,294,81828,5,2,0:2:0:0:
467,294,81895,2,0,B|471:232|471:232|495:214,1,73.3333333333333,2|2,0:3|0:2,0:0:0:0:
493,214,82095,1,0,3:2:0:0:
269,371,82295,2,0,B|273:309|273:309|297:291,1,73.3333333333333,2|2,0:3|0:2,0:0:0:0:
294,293,82495,2,0,B|302:286|302:286|306:224,1,73.3333333333333,10|2,3:2|0:3,0:0:0:0:
299,206,82695,1,2,1:2:0:0:
222,237,82828,6,0,B|150:232|132:339|50:308,1,175.999994628906,2|2,1:2|1:2,0:0:0:0:
395,375,83295,2,0,B|380:360|380:360|392:147|392:147|431:126,1,256.666658833822,10|0,3:2|0:2,0:2:0:0:
423,129,83695,6,0,P|365:97|325:-7,1,146.666666666667,2|0,3:2|0:2,0:2:0:0:
214,221,84095,2,0,L|204:145,1,73.3333333333333,8|8,3:2|0:1,0:0:0:0:
210,140,84295,1,8,0:1:0:0:
309,220,84428,1,8,0:1:0:0:
309,220,84495,2,0,L|462:216,2,131.99999597168,2|2|8,3:2|0:2|3:2,0:2:0:0:
203,349,85028,5,2,0:2:0:0:
203,349,85095,2,0,B|140:350|140:350|118:321,1,73.3333333333333,2|2,0:3|0:0,0:0:0:0:
126,327,85295,1,0,3:0:0:0:
89,167,85495,2,0,B|26:166|26:166|4:195,1,73.3333333333333,2|2,0:3|0:2,0:0:0:0:
9,196,85695,6,0,P|114:167|148:109,1,175.999994628906,8|0,3:2|0:0,0:0:0:0:
336,85,86095,2,0,P|231:56|205:-2,1,175.999994628906,2|0,3:2|0:0,0:2:0:0:
208,317,86495,2,0,P|207:198|343:223,1,275.000010490418,10|0,3:2|0:2,0:2:0:0:
337,219,86895,6,0,L|491:223,1,146.666666666667,2|0,3:2|0:2,0:2:0:0:
512,368,87295,2,0,P|496:332|465:301,1,73.3333333333333,8|8,3:2|0:1,0:0:0:0:
461,302,87495,1,8,0:1:0:0:
420,189,87628,1,8,0:1:0:0:
420,189,87695,2,0,P|462:123|537:101,2,131.99999597168,2|2|10,3:2|0:2|3:2,0:2:0:0:
185,332,88228,5,2,0:2:0:0:
185,332,88295,2,0,B|246:327|246:327|259:312,1,73.3333333333333,2|2,0:3|0:2,0:0:0:0:
264,302,88495,1,0,3:2:0:0:
24,171,88695,2,0,B|32:162|32:162|93:157,1,73.3333333333333,2|2,0:3|0:2,0:0:0:0:
109,163,88895,2,0,B|170:158|170:158|178:149,1,73.3333333333333,10|2,3:2|0:3,0:0:0:0:
188,140,89095,1,2,1:2:0:0:
259,194,89228,6,0,B|329:184|327:306|406:288,1,175.999994628906,2|2,1:2|1:2,0:0:0:0:
476,36,89695,2,0,B|501:14|501:14|492:109|492:109|482:115|482:115|491:122|491:122|474:269,1,256.666658833822,10|0,3:2|0:2,0:2:0:0:
468,237,90095,6,0,P|436:161|362:139,1,146.666666666667,2|0,3:2|0:0,0:2:0:0:
231,181,90495,2,0,P|188:179|145:140,1,73.3333333333333,8|8,3:2|0:1,0:0:0:0:
163,164,90695,2,0,P|135:129|138:71,1,73.3333333333333,8|8,0:1|0:1,0:2:0:0:
131,101,90895,2,0,L|292:83,1,131.99999597168,2|2,3:2|0:2,0:2:0:0:
263,250,91295,5,10,3:2:0:0:
289,70,91495,1,2,3:2:0:0:
27,45,91695,2,0,L|45:179,1,117.333333333333,2|0,3:2|2:2,0:2:0:0:
43,161,92028,1,2,3:2:0:0:
298,95,92295,2,0,L|278:231,1,117.333333333333,2|0,3:2|2:2,0:2:0:0:
281,211,92628,1,2,3:2:0:0:
71,307,92895,1,0,3:2:0:0:
161,339,93028,1,0,3:2:0:0:
161,339,93095,2,0,L|157:276,1,58.6666666666667,0|2,3:2|3:2,0:0:0:0:
158,263,93295,5,4,0:2:0:0:
487,128,93695,2,0,P|453:140|428:168,1,73.3333333333333,14|8,3:2|0:1,0:2:0:0:
421,187,93895,1,8,0:1:0:0:
344,233,94028,1,8,0:1:0:0:
344,233,94095,2,0,P|364:316|413:358,2,131.99999597168,2|2|10,3:2|0:2|3:2,0:2:0:0:
203,67,94628,5,2,0:2:0:0:
203,67,94695,2,0,B|214:54|214:54|296:62,1,73.3333333333333,2|2,0:2|0:2,0:0:0:0:
284,53,94895,1,0,3:2:0:0:
185,248,95095,2,0,B|101:239,1,73.3333333333333,2|2,0:3|0:2,0:0:0:0:
97,248,95295,2,0,B|86:261|86:261|4:253,1,73.3333333333333,8|2,3:2|0:3,0:0:0:0:
10,252,95495,1,0,1:0:0:0:
58,182,95628,6,0,P|140:179|165:285,1,175.999994628906,0|2,1:0|1:2,0:0:0:0:
468,254,96095,2,0,B|429:250|429:250|307:379|307:379|226:369,1,256.666658833822,10|0,3:2|0:2,0:2:0:0:
252,369,96495,6,0,P|278:293|282:198,1,146.666666666667,2|0,3:2|0:2,0:2:0:0:
169,80,96895,2,0,P|136:117|119:154,1,73.3333333333333,8|8,3:2|0:1,0:0:0:0:
126,157,97095,1,8,0:1:0:0:
40,198,97228,1,8,0:1:0:0:
40,198,97295,2,0,P|19:135|24:36,2,131.99999597168,2|2|8,3:2|0:2|3:2,0:2:0:0:
216,204,97828,5,2,0:2:0:0:
216,204,97895,2,0,B|231:191|231:191|299:186,1,73.3333333333333,2|2,0:3|0:2,0:0:0:0:
299,196,98095,1,0,3:0:0:0:
410,353,98295,2,0,B|427:363|427:363|494:356,1,73.3333333333333,2|2,0:3|0:2,0:0:0:0:
485,339,98495,6,0,P|410:270|434:207,1,175.999994628906,8|0,3:2|0:0,0:0:0:0:
230,215,98895,2,0,P|240:172|231:130,1,87.9999973144532,2|8,3:2|0:1,0:0:0:0:
102,0,99161,1,8,0:1:0:0:
79,77,99295,2,0,P|120:90|151:120,1,87.9999973144532,10|8,3:2|0:1,0:0:0:0:
173,273,99561,1,8,0:1:0:0:
106,320,99695,6,0,L|33:312,1,73.3333333333333,2|2,3:2|3:2,0:0:0:0:
38,331,99895,2,0,L|110:338,1,73.3333333333333,2|8,3:2|0:1,0:0:0:0:
118,356,100095,2,0,L|248:365,1,110,8|8,3:2|0:1,0:0:0:0:
426,309,100428,1,8,0:1:0:0:
426,309,100495,2,0,P|353:282|312:199,2,131.99999597168,2|2|10,3:2|0:2|3:2,0:2:0:0:
512,191,101028,5,8,0:1:0:0:
512,191,101095,1,8,0:1:0:0:
441,122,101228,1,8,0:1:0:0:
441,122,101295,2,0,B|409:147|409:147|325:150,1,110,0|2,3:2|0:2,0:0:0:0:
178,41,101628,1,8,0:1:0:0:
178,41,101695,2,0,B|146:16|146:16|81:18,1,73.3333333333333,8|2,3:2|1:2,0:0:0:0:
110,216,102028,6,0,B|176:230|181:114|258:117,1,175.999994628906,2|2,1:2|1:2,0:0:0:0:
480,360,102495,2,0,B|471:347|471:347|380:333|380:333|376:325|376:325|372:332|372:332|295:321|295:321|264:342|264:342|227:336,1,256.666658833822,10|0,3:2|0:2,0:0:0:0:
230,352,102895,5,2,3:2:0:0:
140,375,103028,2,0,B|100:362|100:362|119:261,1,110,2|0,3:2|3:2,0:0:0:0:
117,281,103295,1,8,0:2:0:0:
132,194,103428,1,8,2:1:0:0:
132,194,103495,1,2,3:2:0:0:
47,220,103628,2,0,B|7:207|7:207|26:106,1,110,0|0,3:2|3:2,0:0:0:0:
28,123,103895,1,10,0:2:0:0:
105,74,104028,1,8,0:1:0:0:
105,74,104095,2,0,L|114:34,6,36.6666666666667,0|0|0|0|0|0|2,3:2|1:2|1:2|3:2|3:2|3:2|3:2,0:2:0:0:
488,225,105695,5,8,0:2:0:0:
386,266,105895,1,4,0:3:0:0:
314,51,106095,6,0,P|429:98|521:90,1,205.333327067058,6|0,3:2|0:2,0:2:0:0:
512,110,106428,2,0,P|442:116|410:139,1,102.666663533529,4|0,0:2|0:1,0:2:0:0:
275,267,106695,2,0,P|160:314|68:306,1,205.333327067058,6|0,0:2|0:0,0:2:0:0:
77,326,107028,2,0,P|147:332|179:355,1,102.666663533529,4|0,0:2|0:0,0:0:0:0:
342,369,107295,6,0,P|346:346|356:325,1,43.9999986572266,10|0,3:2|0:2,0:0:0:0:
384,358,107495,2,0,P|366:343|352:323,1,43.9999986572266,2|2,0:2|0:2,0:0:0:0:
360,305,107695,5,8,3:1:0:0:
454,241,107828,1,8,0:1:0:0:
454,241,107895,2,0,L|436:169,1,73.3333333333333,8|8,0:1|0:1,0:2:0:0:
432,149,108095,1,10,3:2:0:0:
324,145,108228,2,0,L|352:27,1,110,8|8,0:1|0:1,0:0:0:0:
361,19,108495,5,0,3:2:0:0:
361,19,108695,1,4,3:3:0:0:
200,208,108895,1,8,3:2:0:0:
0,75,109095,1,4,2:3:0:0:
196,58,109295,6,0,P|140:78|186:186,1,205.333327067058,6|0,3:2|0:2,0:2:0:0:
207,180,109628,2,0,P|244:134|202:66,1,102.666663533529,6|0,0:2|0:0,0:2:0:0:
31,190,109895,2,0,P|96:299|112:411,1,205.333327067058,6|0,0:2|0:0,0:2:0:0:
98,384,110228,2,0,P|61:338|103:270,1,102.666663533529,6|0,0:2|0:0,0:0:0:0:
270,358,110495,5,10,3:2:0:0:
319,180,110695,1,8,0:1:0:0:
267,256,110829,1,8,0:1:0:0:
267,256,110895,2,0,B|316:265|316:265|349:342,1,110,8|2,3:1|0:2,0:2:0:0:
511,94,111295,6,0,B|438:107|427:51|416:0|318:12,1,205.333327067058,10|0,3:2|0:0,0:2:0:0:
142,164,111695,2,0,P|278:123|269:48,1,205.333327067058,8|0,3:3|0:0,0:2:0:0:
512,331,112095,2,0,P|376:290|385:215,1,205.333327067058,8|0,3:3|0:0,0:2:0:0:
238,73,112495,6,0,B|248:40|232:28|136:42|47:80,1,205.333327067058,6|0,3:2|0:2,0:2:0:0:
55,88,112828,2,0,P|75:147|132:171,1,102.666663533529,6|0,0:2|0:0,0:2:0:0:
312,244,113095,2,0,B|302:211|318:199|414:213|503:251,1,205.333327067058,6|0,0:2|0:0,0:2:0:0:
496,262,113428,2,0,P|476:321|419:345,1,102.666663533529,6|0,0:2|0:0,0:2:0:0:
310,369,113695,6,0,P|282:354|257:351,1,43.9999986572266,10|2,3:2|0:2,0:0:0:0:
306,327,113895,2,0,P|279:343|264:364,1,43.9999986572266,2|2,0:2|0:2,0:0:0:0:
255,347,114095,6,0,B|226:365|226:365|121:354,1,110,2|8,3:2|0:1,0:0:0:0:
54,220,114495,1,8,3:2:0:0:
174,94,114695,1,8,0:1:0:0:
124,28,114828,1,8,0:1:0:0:
124,28,114895,2,0,B|48:20|48:20|19:38,2,110,8|8|8,3:1|0:1|3:2,0:2:0:0:
217,201,115495,1,8,0:1:0:0:
311,249,115628,5,8,0:1:0:0:
311,249,115695,2,0,B|321:334|321:334|283:375,1,131.99999597168,8|8,3:1|0:1,0:2:0:0:
511,143,116095,1,10,3:2:0:0:
217,201,116295,1,8,0:1:0:0:
126,152,116428,1,8,0:1:0:0:
126,152,116495,2,0,B|115:66|115:66|154:20,1,131.99999597168,8|8,3:1|0:1,0:2:0:0:
0,333,116895,6,2,P|41:367|84:322,1,102.666663533529,10|0,3:2|0:2,0:1:0:0:
86,329,117095,2,2,P|129:309|164:342,1,102.666663533529,2|0,3:2|0:2,0:1:0:0:
177,358,117295,6,2,B|229:327|213:248|213:248|156:219,1,175.999994628906,2|0,3:2|2:2,0:1:0:0:
167,225,117628,1,2,3:2:0:0:
496,30,117895,2,2,B|440:62|456:146|456:146|517:177,1,175.999994628906,2|0,3:2|0:2,0:1:0:0:
496,166,118228,1,2,3:2:0:0:
449,251,118495,1,0,3:2:0:0:
356,266,118628,1,0,3:2:0:0:
356,266,118695,1,0,3:2:0:0:
256,279,118828,6,0,P|288:322|369:357,1,131.99999597168,2|0,3:2|0:2,0:2:0:0:
376,350,119295,1,14,3:2:0:0:
181,73,119495,2,0,P|104:165|0:174,1,205.333327067058,4|0,0:2|0:0,0:0:0:0:
10,165,119828,2,0,P|53:180|97:227,1,102.666663533529,4|0,0:2|0:0,0:0:0:0:
69,330,120095,6,0,P|90:321|114:320,1,43.9999986572266,10|2,3:2|0:2,0:0:0:0:
99,361,120295,2,0,P|102:337|113:315,1,43.9999986572266,2|2,0:2|0:2,0:0:0:0:
135,309,120495,5,8,3:1:0:0:
204,251,120628,1,8,0:1:0:0:
204,251,120695,2,0,L|184:152,1,73.3333333333333,8|8,0:1|0:1,0:0:0:0:
187,158,120895,1,10,3:2:0:0:
272,132,121028,2,0,L|247:8,1,110,8|2,0:1|0:2,0:0:0:0:
249,9,121295,5,0,3:2:0:0:
249,9,121495,1,4,0:3:0:0:
287,217,121695,1,8,3:2:0:0:
477,83,121895,1,4,0:3:0:0:
502,247,122095,6,0,B|524:242|533:212|509:160|399:172|401:272,1,205.333327067058,6|0,3:2|0:2,0:2:0:0:
404,278,122428,2,0,P|438:229|416:161,1,102.666663533529,6|0,0:2|0:0,0:2:0:0:
228,21,122695,2,0,P|293:130|309:242,1,205.333327067058,6|0,0:2|0:0,0:2:0:0:
306,224,123028,2,0,P|274:184|275:134,1,102.666663533529,6|0,0:2|0:0,0:0:0:0:
450,1,123295,5,10,3:2:0:0:
437,178,123495,1,8,0:1:0:0:
483,86,123629,1,8,0:1:0:0:
483,86,123695,2,0,B|363:105,1,110,8|2,3:1|0:2,0:2:0:0:
320,357,124095,6,0,B|305:324|305:324|210:302|210:302|169:309|125:362,1,205.333327067058,10|0,3:2|0:0,0:2:0:0:
29,126,124495,2,0,P|140:153|185:242,1,205.333327067058,8|0,3:3|0:0,0:2:0:0:
372,13,124895,2,0,P|267:58|238:154,1,205.333327067058,8|0,3:3|0:0,0:2:0:0:
279,307,125295,5,2,3:2:0:0:
464,269,125495,2,0,L|475:188,1,73.3333333333333,8|8,0:1|0:1,0:0:0:0:
489,185,125695,2,0,L|500:104,1,73.3333333333333,8|8,0:2|0:1,0:2:0:0:
493,95,125895,1,8,2:1:0:0:
225,162,126095,2,0,L|214:81,1,73.3333333333333,0|8,3:2|0:1,0:0:0:0:
200,78,126295,2,0,L|189:-3,1,73.3333333333333,8|8,0:1|0:1,0:2:0:0:
115,5,126495,6,0,P|101:34|98:65,1,43.9999986572266,10|8,3:2|0:1,0:2:0:0:
101,63,126695,1,8,0:1:0:0:
0,176,126895,2,0,P|18:202|44:220,1,43.9999986572266,2|8,3:2|0:1,0:2:0:0:
43,217,127095,1,8,0:1:0:0:
223,181,127295,1,10,3:2:0:0:
174,252,127428,1,8,0:1:0:0:
174,252,127495,2,0,P|189:289|186:363,1,110,8|0,0:1|3:2,0:0:0:0:
344,381,127828,1,8,0:1:0:0:
344,381,127895,2,0,P|362:345|368:302,1,73.3333333333333,8|8,0:1|0:1,0:2:0:0:
380,294,128095,2,0,P|401:329|441:350,2,73.3333333333333,10|8|8,3:2|0:1|0:1,0:2:0:0:
352,210,128495,6,0,L|432:196,1,73.3333333333333,2|2,3:2|3:2,0:0:0:0:
512,182,128761,1,2,3:2:0:0:
439,98,128895,2,0,L|358:111,1,73.3333333333333,2|2,3:2|3:2,0:0:0:0:
279,126,129161,1,2,3:2:0:0:
247,228,129295,2,0,L|166:241,1,73.3333333333333,2|2,3:2|3:2,0:0:0:0:
87,256,129561,1,2,3:2:0:0:
12,176,129695,2,0,L|84:163,1,73.3333333333333,2|2,3:2|3:2,0:0:0:0:
169,147,129961,1,2,3:2:0:0:
213,73,130095,5,0,1:2:0:0:
39,7,130361,1,0,0:0:0:0:
12,176,130695,1,0,0:0:0:0:
179,231,131028,2,0,L|231:244,2,36.6666666666667,0|0|0,1:2|0:0|1:2,0:0:0:0:
298,223,131295,5,0,1:2:0:0:
302,328,131495,1,2,1:2:0:0:
469,383,131695,1,4,3:2:0:0:
56,318,143695,6,0,L|105:312,1,36.6666666666667,8|8,0:0|0:0,0:0:0:0:
197,355,144028,2,0,L|252:348,1,55,8|8,0:0|0:0,0:0:0:0:
414,339,144495,6,0,P|456:320|496:258,1,110,2|0,3:2|0:0,0:2:0:0:
360,264,145095,2,0,P|313:226|303:166,1,110,2|2,0:2|3:2,0:2:0:0:
436,108,146095,1,0,3:2:0:0:
436,108,146295,1,0,3:2:0:0:
250,93,146628,2,0,L|259:28,2,55,0|0|0,0:0|0:0|3:2,0:0:0:0:
250,93,147095,1,0,3:2:0:0:
171,107,147428,1,0,3:2:0:0:
93,121,147695,6,0,P|41:144|52:191,1,110,2|0,3:2|0:0,0:2:0:0:
6,359,148295,2,0,P|13:300|-6:243,1,110,2|2,0:2|3:2,0:2:0:0:
161,298,149295,1,0,3:2:0:0:
161,298,149495,1,0,3:2:0:0:
226,354,149695,2,0,L|344:342,1,110,0|8,0:0|0:2,0:0:0:0:
421,334,150228,1,0,3:2:0:0:
421,334,150295,1,0,3:2:0:0:
443,253,150628,1,0,3:2:0:0:
459,169,150895,6,0,P|463:127|512:83,1,110,2|0,3:2|0:0,0:2:0:0:
373,93,151495,2,0,P|348:58|284:45,1,110,2|2,0:2|3:2,0:2:0:0:
260,206,152495,1,0,3:2:0:0:
260,206,152695,1,0,3:2:0:0:
170,227,153028,2,0,L|181:294,2,55,0|0|0,0:0|0:0|3:2,0:0:0:0:
170,227,153495,1,0,3:2:0:0:
84,240,153828,1,0,3:2:0:0:
37,169,154095,6,0,B|-2:136|29:55|61:83|53:110,1,110,2|0,3:2|0:0,0:2:0:0:
167,35,154695,2,0,P|139:96|141:144,1,110,2|2,0:2|3:2,0:2:0:0:
290,180,155695,1,0,3:2:0:0:
363,228,156028,1,0,0:0:0:0:
369,313,156295,1,0,0:0:0:0:
292,359,156695,6,0,P|277:330|271:300,2,55,2|2|2,0:2|0:2|0:2,0:0:0:0:
391,298,157295,6,0,P|416:304|445:324,1,55.0000020980836,2|0,3:2|0:0,0:2:0:0:
465,301,157495,2,0,P|427:296|384:248,1,82.5000031471254,0|8,0:0|0:2,0:0:0:0:
306,152,157828,2,0,P|311:192|295:246,2,82.5000031471254,0|0|0,0:0|0:2|3:2,0:0:0:0:
297,134,158295,1,2,3:2:0:0:
146,281,158495,6,0,B|173:283|198:275|198:275|287:324|287:324|316:315|345:318,1,197.99999395752,10|0,0:2|3:2,0:2:0:0:
111,364,159095,1,0,3:2:0:0:
111,364,159295,1,8,0:2:0:0:
151,162,159828,1,0,3:2:0:0:
151,162,159895,1,2,3:2:0:0:
8,0,160228,1,2,3:2:0:0:
167,76,160495,6,0,P|138:77|105:87,1,55.0000020980836,2|0,3:2|0:0,0:2:0:0:
90,33,160695,2,0,P|124:53|187:57,1,82.5000031471254,0|8,0:0|0:2,0:0:0:0:
289,24,161095,1,2,0:0:0:0:
289,24,161228,1,2,0:2:0:0:
257,143,161428,1,0,3:2:0:0:
257,143,161495,2,0,P|223:167|184:177,2,82.5000031471254,0|10|0,3:2|0:2|0:2,0:0:0:0:
496,264,162095,6,0,B|513:286|513:286|502:315,1,55.0000020980836,2|0,3:2|0:2,0:2:0:0:
486,334,162295,2,0,L|468:248,1,82.5000031471254,0|10,3:2|0:2,0:2:0:0:
359,81,162695,2,0,B|344:120|344:120|370:153,1,82.5000031471254,0|2,0:0|0:2,0:0:0:0:
512,124,163028,1,0,3:2:0:0:
512,124,163095,1,0,3:2:0:0:
370,311,163428,1,0,3:2:0:0:
143,228,163695,5,2,3:2:0:0:
230,341,163895,2,0,P|226:307|246:266,1,55.0000020980836
256,279,164095,2,0,P|263:315|207:336,1,82.5000031471254,8|0,0:2|0:2,0:0:0:0:
136,363,164428,1,0,0:2:0:0:
54,163,164628,1,0,3:2:0:0:
54,163,164695,1,0,3:2:0:0:
274,152,164895,6,0,B|270:135|254:118|254:118|136:125|136:125|108:104|106:75,1,197.99999395752,10|0,0:2|3:2,0:2:0:0:
326,74,165495,1,0,3:2:0:0:
326,74,165695,2,0,P|380:7|462:15,3,165.000006294251,10|2|2|2,0:2|0:0|0:0|3:2,0:0:0:0:
439,152,167095,6,0,P|443:118|423:77,1,55.0000020980836
413,90,167295,2,0,P|406:126|462:147,1,82.5000031471254,8|0,0:2|0:2,0:0:0:0:
512,210,167628,1,0,0:2:0:0:
333,301,167828,1,0,3:2:0:0:
333,301,167895,1,0,3:2:0:0:
486,352,168095,2,0,L|392:366,1,82.5000031471254,10|2,0:2|0:2,0:2:0:0:
279,183,168495,6,0,L|211:214,1,55.0000020980836,2|0,3:2|0:2,0:2:0:0:
227,205,168695,2,0,L|195:145,1,55.0000020980836,0|2,3:2|0:2,0:2:0:0:
229,85,168895,2,0,B|277:36|277:36|296:114,1,137.500005245209,8|0,0:2|0:2,0:0:0:0:
327,283,169428,1,0,3:2:0:0:
327,283,169495,1,2,3:2:0:0:
187,334,169828,1,2,3:2:0:0:
187,334,169895,1,0,0:0:0:0:
29,379,170095,6,0,P|56:326|112:305,1,110,2|12,3:2|0:2,0:2:0:0:
95,213,170695,2,0,P|54:198|19:101,1,137.500005245209,0|0,0:0|0:2,0:0:0:0:
22,108,171095,1,2,3:2:0:0:
186,88,171295,6,0,B|254:91|254:91|321:93|332:138|342:176|416:169,1,242.000007385254,10|0,0:2|3:2,0:2:0:0:
512,124,172695,1,2,0:2:0:0:
422,61,173028,1,2,0:2:0:0:
424,252,173295,6,0,P|455:254|485:240,1,65.9999979858399,6|0,3:2|0:0,0:2:0:0:
501,250,173495,2,0,P|455:272|407:266,1,98.9999969787599,0|8,0:0|0:2,0:0:0:0:
302,221,173895,1,2,0:0:0:0:
302,221,174028,1,2,0:2:0:0:
201,323,174228,1,0,3:2:0:0:
201,323,174295,2,0,P|242:330|276:371,2,82.5000031471254,0|8|0,3:2|0:2|0:2,0:0:0:0:
40,337,174895,5,2,3:2:0:0:
219,199,175161,1,0,0:0:0:0:
165,25,175495,1,0,0:0:0:0:
75,38,175695,1,2,0:2:0:0:
75,38,176028,5,10,0:2:0:0:
232,116,176228,1,10,0:2:0:0:
143,268,176428,1,0,0:0:0:0:
143,268,176495,5,2,3:2:0:0:
0,176,176695,2,0,P|23:199|53:211,1,65.9999979858399
57,224,176895,2,0,P|24:177|16:119,1,98.9999969787599,8|0,0:2|0:2,0:0:0:0:
41,45,177228,1,0,0:2:0:0:
222,100,177428,1,0,3:2:0:0:
222,100,177495,1,0,3:2:0:0:
278,293,177695,6,0,B|257:264|265:224|265:224|328:203|364:126|339:71,1,242.000007385254,10|0,0:2|3:2,0:2:0:0:
363,270,178295,1,0,3:2:0:0:
363,270,178495,2,0,P|440:314|518:299,3,165.000006294251,10|2|2|2,0:2|0:0|0:0|3:2,0:0:0:0:
512,180,179895,6,0,P|489:203|459:215,1,65.9999979858399
455,228,180095,2,0,P|488:181|496:123,1,98.9999969787599,8|0,0:2|0:2,0:0:0:0:
485,8,180428,1,0,0:2:0:0:
264,40,180628,1,0,3:2:0:0:
264,40,180695,1,0,3:2:0:0:
357,183,180895,2,0,P|352:133|323:96,1,82.5000031471254,10|2,0:2|0:2,0:2:0:0:
175,58,181295,5,2,3:2:0:0:
37,225,181495,1,0,3:2:0:0:
37,225,181695,2,0,P|56:189|91:167,2,82.5000031471254,8|2|0,0:2|0:2|0:0,0:0:0:0:
179,368,182228,1,2,3:2:0:0:
179,368,182295,2,0,P|134:322|123:254,1,110.000004196167,0|0,3:2|0:0,0:0:0:0:
125,263,182628,2,0,L|234:257,1,110.000004196167,0|6,3:2|3:2,0:0:0:0:
449,164,183295,6,0,B|462:84|381:41|381:41|381:112|338:171|269:182|269:182|322:176|391:224|405:280,1,528,2|0,0:2|0:0,0:2:0:0:
320,355,186095,1,2,0:2:0:0:
405,278,186495,6,0,B|373:189|268:182|268:182|277:249|251:271,1,264,2|0,0:2|0:0,0:2:0:0:
167,362,187895,6,0,P|166:339|159:315,1,44,2|0,0:2|0:0,0:2:0:0:
295,203,188295,2,0,P|278:187|256:175,1,44,2|0,0:2|0:0,0:2:0:0:
288,86,188695,2,0,P|265:80|240:81,1,44,2|0,0:2|0:0,0:2:0:0:
230,0,189095,2,0,P|208:6|186:19,1,44,2|0,0:2|0:2,0:2:0:0:
0,149,189695,6,0,B|16:89|66:71|66:71|90:156|121:198|121:198|171:179|186:129,1,330,2|0,0:2|0:0,0:2:0:0:
163,50,191095,1,2,0:2:0:0:
261,80,191295,6,0,P|287:60|303:32,1,55,2|2,0:2|0:2,0:0:0:0:
304,204,191695,2,0,P|366:197|417:166,1,110,2|0,0:2|0:0,0:2:0:0:
505,237,192495,6,0,L|496:298,1,55,10|0,0:1|0:2,0:0:0:0:
481,380,192895,1,10,0:1:0:0:
304,204,193295,2,0,L|313:143,1,55,10|0,0:1|0:2,0:2:0:0:
328,61,193695,1,10,0:1:0:0:
469,156,194095,1,10,0:1:0:0:
403,228,194295,1,10,0:1:0:0:
337,295,194495,1,10,0:1:0:0:
172,183,194895,2,0,P|173:202|180:222,2,27.5,10|0|0,0:1|0:0|0:2,0:2:0:0:
103,125,195295,2,0,P|87:163|81:203,1,82.5,8|0,0:1|0:0,0:0:0:0:
122,285,195695,6,0,L|36:308,1,82.5000031471254,0|0,3:2|3:2,0:2:0:0:
253,128,196095,2,0,L|339:151,1,82.5000031471254,8|8,3:1|3:1,0:2:0:0:
412,274,196495,1,8,3:1:0:0:
347,144,196695,1,0,3:2:0:0:
499,39,196895,2,0,L|419:17,2,82.5000031471254,8|8|8,3:1|3:1|3:1,0:2:0:0:
347,144,197495,1,0,3:2:0:0:
444,358,197695,6,0,L|467:272,1,82.5000031471254,0|0,3:2|3:2,0:2:0:0:
511,139,198095,2,0,P|490:157|465:167,1,55.0000020980836,8|8,0:1|2:1,0:0:0:0:
465,166,198294,1,0,3:1:0:0:
432,56,198495,2,0,P|411:40|385:32,1,55.0000020980836,8|8,0:1|2:1,0:0:0:0:
385,32,198694,1,0,3:2:0:0:
366,251,198895,6,0,L|269:276,1,93.500001783371,0|0,3:2|3:2,0:2:0:0:
96,172,199295,2,0,L|71:264,1,93.500001783371,8|8,3:1|3:1,0:2:0:0:
51,362,199695,1,8,3:1:0:0:
204,261,199895,1,0,3:2:0:0:
55,30,200095,2,0,L|30:120,2,93.500001783371,8|8|8,3:1|3:1|3:1,0:2:0:0:
203,2,200695,1,0,3:2:0:0:
237,86,200828,5,8,2:1:0:0:
237,86,200895,2,0,P|295:65|348:81,1,93.500001783371,0|0,3:2|3:2,0:2:0:0:
104,178,201228,1,8,2:1:0:0:
103,177,201295,2,0,P|120:221|155:251,1,93.500001783371,0|0,3:2|3:2,0:2:0:0:
256,284,201628,1,8,2:1:0:0:
256,284,201695,1,8,3:1:0:0:
410,370,201895,1,0,3:2:0:0:
496,187,202095,6,0,L|516:260,1,62.3333345222473,2|8,3:2|2:1,3:2:0:0:
294,132,202428,1,0,3:2:0:0:
294,132,202495,2,0,L|274:205,1,62.3333345222473,2|8,3:2|2:1,3:2:0:0:
211,0,202828,1,0,3:2:0:0:
211,0,202895,2,0,L|164:50,1,62.3333345222473,2|8,3:2|2:1,3:2:0:0:
147,250,203228,1,0,3:2:0:0:
147,250,203295,2,0,L|104:295,1,62.3333345222473,2|8,3:2|2:1,3:2:0:0:
104,313,203495,2,0,L|61:358,1,62.3333345222473,0|8,3:2|2:1,3:2:0:0:
47,359,203695,6,0,L|21:295,1,62.3333345222473,2|8,3:2|2:1,0:0:0:0:
242,248,204028,1,2,3:2:0:0:
242,248,204095,2,0,L|262:175,1,62.3333345222473,0|8,3:2|2:1,0:0:0:0:
437,272,204428,1,2,3:2:0:0:
437,272,204495,2,0,L|478:216,1,62.3333345222473,0|8,3:2|2:1,0:0:0:0:
475,1,204828,1,2,3:2:0:0:
475,1,204895,2,0,L|438:51,1,62.3333345222473,0|8,3:2|2:1,0:0:0:0:
424,54,205095,2,0,L|387:104,1,62.3333345222473,0|8,3:2|2:1,0:0:0:0:
378,118,205295,6,0,L|317:102,1,62.3333345222473,2|0,3:2|3:2,0:0:0:0:
159,77,205561,1,0,3:2:0:0:
236,92,205695,2,0,L|252:152,1,62.3333345222473,2|0,3:2|3:2,0:0:0:0:
308,299,205961,1,0,3:2:0:0:
284,227,206095,2,0,L|328:182,1,62.3333345222473,2|0,3:2|3:2,0:0:0:0:
438,64,206361,1,0,3:2:0:0:
373,115,206495,2,0,L|407:146,6,31.1666672611237,2|0|2|0|2|0|2,3:2|0:0|3:2|0:0|3:2|0:0|3:2,0:0:0:0:
76,103,208495,6,0,L|237:94,1,146.666666666667,2|0,0:2|0:0,0:2:0:0:
64,83,208895,2,0,L|154:77,1,73.3333333333333,2|2,0:0|0:0,0:0:0:0:
367,114,209228,2,0,L|220:122,1,146.666666666667,2|2,0:0|0:2,0:0:0:0:
61,209,210495,2,0,L|151:203,1,73.3333333333333,2|2,0:0|0:0,0:0:0:0:
227,277,210828,1,2,0:0:0:0:
404,275,211095,1,2,0:0:0:0:
479,348,211228,1,8,2:1:0:0:
479,348,211295,1,0,1:2:0:0:
186,104,211695,6,0,B|54:118|54:118|13:53,1,175.999994628906,4|0,3:2|0:2,0:2:0:0:
259,20,212095,2,0,B|175:28|175:28|147:88,1,131.99999597168,8|2,3:2|0:2,0:0:0:0:
218,185,212428,1,8,0:1:0:0:
218,185,212495,1,2,3:2:0:0:
43,272,212695,2,0,L|174:257,1,131.99999597168,8|8,0:1|3:2,0:2:0:0:
258,384,213028,5,2,0:2:0:0:
258,383,213095,2,0,B|265:374|265:374|248:314,1,73.3333333333333,2|2,0:3|0:2,0:0:0:0:
237,306,213295,1,0,3:0:0:0:
376,248,213495,2,0,B|383:256|383:256|366:316,1,73.3333333333333,2|2,0:3|0:2,0:0:0:0:
352,325,213695,6,0,B|426:386|514:356|514:356|493:288,1,205.333327067058,8|0,3:2|0:0,0:0:0:0:
385,97,214095,2,0,B|292:80|229:151|229:151|280:200,1,205.333327067058,2|0,3:2|0:0,0:0:0:0:
233,332,214495,2,0,B|235:352|208:359|208:359|35:220|35:220|8:237|23:274,1,311.666672611237,10|0,3:2|0:2,0:2:0:0:
33,271,214895,6,0,B|64:145|64:145|20:86,1,175.999994628906,2|0,3:2|0:2,0:2:0:0:
164,77,215295,2,0,B|147:145|147:145|52:157,1,131.99999597168,8|2,3:2|0:2,0:0:0:0:
44,15,215628,1,8,0:1:0:0:
44,15,215695,1,2,3:2:0:0:
223,203,215895,2,0,L|245:105,1,87.9999973144532,8|0,0:1|0:2,0:2:0:0:
243,103,216095,6,0,B|292:101|330:167|324:211|299:266|367:344|439:312,1,307.999990600586,10|2,3:2|3:2,0:0:0:0:
510,162,216628,1,2,0:2:0:0:
510,162,216695,2,0,B|502:153|502:153|441:148,1,73.3333333333333,2|0,0:3|0:2,0:0:0:0:
430,151,216895,2,0,B|421:159|421:159|416:220,1,73.3333333333333,10|2,3:2|0:3,0:0:0:0:
425,231,217095,1,0,1:2:0:0:
512,284,217228,6,0,B|442:274|444:396|365:378,1,175.999994628906,2|2,1:2|1:2,0:2:0:0:
125,182,217695,2,0,B|123:139|123:139|137:109|179:103|202:132|202:132|214:270,1,256.666658833822,10|0,3:2|0:2,0:0:0:0:
206,259,218095,6,0,B|109:268|109:268|63:357,1,175.999994628906,2|0,3:2|0:2,0:2:0:0:
356,373,218495,2,0,L|487:360,1,131.99999597168,8|2,3:2|0:2,0:0:0:0:
506,234,218828,1,8,0:1:0:0:
506,234,218895,1,2,3:2:0:0:
300,300,219095,2,0,L|289:191,1,87.9999973144532,8|8,0:1|0:1,0:2:0:0:
281,201,219295,5,10,3:2:0:0:
75,223,219495,1,2,3:2:0:0:
146,16,219695,2,2,B|51:28|51:28|46:106|104:109|157:113|149:217,1,275.000010490418,2|2,3:2|3:2,0:1:0:0:
147,168,220095,1,8,0:1:0:0:
341,368,220295,2,2,B|246:356|246:356|241:278|299:275|352:271|344:167,1,275.000010490418,2|2,3:2|3:2,0:1:0:0:
342,216,220695,1,8,0:1:0:0:
500,67,220895,1,0,3:2:0:0:
411,65,221028,1,0,3:2:0:0:
411,65,221095,2,0,P|420:93|425:129,1,58.6666666666667,0|0,3:2|3:2,0:0:0:0:
425,121,221295,6,0,B|346:135|346:135|319:106,1,102.666663533529,2|0,0:2|0:0,0:2:0:0:
511,0,221695,2,0,L|381:23,1,131.99999597168,14|2,3:2|0:2,0:2:0:0:
252,57,222028,1,8,0:1:0:0:
252,57,222095,1,2,3:2:0:0:
313,230,222295,2,0,L|226:245,1,87.9999973144532,8|0,0:1|0:2,0:2:0:0:
218,254,222495,6,0,B|215:115|43:184|46:10,1,307.999990600586,10|2,3:2|3:2,0:0:0:0:
231,0,223028,1,2,0:2:0:0:
231,0,223095,2,0,B|237:53|237:53|210:90,1,73.3333333333333,2|2,0:3|0:2,0:0:0:0:
220,88,223295,2,0,B|231:170,1,73.3333333333333,8|2,3:2|0:3,0:0:0:0:
233,178,223495,1,0,1:2:0:0:
316,195,223628,6,0,P|390:141|408:46,1,175.999994628906,2|2,1:2|1:2,0:2:0:0:
482,368,224095,2,0,B|481:207|481:207|515:303,1,256.666658833822,10|0,3:2|0:2,0:2:0:0:
512,306,224495,6,0,B|393:318|393:318|367:375,1,175.999994628906,2|0,3:2|0:2,0:2:0:0:
311,164,224895,2,0,L|178:176,1,131.99999597168,8|2,3:2|0:2,0:0:0:0:
54,193,225228,1,8,0:1:0:0:
54,193,225295,1,2,3:2:0:0:
279,326,225495,2,0,B|306:270|306:270|229:277,1,131.99999597168,8|10,0:1|3:2,0:2:0:0:
35,366,225828,5,2,0:2:0:0:
35,366,225895,2,0,B|21:356|21:356|9:282,1,73.3333333333333,2|2,0:3|0:2,0:0:0:0:
11,287,226095,1,0,3:3:0:0:
144,258,226295,2,0,B|156:245|156:245|155:170,1,73.3333333333333,2|2,0:3|0:2,0:0:0:0:
147,173,226495,6,0,B|60:165|29:72|53:12|82:22|77:70,1,205.333327067058,10|0,3:2|0:0,0:2:0:0:
243,236,226895,1,2,3:2:0:0:
265,155,227028,2,0,P|308:181|326:258,1,102.666663533529,0|0,3:0|0:0,0:0:0:0:
512,190,227295,2,0,B|500:160|477:174|477:174|382:371|382:371|351:398|345:352,1,311.666672611237,10|0,3:2|0:2,0:2:0:0:
336,350,227695,5,2,3:2:0:0:
231,366,227828,1,0,3:2:0:0:
231,366,227895,1,0,3:2:0:0:
106,172,228095,2,0,B|130:148|130:148|247:158,1,131.99999597168,10|2,3:2|0:2,0:2:0:0:
303,97,228428,1,8,0:1:0:0:
303,97,228495,1,2,3:2:0:0:
507,36,228695,2,0,B|483:60|483:60|366:50,1,131.99999597168,8|10,0:1|3:2,0:2:0:0:
158,31,229028,5,8,0:1:0:0:
158,31,229095,1,8,0:1:0:0:
72,73,229228,1,8,0:1:0:0:
72,73,229295,2,0,B|87:212,1,110,2|2,3:2|0:2,0:0:0:0:
98,298,229628,1,8,0:1:0:0:
98,298,229695,2,0,B|74:265|74:265|8:272,1,73.3333333333333,8|2,3:2|1:2,0:0:0:0:
192,372,230028,6,0,P|230:265|294:264,1,175.999994628906,2|2,1:2|1:2,0:2:0:0:
512,213,230495,2,0,B|529:165|492:121|444:129|444:129|273:152,1,256.666658833822,10|0,3:2|0:2,0:2:0:0:
305,143,230895,5,0,3:2:0:0:
334,61,231028,2,0,B|326:20|326:20|233:32,1,110,0|0,3:2|3:2,0:0:0:0:
249,42,231295,1,8,0:2:0:0:
185,117,231428,1,8,0:1:0:0:
185,117,231495,1,0,3:2:0:0:
101,60,231628,2,0,B|93:19|93:19|0:31,1,110,0|0,3:2|3:2,0:0:0:0:
18,39,231895,1,8,0:2:0:0:
0,126,232028,1,8,0:1:0:0:
0,126,232095,2,0,L|65:118,6,36.6666666666667,0|0|0|0|0|0|0,3:2|1:2|1:2|3:2|3:2|3:2|3:2,0:2:0:0:
59,322,234095,22,0,B|54:366|-19:332|-16:267|57:182,1,205.333327067058,6|0,3:2|0:2,0:2:0:0:
55,177,234428,2,0,P|113:200|145:250,1,102.666663533529,6|0,0:2|0:0,0:2:0:0:
325,160,234695,2,0,B|351:195|397:129|362:74|256:37,1,205.333327067058,6|0,0:2|0:0,0:2:0:0:
255,32,235028,2,0,P|216:80|213:140,1,102.666663533529,6|0,0:2|0:0,0:0:0:0:
245,299,235295,6,0,P|249:276|259:255,1,43.9999986572266,10|2,3:2|0:2,0:0:0:0:
215,267,235495,2,0,P|236:258|260:257,1,43.9999986572266,2|2,0:2|0:2,0:0:0:0:
281,253,235695,5,2,3:2:0:0:
371,308,235828,1,8,0:1:0:0:
371,308,235895,2,0,L|381:210,1,73.3333333333333,8|8,0:1|0:1,0:2:0:0:
389,224,236095,1,8,3:2:0:0:
477,273,236228,2,0,L|488:158,1,110,8|8,0:1|0:1,0:0:0:0:
496,145,236495,5,0,3:2:0:0:
496,145,236695,1,4,0:3:0:0:
281,253,236895,1,8,3:2:0:0:
165,22,237095,1,4,0:3:0:0:
331,3,237295,6,0,P|245:74|281:185,1,205.333327067058,6|0,3:2|0:2,0:2:0:0:
241,186,237628,2,0,P|207:140|208:63,1,102.666663533529,6|0,0:2|0:0,0:2:0:0:
379,140,237895,2,0,L|340:372,1,205.333327067058,6|0,0:2|0:0,0:2:0:0:
353,366,238228,2,0,P|405:343|443:275,1,102.666663533529,6|0,0:2|0:0,0:0:0:0:
488,216,238495,5,10,3:2:0:0:
254,183,238695,1,8,0:1:0:0:
355,146,238829,1,8,0:1:0:0:
355,146,238895,2,0,L|331:282,1,110,8|2,3:1|0:2,0:2:0:0:
31,360,239295,6,0,B|121:339|123:185|-3:221|17:305,1,205.333327067058,10|0,3:2|0:0,0:2:0:0:
328,280,239695,2,0,P|274:373|172:311,1,205.333327067058,8|0,3:3|0:0,0:2:0:0:
74,139,240095,2,0,P|128:46|230:108,1,205.333327067058,8|0,3:3|0:0,0:2:0:0:
314,156,240495,6,0,P|442:119|502:38,1,205.333327067058,6|0,3:2|0:2,0:2:0:0:
486,55,240828,2,0,P|436:44|354:68,1,102.666663533529,6|0,0:2|0:0,0:2:0:0:
132,250,241095,2,0,P|67:132|82:32,1,205.333327067058,6|0,0:2|0:0,0:2:0:0:
80,56,241428,2,0,P|122:82|163:158,1,102.666663533529,4|0,0:2|0:0,0:0:0:0:
214,320,241695,6,0,P|229:292|232:267,1,43.9999986572266,10|2,3:2|0:2,0:0:0:0:
256,316,241895,2,0,P|240:289|219:274,1,43.9999986572266,2|2,0:2|0:2,0:0:0:0:
243,268,242095,6,0,B|263:249|263:249|263:151,1,110,2|8,3:2|0:1,0:0:0:0:
338,356,242495,1,10,3:2:0:0:
149,262,242695,1,8,0:1:0:0:
66,279,242829,1,8,0:1:0:0:
66,279,242895,2,0,B|66:362|66:362|86:381,2,110,8|8|10,3:1|0:1|3:2,0:2:0:0:
101,121,243495,1,8,0:1:0:0:
36,70,243628,5,8,0:1:0:0:
36,70,243695,2,0,B|6:46|6:46|131:34,1,131.99999597168,8|0,3:1|0:0,0:2:0:0:
226,113,244095,1,10,3:2:0:0:
373,349,244295,1,8,0:1:0:0:
451,301,244428,1,8,0:1:0:0:
451,301,244495,2,0,B|481:277|481:277|356:265,1,131.99999597168,8|2,3:1|0:2,0:2:0:0:
235,132,244895,6,2,P|202:171|248:216,1,102.666663533529,10|0,3:2|0:2,0:1:0:0:
239,219,245095,2,2,P|272:258|226:303,1,102.666663533529,2|0,3:2|0:2,0:1:0:0:
228,310,245295,6,2,B|159:283|159:283|55:288|28:401,1,220.000008392334,2|0,3:2|0:2,0:1:0:0:
42,358,245628,1,2,3:2:0:0:
307,79,245895,2,2,B|376:106|376:106|480:101|507:-12,1,220.000008392334,2|0,3:2|0:2,0:1:0:0:
492,31,246228,1,2,3:2:0:0:
230,139,246495,1,0,3:2:0:0:
145,106,246628,1,0,3:2:0:0:
145,106,246695,1,0,3:2:0:0:
46,74,246828,6,0,P|73:133|73:212,1,131.99999597168,2|0,3:2|0:2,0:2:0:0:
65,213,247295,1,12,0:2:0:0:
370,273,247495,2,0,P|253:293|189:374,1,205.333327067058,6|0,0:2|0:0,0:2:0:0:
182,368,247828,2,0,P|184:300|215:259,1,102.666663533529,6|0,0:2|0:0,0:2:0:0:
377,159,248095,6,0,P|359:145|339:138,1,43.9999986572266,10|2,3:2|0:2,0:0:0:0:
341,184,248295,2,0,P|344:162|341:140,1,43.9999986572266,2|2,0:2|0:2,0:0:0:0:
320,124,248495,5,2,3:2:0:0:
226,154,248628,1,8,0:1:0:0:
226,154,248695,2,0,L|131:145,1,73.3333333333333,8|8,0:1|0:1,0:0:0:0:
131,144,248895,1,8,3:2:0:0:
87,57,249028,2,0,L|215:69,1,110,8|8,0:1|0:1,0:2:0:0:
224,72,249295,5,0,3:2:0:0:
224,72,249495,1,4,0:3:0:0:
267,266,249695,1,8,3:2:0:0:
486,211,249895,1,4,0:3:0:0:
368,363,250095,6,0,P|347:289|448:331,1,205.333327067058,6|0,3:2|0:2,0:2:0:0:
454,305,250428,2,0,P|446:258|395:215,1,102.666663533529,6|0,0:2|0:0,0:2:0:0:
378,57,250695,2,0,P|321:168|215:167,1,205.333327067058,6|0,0:2|0:0,0:2:0:0:
240,170,251028,2,0,P|248:123|299:80,1,102.666663533529,4|0,0:2|0:0,0:0:0:0:
473,131,251295,5,10,3:2:0:0:
445,328,251495,1,8,0:1:0:0:
511,254,251629,1,8,0:1:0:0:
511,254,251695,2,0,B|389:237,1,110,8|0,3:1|0:2,0:2:0:0:
56,232,252095,6,0,B|137:221|122:379|233:365,1,220.000008392334,10|0,3:2|0:0,0:2:0:0:
259,119,252495,2,0,B|333:203|297:285|297:285|245:287,1,220.000008392334,8|0,3:3|0:0,0:2:0:0:
9,158,252895,2,0,B|-13:48|58:-5|58:-5|105:19,1,220.000008392334,8|0,3:3|0:0,0:2:0:0:
97,248,253295,5,2,3:2:0:0:
260,119,253495,2,0,L|269:191,1,73.3333333333333,8|8,0:1|0:1,0:0:0:0:
255,214,253695,2,0,L|264:286,1,73.3333333333333,8|8,0:2|0:1,0:2:0:0:
257,309,253895,1,8,0:1:0:0:
503,157,254095,2,0,L|512:229,1,73.3333333333333,0|8,3:2|0:1,0:0:0:0:
498,252,254295,2,0,L|507:324,1,73.3333333333333,8|8,0:1|0:1,0:2:0:0:
441,364,254495,6,0,P|420:339|410:310,1,43.9999986572266,10|8,3:2|0:1,0:0:0:0:
413,311,254695,1,8,0:1:0:0:
255,214,254895,2,0,P|265:183|286:159,1,43.9999986572266,0|8,3:2|0:1,0:2:0:0:
288,160,255095,1,8,0:1:0:0:
100,264,255295,1,8,3:2:0:0:
34,215,255428,1,8,0:1:0:0:
34,215,255495,2,0,P|17:162|24:108,1,110,8|0,0:1|3:2,0:0:0:0:
198,2,255828,1,8,0:1:0:0:
198,2,255895,2,0,P|190:37|174:70,1,73.3333333333333,8|8,0:1|0:1,0:2:0:0:
179,85,256095,2,0,P|212:70|256:64,2,73.3333333333333,10|8|8,3:2|0:1|0:1,0:0:0:0:
23,108,256495,6,0,L|37:188,1,73.3333333333333,0|0,3:2|3:2,0:0:0:0:
51,291,256761,1,0,3:2:0:0:
155,368,256895,2,0,L|166:295,1,73.3333333333333,0|0,3:2|3:2,0:0:0:0:
183,189,257161,1,0,3:2:0:0:
320,202,257295,2,0,L|308:129,1,73.3333333333333,0|0,3:2|3:2,0:0:0:0:
292,23,257561,1,0,3:2:0:0:
429,81,257695,2,0,L|417:153,1,73.3333333333333,0|0,3:2|3:2,0:0:0:0:
401,260,257961,1,0,3:2:0:0:
495,228,258095,5,0,3:2:0:0:
381,383,258361,1,0,0:0:0:0:
320,202,258695,1,0,0:0:0:0:
429,81,259028,2,0,L|438:31,2,36.6666666666667,0|0|0,1:2|0:0|1:2,0:0:0:0:
416,153,259295,5,8,1:2:0:0:
241,127,259495,1,0,3:2:0:0:
302,308,259695,6,0,P|230:332|158:342,1,131.99999597168,6|8,3:2|0:2,0:2:0:0:
90,374,260228,2,0,P|93:342|91:305,1,65.9999979858399,2|2,0:2|0:2,0:2:0:0:
50,142,260628,1,0,3:2:0:0:
50,142,260695,1,2,3:2:0:0:
140,233,260895,2,0,P|139:200|206:146,1,109.999996643067,10|0,0:2|0:2,0:2:0:0:
214,149,261295,5,0,3:2:0:0:
260,6,261495,2,0,P|228:4|183:14,1,65.9999979858399,0|8,3:2|0:2,0:0:0:0:
296,91,261828,1,2,0:2:0:0:
296,91,262028,2,0,P|323:105|358:136,1,65.9999979858399,2|0,0:2|3:2,0:0:0:0:
361,141,262295,1,2,3:2:0:0:
422,225,262628,1,2,3:2:0:0:
509,226,262895,6,0,P|463:238|428:341,2,146.666666666667,2|2|2,3:2|0:0|0:0,0:2:0:0:
471,36,263829,1,0,3:2:0:0:
471,36,263895,1,2,3:2:0:0:
512,129,264095,2,0,L|435:138,1,65.9999979858399,10|0,0:2|0:2,0:2:0:0:
322,155,264495,5,0,3:2:0:0:
322,155,264695,1,0,3:2:0:0:
301,270,264895,2,0,P|285:308|249:337,1,89.100002175293,10|0,0:2|0:0,0:2:0:0:
116,374,265295,2,0,P|92:343|86:301,1,81.4000019873047,2|0,0:2|3:2,0:0:0:0:
198,181,265695,2,0,P|165:167|129:172,1,73.6999965138246,2|0,0:0|0:0,0:0:0:0:
0,53,266095,6,0,P|64:73|143:82,1,131.99999597168,2|8,3:2|0:2,0:2:0:0:
234,31,266628,2,0,P|219:64|209:112,1,65.9999979858399,2|2,0:2|0:2,0:2:0:0:
274,234,267028,1,0,3:2:0:0:
274,234,267095,1,2,3:2:0:0:
345,98,267295,2,0,P|337:161|372:213,1,109.999996643067,10|0,0:2|0:2,0:2:0:0:
381,222,267695,5,0,3:2:0:0:
504,255,267895,2,0,P|490:290|485:322,1,65.9999979858399,0|8,3:2|0:2,0:0:0:0:
408,375,268228,1,2,0:2:0:0:
408,375,268428,2,0,P|394:340|389:308,1,65.9999979858399,2|2,0:2|3:2,0:0:0:0:
390,285,268695,1,0,3:2:0:0:
308,264,269028,1,2,3:2:0:0:
228,244,269295,6,0,P|212:311|187:373,1,131.99999597168,2|8,3:2|0:2,0:2:0:0:
81,187,269895,2,0,P|94:257|98:317,1,131.99999597168,0|0,0:0|3:2,0:0:0:0:
169,178,270495,2,0,P|180:144|188:106,1,65.9999979858399,10|0,0:2|0:0,0:2:0:0:
214,32,270895,5,2,3:2:0:0:
214,32,271095,1,2,3:2:0:0:
323,106,271295,2,0,P|347:58|339:1,1,89.100002175293,10|2,0:2|0:2,0:0:0:0:
290,207,271695,2,0,P|242:209|203:240,1,81.4000019873047,2|2,0:2|0:2,0:0:0:0:
390,179,272095,2,0,P|425:204|443:242,1,73.6999965138246,2|2,0:2|0:2,0:0:0:0:
475,353,272495,5,0,0:0:0:0:
