osu file format v14

[General]
AudioFilename: 05. - De.mp3
AudioLeadIn: 0
PreviewTime: 147255
Countdown: 0
SampleSet: Soft
StackLeniency: 0.2
Mode: 0
LetterboxInBreaks: 0
WidescreenStoryboard: 1

[Editor]
Bookmarks: 22892,31619,40346,43074,43619,43960,44028,44096,44983,53437,73074,73346,82892,86164,94892,105187,105255,105324,105801,114528,123255,127755,127824,127892,127960,128028,136346,155983,166892,171801,175619,184346,193074,203983,204869,204937,205005,205074,205142,205210,205278,215983,226892,240187,241074
DistanceSpacing: 0.5
BeatDivisor: 4
GridSize: 4
TimelineZoom: 1.2

[Metadata]
Title:Soroban De Big Bang
TitleUnicode:そろばん♡De♥ビッグバン
Artist:Camellia feat. Koko & Nanahira
ArtistUnicode:ココ、ななひら
Creator:Mel
Version:MM
Source:
Tags:midge midget lop step rabbits electronic pop denpa dubstep confetto かめるかめりあ ココ ななひら kamelcamellia camellia
BeatmapID:875691
BeatmapSetID:365586

[Difficulty]
HPDrainRate:6
CircleSize:4
OverallDifficulty:8
ApproachRate:9.7
SliderMultiplier:2.2
SliderTickRate:1

[Events]
//Background and Video events
0,0,"nope.png",0,0
//Break Periods
//Storyboard Layer 0 (Background)
//Storyboard Layer 1 (Fail)
//Storyboard Layer 2 (Pass)
//Storyboard Layer 3 (Foreground)
//Storyboard Sound Samples

[TimingPoints]
1074,272.727272727273,4,2,0,70,1,0
1210,-200,4,2,0,70,0,0
1619,-133.333333333333,4,2,0,70,0,0
2028,-100,4,2,0,70,0,0
2301,-80,4,2,0,70,0,0
2983,-100,4,2,0,70,0,0
3255,-66.6666666666667,4,2,0,70,0,0
3528,-133.333333333333,4,2,0,70,0,0
4074,-66.6666666666667,4,2,0,70,0,0
4346,-100,4,2,0,70,0,0
5437,-100,4,2,0,70,0,1
5505,-100,4,2,0,70,0,0
9801,-200,4,2,0,70,0,0
11983,-133.333333333333,4,2,0,70,0,0
22346,-66.6666666666667,4,2,0,70,0,0
22619,-50,4,2,0,70,0,0
22892,-76.9230769230769,4,2,0,70,0,1
23710,-66.6666666666667,4,2,0,70,0,1
23983,-100,4,2,0,70,0,1
24528,-100,4,2,0,70,0,1
25074,-76.9230769230769,4,2,0,70,0,1
25619,-66.6666666666667,4,2,0,70,0,1
25755,-133.333333333333,4,2,0,70,0,1
26028,-83.3333333333333,4,2,0,70,0,1
26164,-100,4,2,0,70,0,1
26710,-76.9230769230769,4,2,0,70,0,1
26983,-133.333333333333,4,2,0,70,0,1
27255,-76.9230769230769,4,2,0,70,0,1
27801,-133.333333333333,4,2,0,70,0,1
27937,-76.9230769230769,4,2,0,70,0,1
28074,-66.6666666666667,4,2,0,70,0,1
28346,-100,4,2,0,70,0,1
28892,-117.647058823529,4,2,0,70,0,1
29437,-83.3333333333333,4,2,0,70,0,1
30255,-117.647058823529,4,2,0,70,0,1
30528,-66.6666666666667,4,2,0,70,0,1
31346,-100,4,2,0,70,0,1
31483,-133.333333333333,4,2,0,70,0,1
31619,-100,4,2,0,70,0,0
31687,-100,4,2,0,70,0,1
32028,-66.6666666666667,4,2,0,70,0,1
32437,-57.1428571428571,4,2,0,70,0,1
32574,-50,4,2,0,70,0,1
32710,-66.6666666666667,4,2,0,70,0,1
33119,-100,4,2,0,70,0,1
33255,-66.6666666666667,4,2,0,70,0,1
34074,-100,4,2,0,70,0,1
34210,-80,4,2,0,70,0,1
34483,-66.6666666666667,4,2,0,70,0,1
34619,-80,4,2,0,70,0,1
34755,-100,4,2,0,70,0,1
35301,-66.6666666666667,4,2,0,70,0,1
35710,-100,4,2,0,70,0,1
36255,-66.6666666666667,4,2,0,70,0,1
36801,-100,4,2,0,70,0,1
37074,-66.6666666666667,4,2,0,70,0,1
37892,-100,4,2,0,70,0,1
38164,-200,4,2,0,70,0,1
38437,-133.333333333333,4,2,0,70,0,1
38710,-100,4,2,0,70,0,1
39392,-80,4,2,0,70,0,1
39596,-133.333333333333,4,2,0,70,0,1
40346,-153.846153846153,4,2,0,70,0,0
42392,-200,4,2,0,70,0,1
42460,-200,4,2,0,70,0,0
44710,-100,4,2,0,70,0,0
44983,-100,4,2,0,70,0,1
45051,-100,4,2,0,70,0,0
46074,-133.333333333333,4,2,0,70,0,0
47164,-100,4,2,0,70,0,0
47983,-76.9230769230769,4,2,0,70,0,0
49619,-100,4,2,0,70,0,0
50710,-133.333333333333,4,2,0,70,0,0
51528,-100,4,2,0,70,0,0
52346,-76.9230769230769,4,2,0,70,0,0
53437,-66.6666666666667,4,2,0,70,0,0
54528,-100,4,2,0,70,0,0
55074,-66.6666666666667,4,2,0,70,0,0
55619,-57.1428571428571,4,2,0,70,0,0
56710,-66.6666666666667,4,2,0,70,0,0
57801,-50,4,2,0,70,0,0
58074,-100,4,2,0,70,0,0
58892,-66.6666666666667,4,2,0,70,0,0
59983,-133.333333333333,4,2,0,70,0,0
60255,-100,4,2,0,70,0,0
60528,-80,4,2,0,70,0,0
60801,-66.6666666666667,4,2,0,70,0,0
62710,-133.333333333333,4,2,0,70,0,0
64074,-50,4,2,0,70,0,0
64346,-100,4,2,0,70,0,0
64619,-80,4,2,0,70,0,0
64892,-66.6666666666667,4,2,0,70,0,0
65437,-133.333333333333,4,2,0,70,0,0
65846,-66.6666666666667,4,2,0,70,0,0
66392,-100,4,2,0,70,0,0
66528,-66.6666666666667,4,2,0,70,0,0
66801,-133.333333333333,4,2,0,70,0,0
67074,-66.6666666666667,4,2,0,70,0,0
67346,-133.333333333333,4,2,0,70,0,0
68028,-66.6666666666667,4,2,0,70,0,0
68710,-100,4,2,0,70,0,0
70074,-66.6666666666667,4,2,0,70,0,0
70619,-50,4,2,0,70,0,0
71164,-100,4,2,0,70,0,0
72801,-66.6666666666667,4,2,0,70,0,0
73619,-100,4,2,0,70,0,0
74574,-66.6666666666667,4,2,0,70,0,0
75255,-100,4,2,0,70,0,0
75801,-66.6666666666667,4,2,0,70,0,0
76346,-100,4,2,0,70,0,0
77437,-83.3333333333333,4,2,0,70,0,0
77710,-100,4,2,0,70,0,0
78255,-66.6666666666667,4,2,0,70,0,0
79619,-100,4,2,0,70,0,0
80710,-133.333333333333,4,2,0,70,0,0
81528,-83.3333333333333,4,2,0,70,0,0
83028,-66.6666666666667,4,2,0,70,0,0
83164,-100,4,2,0,70,0,0
83710,-66.6666666666667,4,2,0,70,0,0
86164,-100,4,2,0,70,0,1
86233,-100,4,2,0,70,0,0
90528,-200,4,2,0,70,0,0
91619,-133.333333333333,4,2,0,70,0,0
92710,-100,4,2,0,70,0,0
93801,-80,4,2,0,70,0,0
94892,-200,4,2,0,70,0,0
104164,-133.333333333333,4,2,0,70,0,0
104710,-100,4,2,0,70,0,0
105255,-50,4,2,0,70,0,0
105801,-100,4,2,0,70,0,1
106074,-80,4,2,0,70,0,1
106619,-66.6666666666667,4,2,0,70,0,1
108255,-80,4,2,0,70,0,1
108801,-66.6666666666667,4,2,0,70,0,1
109619,-80,4,2,0,70,0,1
109892,-100,4,2,0,70,0,1
110164,-66.6666666666667,4,2,0,70,0,1
110437,-80,4,2,0,70,0,1
110846,-100,4,2,0,70,0,1
110983,-66.6666666666667,4,2,0,70,0,1
111801,-100,4,2,0,70,0,1
112074,-66.6666666666667,4,2,0,70,0,1
112346,-100,4,2,0,70,0,1
112619,-80,4,2,0,70,0,1
113164,-66.6666666666667,4,2,0,70,0,1
113574,-133.333333333333,4,2,0,70,0,1
113846,-66.6666666666667,4,2,0,70,0,1
114460,-100,4,2,0,70,0,0
114528,-66.6666666666667,4,2,0,70,0,1
114801,-80,4,2,0,70,0,1
115346,-68.9655172413793,4,2,0,70,0,1
115483,-60.6060606060606,4,2,0,70,0,1
115892,-100,4,2,0,70,0,1
116164,-133.333333333333,4,2,0,70,0,1
116846,-66.6666666666667,4,2,0,70,0,1
118074,-80,4,2,0,70,0,1
118346,-133.333333333333,4,2,0,70,0,1
118892,-100,4,2,0,70,0,1
119164,-80,4,2,0,70,0,1
119846,-66.6666666666667,4,2,0,70,0,1
120255,-80,4,2,0,70,0,1
120801,-133.333333333333,4,2,0,70,0,1
121346,-100,4,2,0,70,0,1
122301,-86.9565217391304,4,2,0,70,0,1
122574,-80,4,2,0,70,0,1
123255,-133.333333333333,4,2,0,70,0,0
125301,-133.333333333333,4,2,0,70,0,1
125369,-100,4,2,0,70,0,0
125983,-80,4,2,0,70,0,0
126528,-133.333333333333,4,2,0,70,0,0
126937,-100,4,2,0,70,0,0
127346,-80,4,2,0,70,0,0
127892,-66.6666666666667,4,2,0,70,0,0
128164,-100,4,2,0,70,0,0
128710,-80,4,2,0,70,0,0
129119,-133.333333333333,4,2,0,70,0,0
129392,-100,4,2,0,70,0,0
129664,-66.6666666666667,4,2,0,70,0,0
130346,-100,4,2,0,70,0,0
131301,-66.6666666666667,4,2,0,70,0,0
131983,-200,4,2,0,70,0,0
132255,-66.6666666666667,4,2,0,70,0,0
132528,-100,4,2,0,70,0,0
133074,-80,4,2,0,70,0,0
134437,-66.6666666666667,4,2,0,70,0,0
134710,-100,4,2,0,70,0,0
135255,-66.6666666666667,4,2,0,70,0,0
135664,-57.1428571428571,4,2,0,70,0,0
136074,-50,4,2,0,70,0,0
136346,-66.6666666666667,4,2,0,70,0,0
136619,-100,4,2,0,70,0,0
137710,-83.3333333333333,4,2,0,70,0,0
137983,-66.6666666666667,4,2,0,70,0,0
138255,-57.1428571428571,4,2,0,70,0,0
139619,-66.6666666666667,4,2,0,70,0,0
140710,-80,4,2,0,70,0,0
140983,-66.6666666666667,4,2,0,70,0,0
141801,-71.4285714285714,4,2,0,70,0,0
142074,-66.6666666666667,4,2,0,70,0,0
142892,-100,4,2,0,70,0,0
143164,-80,4,2,0,70,0,0
143437,-66.6666666666667,4,2,0,70,0,0
143710,-57.1428571428571,4,2,0,70,0,0
145619,-133.333333333333,4,2,0,70,0,0
145892,-90.9090909090909,4,2,0,70,0,0
146983,-100,4,2,0,70,0,0
148346,-66.6666666666667,4,2,0,70,0,0
149028,-100,4,2,0,70,0,0
149437,-66.6666666666667,4,2,0,70,0,0
150255,-90.9090909090909,4,2,0,70,0,0
150528,-100,4,2,0,70,0,0
150937,-66.6666666666667,4,2,0,70,0,0
151619,-100,4,2,0,70,0,0
152983,-66.6666666666667,4,2,0,70,0,0
154074,-100,4,2,0,70,0,0
154619,-80,4,2,0,70,0,0
154892,-66.6666666666667,4,2,0,70,0,0
156528,-100,4,2,0,70,0,0
157346,-66.6666666666667,4,2,0,70,0,0
157755,-100,4,2,0,70,0,0
158710,-66.6666666666667,4,2,0,70,0,0
159255,-100,4,2,0,70,0,0
160619,-76.9230769230769,4,2,0,70,0,0
160892,-100,4,2,0,70,0,0
161164,-66.6666666666667,4,2,0,70,0,0
162255,-57.1428571428571,4,2,0,70,0,0
162528,-100,4,2,0,70,0,0
164983,-83.3333333333333,4,2,0,70,0,0
165255,-71.4285714285714,4,2,0,70,0,0
165937,-66.6666666666667,4,2,0,70,0,0
166892,-100,4,2,0,70,0,1
166960,-100,4,2,0,70,0,0
175619,-100,4,2,0,70,0,1
182437,-66.6666666666667,4,2,0,70,0,1
184278,-100,4,2,0,70,0,0
184346,-100,4,2,0,70,0,1
185437,-66.6666666666667,4,2,0,70,0,1
185710,-100,4,2,0,70,0,1
186937,-66.6666666666667,4,2,0,70,0,1
187483,-100,4,2,0,70,0,1
187892,-66.6666666666667,4,2,0,70,0,1
188164,-100,4,2,0,70,0,1
190210,-66.6666666666667,4,2,0,70,0,1
191164,-100,4,2,0,70,0,1
191437,-66.6666666666667,4,2,0,70,0,1
191983,-100,4,2,0,70,0,1
192528,-100,4,2,0,70,0,1
193005,-100,4,2,0,70,0,0
193074,-100,4,2,0,70,0,1
194437,-66.6666666666667,4,2,0,70,0,1
194846,-57.1428571428571,4,2,0,70,0,1
195255,-100,4,2,0,70,0,1
197437,-66.6666666666667,4,2,0,70,0,1
197710,-100,4,2,0,70,0,1
199346,-66.6666666666667,4,2,0,70,0,1
199619,-100,4,2,0,70,0,1
200983,-66.6666666666667,4,2,0,70,0,1
201255,-100,4,2,0,70,0,1
201801,-66.6666666666667,4,2,0,70,0,1
203164,-66.6666666666667,4,2,0,70,0,1
203437,-57.1428571428571,4,2,0,70,0,1
203710,-50,4,2,0,70,0,1
203983,-100,4,2,0,70,0,0
205074,-50,4,2,0,70,0,0
207255,-133.333333333333,4,2,0,70,0,0
208346,-66.6666666666667,4,2,0,70,0,1
208414,-66.6666666666667,4,2,0,70,0,0
208619,-100,4,2,0,70,0,0
208755,-66.6666666666667,4,2,0,70,0,0
209437,-66.6666666666667,4,2,0,70,0,1
209505,-66.6666666666667,4,2,0,70,0,0
209574,-100,4,2,0,70,0,0
209983,-66.6666666666667,4,2,0,70,0,0
210528,-100,4,2,0,70,0,0
211619,-80,4,2,0,70,0,0
211892,-66.6666666666667,4,2,0,70,0,0
213528,-57.1428571428571,4,2,0,70,0,0
213801,-100,4,2,0,70,0,0
214892,-66.6666666666667,4,2,0,70,0,0
216801,-100,4,2,0,70,0,0
217074,-80,4,2,0,70,0,0
217483,-66.6666666666667,4,2,0,70,0,0
218164,-100,4,2,0,70,0,0
218437,-66.6666666666667,4,2,0,70,0,0
218710,-80,4,2,0,70,0,0
218914,-100,4,2,0,70,0,0
219255,-66.6666666666667,4,2,0,70,0,0
219664,-100,4,2,0,70,0,0
220346,-133.333333333333,4,2,0,70,0,0
220619,-100,4,2,0,70,0,0
220892,-80,4,2,0,70,0,0
221164,-66.6666666666667,4,2,0,70,0,0
222528,-100,4,2,0,70,0,0
223619,-80,4,2,0,70,0,0
224028,-100,4,2,0,70,0,0
224437,-133.333333333333,4,2,0,70,0,0
224710,-80,4,2,0,70,0,0
224983,-66.6666666666667,4,2,0,70,0,0
225255,-100,4,2,0,70,0,0
225528,-66.6666666666667,4,2,0,70,0,0
226074,-100,4,2,0,70,0,0
226892,-66.6666666666667,4,2,0,70,0,0
227164,-66.6666666666667,4,2,0,70,0,0
227437,-80,4,2,0,70,0,0
227710,-100,4,2,0,70,0,0
227983,-133.333333333333,4,2,0,70,0,0
228392,-80,4,2,0,70,0,0
229074,-100,4,2,0,70,0,0
229346,-80,4,2,0,70,0,0
229619,-66.6666666666667,4,2,0,70,0,0
229892,-50,4,2,0,70,0,0
230301,-66.6666666666667,4,2,0,70,0,0
231528,-100,4,2,0,70,0,0
232074,-80,4,2,0,70,0,0
232346,-66.6666666666667,4,2,0,70,0,0
232892,-100,4,2,0,70,0,0
233437,-66.6666666666667,4,2,0,70,0,1
233437,-66.6666666666667,4,2,0,70,0,1
233710,-100,4,2,0,70,0,1
233846,-66.6666666666667,4,2,0,70,0,1
234801,-100,4,2,0,70,0,1
234937,-66.6666666666667,4,2,0,70,0,1
237801,-66.6666666666667,4,2,0,70,0,1
237869,-66.6666666666667,4,2,0,70,0,0
239846,-100,4,2,0,70,0,0
240255,-133.333333333333,4,2,0,70,0,0
240733,-133.333333333333,4,2,0,5,0,0

[Colours]
Combo1 : 122,233,12
Combo2 : 253,251,187
Combo3 : 165,220,250
Combo4 : 253,119,119

[HitObjects]
152,160,1074,5,0,0:0:0:0:
231,228,1210,2,0,P|259:235|291:236,1,55
152,140,1483,5,0,0:0:0:0:
238,249,1619,2,0,P|306:264|337:263,1,82.5000031471254
378,127,1892,5,0,0:0:0:0:
281,78,2028,2,0,L|155:106,1,110
413,137,2301,5,0,0:0:0:0:
250,53,2437,2,0,L|103:129,1,137.5
147,281,2710,5,0,0:0:0:0:
204,119,2846,1,0,0:0:0:0:
164,304,2983,2,0,L|149:342,7,27.5
168,354,3255,6,0,B|159:370|177:391|217:386|222:320|210:267|169:243|146:255,1,165.000006294251
72,342,3528,5,0,0:0:0:0:
252,316,3664,1,0,0:0:0:0:
148,181,3801,2,0,L|61:127,1,82.5000031471254
85,107,4074,6,0,P|148:187|228:142,1,165.000006294251
432,89,4346,6,0,L|369:101,7,55
453,99,4892,5,0,0:0:0:0:
432,105,4960,1,0,0:0:0:0:
400,114,5028,1,0,0:0:0:0:
363,125,5096,1,0,0:0:0:0:
321,138,5164,5,0,0:0:0:0:
273,153,5233,1,0,0:0:0:0:
220,170,5301,1,0,0:0:0:0:
162,187,5369,1,0,0:0:0:0:
98,205,5437,5,0,0:0:0:0:
256,192,5505,12,0,9664,0:0:0:0:
214,240,9801,6,0,L|149:227,1,55
298,144,10074,2,0,L|363:157,1,55
209,245,10346,6,0,L|136:231,1,55
302,138,10619,2,0,L|375:152,1,55
204,250,10892,6,0,L|124:234,1,55
307,133,11164,2,0,L|387:149,1,55
200,255,11437,6,0,L|120:239,1,55
312,129,11710,2,0,L|391:144,1,55
198,209,11983,6,0,P|187:156|191:129,1,82.5000031471254
314,175,12255,2,0,P|325:228|321:255,1,82.5000031471254
181,199,12528,6,0,P|170:146|174:119,1,82.5000031471254
331,185,12801,2,0,P|342:238|338:265,1,82.5000031471254
162,187,13074,6,0,P|151:134|155:107,1,82.5000031471254
350,197,13346,2,0,P|361:250|357:277,1,82.5000031471254
146,178,13619,6,0,P|135:125|139:98,1,82.5000031471254
366,206,13892,2,0,P|377:259|373:286,1,82.5000031471254
231,49,14164,5,0,0:0:0:0:
235,62,14710,1,0,0:0:0:0:
239,75,15255,1,0,0:0:0:0:
243,89,15801,1,0,0:0:0:0:
108,294,16346,5,0,0:0:0:0:
115,261,16892,1,0,0:0:0:0:
122,228,17437,1,0,0:0:0:0:
129,195,17983,1,0,0:0:0:0:
404,123,18528,5,0,0:0:0:0:
384,225,18801,1,0,0:0:0:0:
282,205,19074,1,0,0:0:0:0:
302,103,19346,1,0,0:0:0:0:
467,137,19619,5,0,0:0:0:0:
370,288,19892,1,0,0:0:0:0:
219,191,20164,1,0,0:0:0:0:
316,40,20437,1,0,0:0:0:0:
390,203,20710,5,0,0:0:0:0:
312,272,20846,1,0,0:0:0:0:
428,295,20983,1,0,0:0:0:0:
254,238,21119,1,0,0:0:0:0:
347,149,21255,5,0,0:0:0:0:
394,230,21392,1,0,0:0:0:0:
329,74,21528,1,0,0:0:0:0:
297,252,21664,1,0,0:0:0:0:
220,114,21801,5,0,0:0:0:0:
218,107,21869,1,0,0:0:0:0:
216,100,21937,1,0,0:0:0:0:
214,93,22005,1,0,0:0:0:0:
212,85,22074,1,0,0:0:0:0:
210,78,22142,1,0,0:0:0:0:
208,71,22210,1,0,0:0:0:0:
205,63,22278,1,0,0:0:0:0:
173,41,22346,6,0,B|173:64|173:64|182:68|182:68|182:82|160:113|160:113|176:139|176:139|174:164|162:190|162:190|156:228|197:233|209:212|197:177|164:191,1,247.500009441376
246,145,22619,6,0,B|318:128|356:64|294:-3|246:24|236:72|269:76,1,220
508,212,22892,6,0,B|481:218|481:218|469:199|469:199|433:198|409:176|409:176|358:181|345:170|341:149|341:149|374:168,1,214.49999018097
300,220,23164,2,0,P|296:264|316:312,1,71.4999967269899
196,144,23301,2,0,P|200:100|180:52,1,71.4999967269899
76,232,23437,1,0,0:0:0:0:
76,232,23574,6,0,L|172:228,1,71.4999967269899
348,296,23710,6,0,P|312:300|256:280,1,82.5000031471254
52,208,23846,6,0,P|124:200|164:216,1,82.5000031471254
376,328,23983,1,0,0:0:0:0:
272,120,24119,1,0,0:0:0:0:
136,304,24255,1,0,0:0:0:0:
384,232,24392,1,0,0:0:0:0:
212,68,24528,6,0,P|192:124|268:200,1,165
340,148,24801,1,0,0:0:0:0:
344,132,24869,1,0,0:0:0:0:
348,120,24937,1,0,0:0:0:0:
352,108,25005,1,0,0:0:0:0:
356,96,25074,6,0,L|368:200,1,71.4999967269899
376,328,25210,2,0,P|436:324|456:336,1,71.4999967269899
212,260,25346,2,0,P|152:264|132:252,1,71.4999967269899
352,296,25483,2,0,L|448:304,1,71.4999967269899
180,216,25619,6,0,L|92:204,1,82.5000031471254
24,192,25755,1,0,0:0:0:0:
212,68,25892,1,0,0:0:0:0:
292,268,26028,1,0,0:0:0:0:
440,144,26164,6,0,P|448:104|436:72,1,55
268,200,26301,2,0,P|260:240|272:272,1,55
360,60,26437,5,0,0:0:0:0:
364,92,26505,1,0,0:0:0:0:
368,128,26574,1,0,0:0:0:0:
376,180,26642,1,0,0:0:0:0:
376,220,26710,6,0,B|404:236|432:224|432:204|416:184|384:168|356:168|332:176|316:188|316:188|292:204|248:196,1,214.49999018097
156,192,26983,6,0,B|144:148|144:148|172:108|172:108|184:152,1,123.750004720688
67,244,27255,6,0,B|58:243|34:244|26:230|26:230|64:216|64:216|87:197|87:197|100:198|121:201|121:201|148:189|173:199|193:235,1,214.49999018097
240,308,27528,2,0,P|248:348|240:376,1,71.4999967269899
332,208,27664,2,0,P|336:164|352:132,1,71.4999967269899
444,300,27801,6,0,L|440:360,1,41.2500015735627
432,352,27937,6,0,L|432:264,1,71.4999967269899
360,116,28074,6,0,L|356:216,1,82.5000031471254
240,308,28210,6,0,L|236:208,1,82.5000031471254
212,80,28346,6,0,B|232:76|260:92|248:108|232:132|212:124|188:116|188:116|160:112|132:112|104:140,1,165
75,204,28619,1,0,0:0:0:0:
71,224,28687,1,0,0:0:0:0:
67,244,28755,1,0,0:0:0:0:
63,260,28824,1,0,0:0:0:0:
88,296,28892,6,0,P|133:281|155:177,1,140.250002675057
240,232,29164,2,0,B|288:228|288:228|332:240|332:240|404:232,1,140.250002675057
492,216,29437,6,0,B|472:212|472:212|460:220|460:220|424:212|396:236|396:236|380:244|360:252|340:244|332:224|332:224|364:216,1,197.99999395752
136,152,29710,2,0,B|156:156|156:156|168:148|168:148|204:156|232:132|232:132|248:124|268:116|288:124|296:144|296:144|264:152,1,197.99999395752
304,120,29983,1,0,0:0:0:0:
248,288,30119,2,0,P|256:324|284:360,1,65.9999979858399
304,344,30255,6,0,L|140:336,1,140.250002675057
92,348,30528,6,0,B|112:316|112:316|92:308|92:308|120:264|116:220|96:188|96:188|108:160,1,165.000006294251
76,60,30733,1,0,0:0:0:0:
76,60,30801,2,0,B|140:60|140:60|128:80,1,82.5000031471254
248,52,30937,2,0,P|216:92|256:192,1,165.000006294251
356,216,31142,1,0,0:0:0:0:
400,188,31210,1,0,0:0:0:0:
448,204,31278,1,0,0:0:0:0:
488,208,31346,6,0,L|480:272,1,55
304,344,31483,6,0,P|308:312|328:292,1,41.2500015735627
468,128,31619,5,0,0:0:0:0:
236,248,31755,1,0,0:0:0:0:
496,96,31892,6,0,L|416:136,1,55
216,272,32028,6,0,L|312:224,1,82.5000031471254
416,32,32164,1,0,0:0:0:0:
442,58,32301,6,0,B|422:57|422:57|422:46|422:46|384:54|329:13,1,82.5000031471254
296,146,32437,6,0,B|275:142|275:142|282:132|282:132|230:126|196:76,1,96.2500009179115
113,200,32574,6,0,B|90:192|90:192|103:184|103:184|52:167|28:113,1,110
174,44,32710,6,0,B|186:26|228:30|224:109|172:125|57:99,1,165.000006294251
26,3,32983,1,0,0:0:0:0:
221,119,33119,6,0,L|294:154,1,55
408,183,33255,6,0,B|392:187|392:187|383:173|383:173|359:191|301:186|301:186|272:159|272:159|218:162|176:102,1,247.500009441376
192,86,33528,1,0,0:0:0:0:
261,252,33664,1,0,0:0:0:0:
320,30,33801,5,0,0:0:0:0:
171,230,33937,2,0,L|111:309,1,82.5000031471254
175,384,34074,6,0,L|209:338,1,55
94,180,34210,6,0,L|140:119,1,68.75
11,265,34346,1,0,0:0:0:0:
147,95,34483,6,0,L|87:171,1,82.5000031471254
217,312,34619,6,0,L|169:375,1,68.75
130,265,34755,6,0,L|163:220,1,55
340,166,34892,5,0,0:0:0:0:
364,164,34960,1,0,0:0:0:0:
400,149,35028,1,0,0:0:0:0:
428,116,35096,1,0,0:0:0:0:
438,62,35164,1,0,0:0:0:0:
281,117,35301,2,0,P|377:142|402:123,1,82.5000031471254
500,165,35437,6,0,B|486:154|486:154|474:175|474:175|453:156|423:148|423:148|387:151|351:165|351:165|312:168|268:148,1,247.500009441376
244,183,35710,2,0,B|220:195|220:195|116:175,1,110
40,115,35983,1,0,0:0:0:0:
184,208,36119,6,0,L|245:221,1,55
392,290,36255,6,0,B|360:302|321:294|321:294|342:279,1,82.5000031471254
211,234,36392,2,0,B|179:246|140:238|140:238|161:223,1,82.5000031471254
359,147,36528,1,0,0:0:0:0:
375,126,36664,6,0,P|343:141|268:138,1,82.5000031471254
113,247,36801,6,0,B|104:253|104:253|143:261|169:249,1,55
299,301,36937,2,0,B|290:307|290:307|329:315|355:303,1,55
471,178,37074,6,0,B|489:179|496:156|476:131|408:143|378:164|353:221,1,165.000006294251
433,284,37346,1,0,0:0:0:0:
385,68,37483,1,0,0:0:0:0:
310,258,37619,6,0,B|286:276|286:276|248:241|238:130,1,165.000006294251
245,307,37892,6,0,B|254:268|254:268|249:180|249:180|259:137,1,165
295,122,38164,6,0,P|279:152|277:133,1,82.5
390,121,38437,6,0,B|402:128|409:135|409:135|366:176|373:247,1,123.750004720688
383,303,38710,6,0,B|387:320|410:324|431:298|415:244|334:227|279:253,1,165
251,298,38983,1,0,0:0:0:0:
439,241,39119,1,0,0:0:0:0:
319,360,39255,5,0,0:0:0:0:
222,187,39392,2,0,B|226:173|226:173|211:143|197:138|197:138|205:113|199:79|199:79|184:37,1,137.5
185,233,39664,6,0,P|204:124|124:56,1,206.250007867813
103,144,40074,5,0,0:0:0:0:
107,155,40142,1,0,0:0:0:0:
111,166,40210,1,0,0:0:0:0:
115,177,40278,1,0,0:0:0:0:
120,188,40346,1,0,0:0:0:0:
120,188,40619,6,0,L|32:184,1,71.4999967269899
260,248,40892,2,0,L|348:252,1,71.4999967269899
348,260,41301,1,0,0:0:0:0:
404,136,41437,1,0,0:0:0:0:
284,172,41574,1,0,0:0:0:0:
412,308,41710,1,0,0:0:0:0:
484,112,41846,1,0,0:0:0:0:
252,204,42119,5,0,0:0:0:0:
480,348,42255,1,0,0:0:0:0:
300,136,42392,6,0,B|256:112|220:120|192:144|192:144|200:116|192:84|180:76|172:76|144:56|116:72|120:124|164:100,1,275
76,256,43346,1,0,0:0:0:0:
76,256,43619,2,0,B|112:248|132:260|132:260|148:252|148:252|180:264|200:252,1,110
352,204,44028,5,0,0:0:0:0:
392,192,44096,1,0,0:0:0:0:
432,208,44164,1,0,0:0:0:0:
456,244,44233,1,0,0:0:0:0:
460,284,44301,1,0,0:0:0:0:
436,320,44369,1,0,0:0:0:0:
400,336,44437,5,0,0:0:0:0:
348,336,44505,1,0,0:0:0:0:
296,312,44574,1,0,0:0:0:0:
260,268,44642,1,0,0:0:0:0:
248,208,44710,2,0,P|256:152|276:128,1,55
164,316,44846,2,0,P|156:372|136:396,1,55
32,220,44983,5,0,0:0:0:0:
32,220,45255,2,0,L|144:216,1,110
300,296,45528,1,0,0:0:0:0:
408,128,45664,1,0,0:0:0:0:
480,216,45801,2,0,P|416:244|324:204,1,165
256,56,46074,6,0,P|256:32|264:12,1,41.2500015735627
234,57,46210,2,0,P|230:33|235:12,1,41.2500015735627
332,52,46346,1,0,0:0:0:0:
408,160,46483,1,0,0:0:0:0:
308,284,46619,2,0,L|312:336,1,41.2500015735627
224,264,46755,2,0,L|228:316,1,41.2500015735627
148,216,46892,1,0,0:0:0:0:
328,112,47028,1,0,0:0:0:0:
192,28,47164,6,0,P|176:84|208:140,1,110
370,219,47437,2,0,L|482:215,1,110
252,76,47710,2,0,L|140:72,1,110
308,284,47983,6,0,B|356:252|367:213|353:153|330:136|330:136|291:176,1,214.49999018097
404,80,48255,1,0,0:0:0:0:
404,80,48392,2,0,L|176:72,1,214.49999018097
156,64,48664,2,0,P|196:60|224:24,1,71.4999967269899
72,16,48801,5,0,0:0:0:0:
76,56,48869,1,0,0:0:0:0:
80,100,48937,1,0,0:0:0:0:
84,148,49005,1,0,0:0:0:0:
92,208,49074,1,0,0:0:0:0:
332,96,49210,1,0,0:0:0:0:
48,280,49346,6,0,B|100:304|144:272|144:272|176:268|208:288,1,142.99999345398
304,328,49619,1,0,0:0:0:0:
396,196,49755,1,0,0:0:0:0:
472,340,49892,1,0,0:0:0:0:
392,284,50028,1,0,0:0:0:0:
304,216,50164,6,0,P|292:160|316:108,1,110
479,236,50437,2,0,P|491:292|467:344,1,110
220,248,50710,6,0,L|224:200,1,41.2500015735627
131,219,50846,2,0,L|135:163,1,41.2500015735627
44,188,50983,1,0,0:0:0:0:
176,44,51119,1,0,0:0:0:0:
32,208,51255,2,0,P|28:256|80:312,1,123.750004720688
160,312,51528,6,0,P|232:312|268:340,1,110
464,280,51801,2,0,P|392:280|356:252,1,110
468,112,52074,2,0,P|468:168|428:204,1,110
236,148,52346,6,0,B|204:124|160:124|136:144|120:172|120:172|102:157|68:156|68:156|50:113,1,214.49999018097
220,24,52619,1,0,0:0:0:0:
188,212,52755,2,0,P|224:280|368:296,1,214.49999018097
452,272,53028,1,0,0:0:0:0:
480,240,53096,1,0,0:0:0:0:
484,197,53164,1,0,0:0:0:0:
461,161,53233,1,0,0:0:0:0:
420,140,53301,1,0,0:0:0:0:
372,152,53369,1,0,0:0:0:0:
336,204,53437,6,0,B|332:224|332:224|382:218|401:118|383:81,1,165.000006294251
214,180,53710,1,0,0:0:0:0:
301,306,53846,1,0,0:0:0:0:
253,105,53983,5,0,0:0:0:0:
206,202,54119,1,0,0:0:0:0:
185,45,54255,1,0,0:0:0:0:
238,246,54392,1,0,0:0:0:0:
106,84,54528,6,0,P|49:49|-2:39,1,110
104,210,54801,2,0,P|161:245|212:255,1,110
273,87,55074,6,0,P|387:105|450:147,1,165.000006294251
481,328,55346,2,0,P|366:309|303:267,1,165.000006294251
193,176,55619,6,0,B|150:164|175:107|223:115|266:200|333:217|336:149,1,192.500001835823
404,102,55892,1,0,0:0:0:0:
279,215,56028,5,0,0:0:0:0:
460,244,56164,1,0,0:0:0:0:
265,99,56301,1,0,0:0:0:0:
234,293,56437,1,0,0:0:0:0:
406,149,56574,1,0,0:0:0:0:
138,171,56710,6,0,B|123:173|108:187|108:187|162:222|271:208,1,165.000006294251
409,169,56983,2,0,B|426:166|441:130|386:111|323:113|271:149,1,165.000006294251
54,234,57255,6,0,P|195:240|277:195,1,165.000006294251
445,102,57528,2,0,P|341:96|258:143,1,165.000006294251
117,288,57801,6,0,P|111:327|152:269,1,220
35,342,58074,2,0,L|5:359,7,27.5
39,297,58346,5,0,0:0:0:0:
234,340,58483,1,0,0:0:0:0:
291,183,58619,1,0,0:0:0:0:
143,268,58755,1,0,0:0:0:0:
47,106,58892,6,0,B|35:86|35:86|70:95|100:123|100:123|119:110|119:110|149:122|229:114,1,165.000006294251
320,108,59164,2,0,B|349:127|328:173|254:158|254:158|239:171|239:171|173:171,1,165.000006294251
0,103,59437,6,0,P|115:60|152:79,1,165.000006294251
358,180,59710,1,0,0:0:0:0:
170,162,59846,1,0,0:0:0:0:
332,58,59983,6,0,L|409:95,1,82.5000031471254
332,58,60255,6,0,L|436:123,1,110
332,58,60528,6,0,L|437:159,1,137.5
332,58,60801,6,0,L|426:199,1,165.000006294251
332,58,61074,5,0,0:0:0:0:
361,261,61210,1,0,0:0:0:0:
332,58,61346,5,0,0:0:0:0:
249,288,61483,1,0,0:0:0:0:
332,58,61619,5,0,0:0:0:0:
127,251,61755,1,0,0:0:0:0:
110,66,61892,5,0,0:0:0:0:
128,49,61960,1,0,0:0:0:0:
165,32,62028,1,0,0:0:0:0:
222,26,62096,1,0,0:0:0:0:
287,59,62164,5,0,0:0:0:0:
104,83,62437,1,0,0:0:0:0:
326,63,62710,6,0,P|332:32|308:53,1,82.5000031471254
63,79,62983,2,0,P|57:110|82:90,1,82.5000031471254
192,159,63255,5,0,0:0:0:0:
324,308,63392,1,0,0:0:0:0:
193,172,63528,1,0,0:0:0:0:
325,321,63664,1,0,0:0:0:0:
287,66,63801,5,0,0:0:0:0:
324,91,64074,6,0,P|305:107|331:60,1,220
251,174,64346,6,0,P|181:109|181:27,1,165
144,39,64619,6,0,P|164:145|269:221,1,206.25
219,246,64892,6,0,P|124:138|117:27,1,247.500009441376
77,35,65164,5,0,0:0:0:0:
197,284,65301,1,0,0:0:0:0:
355,143,65437,6,0,L|427:89,1,82.5000031471254
186,130,65710,1,0,0:0:0:0:
328,178,65846,6,0,P|386:114|328:54,1,165.000006294251
153,141,66119,1,0,0:0:0:0:
235,306,66255,1,0,0:0:0:0:
123,144,66392,6,0,L|67:93,1,55
306,212,66528,6,0,B|330:232|330:232|342:226|342:226|380:253|419:249|419:249|433:239|433:239|457:255|487:238,1,165.000006294251
452,246,66801,2,0,L|356:256,1,82.5000031471254
370,254,67074,6,0,B|388:244|398:218|398:218|388:220|388:220|417:195|416:165|416:165|439:145|441:113,1,165.000006294251
438,128,67346,2,0,L|450:226,1,82.5000031471254
448,210,67619,5,0,0:0:0:0:
214,105,67755,2,0,B|198:108|198:108|281:147,1,82.5000031471254
138,86,68028,6,0,P|210:125|298:88,1,165.000006294251
68,38,68301,1,0,0:0:0:0:
176,211,68437,1,0,0:0:0:0:
211,36,68574,1,0,0:0:0:0:
98,167,68710,6,0,P|93:239|126:282,1,110
299,325,68983,2,0,P|280:262|236:212,1,110
46,199,69255,6,0,P|101:281|206:323,1,165
322,266,69528,2,0,P|272:203|185:154,1,165
61,296,69801,5,0,0:0:0:0:
64,312,69869,1,0,0:0:0:0:
68,327,69937,1,0,0:0:0:0:
72,342,70005,1,0,0:0:0:0:
111,357,70074,6,0,P|130:279|79:208,1,165.000006294251
158,108,70346,5,0,0:0:0:0:
170,129,70414,1,0,0:0:0:0:
182,150,70483,1,0,0:0:0:0:
194,171,70551,1,0,0:0:0:0:
257,207,70619,6,0,P|262:120|119:22,1,220
93,170,70892,5,0,0:0:0:0:
294,233,71028,1,0,0:0:0:0:
205,85,71164,2,0,B|183:84|183:84|75:144,1,110
177,237,71437,2,0,P|198:238|166:204,1,110
102,308,71710,1,0,0:0:0:0:
336,260,71846,1,0,0:0:0:0:
406,57,71983,5,0,0:0:0:0:
163,349,72255,1,0,0:0:0:0:
43,44,72528,5,0,0:0:0:0:
392,36,72664,1,0,0:0:0:0:
158,319,72801,2,0,B|134:331|171:372|216:350|225:281|164:242,1,165.000006294251
188,347,73074,6,0,P|237:283|223:205,1,165.000006294251
127,20,73346,2,0,P|77:83|92:162,1,165.000006294251
316,272,73619,6,0,L|440:268,1,110
244,136,73892,1,0,0:0:0:0:
136,288,74028,1,0,0:0:0:0:
268,116,74164,2,0,P|284:172|248:232,1,110
64,268,74437,1,0,0:0:0:0:
296,96,74574,6,0,P|292:184|204:236,1,165.000006294251
48,284,74846,1,0,0:0:0:0:
212,136,74983,1,0,0:0:0:0:
60,96,75119,1,0,0:0:0:0:
260,244,75255,6,0,P|320:260|368:244,1,110
504,92,75528,2,0,P|444:76|396:92,1,110
236,248,75801,6,0,B|288:268|332:264|360:232|360:232|304:220,1,165.000006294251
484,112,76074,2,0,B|452:104|452:104|436:112|436:112|392:96|352:104|352:104|336:96|336:96|300:100,1,165.000006294251
180,176,76346,1,0,0:0:0:0:
64,68,76483,1,0,0:0:0:0:
276,12,76619,1,0,0:0:0:0:
140,192,76755,6,0,P|124:168|140:84,1,110
64,240,77028,1,0,0:0:0:0:
276,128,77164,2,0,P|292:152|280:232,1,110
276,236,77437,6,0,B|320:228|320:228|336:232|336:232|368:228|368:228|392:232|392:232|432:228,1,131.99999597168
488,192,77710,1,0,0:0:0:0:
356,332,77846,1,0,0:0:0:0:
176,176,77983,2,0,P|172:164|224:88,1,110
168,228,78255,6,0,P|132:132|172:56,1,165.000006294251
396,64,78528,5,0,0:0:0:0:
400,84,78596,1,0,0:0:0:0:
404,104,78664,1,0,0:0:0:0:
408,120,78733,1,0,0:0:0:0:
448,192,78801,2,0,B|428:188|404:196|404:196|364:180|364:180|312:188|280:168,1,165.000006294251
164,360,79074,5,0,0:0:0:0:
168,344,79142,1,0,0:0:0:0:
172,328,79210,1,0,0:0:0:0:
176,312,79278,1,0,0:0:0:0:
144,248,79346,2,0,P|228:240|292:148,1,165.000006294251
128,12,79619,6,0,P|124:88|176:128,1,110
360,180,79892,1,0,0:0:0:0:
248,300,80028,1,0,0:0:0:0:
304,92,80164,1,0,0:0:0:0:
476,240,80301,1,0,0:0:0:0:
272,352,80437,2,0,P|288:288|248:236,1,110
108,204,80710,6,0,L|8:200,2,82.5000031471254
212,304,81119,1,0,0:0:0:0:
352,244,81255,1,0,0:0:0:0:
236,136,81392,1,0,0:0:0:0:
408,300,81528,6,0,P|432:220|396:176,1,131.99999597168
172,104,81801,1,0,0:0:0:0:
296,40,81937,1,0,0:0:0:0:
120,88,82074,5,0,0:0:0:0:
344,132,82210,1,0,0:0:0:0:
160,56,82346,5,0,0:0:0:0:
360,208,82483,1,0,0:0:0:0:
88,104,82619,5,0,0:0:0:0:
360,56,82755,1,0,0:0:0:0:
288,228,82892,1,0,0:0:0:0:
160,56,83028,5,0,0:0:0:0:
312,152,83164,2,0,P|372:164|424:136,1,110
184,64,83437,2,0,P|124:52|72:80,1,110
313,195,83710,2,0,B|341:198|376:184|376:184|401:189|401:189|426:172|455:172|455:172|475:148|473:133|449:112|418:121|411:151,1,247.500009441376
448,248,83983,1,0,0:0:0:0:
256,288,84801,1,0,0:0:0:0:
368,224,85074,1,0,0:0:0:0:
348,336,85892,1,0,0:0:0:0:
386,329,86164,5,0,0:0:0:0:
256,192,86233,12,0,90392,0:0:0:0:
242,217,90528,6,0,L|300:241,1,55
434,231,90801,2,0,L|376:207,1,55
257,243,91074,2,0,L|185:258,1,55
62,206,91346,2,0,L|134:191,1,55
259,218,91619,6,0,L|341:248,1,82.5000031471254
478,208,91892,2,0,L|396:178,1,82.5000031471254
239,246,92164,2,0,L|148:274,1,82.5000031471254
30,191,92437,2,0,L|121:163,1,82.5000031471254
271,209,92710,6,0,L|378:245,1,110
498,147,92983,2,0,L|390:111,1,110
219,251,93255,2,0,L|107:278,1,110,0|0,0:3|0:3,0:3:0:0:
0,153,93528,2,0,L|112:126,1,110,0|0,0:3|0:3,0:3:0:0:
284,201,93801,6,0,L|431:249,1,137.5
512,101,94074,2,0,L|365:53,1,137.5
190,263,94346,2,0,L|31:303,1,137.5
0,111,94619,2,0,L|159:71,1,137.5
304,208,94892,6,0,P|348:224|416:204,1,110
464,164,95437,1,0,0:0:0:0:
348,80,95983,2,0,L|356:160,2,55
240,172,96528,2,0,L|248:252,2,55
156,272,97074,2,0,B|336:260|336:260|324:308,1,220
352,292,97892,1,0,0:0:0:0:
304,184,98164,1,0,0:0:0:0:
424,212,98437,1,0,0:0:0:0:
326,298,98710,5,0,0:0:0:0:
278,190,98983,1,0,0:0:0:0:
412,220,99255,2,0,P|432:268|416:332,1,110
248,264,99801,2,0,B|284:284|284:284|360:276,1,110
192,192,100346,5,0,0:0:0:0:
164,272,100483,1,0,0:0:0:0:
92,320,100619,1,0,0:0:0:0:
216,184,100755,5,0,0:0:0:0:
84,236,100892,1,0,0:0:0:0:
216,344,101028,1,0,0:0:0:0:
244,156,101164,5,0,0:0:0:0:
44,248,101301,1,0,0:0:0:0:
312,328,101437,1,0,0:0:0:0:
256,192,101505,12,0,103483,0:0:0:0:
160,164,103619,6,0,P|200:160|228:168,1,55
340,236,103892,2,0,P|300:240|272:232,1,55
136,148,104164,6,0,P|176:140|224:152,1,82.5000031471254
360,256,104437,2,0,P|320:264|272:252,1,82.5000031471254
108,128,104710,6,0,P|148:116|220:132,1,110
388,272,104983,6,0,P|348:284|276:268,1,110
113,81,105255,6,0,B|108:70|90:74|79:100|89:107|141:143|151:91|171:79|200:111|200:111|229:111|229:111|246:112|262:129|238:164|208:143,1,247.500009441376
332,220,105528,2,0,B|264:261|202:242|174:217|173:176|180:161|215:147|256:176|260:191|284:232,1,220
502,266,105801,5,0,0:0:0:0:
301,331,105937,1,0,0:0:0:0:
344,164,106074,6,0,B|335:154|335:154|331:167|331:167|256:178,1,68.75
132,144,106210,2,0,B|123:134|123:134|119:147|119:147|44:158,1,68.75
44,324,106346,1,0,0:0:0:0:
276,264,106483,1,0,0:0:0:0:
112,168,106619,6,0,P|164:140|196:160,1,82.5000031471254
291,52,106755,2,0,P|343:24|375:44,1,82.5000031471254
426,155,106892,5,0,0:0:0:0:
272,133,107028,1,0,0:0:0:0:
510,156,107164,6,0,B|534:180|534:180|508:189|471:171|471:171|448:187|448:187|405:178|343:182|343:182|318:210|296:186,1,247.500009441376
229,284,107437,1,0,0:0:0:0:
486,292,107574,1,0,0:0:0:0:
291,214,107710,6,0,B|321:203|321:203|327:182|327:182|370:190|406:161|406:161|402:148|402:148|454:166|454:166|445:143|500:148,1,247.500009441376
498,123,107983,1,0,0:0:0:0:
292,252,108119,1,0,0:0:0:0:
510,275,108255,6,0,L|413:250,1,68.75
241,92,108392,2,0,L|334:117,1,68.75
381,222,108528,6,0,P|391:253|351:215,1,137.5
435,97,108801,6,0,P|418:138|401:98,1,82.5000031471254
237,164,108937,2,0,P|220:205|203:165,1,82.5000031471254
29,232,109074,6,0,B|10:250|10:250|72:246|118:266|118:266|196:245,1,165.000006294251
254,143,109346,1,0,0:0:0:0:
89,59,109483,1,0,0:0:0:0:
0,223,109619,6,0,P|2:283|135:293,1,206.25
145,278,109892,6,0,B|155:267|155:267|221:258,1,55
304,311,110028,2,0,B|317:318|317:318|397:318,1,55
490,181,110164,6,0,P|433:166|375:261,1,165.000006294251
503,267,110437,6,0,B|493:255|493:255|476:258|476:258|440:235,1,68.75
274,213,110574,2,0,B|259:208|259:208|255:191|255:191|219:167,1,68.75
76,130,110710,1,0,0:0:0:0:
60,143,110846,6,0,B|52:150|52:150|124:143,1,55
301,77,110983,6,0,B|279:108|279:108|221:67,1,82.5000031471254
60,224,111119,2,0,B|88:193|88:193|159:209,1,82.5000031471254
275,242,111255,6,0,B|301:251|301:251|361:248|361:248|384:228|384:228|415:238|487:227,2,165.000006294251
134,146,111664,1,0,0:0:0:0:
242,243,111801,6,0,P|316:264|368:183,1,165
351,180,112074,6,0,L|301:246,1,82.5000031471254
91,275,112210,2,0,L|141:209,1,82.5000031471254
287,136,112346,6,0,P|386:111|428:187,1,165
417,192,112619,6,0,P|380:101|471:33,1,206.25
492,52,112892,1,0,0:0:0:0:
266,164,113028,1,0,0:0:0:0:
168,57,113164,6,0,B|148:38|148:38|141:43|141:43|126:31|82:21,1,82.5000031471254
140,209,113301,2,0,B|160:226|160:226|188:223|188:223|203:239|261:249,1,82.5000031471254
285,65,113437,5,0,0:0:0:0:
41,175,113574,2,0,B|28:189|28:189|119:183,1,82.5000031471254
21,161,113846,6,0,B|-3:194|-3:194|124:210,1,165.000006294251
315,173,114119,1,0,0:0:0:0:
135,153,114255,5,0,0:0:0:0:
93,174,114324,1,0,0:0:0:0:
76,205,114392,1,0,0:0:0:0:
76,233,114460,1,0,0:0:0:0:
92,272,114528,2,0,P|116:280|184:164,1,165.000006294251
204,168,114801,6,0,B|204:188|204:188|215:198|215:198|215:218|226:248,1,68.75
336,344,114937,2,0,B|336:323|336:323|347:313|347:313|347:293|358:263,1,68.75
440,140,115074,1,0,0:0:0:0:
292,60,115210,6,0,P|284:104|296:132,1,68.75
464,232,115346,6,0,P|476:176|460:144,1,79.7500024337769
268,64,115483,6,0,P|272:144|292:168,1,90.7500008654595
492,264,115619,5,0,0:0:0:0:
340,104,115755,1,0,0:0:0:0:
488,304,115892,2,0,L|496:364,2,55
372,132,116164,6,0,B|395:140|407:156|407:156|367:171|343:171|323:155|323:155|303:166|303:166|271:146|271:146|251:145|227:157|196:112,1,247.500009441376
252,112,116710,1,0,0:0:0:0:
84,64,116846,6,0,L|100:164,1,82.5000031471254
240,296,116983,2,0,L|224:196,1,82.5000031471254
260,96,117119,1,0,0:0:0:0:
116,288,117255,1,0,0:0:0:0:
24,132,117392,6,0,B|48:136|68:132|68:132|84:136|108:136,1,82.5000031471254
328,180,117528,2,0,B|304:184|284:180|284:180|268:184|244:184,1,82.5000031471254
104,316,117664,5,0,0:0:0:0:
104,316,117733,1,0,0:0:0:0:
104,316,117801,2,0,P|96:256|120:216,1,82.5000031471254
240,224,117937,2,0,P|196:272|164:272,1,82.5000031471254
72,328,118074,6,0,P|60:252|180:196,1,206.25
309,264,118346,6,0,B|309:268|317:268|337:264|337:264|329:284|329:292|301:300|285:300|301:284|253:284|253:284|229:264|213:268|185:264|165:284,1,206.250007867813
192,288,118755,1,0,0:0:0:0:
80,164,118892,6,0,B|96:172|96:172|108:168|108:136|92:120|48:116,1,110
48,104,119164,6,0,P|108:116|140:104,1,68.75
312,64,119301,2,0,P|264:56|232:68,1,68.75
32,136,119437,1,0,0:0:0:0:
352,72,119574,6,0,B|344:82|344:82|346:91|346:91|339:101|342:119|330:135,1,68.75
192,288,119710,2,0,B|199:277|199:277|197:268|197:268|204:258|201:240|213:224,1,68.75
368,88,119846,6,0,B|360:112|360:112|360:128|360:128|348:156|352:196,1,82.5000031471254
240,340,119983,2,0,B|232:316|232:316|232:300|232:300|220:272|224:232,1,82.5000031471254
152,100,120119,5,0,0:0:0:0:
132,80,120187,1,0,0:0:0:0:
112,56,120255,2,0,B|100:68|100:92|120:104|152:84|176:76|176:76|204:88|252:76,1,137.5
424,32,120528,1,0,0:0:0:0:
180,156,120664,1,0,0:0:0:0:
448,60,120801,1,0,0:0:0:0:
446,71,120869,1,0,0:0:0:0:
445,83,120937,1,0,0:0:0:0:
444,95,121005,1,0,0:0:0:0:
444,108,121074,6,0,P|412:128|404:92,1,82.5000031471254
480,192,121346,2,0,B|448:184|448:184|336:192,1,110
216,232,121619,6,0,B|191:241|187:253|202:286|231:288|260:275|308:246|309:217|303:175,1,165
280,180,121892,1,0,0:0:0:0:
456,216,122028,1,0,0:0:0:0:
356,328,122164,1,0,0:0:0:0:
448,232,122301,6,0,P|464:176|408:124,1,126.500002412796
404,208,122574,6,0,B|402:216|398:227|398:227|388:213|380:190|377:170|386:159|386:159|358:130|358:130|375:107|382:79|371:49|338:40,1,206.25
280,24,122846,1,0,0:0:0:0:
276,48,122914,1,0,0:0:0:0:
272,68,122983,1,0,0:0:0:0:
268,88,123051,1,0,0:0:0:0:
264,108,123119,1,0,0:0:0:0:
260,128,123187,1,0,0:0:0:0:
218,148,123255,6,0,B|204:159|204:159|221:168|221:168|209:180|204:198|203:235|203:235|178:272,1,123.750004720688
170,264,123528,5,0,0:0:0:0:
304,186,123664,1,0,0:0:0:0:
146,64,123801,1,0,0:0:0:0:
189,307,123937,1,0,0:0:0:0:
223,319,124210,5,0,0:0:0:0:
83,171,124346,1,0,0:0:0:0:
315,148,124483,1,0,0:0:0:0:
86,276,124619,1,0,0:0:0:0:
342,341,124755,1,0,0:0:0:0:
284,56,125028,5,0,0:0:0:0:
311,359,125164,1,0,0:0:0:0:
39,199,125301,2,0,B|11:189|12:147|79:133|160:163|190:233,1,206.250007867813
205,240,125710,6,0,B|196:258|196:258|78:274,1,110
341,350,125983,6,0,B|324:333|324:333|179:332,1,137.5
465,221,126255,5,0,0:0:0:0:
320,257,126392,1,0,0:0:0:0:
220,164,126528,6,0,P|207:148|239:155,1,82.5000031471254
291,295,126801,1,0,0:0:0:0:
182,162,126937,6,0,P|193:97|239:111,1,110
248,292,127210,1,0,0:0:0:0:
140,150,127346,6,0,P|138:95|198:7,1,137.5
209,277,127619,1,0,0:0:0:0:
232,309,127755,1,0,0:0:0:0:
385,142,127892,6,0,B|409:118|409:118|444:117|444:117|439:93|473:72|499:58|499:58|509:36,1,165.000006294251
342,76,128164,6,0,P|273:122|338:191,1,165
346,169,128437,1,0,0:0:0:0:
192,54,128574,1,0,0:0:0:0:
168,243,128710,6,0,B|169:267|224:250|222:192|169:151|119:148,1,137.5
29,185,128983,1,0,0:0:0:0:
168,281,129119,6,0,B|193:298|193:298|313:308,1,123.750004720688
408,209,129392,6,0,B|366:180|366:180|246:170,1,165
132,264,129664,6,0,P|173:312|317:306,1,165.000006294251
447,208,129937,1,0,0:0:0:0:
216,167,130074,6,0,B|202:171|202:171|185:167|172:150|172:150|200:126|255:123|255:123|299:140,1,165.000006294251
486,155,130346,6,0,P|508:205|452:165,1,165
499,127,130619,1,0,0:0:0:0:
355,276,130755,1,0,0:0:0:0:
242,126,130892,6,0,B|232:98|232:98|210:101|210:101|194:75|170:58|126:52,1,110
246,273,131164,1,0,0:0:0:0:
255,92,131301,6,0,B|232:60|232:60|200:62|200:62|173:38|133:33|90:38,1,165.000006294251
221,308,131574,1,0,0:0:0:0:
239,37,131710,5,0,0:0:0:0:
186,12,131778,1,0,0:0:0:0:
144,9,131846,1,0,0:0:0:0:
112,16,131914,1,0,0:0:0:0:
90,33,131983,6,0,L|47:78,1,55
13,101,132255,6,0,P|115:39|183:60,1,165.000006294251
244,189,132528,2,0,B|265:204|281:205|281:205|233:172|209:124|209:124|206:171,1,165
244,219,132801,2,0,P|299:243|372:200,1,110
483,141,133074,6,0,P|400:102|322:130,1,137.5
226,248,133346,1,0,0:0:0:0:
399,290,133483,5,0,0:0:0:0:
472,339,133619,1,0,0:0:0:0:
296,221,133755,5,0,0:0:0:0:
265,329,133892,1,0,0:0:0:0:
377,115,134028,5,0,0:0:0:0:
414,260,134164,1,0,0:0:0:0:
254,77,134301,5,0,0:0:0:0:
206,257,134437,2,0,B|204:284|146:282|153:182|231:148,1,165.000006294251
380,242,134710,6,0,B|367:265|367:265|271:292|213:271,1,165
132,212,134983,1,0,0:0:0:0:
197,357,135119,1,0,0:0:0:0:
204,149,135255,6,0,P|202:103|86:101,1,165.000006294251
247,264,135528,1,0,0:0:0:0:
118,148,135664,6,0,P|177:30|239:28,1,192.500001835823
139,301,135937,1,0,0:0:0:0:
248,92,136074,6,0,P|222:47|54:82,1,220
0,196,136346,6,0,P|81:218|160:142,1,165.000006294251
296,28,136619,1,0,0:0:0:0:
252,216,136755,1,0,0:0:0:0:
372,152,136892,1,0,0:0:0:0:
216,328,137028,1,0,0:0:0:0:
408,276,137164,2,0,P|424:216|392:156,1,110
260,48,137437,6,0,P|248:108|268:160,1,110
448,280,137710,6,0,P|424:216|360:196,1,131.99999597168
133,200,137983,6,0,B|151:207|151:207|156:195|156:195|175:212|201:212|248:201|261:167|269:127,1,165.000006294251
488,212,138255,6,0,B|469:189|469:189|454:199|454:199|448:175|423:163|366:151|335:180|307:219,1,192.500001835823
164,288,138528,2,0,B|144:312|144:312|168:340|224:332|260:316|288:272|288:272|292:296|308:312|328:316|328:316|320:252,1,288.750002753735
216,244,138801,2,0,B|183:255|183:255|95:242,1,110
28,192,139074,1,0,0:0:0:0:
128,56,139210,1,0,0:0:0:0:
168,212,139346,1,0,0:0:0:0:
226,102,139483,1,0,0:0:0:0:
40,232,139619,6,0,B|12:236|28:264|76:268|156:284|196:204,1,165.000006294251
372,84,139892,2,0,B|354:79|354:79|339:86|339:86|318:82|293:99|293:99|279:110|263:113|221:105|221:105|240:97,1,165.000006294251
40,256,140164,2,0,B|64:275|64:275|85:289|140:279|168:272|187:262|217:243,1,165.000006294251
404,88,140437,2,0,P|336:72|252:128,1,165.000006294251
100,320,140710,6,0,B|126:292|122:253|122:253|115:263|115:263|111:224|142:208|142:208|129:169|159:120,1,206.25
168,80,140983,6,0,L|160:36,9,27.5000010490418
224,136,141255,1,0,0:0:0:0:
56,84,141392,1,0,0:0:0:0:
252,212,141528,1,0,0:0:0:0:
104,248,141664,1,0,0:0:0:0:
364,108,141801,6,0,B|375:106|381:93|381:93|364:83|344:86|325:97|312:91|312:91|290:103|264:95|264:95|226:109,1,153.999995300293
28,240,142074,2,0,P|60:264|192:236,1,165.000006294251
396,96,142346,6,0,B|378:90|374:91|358:106|358:106|350:83|328:105|312:107|286:108|286:108|252:130|212:127,1,165.000006294251
72,232,142619,1,0,0:0:0:0:
224,304,142755,1,0,0:0:0:0:
184,68,142892,6,0,L|168:184,1,110
184,68,143164,6,0,L|152:216,1,137.5
184,68,143437,6,0,L|128:224,1,165.000006294251
184,68,143710,6,0,L|88:244,1,192.500001835823
184,68,143983,5,0,0:0:0:0:
160,308,144119,1,0,0:0:0:0:
312,244,144255,1,0,0:0:0:0:
232,136,144392,1,0,0:0:0:0:
440,232,144528,1,0,0:0:0:0:
264,320,144664,1,0,0:0:0:0:
256,304,144733,1,0,0:0:0:0:
252,288,144801,1,0,0:0:0:0:
248,264,144869,1,0,0:0:0:0:
248,236,144937,1,0,0:0:0:0:
260,196,145005,1,0,0:0:0:0:
308,120,145074,5,0,0:0:0:0:
308,120,145346,1,0,0:0:0:0:
136,292,145619,6,0,P|116:240|132:200,1,82.5000031471254
136,292,145892,2,0,P|111:228|131:178,1,121.000003692627
436,184,146164,5,0,0:0:0:0:
192,76,146301,1,0,0:0:0:0:
444,204,146437,1,0,0:0:0:0:
184,60,146574,1,0,0:0:0:0:
452,220,146710,1,0,0:0:0:0:
172,72,146983,1,0,0:0:0:0:
408,264,147255,6,0,P|352:261|324:157,1,165
384,196,147528,2,0,P|336:224|256:152,1,165
328,152,147801,2,0,P|320:216|216:232,1,165
151,250,148074,2,0,P|166:188|270:172,1,165
76,128,148346,6,0,B|132:144|132:144|188:140|188:140|264:160,1,165.000006294251
332,324,148619,1,0,0:0:0:0:
484,192,148755,2,0,B|428:208|428:208|372:204|372:204|296:224,1,165.000006294251
144,308,149028,1,0,0:0:0:0:
36,252,149164,1,0,0:0:0:0:
232,224,149301,1,0,0:0:0:0:
460,248,149437,6,0,B|427:263|403:255|403:255|387:266|387:266|364:246|356:242|324:236|296:256|280:272,1,165.000006294251
136,348,149710,1,0,0:0:0:0:
264,144,149846,1,0,0:0:0:0:
76,264,149983,2,0,P|160:240|228:292,1,165.000006294251
272,336,150187,1,0,0:0:0:0:
272,336,150255,2,0,B|280:304|280:304|256:296|256:296|276:280|288:264|292:240|288:220|284:204|272:184,1,181.500005538941
304,188,150528,5,0,0:0:0:0:
80,116,150664,2,0,B|108:128|108:128|152:124|184:84,1,110
40,120,150937,6,0,P|128:96|192:144,1,165.000006294251
348,296,151210,1,0,0:0:0:0:
460,232,151346,1,0,0:0:0:0:
244,216,151483,1,0,0:0:0:0:
399,115,151619,6,0,P|333:120|286:144,1,110
107,316,151892,2,0,P|175:306|226:268,1,110
424,84,152164,2,0,P|352:96|280:160,1,165
128,348,152437,2,0,P|198:328|263:257,1,165
200,28,152710,1,0,0:0:0:0:
196,40,152778,1,0,0:0:0:0:
192,52,152846,1,0,0:0:0:0:
188,64,152914,1,0,0:0:0:0:
132,112,152983,6,0,B|124:128|124:128|136:144|136:144|128:160|124:192|132:212|148:236|184:244,1,165.000006294251
472,240,153255,1,0,0:0:0:0:
459,236,153323,1,0,0:0:0:0:
447,233,153391,1,0,0:0:0:0:
435,229,153459,1,0,0:0:0:0:
376,184,153528,2,0,B|336:192|304:176|304:176|260:152|208:172,1,165.000006294251
24,264,153801,5,0,0:0:0:0:
100,128,153937,1,0,0:0:0:0:
168,248,154074,2,0,B|176:296|176:296|152:368,1,110
56,144,154346,2,0,P|96:100|144:136,1,110
288,244,154619,6,0,P|228:272|176:196,1,137.5
40,120,154892,6,0,P|144:92|204:128,1,165.000006294251
420,272,155164,2,0,P|324:280|244:228,1,165.000006294251
48,68,155437,1,0,0:0:0:0:
144,320,155574,1,0,0:0:0:0:
344,112,155710,1,0,0:0:0:0:
64,220,155846,1,0,0:0:0:0:
368,96,155983,6,0,P|372:184|296:264,1,165.000006294251
56,204,156255,2,0,P|132:172|224:200,1,165.000006294251
432,316,156528,5,0,0:0:0:0:
240,332,156664,1,0,0:0:0:0:
292,164,156801,1,0,0:0:0:0:
440,232,156937,1,0,0:0:0:0:
220,280,157074,2,0,P|172:288|112:248,1,110
20,136,157346,1,0,0:0:0:0:
236,300,157483,6,0,P|148:280|120:200,1,165.000006294251
140,52,157755,1,0,0:0:0:0:
216,208,157892,1,0,0:0:0:0:
372,120,158028,1,0,0:0:0:0:
220,24,158164,2,0,P|216:56|240:148,1,110
432,256,158437,2,0,P|408:180|376:136,1,110
188,40,158710,6,0,P|208:128|264:188,1,165.000006294251
488,244,158983,2,0,P|436:168|352:128,1,165.000006294251
140,216,159255,5,0,0:0:0:0:
328,192,159392,1,0,0:0:0:0:
140,128,159528,2,0,L|20:156,1,110
272,256,159801,1,0,0:0:0:0:
328,108,159937,1,0,0:0:0:0:
448,240,160074,1,0,0:0:0:0:
296,100,160210,1,0,0:0:0:0:
496,300,160346,6,0,P|428:316|380:280,1,110
236,120,160619,6,0,P|316:112|364:148,1,142.99999345398
480,320,160892,1,0,0:0:0:0:
288,192,161028,1,0,0:0:0:0:
228,88,161164,6,0,P|304:124|352:200,1,165.000006294251
220,328,161437,1,0,0:0:0:0:
208,324,161505,1,0,0:0:0:0:
196,320,161574,1,0,0:0:0:0:
184,316,161642,1,0,0:0:0:0:
156,296,161710,6,0,P|240:268|344:328,1,165.000006294251
480,104,161983,5,0,0:0:0:0:
468,124,162051,1,0,0:0:0:0:
456,144,162119,1,0,0:0:0:0:
444,164,162187,1,0,0:0:0:0:
392,228,162255,6,0,P|352:152|428:36,1,192.500001835823
496,112,162528,5,0,0:0:0:0:
376,240,162664,1,0,0:0:0:0:
328,80,162801,2,0,B|364:72|364:72|420:76|452:112,1,110
272,232,163074,2,0,P|212:232|196:184,1,110
368,156,163346,1,0,0:0:0:0:
124,228,163483,1,0,0:0:0:0:
292,72,163619,5,0,0:0:0:0:
448,136,163755,1,0,0:0:0:0:
380,284,163892,1,0,0:0:0:0:
252,212,164028,2,0,P|244:148|284:96,1,110
380,72,164301,1,0,0:0:0:0:
184,48,164437,1,0,0:0:0:0:
344,168,164574,1,0,0:0:0:0:
172,228,164710,6,0,P|112:232|48:192,1,110
324,128,164983,6,0,B|380:124|380:124|484:152,1,131.99999597168
192,248,165255,6,0,P|152:248|60:148,1,153.999995300293
340,32,165528,5,0,0:0:0:0:
352,64,165596,1,0,0:0:0:0:
356,96,165664,1,0,0:0:0:0:
352,128,165733,1,0,0:0:0:0:
292,172,165801,2,0,B|232:160|232:160|260:200,1,76.9999976501466
320,196,165937,6,0,B|324:208|312:224|312:224|332:212|372:212|372:212|404:196|404:196|452:184|508:188|508:188|448:156|380:164,1,330.000012588501
187,114,166346,2,0,P|133:168|241:167,1,247.500009441376
192,100,166619,6,0,P|128:136|220:232,1,247.500009441376
288,292,166892,6,0,B|320:284|320:284|368:284|432:312,1,110
484,348,167164,1,0,0:0:0:0:
244,324,167301,2,0,P|204:316|192:168,1,220
428,204,167710,1,0,0:0:0:0:
280,112,167846,1,0,0:0:0:0:
232,244,167983,6,0,L|252:316,2,55
296,96,168255,1,0,0:0:0:0:
152,96,168392,2,0,B|120:96|104:108|108:136|144:144|168:140|192:132|192:132|224:120|260:124|272:140|312:156,1,220
436,284,168801,1,0,0:0:0:0:
428,304,168869,1,0,0:0:0:0:
368,320,168937,1,0,0:0:0:0:
336,308,169005,1,0,0:0:0:0:
292,308,169074,6,0,L|304:364,1,55
208,232,169210,2,0,L|260:188,1,55
176,320,169346,2,0,L|116:308,1,55
68,196,169483,1,0,0:0:0:0:
72,212,169551,1,0,0:0:0:0:
76,228,169619,2,0,P|124:236|176:164,1,110
192,224,169824,6,0,P|216:224|256:232,2,55
208,192,170028,1,0,0:0:0:0:
220,184,170096,1,0,0:0:0:0:
252,168,170164,1,0,0:0:0:0:
288,156,170233,1,0,0:0:0:0:
324,156,170301,1,0,0:0:0:0:
356,164,170369,1,0,0:0:0:0:
384,184,170437,6,0,P|404:240|368:312,1,110
196,344,170710,1,0,0:0:0:0:
324,244,170846,1,0,0:0:0:0:
124,312,170983,1,0,0:0:0:0:
416,308,171119,5,0,0:0:0:0:
412,320,171187,1,0,0:0:0:0:
384,344,171255,2,0,B|336:292|352:232|352:232|384:208|412:160|416:136|416:136|416:196|448:228,1,330
144,76,171801,2,0,B|168:68|168:68|220:68|256:108,1,110
400,220,172074,2,0,P|336:220|264:172,1,110
128,60,172346,6,0,P|96:52|72:52,2,55
216,180,172619,1,0,0:0:0:0:
292,64,172755,2,0,P|312:64|284:72,1,110
140,148,173028,1,0,0:0:0:0:
312,112,173164,2,0,P|368:108|452:192,1,165
468,200,173437,6,0,B|448:208|448:208|352:192,1,110
168,208,173710,1,0,0:0:0:0:
312,128,173846,1,0,0:0:0:0:
256,272,173983,2,0,L|264:344,2,55
116,160,174255,1,0,0:0:0:0:
320,224,174392,1,0,0:0:0:0:
96,132,174528,5,0,0:0:0:0:
164,300,174664,1,0,0:0:0:0:
296,196,174801,2,0,B|308:188|308:188|340:192|340:192|356:176|388:172|400:176,1,110
228,160,175074,2,0,P|172:144|144:88,1,110
344,32,175346,1,0,0:0:0:0:
348,48,175414,1,0,0:0:0:0:
352,64,175483,1,0,0:0:0:0:
356,80,175551,1,0,0:0:0:0:
396,136,175619,6,0,B|392:176|392:176|404:208|404:208|392:264,1,110
472,164,175892,1,0,0:0:0:0:
336,292,176028,2,0,P|312:296|248:232,1,110
176,320,176301,1,0,0:0:0:0:
184,312,176369,1,0,0:0:0:0:
196,304,176437,2,0,B|216:280|216:280|208:236|208:236|224:180,1,110
332,112,176710,5,0,0:0:0:0:
184,60,176846,1,0,0:0:0:0:
356,136,176983,2,0,P|388:140|464:108,1,110
236,40,177255,2,0,B|212:32|212:32|160:36|160:36|132:64,1,110
72,196,177528,1,0,0:0:0:0:
256,152,177664,1,0,0:0:0:0:
432,232,177801,6,0,B|389:220|389:220|373:197|373:197|354:193|332:181|313:153|313:153|306:178|294:187|268:172|268:172|292:136,1,220
276,164,178210,2,0,P|264:216|208:264,1,110
28,288,178483,2,0,P|80:244|136:236,1,110
320,284,178755,1,0,0:0:0:0:
355,289,178823,1,0,0:0:0:0:
389,276,178891,1,0,0:0:0:0:
413,248,178959,1,0,0:0:0:0:
420,213,179027,1,0,0:0:0:0:
409,178,179095,1,0,0:0:0:0:
376,148,179164,6,0,L|308:136,1,55
208,172,179301,2,0,L|136:184,2,55
352,64,179574,1,0,0:0:0:0:
276,224,179710,1,0,0:0:0:0:
272,240,179778,1,0,0:0:0:0:
288,276,179846,1,0,0:0:0:0:
292,292,179914,1,0,0:0:0:0:
272,312,179983,6,0,B|304:316|304:316|324:328|324:328|348:312|392:320,1,110
204,348,180255,2,0,P|132:304|192:180,1,220
204,264,180664,1,0,0:0:0:0:
280,188,180801,2,0,P|272:224|224:288,1,110
44,192,181074,5,0,0:0:0:0:
64,188,181142,1,0,0:0:0:0:
92,192,181210,2,0,P|120:196|148:208,2,55
192,76,181483,1,0,0:0:0:0:
304,212,181619,1,0,0:0:0:0:
328,224,181687,1,0,0:0:0:0:
368,232,181755,1,0,0:0:0:0:
400,224,181824,1,0,0:0:0:0:
428,176,181892,2,0,L|420:96,2,55
316,364,182164,5,0,0:0:0:0:
320,352,182233,1,0,0:0:0:0:
324,340,182301,1,0,0:0:0:0:
328,328,182369,1,0,0:0:0:0:
332,252,182437,2,0,P|284:216|180:204,1,165.000006294251
24,332,182710,2,0,P|144:336|208:304,1,165.000006294251
364,172,182983,5,0,0:0:0:0:
368,160,183051,1,0,0:0:0:0:
372,148,183119,1,0,0:0:0:0:
376,136,183187,1,0,0:0:0:0:
380,124,183255,1,0,0:0:0:0:
384,112,183324,1,0,0:0:0:0:
428,56,183392,6,0,B|464:56|496:80|496:80|480:120|496:176,1,165.000006294251
328,96,183664,1,0,0:0:0:0:
184,112,183801,2,0,P|132:96|88:0,1,165.000006294251
352,120,184074,1,0,0:0:0:0:
365,143,184142,1,0,0:0:0:0:
371,170,184210,1,0,0:0:0:0:
370,197,184278,1,0,0:0:0:0:
348,248,184346,5,0,0:0:0:0:
424,80,184483,1,0,0:0:0:0:
244,168,184619,2,0,P|200:172|132:108,1,110
56,32,184892,1,0,0:0:0:0:
224,192,185028,1,0,0:0:0:0:
272,68,185164,1,0,0:0:0:0:
176,224,185301,1,0,0:0:0:0:
300,136,185437,6,0,B|329:122|329:122|341:99|341:99|366:102|388:110|428:86|428:86|436:60|454:48|454:48|512:53,1,220
456,32,185710,1,0,0:0:0:0:
264,112,185846,6,0,P|216:100|172:32,1,110
304,196,186119,1,0,0:0:0:0:
384,96,186255,1,0,0:0:0:0:
496,188,186392,1,0,0:0:0:0:
332,264,186528,5,0,0:0:0:0:
488,152,186664,1,0,0:0:0:0:
296,48,186801,1,0,0:0:0:0:
408,224,186937,1,0,0:0:0:0:
212,152,187074,1,0,0:0:0:0:
440,244,187210,2,0,B|407:249|407:249|368:237|338:211|338:211|294:207|264:188,1,165.000006294251
168,92,187483,1,0,0:0:0:0:
264,216,187619,6,0,B|308:228|308:228|376:216,1,110
480,88,187892,6,0,L|494:35,4,41.2500015735627
400,256,188164,6,0,P|336:264|388:176,1,220
424,284,188574,1,0,0:0:0:0:
180,204,188710,6,0,P|240:212|324:188,1,110
496,88,188983,2,0,P|432:80|352:96,1,110
172,232,189255,1,0,0:0:0:0:
380,112,189392,2,0,B|384:140|384:140|372:176|384:224,1,110
308,312,189664,1,0,0:0:0:0:
432,224,189801,1,0,0:0:0:0:
328,100,189937,1,0,0:0:0:0:
240,272,190074,1,0,0:0:0:0:
432,336,190210,6,0,P|392:344|264:312,1,165.000006294251
72,164,190483,2,0,P|188:164|264:200,1,165.000006294251
408,348,190755,1,0,0:0:0:0:
420,328,190824,1,0,0:0:0:0:
428,308,190892,1,0,0:0:0:0:
432,292,190960,1,0,0:0:0:0:
432,272,191028,1,0,0:0:0:0:
424,244,191096,1,0,0:0:0:0:
392,204,191164,6,0,B|380:196|352:204|352:204|320:180|320:180|276:188,1,110
416,220,191437,6,0,P|336:176|304:96,1,165.000006294251
452,56,191710,2,0,B|469:41|489:43|488:92|479:135|444:204,1,165.000006294251
288,84,191983,6,0,B|328:80|328:80|408:96,1,110
216,96,192255,2,0,P|168:80|116:32,1,110
332,56,192528,1,0,0:0:0:0:
132,96,192664,1,0,0:0:0:0:
308,184,192801,1,0,0:0:0:0:
152,272,192937,1,0,0:0:0:0:
220,132,193074,6,0,P|224:76|180:28,1,110
436,84,193346,2,0,B|400:90|400:90|385:117|385:117|351:111|329:123|299:140|299:140|284:191|253:201,1,220
157,123,193755,1,0,0:0:0:0:
160,95,193824,1,0,0:0:0:0:
167,71,193892,1,0,0:0:0:0:
177,52,193960,1,0,0:0:0:0:
192,34,194028,1,0,0:0:0:0:
296,160,194164,6,0,B|260:172|260:172|152:148,1,110
36,68,194437,6,0,P|124:72|156:152,1,165.000006294251
92,284,194710,1,0,0:0:0:0:
280,172,194846,6,0,B|244:144|192:160|192:160|168:152|168:152|124:156|80:108,1,192.500001835823
268,124,195119,1,0,0:0:0:0:
412,240,195255,6,0,B|400:158|313:122|313:122|317:161|346:200,1,220
192,204,195664,1,0,0:0:0:0:
288,324,195800,1,0,0:0:0:0:
80,200,195937,5,0,0:0:0:0:
214,211,196073,1,0,0:0:0:0:
128,96,196209,1,0,0:0:0:0:
252,216,196346,6,0,P|284:224|364:204,1,110
484,136,196619,1,0,0:0:0:0:
324,244,196755,1,0,0:0:0:0:
368,104,196892,1,0,0:0:0:0:
412,232,197028,1,0,0:0:0:0:
252,156,197164,2,0,B|240:152|224:136|224:136|192:144|172:136|172:136|148:144,1,110
284,132,197437,6,0,P|204:112|120:172,1,165.000006294251
48,300,197710,6,0,L|56:176,1,110
204,264,197983,1,0,0:0:0:0:
312,224,198119,1,0,0:0:0:0:
76,292,198255,2,0,P|80:240|136:160,1,110
208,300,198528,2,0,B|203:319|203:319|193:275|175:244|174:240|174:240|146:217|146:217|128:173|163:114,1,220
344,40,198937,1,0,0:0:0:0:
336,56,199005,1,0,0:0:0:0:
332,68,199074,1,0,0:0:0:0:
328,80,199142,1,0,0:0:0:0:
324,104,199210,1,0,0:0:0:0:
324,136,199278,1,0,0:0:0:0:
356,208,199346,6,0,P|404:140|404:32,1,165.000006294251
448,196,199619,6,0,P|444:160|476:192,1,110
248,164,199892,2,0,P|223:186|225:139,1,110
344,212,200164,2,0,B|308:200|308:200|264:208|236:196|236:196|216:168|172:156,1,165
240,136,200437,1,0,0:0:0:0:
104,204,200574,1,0,0:0:0:0:
176,64,200710,1,0,0:0:0:0:
84,240,200846,1,0,0:0:0:0:
272,152,200983,6,0,P|356:148|460:208,1,165.000006294251
376,112,201255,5,0,0:0:0:0:
232,176,201392,1,0,0:0:0:0:
320,296,201528,1,0,0:0:0:0:
136,228,201664,1,0,0:0:0:0:
405,62,201801,6,0,L|385:246,1,165.000006294251
433,70,202074,6,0,L|377:258,1,165.000006294251
477,98,202346,6,0,L|381:238,1,165.000006294251
131,360,202619,5,0,0:0:0:0:
91,369,202687,1,0,0:0:0:0:
52,356,202755,1,0,0:0:0:0:
26,325,202823,1,0,0:0:0:0:
21,284,202891,1,0,0:0:0:0:
38,247,202959,1,0,0:0:0:0:
72,225,203028,1,0,0:0:0:0:
112,224,203096,1,0,0:0:0:0:
155,256,203164,6,0,L|355:232,1,165.000006294251
115,264,203437,6,0,L|355:164,1,192.500001835823
67,264,203710,6,0,L|283:104,1,220
427,40,203983,5,0,0:0:0:0:
115,76,204255,1,0,0:0:0:0:
371,212,204528,2,0,P|395:188|347:192,1,110
135,152,204801,2,0,P|111:176|159:172,1,110
75,220,205074,6,0,B|115:208|115:208|159:224|195:216|215:208|243:168|243:168|195:128,1,220
451,144,205346,2,0,B|411:156|411:156|367:140|331:148|311:156|283:196|283:196|331:236,1,220
39,228,205619,6,0,B|54:234|54:234|65:222|65:222|86:243|144:247|144:247|176:225|176:225|229:236|280:184,1,220
467,120,205892,2,0,B|451:113|451:113|440:125|440:125|419:104|361:100|361:100|329:122|329:122|276:111|225:163,1,220
3,256,206164,6,0,P|59:272|199:196,1,220
475,72,206437,2,0,P|371:68|251:156,1,220
11,332,206710,5,0,0:0:0:0:
51,326,206778,1,0,0:0:0:0:
92,321,206846,1,0,0:0:0:0:
133,316,206914,1,0,0:0:0:0:
174,310,206982,1,0,0:0:0:0:
215,305,207050,1,0,0:0:0:0:
259,300,207119,2,0,B|315:292|315:292|283:340,1,110
267,348,207255,6,0,P|243:296|331:224,1,165.000006294251
431,244,207801,1,0,0:0:0:0:
267,188,208074,1,0,0:0:0:0:
424,66,208346,6,0,B|464:92|454:82|404:89|404:89|354:78|313:77|313:77|273:96|171:98,1,247.500009441376
19,156,208619,6,0,P|31:126|35:75,1,55
51,29,208755,6,0,B|57:233|57:233|56:278|109:270|134:230|95:195,1,330.000012588501
0,335,209301,5,0,0:0:0:0:
0,335,209437,2,0,P|34:330|101:339,1,82.5000031471254
179,369,209574,6,0,B|169:364|165:344|165:344|210:324|270:362,2,110
284,281,209983,6,0,P|338:232|372:136,1,165.000006294251
136,23,210255,2,0,P|144:98|203:181,1,165.000006294251
410,252,210528,6,0,B|499:246|499:246|467:282,1,110
222,184,210801,2,0,P|162:178|109:180,1,110
212,279,211074,1,0,0:0:0:0:
344,143,211210,1,0,0:0:0:0:
294,364,211346,1,0,0:0:0:0:
128,269,211483,1,0,0:0:0:0:
272,163,211619,6,0,P|344:199|426:192,1,137.5
512,21,211892,6,0,P|416:-3|309:15,1,165.000006294251
181,185,212164,5,0,0:0:0:0:
359,77,212301,1,0,0:0:0:0:
161,0,212437,2,0,B|149:30|164:75|164:75|150:94|150:94|161:139|149:201,1,165.000006294251
277,381,212710,5,0,0:0:0:0:
279,369,212778,1,0,0:0:0:0:
281,357,212846,1,0,0:0:0:0:
283,345,212914,1,0,0:0:0:0:
226,300,212983,2,0,P|310:281|361:218,1,165.000006294251
148,34,213255,5,0,0:0:0:0:
128,37,213324,1,0,0:0:0:0:
110,40,213392,1,0,0:0:0:0:
92,42,213460,1,0,0:0:0:0:
35,88,213528,2,0,P|143:72|216:130,1,192.500001835823
83,257,213801,5,0,0:0:0:0:
63,37,213937,1,0,0:0:0:0:
298,141,214074,2,0,P|266:193|213:210,1,110
0,124,214346,2,0,B|10:113|33:106|33:106|79:105|107:117,1,110
275,293,214619,1,0,0:0:0:0:
252,70,214755,1,0,0:0:0:0:
79,247,214892,6,0,B|64:270|27:264|24:232|51:203|96:189|127:180|171:185|208:192|266:239,1,247.500009441376
357,283,215164,2,0,B|357:330|322:344|278:322|263:290|259:233|274:182|292:128,1,247.500009441376
346,55,215437,2,0,P|330:91|188:95,1,165.000006294251
21,27,215710,1,0,0:0:0:0:
366,169,215846,1,0,0:0:0:0:
147,314,215983,6,0,P|105:229|115:106,1,165.000006294251
316,44,216255,2,0,P|330:118|282:210,1,165.000006294251
49,107,216528,5,0,0:0:0:0:
229,146,216664,1,0,0:0:0:0:
115,306,216801,2,0,B|97:321|97:321|112:216,1,110
180,19,217074,6,0,P|175:99|263:141,1,137.5
392,181,217346,1,0,0:0:0:0:
159,8,217483,6,0,B|150:23|150:23|157:49|157:49|119:99|142:184,1,165.000006294251
229,344,217755,1,0,0:0:0:0:
416,264,217892,1,0,0:0:0:0:
212,135,218028,1,0,0:0:0:0:
320,291,218164,6,0,P|378:295|418:260,1,110
349,214,218369,5,0,0:0:0:0:
349,214,218437,2,0,L|346:385,1,165.000006294251
161,198,218710,6,0,B|147:172|147:172|136:149|137:126|137:126|113:86|113:86|77:138,1,137.5
212,135,218914,5,0,0:0:0:0:
212,135,218983,2,0,P|256:133|216:42,1,165
236,164,219255,6,0,B|261:144|261:144|431:127,1,165.000006294251
290,298,219528,1,0,0:0:0:0:
428,122,219664,6,0,B|431:99|419:72|419:72|365:124|363:197|388:257,1,220
512,374,220074,2,0,P|461:331|373:312,1,110
161,344,220346,6,0,P|235:361|272:347,1,82.5000031471254
491,258,220619,6,0,P|419:295|406:351,1,110
144,367,220892,6,0,B|152:349|152:349|146:335|146:335|161:315|163:281|163:281|152:250|158:206,1,137.5
353,127,221164,6,0,P|341:189|240:246,1,165.000006294251
20,101,221437,5,0,0:0:0:0:
35,103,221505,1,0,0:0:0:0:
49,104,221574,1,0,0:0:0:0:
63,105,221642,1,0,0:0:0:0:
119,151,221710,2,0,B|138:133|138:133|-36:151,1,165.000006294251
254,302,221983,5,0,0:0:0:0:
257,280,222051,1,0,0:0:0:0:
259,262,222119,1,0,0:0:0:0:
261,244,222187,1,0,0:0:0:0:
214,185,222255,2,0,P|198:246|268:334,1,165.000006294251
457,243,222528,6,0,B|440:237|440:237|419:241|378:234|340:249,1,110
130,339,222801,2,0,P|183:351|242:332,1,110
358,162,223074,1,0,0:0:0:0:
338,328,223210,1,0,0:0:0:0:
236,166,223346,1,0,0:0:0:0:
426,127,223483,1,0,0:0:0:0:
251,240,223619,6,0,B|221:254|221:254|104:262,1,137.5
36,136,223892,1,0,0:0:0:0:
268,281,224028,6,0,P|299:251|173:184,1,220
35,266,224437,6,0,B|70:261|70:261|86:264|86:264|135:259,1,82.5000031471254
338,119,224710,6,0,P|325:203|365:256,1,137.5
498,56,224983,6,0,B|510:33|510:33|466:46|439:42|417:47|417:47|392:45|392:45|391:51|415:87,1,165.000006294251
411,293,225255,6,0,P|428:257|391:181,1,110
239,188,225528,6,0,B|261:180|261:180|282:179|282:179|313:153|358:143|358:143|378:152|398:152,1,165.000006294251
215,218,225801,2,0,P|161:164|208:57,1,165.000006294251
399,62,226074,5,0,0:0:0:0:
193,114,226210,2,0,B|154:123|154:123|123:120|56:126,1,110
290,167,226483,1,0,0:0:0:0:
418,87,226619,1,0,0:0:0:0:
242,0,226755,1,0,0:0:0:0:
183,161,226892,6,0,B|186:191|186:191|205:201|205:201|188:240|207:281|207:281|221:280|221:280|192:325|192:325|216:321|199:372,1,247.500009441376
244,366,227164,6,0,P|207:336|83:372,1,165.000006294251
309,269,227437,6,0,P|373:273|477:238,1,137.5
297,128,227710,6,0,P|234:136|183:173,1,110
384,327,227983,6,0,P|436:288|450:248,1,82.5000031471254
357,77,228255,1,0,0:0:0:0:
247,233,228392,6,0,B|272:236|272:236|295:228|295:228|341:240|397:214,1,137.5
184,178,228664,2,0,P|164:225|212:310,1,137.5
267,135,228937,1,0,0:0:0:0:
145,176,229074,6,0,L|20:183,1,110
163,122,229346,6,0,L|28:176,1,137.5
161,66,229619,6,0,L|25:171,1,165.000006294251
218,272,229892,6,0,B|228:282|238:295|219:308|195:301|184:282|191:263|206:253|206:253|215:229|217:218|205:191|205:191|192:184|189:161|197:142|197:142|183:99,1,220
69,23,230164,1,0,0:0:0:0:
288,105,230301,6,0,B|325:71|325:71|184:98,1,165.000006294251
30,166,230574,1,0,0:0:0:0:
307,138,230710,6,0,P|356:63|290:-22,1,165.000006294251
85,89,230983,2,0,B|72:89|56:76|77:60|115:48|157:51|189:53|232:73,1,165.000006294251
459,206,231255,5,0,0:0:0:0:
461,197,231528,2,0,L|468:127,3,55
371,212,231801,1,0,0:0:0:0:
374,235,231869,1,0,0:0:0:0:
377,254,231937,1,0,0:0:0:0:
380,273,232005,1,0,0:0:0:0:
433,333,232074,6,0,P|359:307|213:308,1,206.25
82,350,232346,6,0,B|95:362|99:387|99:387|105:335|119:305|119:305|132:236|139:224|139:224|85:265,1,247.500009441376
209,191,232619,1,0,0:0:0:0:
228,182,232687,1,0,0:0:0:0:
245,176,232755,1,0,0:0:0:0:
263,173,232824,1,0,0:0:0:0:
279,172,232892,6,0,P|310:174|337:181,1,55
151,120,233028,2,0,P|118:112|95:101,1,55
325,89,233164,2,0,P|351:78|381:72,1,55
205,205,233301,2,0,P|189:227|165:247,1,55
402,147,233437,6,0,B|417:177|417:177|389:177|360:149|360:149|333:157|333:157|295:135|235:120|235:120|202:139|189:109,1,247.500009441376
73,217,233710,6,0,P|133:176|145:151,1,55
58,238,233846,6,0,B|7:218|7:218|36:200|62:202|76:215|76:215|94:211|94:211|115:222|149:215|168:205|168:205|186:177|186:177|228:190|275:150,1,330.000012588501
446,3,234255,1,0,0:0:0:0:
208,34,234392,6,0,B|184:82|173:135|119:228|228:257|281:241|299:193|301:154|237:112,1,330.000012588501
64,255,234801,6,0,P|48:223|45:196,1,55
44,277,234937,6,0,B|55:275|71:252|46:233|2:247|1:300|23:314|67:314|66:291|86:255|86:255|103:269|103:269|128:250|182:230|279:278,1,330.000012588501
489,384,235346,2,0,B|465:368|465:368|449:378|449:378|430:362|430:362|404:381|363:377|328:342,1,165.000006294251
218,133,235619,5,0,0:0:0:0:
351,85,236437,1,0,0:0:0:0:
258,299,236710,1,0,0:0:0:0:
155,178,237528,1,0,0:0:0:0:
349,270,237801,6,0,P|400:248|297:223,1,247.500009441376
395,296,238074,6,0,P|440:291|509:297,2,82.5000031471254
211,374,238346,1,0,0:0:0:0:
246,97,238892,5,0,0:0:0:0:
199,348,239028,1,0,0:0:0:0:
336,266,239301,5,0,0:0:0:0:
139,240,239574,1,0,0:0:0:0:
277,331,239846,2,0,B|259:365|255:389|255:389|195:286|240:155,1,275
294,78,240255,6,0,B|338:117|338:117|283:91|242:87|191:98|168:109|168:109|172:76|228:47,1,309.37501180172
