osu file format v14

[General]
AudioFilename: audio.mp3
AudioLeadIn: 0
PreviewTime: 110460
Countdown: 0
SampleSet: Soft
StackLeniency: 0.7
Mode: 3
LetterboxInBreaks: 0
SpecialStyle: 0
WidescreenStoryboard: 1

[Editor]
DistanceSpacing: 2
BeatDivisor: 4
GridSize: 8
TimelineZoom: 3.800005

[Metadata]
Title:Lowermost revolt ("Jeremiad" Long ver.)
TitleUnicode:Lowermost revolt ("Jeremiad" Long ver.)
Artist:Camellia feat. Kagekiha Gakusei
ArtistUnicode:かめりあ feat. 歌劇派学生
Creator:FelixSpade
Version:4K // Virtue-'s -RE : E[V]OLUTiON-
Source:SOUND VOLTEX IV HEAVENLY HAVEN
Tags:ChocoCoki- Virtue- XDerbyX nayuu eZmmR Onta_Bekasi Ceker_Ayam hardcore renaissance electronic opera Xroniàl Xéro semi-dump inverses ln sv apanese English PCCA-04883 PONY CANYON cametek kamelcamellia かめるかめりあ 大箭将也 Masaya Oya Xronial Xero
BeatmapID:2926742
BeatmapSetID:1184745

[Difficulty]
HPDrainRate:5
CircleSize:4
OverallDifficulty:7.5
ApproachRate:5
SliderMultiplier:1.4
SliderTickRate:1

[Events]
//Background and Video events
0,0,"bgvirtue.jpg",0,0
//Break Periods
//Storyboard Layer 0 (Background)
//Storyboard Layer 1 (Fail)
//Storyboard Layer 2 (Pass)
//Storyboard Layer 3 (Foreground)
//Storyboard Layer 4 (Overlay)
//Storyboard Sound Samples

[TimingPoints]
1247,273.722627737226,4,2,0,0,1,0
1248,-142.857142857143,4,2,0,0,0,0
2890,273.722627737226,4,2,0,0,1,0
2891,-142.857142857143,4,2,0,0,0,0
11649,-142.857142857143,4,2,0,0,0,0
11721.9666666667,-140.845070422535,4,2,0,0,0,0
11794.9333333333,-138.888888888889,4,2,0,0,0,0
11867.9,-136.986301369863,4,2,0,0,0,0
11940.8666666667,-135.135135135135,4,2,0,0,0,0
12013.8333333333,-133.333333333333,4,2,0,0,0,0
12086.8,-131.578947368421,4,2,0,0,0,0
12159.7666666667,-129.87012987013,4,2,0,0,0,0
12232.7333333333,-128.205128205128,4,2,0,0,0,0
12305.7,-126.582278481013,4,2,0,0,0,0
12378.6666666667,-125,4,2,0,0,0,0
12451.6333333333,-123.456790123457,4,2,0,0,0,0
12524.6,-121.951219512195,4,2,0,0,0,0
12597.5666666667,-120.481927710843,4,2,0,0,0,0
12670.5333333333,-119.047619047619,4,2,0,0,0,0
12743.5,-117.647058823529,4,2,0,0,0,0
12816.4666666667,-116.279069767442,4,2,0,0,0,0
12889.4333333333,-114.942528735632,4,2,0,0,0,0
12962.4,-113.636363636364,4,2,0,0,0,0
13035.3666666667,-112.359550561798,4,2,0,0,0,0
13108.3333333333,-111.111111111111,4,2,0,0,0,0
13181.3,-109.89010989011,4,2,0,0,0,0
13254.2666666667,-108.695652173913,4,2,0,0,0,0
13327.2333333333,-107.52688172043,4,2,0,0,0,0
13400.2,-106.382978723404,4,2,0,0,0,0
13473.1666666667,-105.263157894737,4,2,0,0,0,0
13546.1333333333,-104.166666666667,4,2,0,0,0,0
13619.1,-103.092783505155,4,2,0,0,0,0
13692.0666666667,-102.040816326531,4,2,0,0,0,0
13765.0333333333,-101.010101010101,4,2,0,0,0,0
13838,-100,4,2,0,0,0,0
28619,-100,4,2,0,0,0,0
28630.975,-101.010101010101,4,2,0,0,0,0
28642.95,-102.040816326531,4,2,0,0,0,0
28654.925,-103.092783505155,4,2,0,0,0,0
28666.9,-104.166666666667,4,2,0,0,0,0
28678.875,-105.263157894737,4,2,0,0,0,0
28690.85,-106.382978723404,4,2,0,0,0,0
28702.825,-107.52688172043,4,2,0,0,0,0
28714.8,-108.695652173913,4,2,0,0,0,0
28726.775,-109.89010989011,4,2,0,0,0,0
28738.75,-111.111111111111,4,2,0,0,0,0
28750.725,-112.359550561798,4,2,0,0,0,0
28762.7,-113.636363636364,4,2,0,0,0,0
28774.675,-114.942528735632,4,2,0,0,0,0
28786.65,-116.279069767442,4,2,0,0,0,0
28798.625,-117.647058823529,4,2,0,0,0,0
28810.6,-119.047619047619,4,2,0,0,0,0
28822.575,-120.481927710843,4,2,0,0,0,0
28834.55,-121.951219512195,4,2,0,0,0,0
28846.525,-123.456790123457,4,2,0,0,0,0
28858.5,-125,4,2,0,0,0,0
28870.475,-126.582278481013,4,2,0,0,0,0
28882.45,-128.205128205128,4,2,0,0,0,0
28894.425,-129.87012987013,4,2,0,0,0,0
28906.4,-131.578947368421,4,2,0,0,0,0
28918.375,-133.333333333333,4,2,0,0,0,0
28930.35,-135.135135135135,4,2,0,0,0,0
28942.325,-136.986301369863,4,2,0,0,0,0
28954.3,-138.888888888889,4,2,0,0,0,0
28966.275,-140.845070422535,4,2,0,0,0,0
28978.25,-142.857142857143,4,2,0,0,0,0
28990.225,-144.927536231884,4,2,0,0,0,0
29002.2,-147.058823529412,4,2,0,0,0,0
29014.175,-149.253731343284,4,2,0,0,0,0
29026.15,-151.515151515152,4,2,0,0,0,0
29038.125,-153.846153846154,4,2,0,0,0,0
29050.1,-156.25,4,2,0,0,0,0
29062.075,-158.730158730159,4,2,0,0,0,0
29074.05,-161.290322580645,4,2,0,0,0,0
29086.025,-163.934426229508,4,2,0,0,0,0
29098,-166.666666666667,4,2,0,0,0,0
29133,-1000,4,2,0,0,0,0
29150,-33.3333333333333,4,2,0,0,0,0
29167,-166.666666666667,4,2,0,0,0,0
29406,-1000,4,2,0,0,0,0
29423,-33.3333333333333,4,2,0,0,0,0
29441,-166.666666666667,4,2,0,0,0,0
29680,-1000,4,2,0,0,0,0
29697,-33.3333333333333,4,2,0,0,0,0
29714,-166.666666666667,4,2,0,0,0,0
29954,-1000,4,2,0,0,0,0
29971,-33.3333333333333,4,2,0,0,0,0
29988,-166.666666666667,4,2,0,0,0,0
30228,-1000,4,2,0,0,0,0
30245,-33.3333333333333,4,2,0,0,0,0
30262,-166.666666666667,4,2,0,0,0,0
30501,-1000,4,2,0,0,0,0
30518,-33.3333333333333,4,2,0,0,0,0
30535,-166.666666666667,4,2,0,0,0,0
30775,-1000,4,2,0,0,0,0
30792,-33.3333333333333,4,2,0,0,0,0
30809,-166.666666666667,4,2,0,0,0,0
31049,-1000,4,2,0,0,0,0
31066,-33.3333333333333,4,2,0,0,0,0
31083,-166.666666666667,4,2,0,0,0,0
31322,-1000,4,2,0,0,0,0
31340,-33.3333333333333,4,2,0,0,0,0
31357,-166.666666666667,4,2,0,0,0,0
31596,-1000,4,2,0,0,0,0
31613,-33.3333333333333,4,2,0,0,0,0
31630,-166.666666666667,4,2,0,0,0,0
31870,-1000,4,2,0,0,0,0
31887,-33.3333333333333,4,2,0,0,0,0
31904,-166.666666666667,4,2,0,0,0,0
32144,-1000,4,2,0,0,0,0
32161,-33.3333333333333,4,2,0,0,0,0
32178,-166.666666666667,4,2,0,0,0,0
32417,-1000,4,2,0,0,0,0
32434,-33.3333333333333,4,2,0,0,0,0
32452,-166.666666666667,4,2,0,0,0,0
32691,-1000,4,2,0,0,0,0
32708,-33.3333333333333,4,2,0,0,0,0
32725,-166.666666666667,4,2,0,0,0,0
32965,-1000,4,2,0,0,0,0
32982,-33.3333333333333,4,2,0,0,0,0
32999,-100,4,2,0,0,0,0
37926,-10,4,2,0,0,0,0
37943,-100,4,2,0,0,0,0
40116,-10,4,2,0,0,0,0
40133,-100,4,2,0,0,0,0
42306,-10,4,2,0,0,0,0
42323,-100,4,2,0,0,0,0
44495,-10,4,2,0,0,0,0
44512,-100,4,2,0,0,0,0
53528,-10,4,2,0,0,0,0
53545,-100,4,2,0,0,0,0
54076,-10,4,2,0,0,0,0
54093,-100,4,2,0,0,0,0
54623,-10,4,2,0,0,0,0
54640,-100,4,2,0,0,0,0
55992,136.861313868613,4,2,0,0,1,0
55992,-133.333333333333,4,2,0,0,0,0
57634,273.722627737226,4,2,0,0,1,0
58181,136.861313868613,4,2,0,0,1,0
58181,-133.333333333333,4,2,0,0,0,0
59823,273.722627737226,4,2,0,0,1,0
60370,136.861313868613,4,2,0,0,1,0
60370,-133.333333333333,4,2,0,0,0,0
62012,273.722627737226,4,2,0,0,1,0
84274,-20,4,2,0,0,0,0
84297,-1000,4,2,0,0,0,0
84366,-100,4,2,0,0,0,0
84388,-20,4,2,0,0,0,0
84405,-1000,4,2,0,0,0,0
84440,-100,4,2,0,0,0,0
84457,-20,4,2,0,0,0,0
84474,-1000,4,2,0,0,0,0
84616,-100,4,2,0,0,0,0
84639,-20,4,2,0,0,0,0
84662,-1000,4,2,0,0,0,0
84799,-100,4,2,0,0,0,0
84822,-20,4,2,0,0,0,0
84845,-1000,4,2,0,0,0,0
84981,-100,4,2,0,0,0,0
85141,-20,4,2,0,0,0,0
85158,-1000,4,2,0,0,0,0
85261,-100,4,2,0,0,0,0
85278,-20,4,2,0,0,0,0
85295,-100,4,2,0,0,0,0
85483,-20,4,2,0,0,0,0
85500,-1000,4,2,0,0,0,0
85535,-100,4,2,0,0,0,0
85552,-20,4,2,0,0,0,0
85569,-1000,4,2,0,0,0,0
85740,-100,4,2,0,0,0,0
85757,-20,4,2,0,0,0,0
85774,-1000,4,2,0,0,0,0
85894,-100,4,2,0,0,0,0
85917,-20,4,2,0,0,0,0
85939,-1000,4,2,0,0,0,0
86076,-100,4,2,0,0,0,0
86464,-20,4,2,0,0,0,0
86487,-1000,4,2,0,0,0,0
86555,-100,4,2,0,0,0,0
86578,-20,4,2,0,0,0,0
86595,-1000,4,2,0,0,0,0
86629,-100,4,2,0,0,0,0
86647,-20,4,2,0,0,0,0
86664,-100,4,2,0,0,0,0
86852,-20,4,2,0,0,0,0
86869,-1000,4,2,0,0,0,0
86989,-100,4,2,0,0,0,0
87011,-20,4,2,0,0,0,0
87034,-100,4,2,0,0,0,0
87331,-20,4,2,0,0,0,0
87348,-1000,4,2,0,0,0,0
87451,-100,4,2,0,0,0,0
87468,-20,4,2,0,0,0,0
87485,-1000,4,2,0,0,0,0
87673,-20,4,2,0,0,0,0
87690,-1000,4,2,0,0,0,0
87724,-100,4,2,0,0,0,0
87741,-20,4,2,0,0,0,0
87759,-1000,4,2,0,0,0,0
87930,-100,4,2,0,0,0,0
87947,-20,4,2,0,0,0,0
87964,-1000,4,2,0,0,0,0
88135,-100,4,2,0,0,0,0
88152,-20,4,2,0,0,0,0
88169,-100,4,2,0,0,0,0
88289,-66.6666666666667,4,2,0,0,0,0
88332.79,-67.1140939597315,4,2,0,0,0,0
88376.58,-67.5675675675676,4,2,0,0,0,0
88420.37,-68.4931506849315,4,2,0,0,0,0
88464.16,-68.9655172413793,4,2,0,0,0,0
88507.95,-69.4444444444444,4,2,0,0,0,0
88551.74,-69.9300699300699,4,2,0,0,0,0
88595.53,-70.4225352112676,4,2,0,0,0,0
88639.32,-71.4285714285714,4,2,0,0,0,0
88683.11,-71.9424460431655,4,2,0,0,0,0
88726.9,-72.463768115942,4,2,0,0,0,0
88770.69,-72.992700729927,4,2,0,0,0,0
88814.48,-73.5294117647059,4,2,0,0,0,0
88858.27,-74.6268656716418,4,2,0,0,0,0
88902.06,-75.187969924812,4,2,0,0,0,0
88945.85,-75.7575757575758,4,2,0,0,0,0
88989.64,-76.3358778625954,4,2,0,0,0,0
89033.43,-76.9230769230769,4,2,0,0,0,0
89077.22,-78.125,4,2,0,0,0,0
89121.01,-78.740157480315,4,2,0,0,0,0
89164.8,-79.3650793650794,4,2,0,0,0,0
89208.59,-80,4,2,0,0,0,0
89252.38,-80.6451612903226,4,2,0,0,0,0
89296.17,-81.9672131147541,4,2,0,0,0,0
89339.96,-82.6446280991736,4,2,0,0,0,0
89383.75,-83.3333333333333,4,2,0,0,0,0
89427.54,-84.0336134453782,4,2,0,0,0,0
89471.33,-84.7457627118644,4,2,0,0,0,0
89515.12,-86.2068965517241,4,2,0,0,0,0
89558.91,-86.9565217391304,4,2,0,0,0,0
89602.7,-87.719298245614,4,2,0,0,0,0
89646.49,-88.495575221239,4,2,0,0,0,0
89690.28,-89.2857142857143,4,2,0,0,0,0
89734.07,-90.9090909090909,4,2,0,0,0,0
89777.86,-91.743119266055,4,2,0,0,0,0
89821.65,-92.5925925925926,4,2,0,0,0,0
89865.44,-93.4579439252336,4,2,0,0,0,0
89909.23,-94.3396226415094,4,2,0,0,0,0
89953.02,-96.1538461538461,4,2,0,0,0,0
89996.81,-97.0873786407767,4,2,0,0,0,0
90040.6,-98.0392156862745,4,2,0,0,0,0
90084.39,-99.009900990099,4,2,0,0,0,0
90128.18,-100,4,2,0,0,0,0
90171.97,-102.040816326531,4,2,0,0,0,0
90215.76,-103.092783505155,4,2,0,0,0,0
90259.55,-104.166666666667,4,2,0,0,0,0
90303.34,-105.263157894737,4,2,0,0,0,0
90347.13,-106.382978723404,4,2,0,0,0,0
90390.92,-108.695652173913,4,2,0,0,0,0
90434.71,-109.89010989011,4,2,0,0,0,0
90478.5,-111.111111111111,4,2,0,0,0,0
90522.29,-112.359550561798,4,2,0,0,0,0
90566.08,-113.636363636364,4,2,0,0,0,0
90609.87,-116.279069767442,4,2,0,0,0,0
90653.66,-117.647058823529,4,2,0,0,0,0
90697.45,-119.047619047619,4,2,0,0,0,0
90741.24,-120.481927710843,4,2,0,0,0,0
90785.03,-121.951219512195,4,2,0,0,0,0
90828.82,-125,4,2,0,0,0,0
90872.61,-126.582278481013,4,2,0,0,0,0
90916.4,-128.205128205128,4,2,0,0,0,0
90960.19,-129.87012987013,4,2,0,0,0,0
91003.98,-131.578947368421,4,2,0,0,0,0
91047.77,-135.135135135135,4,2,0,0,0,0
91091.56,-136.986301369863,4,2,0,0,0,0
91135.35,-138.888888888889,4,2,0,0,0,0
91179.14,-140.845070422535,4,2,0,0,0,0
91222.93,-142.857142857143,4,2,0,0,0,0
91266.72,-147.058823529412,4,2,0,0,0,0
91310.51,-149.253731343284,4,2,0,0,0,0
91354.3,-151.515151515152,4,2,0,0,0,0
91398.09,-153.846153846154,4,2,0,0,0,0
91441.88,-156.25,4,2,0,0,0,0
91485.67,-161.290322580645,4,2,0,0,0,0
91529.46,-163.934426229508,4,2,0,0,0,0
91573.25,-166.666666666667,4,2,0,0,0,0
91617.04,-169.491525423729,4,2,0,0,0,0
91660.83,-172.413793103448,4,2,0,0,0,0
91704.62,-178.571428571429,4,2,0,0,0,0
91748.41,-181.818181818182,4,2,0,0,0,0
91792.2,-185.185185185185,4,2,0,0,0,0
91835.99,-188.679245283019,4,2,0,0,0,0
91879.78,-192.307692307692,4,2,0,0,0,0
91923.57,-200,4,2,0,0,0,0
91967.36,-204.081632653061,4,2,0,0,0,0
92011.15,-208.333333333333,4,2,0,0,0,0
92054.94,-212.765957446809,4,2,0,0,0,0
92098.73,-217.391304347826,4,2,0,0,0,0
92142.52,-227.272727272727,4,2,0,0,0,0
92186.31,-232.558139534884,4,2,0,0,0,0
92230.1,-238.095238095238,4,2,0,0,0,0
92273.89,-243.90243902439,4,2,0,0,0,0
92317.68,-250,4,2,0,0,0,0
92361.47,-263.157894736842,4,2,0,0,0,0
92405.26,-270.27027027027,4,2,0,0,0,0
92449.05,-277.777777777778,4,2,0,0,0,0
92492.84,-285.714285714286,4,2,0,0,0,0
92536.63,-294.117647058824,4,2,0,0,0,0
92580.42,-312.5,4,2,0,0,0,0
92624.21,-322.58064516129,4,2,0,0,0,0
92668,-333.333333333333,4,2,0,0,0,0
92793.1428571429,-322.58064516129,4,2,0,0,0,0
92918.2857142857,-312.5,4,2,0,0,0,0
93043.4285714286,-303.030303030303,4,2,0,0,0,0
93168.5714285714,-294.117647058824,4,2,0,0,0,0
93293.7142857143,-285.714285714286,4,2,0,0,0,0
93418.8571428571,-277.777777777778,4,2,0,0,0,0
93544,-270.27027027027,4,2,0,0,0,0
93669.1428571429,-263.157894736842,4,2,0,0,0,0
93794.2857142857,-256.410256410256,4,2,0,0,0,0
93919.4285714286,-250,4,2,0,0,0,0
94044.5714285714,-243.90243902439,4,2,0,0,0,0
94169.7142857143,-238.095238095238,4,2,0,0,0,0
94294.8571428571,-232.558139534884,4,2,0,0,0,0
94420,-227.272727272727,4,2,0,0,0,0
94545.1428571429,-222.222222222222,4,2,0,0,0,0
94670.2857142857,-217.391304347826,4,2,0,0,0,0
94795.4285714286,-212.765957446809,4,2,0,0,0,0
94920.5714285714,-208.333333333333,4,2,0,0,0,0
95045.7142857143,-204.081632653061,4,2,0,0,0,0
95170.8571428571,-200,4,2,0,0,0,0
95296,-196.078431372549,4,2,0,0,0,0
95421.1428571429,-192.307692307692,4,2,0,0,0,0
95546.2857142857,-188.679245283019,4,2,0,0,0,0
95671.4285714286,-185.185185185185,4,2,0,0,0,0
95796.5714285714,-181.818181818182,4,2,0,0,0,0
95921.7142857143,-178.571428571429,4,2,0,0,0,0
96046.8571428571,-175.438596491228,4,2,0,0,0,0
96172,-172.413793103448,4,2,0,0,0,0
96297.1428571429,-169.491525423729,4,2,0,0,0,0
96422.2857142857,-166.666666666667,4,2,0,0,0,0
96547.4285714286,-163.934426229508,4,2,0,0,0,0
96672.5714285714,-161.290322580645,4,2,0,0,0,0
96797.7142857143,-158.730158730159,4,2,0,0,0,0
96922.8571428571,-156.25,4,2,0,0,0,0
97048,-153.846153846154,4,2,0,0,0,0
97173.1428571429,-151.515151515152,4,2,0,0,0,0
97298.2857142857,-149.253731343284,4,2,0,0,0,0
97423.4285714286,-147.058823529412,4,2,0,0,0,0
97548.5714285714,-144.927536231884,4,2,0,0,0,0
97673.7142857143,-142.857142857143,4,2,0,0,0,0
97798.8571428571,-140.845070422535,4,2,0,0,0,0
97924,-138.888888888889,4,2,0,0,0,0
98049.1428571429,-136.986301369863,4,2,0,0,0,0
98174.2857142857,-135.135135135135,4,2,0,0,0,0
98299.4285714286,-133.333333333333,4,2,0,0,0,0
98424.5714285714,-131.578947368421,4,2,0,0,0,0
98549.7142857143,-129.87012987013,4,2,0,0,0,0
98674.8571428571,-128.205128205128,4,2,0,0,0,0
98800,-126.582278481013,4,2,0,0,0,0
98925.1428571429,-125,4,2,0,0,0,0
99050.2857142857,-123.456790123457,4,2,0,0,0,0
99175.4285714286,-121.951219512195,4,2,0,0,0,0
99300.5714285714,-120.481927710843,4,2,0,0,0,0
99425.7142857143,-119.047619047619,4,2,0,0,0,0
99550.8571428571,-117.647058823529,4,2,0,0,0,0
99676,-116.279069767442,4,2,0,0,0,0
99801.1428571429,-114.942528735632,4,2,0,0,0,0
99926.2857142857,-113.636363636364,4,2,0,0,0,0
100051.428571429,-112.359550561798,4,2,0,0,0,0
100176.571428571,-111.111111111111,4,2,0,0,0,0
100301.714285714,-109.89010989011,4,2,0,0,0,0
100426.857142857,-108.695652173913,4,2,0,0,0,0
100552,-107.52688172043,4,2,0,0,0,0
100677.142857143,-106.382978723404,4,2,0,0,0,0
100802.285714286,-105.263157894737,4,2,0,0,0,0
100927.428571429,-104.166666666667,4,2,0,0,0,0
101052.571428571,-103.092783505155,4,2,0,0,0,0
101177.714285714,-102.040816326531,4,2,0,0,0,0
101302.857142857,-101.010101010101,4,2,0,0,0,0
101428,-100,4,2,0,0,0,0
108134,-20,4,2,0,0,0,0
108151,-1000,4,2,0,0,0,0
108254,-100,4,2,0,0,0,0
108271,-20,4,2,0,0,0,0
108288,-1000,4,2,0,0,0,0
108510,-100,4,2,0,0,0,0
108544,-20,4,2,0,0,0,0
108561,-1000,4,2,0,0,0,0
108664,-100,4,2,0,0,0,0
108681,-20,4,2,0,0,0,0
108698,-1000,4,2,0,0,0,0
108921,-100,4,2,0,0,0,0
108955,-20,4,2,0,0,0,0
108972,-1000,4,2,0,0,0,0
109075,-100,4,2,0,0,0,0
109092,-20,4,2,0,0,0,0
109109,-1000,4,2,0,0,0,0
109331,-100,4,2,0,0,0,0
109366,-20,4,2,0,0,0,0
109383,-1000,4,2,0,0,0,0
109485,-100,4,2,0,0,0,0
112103,-10,4,2,0,0,0,0
112120,-1000,4,2,0,0,0,0
112240,-500,4,2,0,0,0,0
112251.9,-263.157894736842,4,2,0,0,0,0
112263.8,-178.571428571429,4,2,0,0,0,0
112275.7,-135.135135135135,4,2,0,0,0,0
112287.6,-108.695652173913,4,2,0,0,0,0
112299.5,-90.9090909090909,4,2,0,0,0,0
112311.4,-78.125,4,2,0,0,0,0
112323.3,-68.4931506849315,4,2,0,0,0,0
112335.2,-60.9756097560976,4,2,0,0,0,0
112347.1,-54.9450549450549,4,2,0,0,0,0
112359,-50,4,2,0,0,0,0
112376,-100,4,2,0,0,0,1
127842,-50,4,2,0,0,0,0
127910,-1000,4,2,0,0,0,0
127979,-50,4,2,0,0,0,0
128047,-71.4285714285714,4,2,0,0,0,0
128116,-200,4,2,0,0,0,0
128184,-1000,4,2,0,0,0,0
128252,-50,4,2,0,0,0,0
128321,-1000,4,2,0,0,0,0
128389,-50,4,2,0,0,0,0
128458,-71.4285714285714,4,2,0,0,0,0
128526,-200,4,2,0,0,0,0
128595,-1000,4,2,0,0,0,0
128663,-50,4,2,0,0,0,0
128731,-1000,4,2,0,0,0,0
128800,-50,4,2,0,0,0,0
128868,-71.4285714285714,4,2,0,0,0,0
128937,-200,4,2,0,0,0,0
129005,-1000,4,2,0,0,0,0
129074,-50,4,2,0,0,0,0
129142,-1000,4,2,0,0,0,0
129210,-100,4,2,0,0,0,0
130032,-33.3333333333333,4,2,0,0,0,0
130100,-1000,4,2,0,0,0,0
130169,-33.3333333333333,4,2,0,0,0,0
130237,-71.4285714285714,4,2,0,0,0,0
130306,-200,4,2,0,0,0,0
130374,-1000,4,2,0,0,0,0
130442,-33.3333333333333,4,2,0,0,0,0
130511,-1000,4,2,0,0,0,0
130579,-33.3333333333333,4,2,0,0,0,0
130648,-71.4285714285714,4,2,0,0,0,0
130716,-200,4,2,0,0,0,0
130785,-1000,4,2,0,0,0,0
130853,-33.3333333333333,4,2,0,0,0,0
130921,-1000,4,2,0,0,0,0
130990,-33.3333333333333,4,2,0,0,0,0
131058,-71.4285714285714,4,2,0,0,0,0
131127,-200,4,2,0,0,0,0
131195,-1000,4,2,0,0,0,0
131264,-33.3333333333333,4,2,0,0,0,0
131332,-1000,4,2,0,0,0,0
131400,-100,4,2,0,0,0,0
132221,-20,4,2,0,0,0,0
132238,-1000,4,2,0,0,0,0
132324,-100,4,2,0,0,0,0
132358,-20,4,2,0,0,0,0
132375,-1000,4,2,0,0,0,0
132597,-100,4,2,0,0,0,0
132631,-20,4,2,0,0,0,0
132649,-1000,4,2,0,0,0,0
132768,-20,4,2,0,0,0,0
132785,-1000,4,2,0,0,0,0
133008,-100,4,2,0,0,0,0
133042,-20,4,2,0,0,0,0
133059,-1000,4,2,0,0,0,0
133179,-20,4,2,0,0,0,0
133196,-1000,4,2,0,0,0,0
133418,-100,4,2,0,0,0,0
133453,-20,4,2,0,0,0,0
133470,-1000,4,2,0,0,0,0
133590,-100,4,2,0,0,0,0
134411,-14.2857142857143,4,2,0,0,0,0
134428,-1000,4,2,0,0,0,0
134514,-100,4,2,0,0,0,0
134548,-14.2857142857143,4,2,0,0,0,0
134565,-1000,4,2,0,0,0,0
134787,-100,4,2,0,0,0,0
134821,-14.2857142857143,4,2,0,0,0,0
134839,-1000,4,2,0,0,0,0
134958,-14.2857142857143,4,2,0,0,0,0
134975,-1000,4,2,0,0,0,0
135198,-100,4,2,0,0,0,0
135232,-14.2857142857143,4,2,0,0,0,0
135249,-1000,4,2,0,0,0,0
135369,-14.2857142857143,4,2,0,0,0,0
135386,-1000,4,2,0,0,0,0
135608,-100,4,2,0,0,0,0
135643,-14.2857142857143,4,2,0,0,0,0
135660,-1000,4,2,0,0,0,0
135780,-100,4,2,0,0,0,0
136601,-10,4,2,0,0,0,0
136618,-1000,4,2,0,0,0,0
136704,-100,4,2,0,0,0,0
136738,-10,4,2,0,0,0,0
136755,-1000,4,2,0,0,0,0
136977,-100,4,2,0,0,0,0
137011,-10,4,2,0,0,0,0
137029,-1000,4,2,0,0,0,0
137148,-10,4,2,0,0,0,0
137165,-1000,4,2,0,0,0,0
137388,-100,4,2,0,0,0,0
137422,-10,4,2,0,0,0,0
137439,-1000,4,2,0,0,0,0
137559,-10,4,2,0,0,0,0
137576,-1000,4,2,0,0,0,0
137798,-100,4,2,0,0,0,0
137833,-10,4,2,0,0,0,0
137850,-1000,4,2,0,0,0,0
137970,-100,4,2,0,0,0,0
138791,-10,4,2,0,0,0,0
138808,-100,4,2,0,0,0,0
138928,-10,4,2,0,0,0,0
138945,-100,4,2,0,0,0,0
139201,-10,4,2,0,0,0,0
139218,-100,4,2,0,0,0,0
139338,-10,4,2,0,0,0,0
139355,-100,4,2,0,0,0,0
139612,-10,4,2,0,0,0,0
139629,-100,4,2,0,0,0,0
139749,-10,4,2,0,0,0,0
139766,-100,4,2,0,0,0,0
140022,-10,4,2,0,0,0,0
140040,-100,4,2,0,0,0,0
140159,-10,4,2,0,0,0,0
140176,-100,4,2,0,0,0,0
140844,-100,4,2,0,0,0,0
140952.2,-101.010101010101,4,2,0,0,0,0
141060.4,-102.040816326531,4,2,0,0,0,0
141168.6,-103.092783505155,4,2,0,0,0,0
141276.8,-104.166666666667,4,2,0,0,0,0
141385,-105.263157894737,4,2,0,0,0,0
141493.2,-106.382978723404,4,2,0,0,0,0
141601.4,-107.52688172043,4,2,0,0,0,0
141709.6,-108.695652173913,4,2,0,0,0,0
141817.8,-109.89010989011,4,2,0,0,0,0
141926,-111.111111111111,4,2,0,0,0,0
142034.2,-112.359550561798,4,2,0,0,0,0
142142.4,-113.636363636364,4,2,0,0,0,0
142250.6,-114.942528735632,4,2,0,0,0,0
142358.8,-116.279069767442,4,2,0,0,0,0
142467,-117.647058823529,4,2,0,0,0,0
142575.2,-119.047619047619,4,2,0,0,0,0
142683.4,-120.481927710843,4,2,0,0,0,0
142791.6,-121.951219512195,4,2,0,0,0,0
142899.8,-123.456790123457,4,2,0,0,0,0
143008,-125,4,2,0,0,0,0
143116.2,-126.582278481013,4,2,0,0,0,0
143224.4,-128.205128205128,4,2,0,0,0,0
143332.6,-129.87012987013,4,2,0,0,0,0
143440.8,-131.578947368421,4,2,0,0,0,0
143549,-133.333333333333,4,2,0,0,0,0
143657.2,-135.135135135135,4,2,0,0,0,0
143765.4,-136.986301369863,4,2,0,0,0,0
143873.6,-138.888888888889,4,2,0,0,0,0
143981.8,-140.845070422535,4,2,0,0,0,0
144090,-142.857142857143,4,2,0,0,0,0
144198.2,-144.927536231884,4,2,0,0,0,0
144306.4,-147.058823529412,4,2,0,0,0,0
144414.6,-149.253731343284,4,2,0,0,0,0
144522.8,-151.515151515152,4,2,0,0,0,0
144631,-153.846153846154,4,2,0,0,0,0
144739.2,-156.25,4,2,0,0,0,0
144847.4,-158.730158730159,4,2,0,0,0,0
144955.6,-161.290322580645,4,2,0,0,0,0
145063.8,-163.934426229508,4,2,0,0,0,0
145172,-166.666666666667,4,2,0,0,0,0
145189,-1000,4,2,0,0,0,0
145206,-33.3333333333333,4,2,0,0,0,0
145223,-166.666666666667,4,2,0,0,0,0
145462,-1000,4,2,0,0,0,0
145479,-33.3333333333333,4,2,0,0,0,0
145497,-166.666666666667,4,2,0,0,0,0
145736,-1000,4,2,0,0,0,0
145753,-33.3333333333333,4,2,0,0,0,0
145770,-166.666666666667,4,2,0,0,0,0
146010,-1000,4,2,0,0,0,0
146027,-33.3333333333333,4,2,0,0,0,0
146044,-166.666666666667,4,2,0,0,0,0
146284,-1000,4,2,0,0,0,0
146301,-33.3333333333333,4,2,0,0,0,0
146318,-166.666666666667,4,2,0,0,0,0
146557,-1000,4,2,0,0,0,0
146574,-33.3333333333333,4,2,0,0,0,0
146591,-166.666666666667,4,2,0,0,0,0
146831,-1000,4,2,0,0,0,0
146848,-33.3333333333333,4,2,0,0,0,0
146865,-166.666666666667,4,2,0,0,0,0
147105,-1000,4,2,0,0,0,0
147122,-33.3333333333333,4,2,0,0,0,0
147139,-166.666666666667,4,2,0,0,0,0
147378,-1000,4,2,0,0,0,0
147396,-33.3333333333333,4,2,0,0,0,0
147413,-166.666666666667,4,2,0,0,0,0
147652,-1000,4,2,0,0,0,0
147669,-33.3333333333333,4,2,0,0,0,0
147686,-166.666666666667,4,2,0,0,0,0
147926,-1000,4,2,0,0,0,0
147943,-33.3333333333333,4,2,0,0,0,0
147960,-166.666666666667,4,2,0,0,0,0
148200,-1000,4,2,0,0,0,0
148217,-33.3333333333333,4,2,0,0,0,0
148234,-166.666666666667,4,2,0,0,0,0
148473,-1000,4,2,0,0,0,0
148490,-33.3333333333333,4,2,0,0,0,0
148508,-166.666666666667,4,2,0,0,0,0
148747,-1000,4,2,0,0,0,0
148764,-33.3333333333333,4,2,0,0,0,0
148781,-166.666666666667,4,2,0,0,0,0
149021,-1000,4,2,0,0,0,0
149038,-33.3333333333333,4,2,0,0,0,0
149055,-100,4,2,0,0,0,0
151793,-10,4,2,0,0,0,0
151810,-100,4,2,0,0,0,0
152066,-52.6315789473684,4,2,0,0,0,0
152100,-1000,4,2,0,0,0,0
152135,-52.6315789473684,4,2,0,0,0,0
152169,-1000,4,2,0,0,0,0
152203,-52.6315789473684,4,2,0,0,0,0
152237,-1000,4,2,0,0,0,0
152272,-52.6315789473684,4,2,0,0,0,0
152306,-1000,4,2,0,0,0,0
152340,-52.6315789473684,4,2,0,0,0,0
152374,-1000,4,2,0,0,0,0
152408,-52.6315789473684,4,2,0,0,0,0
152443,-1000,4,2,0,0,0,0
152477,-52.6315789473684,4,2,0,0,0,0
152511,-1000,4,2,0,0,0,0
152545,-52.6315789473684,4,2,0,0,0,0
152579,-1000,4,2,0,0,0,0
152614,-52.6315789473684,4,2,0,0,0,0
152648,-1000,4,2,0,0,0,0
152682,-52.6315789473684,4,2,0,0,0,0
152716,-1000,4,2,0,0,0,0
152751,-52.6315789473684,4,2,0,0,0,0
152785,-1000,4,2,0,0,0,0
152819,-52.6315789473684,4,2,0,0,0,0
152853,-1000,4,2,0,0,0,0
152887,-40,4,2,0,0,0,0
152922,-1000,4,2,0,0,0,0
152956,-40,4,2,0,0,0,0
152990,-1000,4,2,0,0,0,0
153024,-40,4,2,0,0,0,0
153058,-1000,4,2,0,0,0,0
153093,-40,4,2,0,0,0,0
153127,-1000,4,2,0,0,0,0
153161,-40,4,2,0,0,0,0
153195,-1000,4,2,0,0,0,0
153230,-40,4,2,0,0,0,0
153264,-1000,4,2,0,0,0,0
153298,-40,4,2,0,0,0,0
153332,-1000,4,2,0,0,0,0
153366,-40,4,2,0,0,0,0
153401,-1000,4,2,0,0,0,0
153435,-40,4,2,0,0,0,0
153469,-1000,4,2,0,0,0,0
153503,-40,4,2,0,0,0,0
153538,-1000,4,2,0,0,0,0
153572,-40,4,2,0,0,0,0
153606,-1000,4,2,0,0,0,0
153640,-40,4,2,0,0,0,0
153674,-1000,4,2,0,0,0,0
153709,-10,4,2,0,0,0,0
153726,-1000,4,2,0,0,0,0
153845,-500,4,2,0,0,0,0
153857,-263.157894736842,4,2,0,0,0,0
153869,-178.571428571429,4,2,0,0,0,0
153881,-135.135135135135,4,2,0,0,0,0
153893,-108.695652173913,4,2,0,0,0,0
153905,-90.9090909090909,4,2,0,0,0,0
153917,-78.125,4,2,0,0,0,0
153929,-68.4931506849315,4,2,0,0,0,0
153941,-60.9756097560976,4,2,0,0,0,0
153953,-54.9450549450549,4,2,0,0,0,0
153965,-50,4,2,0,0,0,0
153982,-100,4,2,0,0,0,0
155898,-10,4,2,0,0,0,0
155915,-1000,4,2,0,0,0,0
156035,-500,4,2,0,0,0,0
156047,-263.157894736842,4,2,0,0,0,0
156059,-178.571428571429,4,2,0,0,0,0
156071,-135.135135135135,4,2,0,0,0,0
156083,-108.695652173913,4,2,0,0,0,0
156095,-90.9090909090909,4,2,0,0,0,0
156107,-78.125,4,2,0,0,0,0
156119,-68.4931506849315,4,2,0,0,0,0
156131,-60.9756097560976,4,2,0,0,0,0
156143,-54.9450549450549,4,2,0,0,0,0
156155,-50,4,2,0,0,0,0
156172,-100,4,2,0,0,0,0
160552,-10,4,2,0,0,0,0
160569,-100,4,2,0,0,0,0
161236,-50,4,2,0,0,0,0
161270,-1000,4,2,0,0,0,0
161304,-50,4,2,0,0,0,0
161339,-1000,4,2,0,0,0,0
161373,-100,4,2,0,0,0,0
161510,-50,4,2,0,0,0,0
161544,-1000,4,2,0,0,0,0
161578,-50,4,2,0,0,0,0
161612,-1000,4,2,0,0,0,0
161647,-100,4,2,0,0,0,0
161783,-50,4,2,0,0,0,0
161818,-1000,4,2,0,0,0,0
161852,-50,4,2,0,0,0,0
161886,-1000,4,2,0,0,0,0
161920,-100,4,2,0,0,0,0
162057,-50,4,2,0,0,0,0
162091,-1000,4,2,0,0,0,0
162126,-50,4,2,0,0,0,0
162160,-1000,4,2,0,0,0,0
162194,-100,4,2,0,0,0,0
162741,-10,4,2,0,0,0,0
162759,-100,4,2,0,0,0,0
163152,-50,4,2,0,0,0,0
163169,-1000,4,2,0,0,0,0
163186,-50,4,2,0,0,0,0
163203,-1000,4,2,0,0,0,0
163220,-100,4,2,0,0,0,0
163289,-20,4,2,0,0,0,0
163306,-1000,4,2,0,0,0,0
163357,-100,4,2,0,0,0,0
163426,-50,4,2,0,0,0,0
163443,-1000,4,2,0,0,0,0
163460,-50,4,2,0,0,0,0
163477,-1000,4,2,0,0,0,0
163494,-100,4,2,0,0,0,0
163563,-20,4,2,0,0,0,0
163580,-1000,4,2,0,0,0,0
163631,-100,4,2,0,0,0,0
163699,-50,4,2,0,0,0,0
163717,-1000,4,2,0,0,0,0
163734,-50,4,2,0,0,0,0
163751,-1000,4,2,0,0,0,0
163768,-100,4,2,0,0,0,0
163836,-10,4,2,0,0,0,0
163853,-1000,4,2,0,0,0,0
164025,-100,4,2,0,0,0,0
164042,-20,4,2,0,0,0,0
164059,-1000,4,2,0,0,0,0
164093,-100,4,2,0,0,0,0
164110,-10,4,2,0,0,0,0
164127,-1000,4,2,0,0,0,0
164230,-100,4,2,0,0,0,0
164247,-10,4,2,0,0,0,0
164264,-1000,4,2,0,0,0,0
164435,-100,4,2,0,0,0,0
164452,-10,4,2,0,0,0,0
164469,-1000,4,2,0,0,0,0
164640,-100,4,2,0,0,0,0
164657,-10,4,2,0,0,0,0
164675,-1000,4,2,0,0,0,0
164794,-500,4,2,0,0,0,0
164806,-263.157894736842,4,2,0,0,0,0
164818,-178.571428571429,4,2,0,0,0,0
164830,-135.135135135135,4,2,0,0,0,0
164842,-108.695652173913,4,2,0,0,0,0
164854,-90.9090909090909,4,2,0,0,0,0
164866,-78.125,4,2,0,0,0,0
164878,-68.4931506849315,4,2,0,0,0,0
164890,-60.9756097560976,4,2,0,0,0,0
164902,-54.9450549450549,4,2,0,0,0,0
164914,-50,4,2,0,0,0,0
164931,-20,4,2,0,0,0,0
164948,-1000,4,2,0,0,0,0
165000,-100,4,2,0,0,0,0
165068,-20,4,2,0,0,0,0
165085,-1000,4,2,0,0,0,0
165136,-100,4,2,0,0,0,0
165205,-10,4,2,0,0,0,0
165222,-100,4,2,0,0,0,0
168216,-10,4,2,0,0,0,0
168233,-1000,4,2,0,0,0,0
168387,-100,4,2,0,0,0,0
168421,-10,4,2,0,0,0,0
168438,-1000,4,2,0,0,0,0
168592,-100,4,2,0,0,0,0
168626,-10,4,2,0,0,0,0
168644,-1000,4,2,0,0,0,0
168746,-100,4,2,0,0,0,0
168763,-10,4,2,0,0,0,0
168780,-1000,4,2,0,0,0,0
168934,-100,4,2,0,0,0,0
168969,-10,4,2,0,0,0,0
168986,-1000,4,2,0,0,0,0
169140,-100,4,2,0,0,0,0
169174,-10,4,2,0,0,0,0
169191,-1000,4,2,0,0,0,0
169277,-100,4,2,0,0,0,0
172595,-10,4,2,0,0,0,0
172613,-1000,4,2,0,0,0,0
173417,-500,4,2,0,0,0,0
173442.6,-263.157894736842,4,2,0,0,0,0
173468.2,-178.571428571429,4,2,0,0,0,0
173493.8,-135.135135135135,4,2,0,0,0,0
173519.4,-108.695652173913,4,2,0,0,0,0
173545,-90.9090909090909,4,2,0,0,0,0
173570.6,-78.125,4,2,0,0,0,0
173596.2,-68.4931506849315,4,2,0,0,0,0
173621.8,-60.9756097560976,4,2,0,0,0,0
173647.4,-54.9450549450549,4,2,0,0,0,0
173673,-50,4,2,0,0,0,0
173690,-100,4,2,0,0,0,0
178435,-20,4,2,0,0,0,0
178458,-1000,4,2,0,0,0,0
178527,-100,4,2,0,0,0,0
178549,-20,4,2,0,0,0,0
178566,-1000,4,2,0,0,0,0
178601,-100,4,2,0,0,0,0
178618,-20,4,2,0,0,0,0
178635,-1000,4,2,0,0,0,0
178777,-100,4,2,0,0,0,0
178800,-20,4,2,0,0,0,0
178823,-1000,4,2,0,0,0,0
178960,-100,4,2,0,0,0,0
178983,-20,4,2,0,0,0,0
179006,-1000,4,2,0,0,0,0
179119,-100,4,2,0,0,0,0
179302,-20,4,2,0,0,0,0
179319,-1000,4,2,0,0,0,0
179422,-100,4,2,0,0,0,0
179439,-20,4,2,0,0,0,0
179456,-100,4,2,0,0,0,0
179644,-20,4,2,0,0,0,0
179661,-1000,4,2,0,0,0,0
179696,-100,4,2,0,0,0,0
179713,-20,4,2,0,0,0,0
179730,-1000,4,2,0,0,0,0
179901,-100,4,2,0,0,0,0
179918,-20,4,2,0,0,0,0
179935,-1000,4,2,0,0,0,0
180055,-100,4,2,0,0,0,0
180078,-20,4,2,0,0,0,0
180100,-1000,4,2,0,0,0,0
180214,-100,4,2,0,0,0,0
180625,-20,4,2,0,0,0,0
180648,-1000,4,2,0,0,0,0
180716,-100,4,2,0,0,0,0
180739,-20,4,2,0,0,0,0
180756,-1000,4,2,0,0,0,0
180790,-100,4,2,0,0,0,0
180808,-20,4,2,0,0,0,0
180825,-100,4,2,0,0,0,0
181013,-20,4,2,0,0,0,0
181030,-1000,4,2,0,0,0,0
181150,-100,4,2,0,0,0,0
181172,-20,4,2,0,0,0,0
181195,-1000,4,2,0,0,0,0
181309,-100,4,2,0,0,0,0
181492,-20,4,2,0,0,0,0
181509,-1000,4,2,0,0,0,0
181612,-100,4,2,0,0,0,0
181629,-20,4,2,0,0,0,0
181646,-1000,4,2,0,0,0,0
181834,-20,4,2,0,0,0,0
181851,-1000,4,2,0,0,0,0
181885,-100,4,2,0,0,0,0
181902,-20,4,2,0,0,0,0
181920,-1000,4,2,0,0,0,0
182073,-100,4,2,0,0,0,0
182108,-20,4,2,0,0,0,0
182125,-1000,4,2,0,0,0,0
182278,-100,4,2,0,0,0,0
182313,-20,4,2,0,0,0,0
182330,-1000,4,2,0,0,0,0
182432,-100,4,2,0,0,0,0
184776,-10,4,2,0,0,0,0
184793,-1000,4,2,0,0,0,0
184878,-100,4,2,0,0,0,0
184913,-10,4,2,0,0,0,0
184930,-1000,4,2,0,0,0,0
185186,-10,4,2,0,0,0,0
185203,-1000,4,2,0,0,0,0
185289,-100,4,2,0,0,0,0
185323,-10,4,2,0,0,0,0
185340,-1000,4,2,0,0,0,0
185597,-10,4,2,0,0,0,0
185614,-1000,4,2,0,0,0,0
185700,-100,4,2,0,0,0,0
185734,-10,4,2,0,0,0,0
185751,-1000,4,2,0,0,0,0
186008,-10,4,2,0,0,0,0
186025,-1000,4,2,0,0,0,0
186110,-100,4,2,0,0,0,0
189156,-10,4,2,0,0,0,0
189173,-1000,4,2,0,0,0,0
189258,-100,4,2,0,0,0,0
189293,-10,4,2,0,0,0,0
189310,-1000,4,2,0,0,0,0
189566,-10,4,2,0,0,0,0
189583,-1000,4,2,0,0,0,0
189669,-100,4,2,0,0,0,0
189703,-10,4,2,0,0,0,0
189720,-1000,4,2,0,0,0,0
189977,-10,4,2,0,0,0,0
189994,-1000,4,2,0,0,0,0
190080,-100,4,2,0,0,0,0
190114,-10,4,2,0,0,0,0
190131,-1000,4,2,0,0,0,0
190388,-10,4,2,0,0,0,0
190405,-1000,4,2,0,0,0,0
190490,-100,4,2,0,0,0,0
199968,-100,4,1,0,15,0,0
199999.028571429,-101.010101010101,4,1,0,15,0,0
200030.057142857,-102.040816326531,4,1,0,15,0,0
200061.085714286,-103.092783505155,4,1,0,15,0,0
200092.114285714,-104.166666666667,4,1,0,15,0,0
200123.142857143,-105.263157894737,4,1,0,15,0,0
200154.171428571,-106.382978723404,4,1,0,15,0,0
200185.2,-107.52688172043,4,1,0,15,0,0
200216.228571429,-108.695652173913,4,1,0,15,0,0
200247.257142857,-109.89010989011,4,1,0,15,0,0
200278.285714286,-111.111111111111,4,1,0,15,0,0
200309.314285714,-112.359550561798,4,1,0,15,0,0
200340.342857143,-113.636363636364,4,1,0,15,0,0
200371.371428571,-114.942528735632,4,1,0,15,0,0
200402.4,-116.279069767442,4,1,0,15,0,0
200433.428571429,-117.647058823529,4,1,0,15,0,0
200464.457142857,-119.047619047619,4,1,0,15,0,0
200495.485714286,-120.481927710843,4,1,0,15,0,0
200526.514285714,-121.951219512195,4,1,0,15,0,0
200557.542857143,-123.456790123457,4,1,0,15,0,0
200588.571428571,-125,4,1,0,15,0,0
200619.6,-126.582278481013,4,1,0,15,0,0
200650.628571429,-128.205128205128,4,1,0,15,0,0
200681.657142857,-129.87012987013,4,1,0,15,0,0
200712.685714286,-131.578947368421,4,1,0,15,0,0
200743.714285714,-133.333333333333,4,1,0,15,0,0
200774.742857143,-135.135135135135,4,1,0,15,0,0
200805.771428571,-136.986301369863,4,1,0,15,0,0
200836.8,-138.888888888889,4,1,0,15,0,0
200867.828571429,-140.845070422535,4,1,0,15,0,0
200898.857142857,-142.857142857143,4,1,0,15,0,0
200929.885714286,-144.927536231884,4,1,0,15,0,0
200960.914285714,-147.058823529412,4,1,0,15,0,0
200991.942857143,-149.253731343284,4,1,0,15,0,0
201022.971428571,-151.515151515152,4,1,0,15,0,0
201054,-153.846153846154,4,1,0,15,0,0
201085.028571429,-156.25,4,1,0,15,0,0
201116.057142857,-158.730158730159,4,1,0,15,0,0
201147.085714286,-161.290322580645,4,1,0,15,0,0
201178.114285714,-163.934426229508,4,1,0,15,0,0
201209.142857143,-166.666666666667,4,1,0,15,0,0
201240.171428571,-169.491525423729,4,1,0,15,0,0
201271.2,-172.413793103448,4,1,0,15,0,0
201302.228571429,-175.438596491228,4,1,0,15,0,0
201333.257142857,-178.571428571429,4,1,0,15,0,0
201364.285714286,-181.818181818182,4,1,0,15,0,0
201395.314285714,-185.185185185185,4,1,0,15,0,0
201426.342857143,-188.679245283019,4,1,0,15,0,0
201457.371428571,-192.307692307692,4,1,0,15,0,0
201488.4,-196.078431372549,4,1,0,15,0,0
201519.428571429,-200,4,1,0,15,0,0
201550.457142857,-204.081632653061,4,1,0,15,0,0
201581.485714286,-208.333333333333,4,1,0,15,0,0
201612.514285714,-212.765957446809,4,1,0,15,0,0
201643.542857143,-217.391304347826,4,1,0,15,0,0
201674.571428571,-222.222222222222,4,1,0,15,0,0
201705.6,-227.272727272727,4,1,0,15,0,0
201736.628571429,-232.558139534884,4,1,0,15,0,0
201767.657142857,-238.095238095238,4,1,0,15,0,0
201798.685714286,-243.90243902439,4,1,0,15,0,0
201829.714285714,-250,4,1,0,15,0,0
201860.742857143,-256.410256410256,4,1,0,15,0,0
201891.771428571,-263.157894736842,4,1,0,15,0,0
201922.8,-270.27027027027,4,1,0,15,0,0
201953.828571429,-277.777777777778,4,1,0,15,0,0
201984.857142857,-285.714285714286,4,1,0,15,0,0
202015.885714286,-294.117647058824,4,1,0,15,0,0
202046.914285714,-303.030303030303,4,1,0,15,0,0
202077.942857143,-312.5,4,1,0,15,0,0
202108.971428571,-322.58064516129,4,1,0,15,0,0
202140,-333.333333333333,4,1,0,15,0,0
202157,-10,4,1,0,15,0,0
202175,-100,4,1,0,15,0,0
204895,136.861313868613,4,2,0,0,1,0
204895,-133.333333333333,4,2,0,0,0,0
206537,273.722627737226,4,2,0,0,1,0
207084,136.861313868613,4,2,0,0,1,0
207084,-133.333333333333,4,2,0,0,0,0
208726,273.722627737226,4,2,0,0,1,0
209273,136.861313868613,4,2,0,0,1,0
209273,-133.333333333333,4,2,0,0,0,0
210915,273.722627737226,4,2,0,0,1,0
237329,-10,4,2,0,0,0,0
237346,-1000,4,2,0,0,0,0
237448,-100,4,2,0,0,0,0
237466,-10,4,2,0,0,0,0
237483,-1000,4,2,0,0,0,0
237705,-100,4,2,0,0,0,0
237739,-10,4,2,0,0,0,0
237756,-1000,4,2,0,0,0,0
237859,-100,4,2,0,0,0,0
237876,-10,4,2,0,0,0,0
237893,-1000,4,2,0,0,0,0
238116,-100,4,2,0,0,0,0
238150,-10,4,2,0,0,0,0
238167,-1000,4,2,0,0,0,0
238270,-100,4,2,0,0,0,0
238287,-10,4,2,0,0,0,0
238304,-1000,4,2,0,0,0,0
238526,-100,4,2,0,0,0,0
238561,-10,4,2,0,0,0,0
238578,-1000,4,2,0,0,0,0
238680,-100,4,2,0,0,0,0
239519,-10,4,2,0,0,0,0
239536,-1000,4,2,0,0,0,0
239638,-100,4,2,0,0,0,0
239656,-10,4,2,0,0,0,0
239673,-1000,4,2,0,0,0,0
239895,-100,4,2,0,0,0,0
239929,-10,4,2,0,0,0,0
239946,-1000,4,2,0,0,0,0
240049,-100,4,2,0,0,0,0
240066,-10,4,2,0,0,0,0
240083,-1000,4,2,0,0,0,0
240305,-100,4,2,0,0,0,0
240340,-10,4,2,0,0,0,0
240357,-1000,4,2,0,0,0,0
240459,-100,4,2,0,0,0,0
240477,-10,4,2,0,0,0,0
240494,-1000,4,2,0,0,0,0
240716,-100,4,2,0,0,0,0
240751,-10,4,2,0,0,0,0
240768,-1000,4,2,0,0,0,0
240870,-100,4,2,0,0,0,0
243487,-10,4,2,0,0,0,0
243504,-1000,4,2,0,0,0,0
243623,-500,4,2,0,0,0,0
243635,-263.157894736842,4,2,0,0,0,0
243647,-178.571428571429,4,2,0,0,0,0
243659,-135.135135135135,4,2,0,0,0,0
243671,-108.695652173913,4,2,0,0,0,0
243683,-90.9090909090909,4,2,0,0,0,0
243695,-78.125,4,2,0,0,0,0
243707,-68.4931506849315,4,2,0,0,0,0
243719,-60.9756097560976,4,2,0,0,0,0
243731,-54.9450549450549,4,2,0,0,0,0
243743,-50,4,2,0,0,0,0
243761,-100,4,2,0,0,0,1
259227,-10,4,2,0,0,0,0
259243,-1000,4,2,0,0,0,0
259346,-100,4,2,0,0,0,0
259363,-10,4,2,0,0,0,0
259381,-1000,4,2,0,0,0,0
259603,-100,4,2,0,0,0,0
259637,-10,4,2,0,0,0,0
259654,-1000,4,2,0,0,0,0
259757,-100,4,2,0,0,0,0
259774,-10,4,2,0,0,0,0
259791,-1000,4,2,0,0,0,0
260013,-1000,4,2,0,0,0,0
260047,-10,4,2,0,0,0,0
260064,-1000,4,2,0,0,0,0
260167,-100,4,2,0,0,0,0
260184,-10,4,2,0,0,0,0
260202,-1000,4,2,0,0,0,0
260424,-1000,4,2,0,0,0,0
260458,-10,4,2,0,0,0,0
260475,-1000,4,2,0,0,0,0
260578,-100,4,2,0,0,0,0
260595,-10,4,2,0,0,0,0
260612,-1000,4,2,0,0,0,0
260732,-500,4,2,0,0,0,0
260743.9,-263.157894736842,4,2,0,0,0,0
260755.8,-178.571428571429,4,2,0,0,0,0
260767.7,-135.135135135135,4,2,0,0,0,0
260779.6,-108.695652173913,4,2,0,0,0,0
260791.5,-90.9090909090909,4,2,0,0,0,0
260803.4,-78.125,4,2,0,0,0,0
260815.3,-68.4931506849315,4,2,0,0,0,0
260827.2,-60.9756097560976,4,2,0,0,0,0
260839.1,-54.9450549450549,4,2,0,0,0,0
260851,-50,4,2,0,0,0,0
260869,-100,4,2,0,0,0,0
261416,-10,4,2,0,0,0,0
261432,-1000,4,2,0,0,0,0
261535,-100,4,2,0,0,0,0
261552,-10,4,2,0,0,0,0
261570,-1000,4,2,0,0,0,0
261792,-100,4,2,0,0,0,0
261826,-10,4,2,0,0,0,0
261843,-1000,4,2,0,0,0,0
261946,-100,4,2,0,0,0,0
261963,-10,4,2,0,0,0,0
261980,-1000,4,2,0,0,0,0
262202,-1000,4,2,0,0,0,0
262236,-10,4,2,0,0,0,0
262253,-1000,4,2,0,0,0,0
262356,-100,4,2,0,0,0,0
262373,-10,4,2,0,0,0,0
262391,-1000,4,2,0,0,0,0
262613,-1000,4,2,0,0,0,0
262647,-10,4,2,0,0,0,0
262664,-1000,4,2,0,0,0,0
262767,-100,4,2,0,0,0,0
262784,-10,4,2,0,0,0,0
262802,-1000,4,2,0,0,0,0
262922,-500,4,2,0,0,0,0
262933.9,-263.157894736842,4,2,0,0,0,0
262945.8,-178.571428571429,4,2,0,0,0,0
262957.7,-135.135135135135,4,2,0,0,0,0
262969.6,-108.695652173913,4,2,0,0,0,0
262981.5,-90.9090909090909,4,2,0,0,0,0
262993.4,-78.125,4,2,0,0,0,0
263005.3,-68.4931506849315,4,2,0,0,0,0
263017.2,-60.9756097560976,4,2,0,0,0,0
263029.1,-54.9450549450549,4,2,0,0,0,0
263041,-50,4,2,0,0,0,0
263059,-100,4,2,0,0,0,0
263469,-100,4,2,0,0,0,1
278798,-100,4,2,0,0,0,0
278833.5,-101.010101010101,4,2,0,0,0,0
278870,-102.040816326531,4,2,0,0,0,0
278906.5,-103.092783505155,4,2,0,0,0,0
278943,-104.166666666667,4,2,0,0,0,0
278979.5,-105.263157894737,4,2,0,0,0,0
279016,-106.382978723404,4,2,0,0,0,0
279052.5,-107.52688172043,4,2,0,0,0,0
279089,-108.695652173913,4,2,0,0,0,0
279125.5,-109.89010989011,4,2,0,0,0,0
279162,-111.111111111111,4,2,0,0,0,0
279198.5,-112.359550561798,4,2,0,0,0,0
279235,-113.636363636364,4,2,0,0,0,0
279271.5,-114.942528735632,4,2,0,0,0,0
279308,-116.279069767442,4,2,0,0,0,0
279344.5,-117.647058823529,4,2,0,0,0,0
279381,-119.047619047619,4,2,0,0,0,0
279417.5,-120.481927710843,4,2,0,0,0,0
279454,-121.951219512195,4,2,0,0,0,0
279490.5,-123.456790123457,4,2,0,0,0,0
279527,-125,4,2,0,0,0,0
279563.5,-126.582278481013,4,2,0,0,0,0
279600,-128.205128205128,4,2,0,0,0,0
279636.5,-129.87012987013,4,2,0,0,0,0
279673,-131.578947368421,4,2,0,0,0,0
279709.5,-133.333333333333,4,2,0,0,0,0
279746,-135.135135135135,4,2,0,0,0,0
279782.5,-136.986301369863,4,2,0,0,0,0
279819,-138.888888888889,4,2,0,0,0,0
279855.5,-140.845070422535,4,2,0,0,0,0
279892,-142.857142857143,4,2,0,0,0,0
279913.54,-138.888888888889,4,2,0,0,0,0
279935.08,-135.135135135135,4,2,0,0,0,0
279956.62,-131.578947368421,4,2,0,0,0,0
279978.16,-128.205128205128,4,2,0,0,0,0
279999.7,-125,4,2,0,0,0,0
280021.24,-121.951219512195,4,2,0,0,0,0
280042.78,-119.047619047619,4,2,0,0,0,0
280064.32,-116.279069767442,4,2,0,0,0,0
280085.86,-113.636363636364,4,2,0,0,0,0
280107.4,-111.111111111111,4,2,0,0,0,0
280128.94,-108.695652173913,4,2,0,0,0,0
280150.48,-106.382978723404,4,2,0,0,0,0
280172.02,-104.166666666667,4,2,0,0,0,0
280193.56,-102.040816326531,4,2,0,0,0,0
280215.1,-100,4,2,0,0,0,0
280236.64,-98.0392156862745,4,2,0,0,0,0
280258.18,-96.1538461538461,4,2,0,0,0,0
280279.72,-94.3396226415094,4,2,0,0,0,0
280301.26,-92.5925925925926,4,2,0,0,0,0
280322.8,-90.9090909090909,4,2,0,0,0,0
280344.34,-89.2857142857143,4,2,0,0,0,0
280365.88,-87.719298245614,4,2,0,0,0,0
280387.42,-86.2068965517241,4,2,0,0,0,0
280408.96,-84.7457627118644,4,2,0,0,0,0
280430.5,-83.3333333333333,4,2,0,0,0,0
280452.04,-81.9672131147541,4,2,0,0,0,0
280473.58,-80.6451612903226,4,2,0,0,0,0
280495.12,-79.3650793650794,4,2,0,0,0,0
280516.66,-78.125,4,2,0,0,0,0
280538.2,-76.9230769230769,4,2,0,0,0,0
280559.74,-75.7575757575758,4,2,0,0,0,0
280581.28,-74.6268656716418,4,2,0,0,0,0
280602.82,-73.5294117647059,4,2,0,0,0,0
280624.36,-72.463768115942,4,2,0,0,0,0
280645.9,-71.4285714285714,4,2,0,0,0,0
280667.44,-70.4225352112676,4,2,0,0,0,0
280688.98,-69.4444444444444,4,2,0,0,0,0
280710.52,-68.4931506849315,4,2,0,0,0,0
280732.06,-67.5675675675676,4,2,0,0,0,0
280753.6,-66.6666666666667,4,2,0,0,0,0
280775.14,-65.7894736842105,4,2,0,0,0,0
280796.68,-64.9350649350649,4,2,0,0,0,0
280818.22,-64.1025641025641,4,2,0,0,0,0
280839.76,-63.2911392405063,4,2,0,0,0,0
280861.3,-62.5,4,2,0,0,0,0
280882.84,-61.7283950617284,4,2,0,0,0,0
280904.38,-60.9756097560976,4,2,0,0,0,0
280925.92,-60.2409638554217,4,2,0,0,0,0
280947.46,-59.5238095238095,4,2,0,0,0,0
280969,-58.8235294117647,4,2,0,0,0,0
280987,-10,4,2,0,0,0,0
281004,-100,4,2,0,0,0,0
283177,-10,4,2,0,0,0,0
283194,-10000,4,2,0,0,0,0
283383,-50,4,2,0,0,0,0
283451,-100,4,2,0,0,0,0
284271,-20,4,2,0,0,0,0
284294,-1000,4,2,0,0,0,0
284363,-20,4,2,0,0,0,0
284385,-1000,4,2,0,0,0,0
284454,-20,4,2,0,0,0,0
284477,-1000,4,2,0,0,0,0
284545,-20,4,2,0,0,0,0
284568,-1000,4,2,0,0,0,0
284636,-20,4,2,0,0,0,0
284659,-1000,4,2,0,0,0,0
284727,-20,4,2,0,0,0,0
284750,-1000,4,2,0,0,0,0
284819,-20,4,2,0,0,0,0
284842,-1000,4,2,0,0,0,0
284956,-10,4,2,0,0,0,0
284973,-10000,4,2,0,0,0,0
285162,-50,4,2,0,0,0,0
285229,-10,4,2,0,0,0,0
285246,-100,4,2,0,0,0,0
285845,-10,4,2,0,0,0,0
285862,-1000,4,2,0,0,0,0
286016,-100,4,2,0,0,0,0
286050,-10,4,2,0,0,0,0
286068,-1000,4,2,0,0,0,0
286222,-100,4,2,0,0,0,0
286256,-10,4,2,0,0,0,0
286273,-1000,4,2,0,0,0,0
286427,-100,4,2,0,0,0,0
286461,-10,4,2,0,0,0,0
286478,-100,4,2,0,0,0,0
287556,-20,4,2,0,0,0,0
287579,-1000,4,2,0,0,0,0
287647,-20,4,2,0,0,0,0
287670,-1000,4,2,0,0,0,0
287738,-20,4,2,0,0,0,0
287761,-1000,4,2,0,0,0,0
287830,-20,4,2,0,0,0,0
287847,-1000,4,2,0,0,0,0
287967,-20,4,2,0,0,0,0
287984,-1000,4,2,0,0,0,0
288103,-20,4,2,0,0,0,0
288120,-1000,4,2,0,0,0,0
288240,-20,4,2,0,0,0,0
288257,-1000,4,2,0,0,0,0
288377,-20,4,2,0,0,0,0
288400,-1000,4,2,0,0,0,0
288468,-20,4,2,0,0,0,0
288491,-1000,4,2,0,0,0,0
288560,-20,4,2,0,0,0,0
288582,-1000,4,2,0,0,0,0
288651,-20,4,2,0,0,0,0
288668,-1000,4,2,0,0,0,0
288788,-20,4,2,0,0,0,0
288805,-1000,4,2,0,0,0,0
288925,-20,4,2,0,0,0,0
288942,-1000,4,2,0,0,0,0
289061,-20,4,2,0,0,0,0
289079,-1000,4,2,0,0,0,0
289130,-20,4,2,0,0,0,0
289147,-1000,4,2,0,0,0,0
289198,-100,4,2,0,0,0,0
289883,-100,4,2,0,0,0,0
289934.66,-101.010101010101,4,2,0,0,0,0
289986.32,-102.040816326531,4,2,0,0,0,0
290037.98,-103.092783505155,4,2,0,0,0,0
290089.64,-104.166666666667,4,2,0,0,0,0
290141.3,-105.263157894737,4,2,0,0,0,0
290192.96,-106.382978723404,4,2,0,0,0,0
290244.62,-107.52688172043,4,2,0,0,0,0
290296.28,-108.695652173913,4,2,0,0,0,0
290347.94,-109.89010989011,4,2,0,0,0,0
290399.6,-111.111111111111,4,2,0,0,0,0
290451.26,-112.359550561798,4,2,0,0,0,0
290502.92,-113.636363636364,4,2,0,0,0,0
290554.58,-114.942528735632,4,2,0,0,0,0
290606.24,-116.279069767442,4,2,0,0,0,0
290657.9,-117.647058823529,4,2,0,0,0,0
290709.56,-119.047619047619,4,2,0,0,0,0
290761.22,-120.481927710843,4,2,0,0,0,0
290812.88,-121.951219512195,4,2,0,0,0,0
290864.54,-123.456790123457,4,2,0,0,0,0
290916.2,-125,4,2,0,0,0,0
290967.86,-126.582278481013,4,2,0,0,0,0
291019.52,-128.205128205128,4,2,0,0,0,0
291071.18,-129.87012987013,4,2,0,0,0,0
291122.84,-131.578947368421,4,2,0,0,0,0
291174.5,-133.333333333333,4,2,0,0,0,0
291226.16,-135.135135135135,4,2,0,0,0,0
291277.82,-136.986301369863,4,2,0,0,0,0
291329.48,-138.888888888889,4,2,0,0,0,0
291381.14,-140.845070422535,4,2,0,0,0,0
291432.8,-142.857142857143,4,2,0,0,0,0
291484.46,-144.927536231884,4,2,0,0,0,0
291536.12,-147.058823529412,4,2,0,0,0,0
291587.78,-149.253731343284,4,2,0,0,0,0
291639.44,-151.515151515152,4,2,0,0,0,0
291691.1,-153.846153846154,4,2,0,0,0,0
291742.76,-156.25,4,2,0,0,0,0
291794.42,-158.730158730159,4,2,0,0,0,0
291846.08,-161.290322580645,4,2,0,0,0,0
291897.74,-163.934426229508,4,2,0,0,0,0
291949.4,-166.666666666667,4,2,0,0,0,0
292001.06,-169.491525423729,4,2,0,0,0,0
292052.72,-172.413793103448,4,2,0,0,0,0
292104.38,-175.438596491228,4,2,0,0,0,0
292156.04,-178.571428571429,4,2,0,0,0,0
292207.7,-181.818181818182,4,2,0,0,0,0
292259.36,-185.185185185185,4,2,0,0,0,0
292311.02,-188.679245283019,4,2,0,0,0,0
292362.68,-192.307692307692,4,2,0,0,0,0
292414.34,-196.078431372549,4,2,0,0,0,0
292466,-200,4,2,0,0,0,0
292483,-10,4,2,0,0,0,0
292492.854,-10.0200400801603,4,2,0,0,0,0
292502.708,-10.0401606425703,4,2,0,0,0,0
292512.562,-10.0603621730382,4,2,0,0,0,0
292522.416,-10.0806451612903,4,2,0,0,0,0
292532.27,-10.1010101010101,4,2,0,0,0,0
292542.124,-10.1214574898785,4,2,0,0,0,0
292551.978,-10.1419878296146,4,2,0,0,0,0
292561.832,-10.1626016260163,4,2,0,0,0,0
292571.686,-10.183299389002,4,2,0,0,0,0
292581.54,-10.2040816326531,4,2,0,0,0,0
292591.394,-10.2249488752556,4,2,0,0,0,0
292601.248,-10.2459016393443,4,2,0,0,0,0
292611.102,-10.2669404517454,4,2,0,0,0,0
292620.956,-10.2880658436214,4,2,0,0,0,0
292630.81,-10.3092783505155,4,2,0,0,0,0
292640.664,-10.3305785123967,4,2,0,0,0,0
292650.518,-10.351966873706,4,2,0,0,0,0
292660.372,-10.3734439834025,4,2,0,0,0,0
292670.226,-10.3950103950104,4,2,0,0,0,0
292680.08,-10.4166666666667,4,2,0,0,0,0
292689.934,-10.4384133611691,4,2,0,0,0,0
292699.788,-10.4602510460251,4,2,0,0,0,0
292709.642,-10.482180293501,4,2,0,0,0,0
292719.496,-10.5042016806723,4,2,0,0,0,0
292729.35,-10.515247108307,4,2,0,0,0,0
292739.204,-10.5374077976818,4,2,0,0,0,0
292749.058,-10.5596620908131,4,2,0,0,0,0
292758.912,-10.5820105820106,4,2,0,0,0,0
292768.766,-10.6044538706257,4,2,0,0,0,0
292778.62,-10.6269925611052,4,2,0,0,0,0
292788.474,-10.6496272630458,4,2,0,0,0,0
292798.328,-10.6723585912487,4,2,0,0,0,0
292808.182,-10.6951871657754,4,2,0,0,0,0
292818.036,-10.7181136120043,4,2,0,0,0,0
292827.89,-10.7411385606874,4,2,0,0,0,0
292837.744,-10.7642626480086,4,2,0,0,0,0
292847.598,-10.7874865156419,4,2,0,0,0,0
292857.452,-10.8108108108108,4,2,0,0,0,0
292867.306,-10.8342361863489,4,2,0,0,0,0
292877.16,-10.85776330076,4,2,0,0,0,0
292887.014,-10.8813928182807,4,2,0,0,0,0
292896.868,-10.9051254089422,4,2,0,0,0,0
292906.722,-10.9289617486339,4,2,0,0,0,0
292916.576,-10.9529025191676,4,2,0,0,0,0
292926.43,-10.9769484083425,4,2,0,0,0,0
292936.284,-11.001100110011,4,2,0,0,0,0
292946.138,-11.0253583241455,4,2,0,0,0,0
292955.992,-11.0497237569061,4,2,0,0,0,0
292965.846,-11.0741971207087,4,2,0,0,0,0
292975.7,-11.0987791342952,4,2,0,0,0,0
292985.554,-11.1234705228031,4,2,0,0,0,0
292995.408,-11.1482720178372,4,2,0,0,0,0
293005.262,-11.1731843575419,4,2,0,0,0,0
293015.116,-11.1982082866741,4,2,0,0,0,0
293024.97,-11.2233445566779,4,2,0,0,0,0
293034.824,-11.2485939257593,4,2,0,0,0,0
293044.678,-11.2739571589628,4,2,0,0,0,0
293054.532,-11.2994350282486,4,2,0,0,0,0
293064.386,-11.3250283125708,4,2,0,0,0,0
293074.24,-11.3507377979569,4,2,0,0,0,0
293084.094,-11.3765642775882,4,2,0,0,0,0
293093.948,-11.4025085518814,4,2,0,0,0,0
293103.802,-11.4285714285714,4,2,0,0,0,0
293113.656,-11.454753722795,4,2,0,0,0,0
293123.51,-11.4810562571757,4,2,0,0,0,0
293133.364,-11.5074798619102,4,2,0,0,0,0
293143.218,-11.5340253748558,4,2,0,0,0,0
293153.072,-11.5606936416185,4,2,0,0,0,0
293162.926,-11.5874855156431,4,2,0,0,0,0
293172.78,-11.6144018583043,4,2,0,0,0,0
293182.634,-11.6414435389988,4,2,0,0,0,0
293192.488,-11.6686114352392,4,2,0,0,0,0
293202.342,-11.6959064327485,4,2,0,0,0,0
293212.196,-11.7233294255569,4,2,0,0,0,0
293222.05,-11.7370892018779,4,2,0,0,0,0
293231.904,-11.7647058823529,4,2,0,0,0,0
293241.758,-11.7924528301887,4,2,0,0,0,0
293251.612,-11.8203309692671,4,2,0,0,0,0
293261.466,-11.8483412322275,4,2,0,0,0,0
293271.32,-11.8764845605701,4,2,0,0,0,0
293281.174,-11.9047619047619,4,2,0,0,0,0
293291.028,-11.9331742243437,4,2,0,0,0,0
293300.882,-11.9617224880383,4,2,0,0,0,0
293310.736,-11.9904076738609,4,2,0,0,0,0
293320.59,-12.0192307692308,4,2,0,0,0,0
293330.444,-12.0481927710843,4,2,0,0,0,0
293340.298,-12.0772946859903,4,2,0,0,0,0
293350.152,-12.1065375302663,4,2,0,0,0,0
293360.006,-12.1359223300971,4,2,0,0,0,0
293369.86,-12.1654501216545,4,2,0,0,0,0
293379.714,-12.1951219512195,4,2,0,0,0,0
293389.568,-12.2249388753056,4,2,0,0,0,0
293399.422,-12.2549019607843,4,2,0,0,0,0
293409.276,-12.2850122850123,4,2,0,0,0,0
293419.13,-12.3152709359606,4,2,0,0,0,0
293428.984,-12.3456790123457,4,2,0,0,0,0
293438.838,-12.3762376237624,4,2,0,0,0,0
293448.692,-12.4069478908189,4,2,0,0,0,0
293458.546,-12.4378109452736,4,2,0,0,0,0
293468.4,-12.4688279301746,4,2,0,0,0,0
293478.254,-12.5,4,2,0,0,0,0
293488.108,-12.531328320802,4,2,0,0,0,0
293497.962,-12.5628140703518,4,2,0,0,0,0
293507.816,-12.5944584382872,4,2,0,0,0,0
293517.67,-12.6262626262626,4,2,0,0,0,0
293527.524,-12.6582278481013,4,2,0,0,0,0
293537.378,-12.6903553299492,4,2,0,0,0,0
293547.232,-12.7226463104326,4,2,0,0,0,0
293557.086,-12.7551020408163,4,2,0,0,0,0
293566.94,-12.7877237851662,4,2,0,0,0,0
293576.794,-12.8205128205128,4,2,0,0,0,0
293586.648,-12.853470437018,4,2,0,0,0,0
293596.502,-12.8865979381443,4,2,0,0,0,0
293606.356,-12.9198966408269,4,2,0,0,0,0
293616.21,-12.9533678756477,4,2,0,0,0,0
293626.064,-12.987012987013,4,2,0,0,0,0
293635.918,-13.0208333333333,4,2,0,0,0,0
293645.772,-13.0548302872063,4,2,0,0,0,0
293655.626,-13.0890052356021,4,2,0,0,0,0
293665.48,-13.1233595800525,4,2,0,0,0,0
293675.334,-13.1578947368421,4,2,0,0,0,0
293685.188,-13.1926121372032,4,2,0,0,0,0
293695.042,-13.2275132275132,4,2,0,0,0,0
293704.896,-13.262599469496,4,2,0,0,0,0
293714.75,-13.2802124833997,4,2,0,0,0,0
293724.604,-13.3155792276964,4,2,0,0,0,0
293734.458,-13.3511348464619,4,2,0,0,0,0
293744.312,-13.3868808567604,4,2,0,0,0,0
293754.166,-13.4228187919463,4,2,0,0,0,0
293764.02,-13.4589502018843,4,2,0,0,0,0
293773.874,-13.4952766531714,4,2,0,0,0,0
293783.728,-13.531799729364,4,2,0,0,0,0
293793.582,-13.5685210312076,4,2,0,0,0,0
293803.436,-13.6054421768707,4,2,0,0,0,0
293813.29,-13.6425648021828,4,2,0,0,0,0
293823.144,-13.6798905608755,4,2,0,0,0,0
293832.998,-13.7174211248285,4,2,0,0,0,0
293842.852,-13.7551581843191,4,2,0,0,0,0
293852.706,-13.7931034482759,4,2,0,0,0,0
293862.56,-13.8312586445367,4,2,0,0,0,0
293872.414,-13.869625520111,4,2,0,0,0,0
293882.268,-13.9082058414465,4,2,0,0,0,0
293892.122,-13.9470013947001,4,2,0,0,0,0
293901.976,-13.986013986014,4,2,0,0,0,0
293911.83,-14.0252454417952,4,2,0,0,0,0
293921.684,-14.0646976090014,4,2,0,0,0,0
293931.538,-14.1043723554302,4,2,0,0,0,0
293941.392,-14.1442715700141,4,2,0,0,0,0
293951.246,-14.1843971631206,4,2,0,0,0,0
293961.1,-14.2247510668563,4,2,0,0,0,0
293970.954,-14.265335235378,4,2,0,0,0,0
293980.808,-14.3061516452074,4,2,0,0,0,0
293990.662,-14.3472022955524,4,2,0,0,0,0
294000.516,-14.3884892086331,4,2,0,0,0,0
294010.37,-14.4300144300144,4,2,0,0,0,0
294020.224,-14.4717800289436,4,2,0,0,0,0
294030.078,-14.5137880986938,4,2,0,0,0,0
294039.932,-14.5560407569141,4,2,0,0,0,0
294049.786,-14.5985401459854,4,2,0,0,0,0
294059.64,-14.6412884333821,4,2,0,0,0,0
294069.494,-14.6842878120411,4,2,0,0,0,0
294079.348,-14.7275405007364,4,2,0,0,0,0
294089.202,-14.7710487444609,4,2,0,0,0,0
294099.056,-14.8148148148148,4,2,0,0,0,0
294108.91,-14.8588410104012,4,2,0,0,0,0
294118.764,-14.903129657228,4,2,0,0,0,0
294128.618,-14.9476831091181,4,2,0,0,0,0
294138.472,-14.9925037481259,4,2,0,0,0,0
294148.326,-15.0375939849624,4,2,0,0,0,0
294158.18,-15.0829562594268,4,2,0,0,0,0
294168.034,-15.1285930408472,4,2,0,0,0,0
294177.888,-15.1745068285281,4,2,0,0,0,0
294187.742,-15.220700152207,4,2,0,0,0,0
294197.596,-15.2671755725191,4,2,0,0,0,0
294207.45,-15.2905198776758,4,2,0,0,0,0
294217.304,-15.3374233128834,4,2,0,0,0,0
294227.158,-15.3846153846154,4,2,0,0,0,0
294237.012,-15.4320987654321,4,2,0,0,0,0
294246.866,-15.4798761609907,4,2,0,0,0,0
294256.72,-15.527950310559,4,2,0,0,0,0
294266.574,-15.5763239875389,4,2,0,0,0,0
294276.428,-15.625,4,2,0,0,0,0
294286.282,-15.6739811912226,4,2,0,0,0,0
294296.136,-15.7232704402516,4,2,0,0,0,0
294305.99,-15.7728706624606,4,2,0,0,0,0
294315.844,-15.8227848101266,4,2,0,0,0,0
294325.698,-15.8730158730159,4,2,0,0,0,0
294335.552,-15.9235668789809,4,2,0,0,0,0
294345.406,-15.9744408945687,4,2,0,0,0,0
294355.26,-16.025641025641,4,2,0,0,0,0
294365.114,-16.0771704180064,4,2,0,0,0,0
294374.968,-16.1290322580645,4,2,0,0,0,0
294384.822,-16.1812297734628,4,2,0,0,0,0
294394.676,-16.2337662337662,4,2,0,0,0,0
294404.53,-16.2866449511401,4,2,0,0,0,0
294414.384,-16.3398692810458,4,2,0,0,0,0
294424.238,-16.3934426229508,4,2,0,0,0,0
294434.092,-16.4473684210526,4,2,0,0,0,0
294443.946,-16.5016501650165,4,2,0,0,0,0
294453.8,-16.5562913907285,4,2,0,0,0,0
294463.654,-16.6112956810631,4,2,0,0,0,0
294473.508,-16.6666666666667,4,2,0,0,0,0
294483.362,-16.7224080267559,4,2,0,0,0,0
294493.216,-16.7785234899329,4,2,0,0,0,0
294503.07,-16.8350168350168,4,2,0,0,0,0
294512.924,-16.8918918918919,4,2,0,0,0,0
294522.778,-16.9491525423729,4,2,0,0,0,0
294532.632,-17.0068027210884,4,2,0,0,0,0
294542.486,-17.0648464163823,4,2,0,0,0,0
294552.34,-17.1232876712329,4,2,0,0,0,0
294562.194,-17.1821305841924,4,2,0,0,0,0
294572.048,-17.2413793103448,4,2,0,0,0,0
294581.902,-17.3010380622837,4,2,0,0,0,0
294591.756,-17.3611111111111,4,2,0,0,0,0
294601.61,-17.4216027874564,4,2,0,0,0,0
294611.464,-17.4825174825175,4,2,0,0,0,0
294621.318,-17.5438596491228,4,2,0,0,0,0
294631.172,-17.6056338028169,4,2,0,0,0,0
294641.026,-17.6678445229682,4,2,0,0,0,0
294650.88,-17.7304964539007,4,2,0,0,0,0
294660.734,-17.7935943060498,4,2,0,0,0,0
294670.588,-17.8571428571429,4,2,0,0,0,0
294680.442,-17.921146953405,4,2,0,0,0,0
294690.296,-17.9856115107914,4,2,0,0,0,0
294700.15,-18.018018018018,4,2,0,0,0,0
294710.004,-18.0831826401447,4,2,0,0,0,0
294719.858,-18.1488203266788,4,2,0,0,0,0
294729.712,-18.2149362477231,4,2,0,0,0,0
294739.566,-18.2815356489945,4,2,0,0,0,0
294749.42,-18.348623853211,4,2,0,0,0,0
294759.274,-18.4162062615101,4,2,0,0,0,0
294769.128,-18.4842883548983,4,2,0,0,0,0
294778.982,-18.5528756957328,4,2,0,0,0,0
294788.836,-18.6219739292365,4,2,0,0,0,0
294798.69,-18.6915887850467,4,2,0,0,0,0
294808.544,-18.7617260787992,4,2,0,0,0,0
294818.398,-18.8323917137476,4,2,0,0,0,0
294828.252,-18.9035916824197,4,2,0,0,0,0
294838.106,-18.9753320683112,4,2,0,0,0,0
294847.96,-19.047619047619,4,2,0,0,0,0
294857.814,-19.1204588910134,4,2,0,0,0,0
294867.668,-19.1938579654511,4,2,0,0,0,0
294877.522,-19.2678227360308,4,2,0,0,0,0
294887.376,-19.3423597678917,4,2,0,0,0,0
294897.23,-19.4174757281553,4,2,0,0,0,0
294907.084,-19.4931773879142,4,2,0,0,0,0
294916.938,-19.5694716242661,4,2,0,0,0,0
294926.792,-19.6463654223969,4,2,0,0,0,0
294936.646,-19.723865877712,4,2,0,0,0,0
294946.5,-19.8019801980198,4,2,0,0,0,0
294956.354,-19.8807157057654,4,2,0,0,0,0
294966.208,-19.9600798403194,4,2,0,0,0,0
294976.062,-20.0400801603206,4,2,0,0,0,0
294985.916,-20.1207243460765,4,2,0,0,0,0
294995.77,-20.2020202020202,4,2,0,0,0,0
295005.624,-20.2839756592292,4,2,0,0,0,0
295015.478,-20.3665987780041,4,2,0,0,0,0
295025.332,-20.4498977505112,4,2,0,0,0,0
295035.186,-20.5338809034908,4,2,0,0,0,0
295045.04,-20.6185567010309,4,2,0,0,0,0
295054.894,-20.703933747412,4,2,0,0,0,0
295064.748,-20.7900207900208,4,2,0,0,0,0
295074.602,-20.8768267223382,4,2,0,0,0,0
295084.456,-20.9643605870021,4,2,0,0,0,0
295094.31,-21.0526315789474,4,2,0,0,0,0
295104.164,-21.1416490486258,4,2,0,0,0,0
295114.018,-21.2314225053079,4,2,0,0,0,0
295123.872,-21.3219616204691,4,2,0,0,0,0
295133.726,-21.4132762312634,4,2,0,0,0,0
295143.58,-21.505376344086,4,2,0,0,0,0
295153.434,-21.5982721382289,4,2,0,0,0,0
295163.288,-21.6919739696312,4,2,0,0,0,0
295173.142,-21.7864923747277,4,2,0,0,0,0
295182.996,-21.8818380743982,4,2,0,0,0,0
295192.85,-21.9298245614035,4,2,0,0,0,0
295202.704,-22.0264317180617,4,2,0,0,0,0
295212.558,-22.1238938053097,4,2,0,0,0,0
295222.412,-22.2222222222222,4,2,0,0,0,0
295232.266,-22.3214285714286,4,2,0,0,0,0
295242.12,-22.4215246636771,4,2,0,0,0,0
295251.974,-22.5225225225225,4,2,0,0,0,0
295261.828,-22.6244343891403,4,2,0,0,0,0
295271.682,-22.7272727272727,4,2,0,0,0,0
295281.536,-22.8310502283105,4,2,0,0,0,0
295291.39,-22.9357798165138,4,2,0,0,0,0
295301.244,-23.0414746543779,4,2,0,0,0,0
295311.098,-23.1481481481481,4,2,0,0,0,0
295320.952,-23.2558139534884,4,2,0,0,0,0
295330.806,-23.3644859813084,4,2,0,0,0,0
295340.66,-23.4741784037559,4,2,0,0,0,0
295350.514,-23.5849056603774,4,2,0,0,0,0
295360.368,-23.696682464455,4,2,0,0,0,0
295370.222,-23.8095238095238,4,2,0,0,0,0
295380.076,-23.9234449760766,4,2,0,0,0,0
295389.93,-24.0384615384615,4,2,0,0,0,0
295399.784,-24.1545893719807,4,2,0,0,0,0
295409.638,-24.2718446601942,4,2,0,0,0,0
295419.492,-24.390243902439,4,2,0,0,0,0
295429.346,-24.5098039215686,4,2,0,0,0,0
295439.2,-24.6305418719212,4,2,0,0,0,0
295449.054,-24.7524752475248,4,2,0,0,0,0
295458.908,-24.8756218905473,4,2,0,0,0,0
295468.762,-25,4,2,0,0,0,0
295478.616,-25.1256281407035,4,2,0,0,0,0
295488.47,-25.2525252525253,4,2,0,0,0,0
295498.324,-25.3807106598985,4,2,0,0,0,0
295508.178,-25.5102040816327,4,2,0,0,0,0
295518.032,-25.6410256410256,4,2,0,0,0,0
295527.886,-25.7731958762887,4,2,0,0,0,0
295537.74,-25.9067357512953,4,2,0,0,0,0
295547.594,-26.0416666666667,4,2,0,0,0,0
295557.448,-26.1780104712042,4,2,0,0,0,0
295567.302,-26.3157894736842,4,2,0,0,0,0
295577.156,-26.4550264550265,4,2,0,0,0,0
295587.01,-26.5957446808511,4,2,0,0,0,0
295596.864,-26.7379679144385,4,2,0,0,0,0
295606.718,-26.8817204301075,4,2,0,0,0,0
295616.572,-27.027027027027,4,2,0,0,0,0
295626.426,-27.1739130434783,4,2,0,0,0,0
295636.28,-27.3224043715847,4,2,0,0,0,0
295646.134,-27.4725274725275,4,2,0,0,0,0
295655.988,-27.6243093922652,4,2,0,0,0,0
295665.842,-27.7777777777778,4,2,0,0,0,0
295675.696,-27.9329608938547,4,2,0,0,0,0
295685.55,-28.0112044817927,4,2,0,0,0,0
295695.404,-28.169014084507,4,2,0,0,0,0
295705.258,-28.328611898017,4,2,0,0,0,0
295715.112,-28.4900284900285,4,2,0,0,0,0
295724.966,-28.6532951289398,4,2,0,0,0,0
295734.82,-28.8184438040346,4,2,0,0,0,0
295744.674,-28.9855072463768,4,2,0,0,0,0
295754.528,-29.1545189504373,4,2,0,0,0,0
295764.382,-29.3255131964809,4,2,0,0,0,0
295774.236,-29.4985250737463,4,2,0,0,0,0
295784.09,-29.673590504451,4,2,0,0,0,0
295793.944,-29.8507462686567,4,2,0,0,0,0
295803.798,-30.03003003003,4,2,0,0,0,0
295813.652,-30.2114803625378,4,2,0,0,0,0
295823.506,-30.3951367781155,4,2,0,0,0,0
295833.36,-30.5810397553517,4,2,0,0,0,0
295843.214,-30.7692307692308,4,2,0,0,0,0
295853.068,-30.9597523219814,4,2,0,0,0,0
295862.922,-31.1526479750779,4,2,0,0,0,0
295872.776,-31.3479623824451,4,2,0,0,0,0
295882.63,-31.5457413249211,4,2,0,0,0,0
295892.484,-31.7460317460317,4,2,0,0,0,0
295902.338,-31.9488817891374,4,2,0,0,0,0
295912.192,-32.1543408360129,4,2,0,0,0,0
295922.046,-32.3624595469256,4,2,0,0,0,0
295931.9,-32.5732899022801,4,2,0,0,0,0
295941.754,-32.7868852459016,4,2,0,0,0,0
295951.608,-33.003300330033,4,2,0,0,0,0
295961.462,-33.2225913621262,4,2,0,0,0,0
295971.316,-33.4448160535117,4,2,0,0,0,0
295981.17,-33.6700336700337,4,2,0,0,0,0
295991.024,-33.8983050847458,4,2,0,0,0,0
296000.878,-34.1296928327645,4,2,0,0,0,0
296010.732,-34.3642611683849,4,2,0,0,0,0
296020.586,-34.6020761245675,4,2,0,0,0,0
296030.44,-34.8432055749129,4,2,0,0,0,0
296040.294,-35.0877192982456,4,2,0,0,0,0
296050.148,-35.3356890459364,4,2,0,0,0,0
296060.002,-35.5871886120996,4,2,0,0,0,0
296069.856,-35.84229390681,4,2,0,0,0,0
296079.71,-36.101083032491,4,2,0,0,0,0
296089.564,-36.3636363636364,4,2,0,0,0,0
296099.418,-36.6300366300366,4,2,0,0,0,0
296109.272,-36.90036900369,4,2,0,0,0,0
296119.126,-37.1747211895911,4,2,0,0,0,0
296128.98,-37.4531835205993,4,2,0,0,0,0
296138.834,-37.7358490566038,4,2,0,0,0,0
296148.688,-38.0228136882129,4,2,0,0,0,0
296158.542,-38.3141762452107,4,2,0,0,0,0
296168.396,-38.6100386100386,4,2,0,0,0,0
296178.25,-38.7596899224806,4,2,0,0,0,0
296188.104,-39.0625,4,2,0,0,0,0
296197.958,-39.3700787401575,4,2,0,0,0,0
296207.812,-39.6825396825397,4,2,0,0,0,0
296217.666,-40,4,2,0,0,0,0
296227.52,-40.3225806451613,4,2,0,0,0,0
296237.374,-40.650406504065,4,2,0,0,0,0
296247.228,-40.9836065573771,4,2,0,0,0,0
296257.082,-41.3223140495868,4,2,0,0,0,0
296266.936,-41.6666666666667,4,2,0,0,0,0
296276.79,-42.0168067226891,4,2,0,0,0,0
296286.644,-42.3728813559322,4,2,0,0,0,0
296296.498,-42.7350427350427,4,2,0,0,0,0
296306.352,-43.1034482758621,4,2,0,0,0,0
296316.206,-43.4782608695652,4,2,0,0,0,0
296326.06,-43.859649122807,4,2,0,0,0,0
296335.914,-44.2477876106195,4,2,0,0,0,0
296345.768,-44.6428571428571,4,2,0,0,0,0
296355.622,-45.045045045045,4,2,0,0,0,0
296365.476,-45.4545454545455,4,2,0,0,0,0
296375.33,-45.8715596330275,4,2,0,0,0,0
296385.184,-46.2962962962963,4,2,0,0,0,0
296395.038,-46.7289719626168,4,2,0,0,0,0
296404.892,-47.1698113207547,4,2,0,0,0,0
296414.746,-47.6190476190476,4,2,0,0,0,0
296424.6,-48.0769230769231,4,2,0,0,0,0
296434.454,-48.5436893203883,4,2,0,0,0,0
296444.308,-49.0196078431373,4,2,0,0,0,0
296454.162,-49.5049504950495,4,2,0,0,0,0
296464.016,-50,4,2,0,0,0,0
296473.87,-50.5050505050505,4,2,0,0,0,0
296483.724,-51.0204081632653,4,2,0,0,0,0
296493.578,-51.5463917525773,4,2,0,0,0,0
296503.432,-52.0833333333333,4,2,0,0,0,0
296513.286,-52.6315789473684,4,2,0,0,0,0
296523.14,-53.1914893617021,4,2,0,0,0,0
296532.994,-53.763440860215,4,2,0,0,0,0
296542.848,-54.3478260869565,4,2,0,0,0,0
296552.702,-54.9450549450549,4,2,0,0,0,0
296562.556,-55.5555555555556,4,2,0,0,0,0
296572.41,-56.1797752808989,4,2,0,0,0,0
296582.264,-56.8181818181818,4,2,0,0,0,0
296592.118,-57.4712643678161,4,2,0,0,0,0
296601.972,-58.1395348837209,4,2,0,0,0,0
296611.826,-58.8235294117647,4,2,0,0,0,0
296621.68,-59.5238095238095,4,2,0,0,0,0
296631.534,-60.2409638554217,4,2,0,0,0,0
296641.388,-60.9756097560976,4,2,0,0,0,0
296651.242,-61.7283950617284,4,2,0,0,0,0
296661.096,-62.5,4,2,0,0,0,0
296670.95,-62.8930817610063,4,2,0,0,0,0
296680.804,-63.6942675159236,4,2,0,0,0,0
296690.658,-64.5161290322581,4,2,0,0,0,0
296700.512,-65.359477124183,4,2,0,0,0,0
296710.366,-66.2251655629139,4,2,0,0,0,0
296720.22,-67.1140939597315,4,2,0,0,0,0
296730.074,-68.0272108843538,4,2,0,0,0,0
296739.928,-68.9655172413793,4,2,0,0,0,0
296749.782,-69.9300699300699,4,2,0,0,0,0
296759.636,-70.9219858156028,4,2,0,0,0,0
296769.49,-71.9424460431655,4,2,0,0,0,0
296779.344,-72.992700729927,4,2,0,0,0,0
296789.198,-74.0740740740741,4,2,0,0,0,0
296799.052,-75.187969924812,4,2,0,0,0,0
296808.906,-76.3358778625954,4,2,0,0,0,0
296818.76,-77.5193798449612,4,2,0,0,0,0
296828.614,-78.740157480315,4,2,0,0,0,0
296838.468,-80,4,2,0,0,0,0
296848.322,-81.3008130081301,4,2,0,0,0,0
296858.176,-82.6446280991736,4,2,0,0,0,0
296868.03,-84.0336134453782,4,2,0,0,0,0
296877.884,-85.4700854700855,4,2,0,0,0,0
296887.738,-86.9565217391304,4,2,0,0,0,0
296897.592,-88.495575221239,4,2,0,0,0,0
296907.446,-90.0900900900901,4,2,0,0,0,0
296917.3,-91.743119266055,4,2,0,0,0,0
296927.154,-93.4579439252336,4,2,0,0,0,0
296937.008,-95.2380952380952,4,2,0,0,0,0
296946.862,-97.0873786407767,4,2,0,0,0,0
296956.716,-99.009900990099,4,2,0,0,0,0
296966.57,-101.010101010101,4,2,0,0,0,0
296976.424,-103.092783505155,4,2,0,0,0,0
296986.278,-105.263157894737,4,2,0,0,0,0
296996.132,-107.52688172043,4,2,0,0,0,0
297005.986,-109.89010989011,4,2,0,0,0,0
297015.84,-112.359550561798,4,2,0,0,0,0
297025.694,-114.942528735632,4,2,0,0,0,0
297035.548,-117.647058823529,4,2,0,0,0,0
297045.402,-120.481927710843,4,2,0,0,0,0
297055.256,-123.456790123457,4,2,0,0,0,0
297065.11,-126.582278481013,4,2,0,0,0,0
297074.964,-129.87012987013,4,2,0,0,0,0
297084.818,-133.333333333333,4,2,0,0,0,0
297094.672,-136.986301369863,4,2,0,0,0,0
297104.526,-140.845070422535,4,2,0,0,0,0
297114.38,-144.927536231884,4,2,0,0,0,0
297124.234,-149.253731343284,4,2,0,0,0,0
297134.088,-153.846153846154,4,2,0,0,0,0
297143.942,-158.730158730159,4,2,0,0,0,0
297153.796,-163.934426229508,4,2,0,0,0,0
297163.65,-166.666666666667,4,2,0,0,0,0
297173.504,-172.413793103448,4,2,0,0,0,0
297183.358,-178.571428571429,4,2,0,0,0,0
297193.212,-185.185185185185,4,2,0,0,0,0
297203.066,-192.307692307692,4,2,0,0,0,0
297212.92,-200,4,2,0,0,0,0
297222.774,-208.333333333333,4,2,0,0,0,0
297232.628,-217.391304347826,4,2,0,0,0,0
297242.482,-227.272727272727,4,2,0,0,0,0
297252.336,-238.095238095238,4,2,0,0,0,0
297262.19,-250,4,2,0,0,0,0
297272.044,-263.157894736842,4,2,0,0,0,0
297281.898,-277.777777777778,4,2,0,0,0,0
297291.752,-294.117647058824,4,2,0,0,0,0
297301.606,-312.5,4,2,0,0,0,0
297311.46,-333.333333333333,4,2,0,0,0,0
297321.314,-357.142857142857,4,2,0,0,0,0
297331.168,-384.615384615385,4,2,0,0,0,0
297341.022,-416.666666666667,4,2,0,0,0,0
297350.876,-454.545454545455,4,2,0,0,0,0
297360.73,-500,4,2,0,0,0,0
297370.584,-555.555555555556,4,2,0,0,0,0
297380.438,-625,4,2,0,0,0,0
297390.292,-714.285714285714,4,2,0,0,0,0
297400.146,-833.333333333333,4,2,0,0,0,0
297410,-1000,4,2,0,0,0,0

[HitObjects]
64,192,1247,128,0,1794:0:0:0:0:
448,192,1794,128,0,2890:0:0:0:0:
320,192,2341,128,0,2890:0:0:0:0:
64,192,2890,128,0,3437:0:0:0:0:
192,192,2890,1,0,0:0:0:0:
192,192,3711,128,0,3848:0:0:0:0:
320,192,3984,128,0,4121:0:0:0:0:
448,192,4258,128,0,4395:0:0:0:0:
320,192,4532,128,0,4669:0:0:0:0:
192,192,4806,128,0,4942:0:0:0:0:
64,192,5079,128,0,6722:0:0:0:0:
448,192,5079,1,0,0:0:0:0:
448,192,6174,128,0,6722:0:0:0:0:
320,192,6174,1,0,0:0:0:0:
192,192,6722,1,0,0:0:0:0:
192,192,7269,128,0,7680:0:0:0:0:
320,192,7269,1,0,0:0:0:0:
64,192,7543,1,0,0:0:0:0:
448,192,7680,1,0,0:0:0:0:
320,192,7817,128,0,7953:0:0:0:0:
448,192,8090,128,0,8227:0:0:0:0:
320,192,8364,128,0,8501:0:0:0:0:
192,192,8638,128,0,8775:0:0:0:0:
320,192,8911,128,0,9048:0:0:0:0:
64,192,9185,128,0,9322:0:0:0:0:
448,192,9459,128,0,10554:0:0:0:0:
64,192,9459,1,0,0:0:0:0:
192,192,9733,1,0,0:0:0:0:
320,192,10006,1,0,0:0:0:0:
192,192,10280,1,0,0:0:0:0:
64,192,10554,128,0,10827:0:0:0:0:
320,192,10554,1,0,0:0:0:0:
448,192,10827,1,0,0:0:0:0:
192,192,10827,1,0,0:0:0:0:
320,192,11101,1,0,0:0:0:0:
64,192,11101,1,0,0:0:0:0:
192,192,11375,1,0,0:0:0:0:
448,192,11375,1,0,0:0:0:0:
320,192,11649,1,0,0:0:0:0:
448,192,11649,128,0,12196:0:0:0:0:
64,192,11785,1,0,0:0:0:0:
320,192,11922,1,0,0:0:0:0:
192,192,12059,1,0,0:0:0:0:
64,192,12196,1,0,0:0:0:0:
320,192,12333,1,0,0:0:0:0:
192,192,12470,128,0,12607:0:0:0:0:
448,192,12607,1,0,0:0:0:0:
320,192,12744,128,0,12880:0:0:0:0:
64,192,12880,1,0,0:0:0:0:
192,192,13017,128,0,13154:0:0:0:0:
448,192,13154,1,0,0:0:0:0:
64,192,13291,128,0,13428:0:0:0:0:
320,192,13428,1,0,0:0:0:0:
448,192,13565,128,0,13702:0:0:0:0:
192,192,13702,1,0,0:0:0:0:
64,192,13838,128,0,14249:0:0:0:0:
320,192,13975,1,0,0:0:0:0:
192,192,14112,1,0,0:0:0:0:
448,192,14249,1,0,0:0:0:0:
192,192,14386,128,0,14796:0:0:0:0:
320,192,14523,1,0,0:0:0:0:
64,192,14660,1,0,0:0:0:0:
448,192,14796,1,0,0:0:0:0:
320,192,14933,128,0,15481:0:0:0:0:
64,192,15070,1,0,0:0:0:0:
448,192,15207,1,0,0:0:0:0:
192,192,15344,1,0,0:0:0:0:
64,192,15481,1,0,0:0:0:0:
320,192,15618,1,0,0:0:0:0:
448,192,15754,128,0,16712:0:0:0:0:
64,192,16028,128,0,16712:0:0:0:0:
192,192,16165,1,0,0:0:0:0:
320,192,16302,1,0,0:0:0:0:
192,192,16439,1,0,0:0:0:0:
320,192,16576,1,0,0:0:0:0:
192,192,16712,1,0,0:0:0:0:
320,192,16849,128,0,17671:0:0:0:0:
64,192,16986,1,0,0:0:0:0:
448,192,17123,128,0,17671:0:0:0:0:
192,192,17260,1,0,0:0:0:0:
64,192,17397,1,0,0:0:0:0:
192,192,17534,1,0,0:0:0:0:
64,192,17671,128,0,18218:0:0:0:0:
448,192,17807,1,0,0:0:0:0:
192,192,17944,1,0,0:0:0:0:
320,192,18081,1,0,0:0:0:0:
192,192,18218,128,0,18765:0:0:0:0:
448,192,18355,1,0,0:0:0:0:
64,192,18492,1,0,0:0:0:0:
448,192,18629,1,0,0:0:0:0:
320,192,18765,128,0,19313:0:0:0:0:
192,192,18902,1,0,0:0:0:0:
448,192,19039,1,0,0:0:0:0:
64,192,19176,1,0,0:0:0:0:
448,192,19313,128,0,19860:0:0:0:0:
192,192,19450,1,0,0:0:0:0:
320,192,19587,1,0,0:0:0:0:
192,192,19723,1,0,0:0:0:0:
64,192,19860,1,0,0:0:0:0:
320,192,19997,1,0,0:0:0:0:
192,192,20134,1,0,0:0:0:0:
448,192,20271,1,0,0:0:0:0:
192,192,20408,1,0,0:0:0:0:
64,192,20408,1,0,0:0:0:0:
448,192,20545,128,0,20955:0:0:0:0:
320,192,20955,128,0,21229:0:0:0:0:
192,192,21229,128,0,21503:0:0:0:0:
64,192,21503,128,0,21776:0:0:0:0:
192,192,21776,128,0,22050:0:0:0:0:
320,192,22050,128,0,22324:0:0:0:0:
448,192,22324,128,0,22598:0:0:0:0:
64,192,22598,128,0,23145:0:0:0:0:
448,192,23692,128,0,24719:0:0:0:0:
64,192,24240,1,0,0:0:0:0:
192,192,24308,1,0,0:0:0:0:
320,192,24377,1,0,0:0:0:0:
192,192,24445,1,0,0:0:0:0:
64,192,24514,1,0,0:0:0:0:
320,192,24582,1,0,0:0:0:0:
192,192,24650,1,0,0:0:0:0:
320,192,24719,1,0,0:0:0:0:
64,192,24787,5,0,0:0:0:0:
448,192,24787,1,0,0:0:0:0:
192,192,24924,1,0,0:0:0:0:
192,192,25061,1,0,0:0:0:0:
320,192,25198,1,0,0:0:0:0:
448,192,25198,1,0,0:0:0:0:
64,192,25335,1,0,0:0:0:0:
448,192,25472,1,0,0:0:0:0:
320,192,25608,1,0,0:0:0:0:
192,192,25745,1,0,0:0:0:0:
448,192,25882,1,0,0:0:0:0:
64,192,26019,1,0,0:0:0:0:
320,192,26156,1,0,0:0:0:0:
192,192,26293,1,0,0:0:0:0:
64,192,26430,1,0,0:0:0:0:
448,192,26430,1,0,0:0:0:0:
320,192,26567,1,0,0:0:0:0:
64,192,26703,1,0,0:0:0:0:
448,192,26703,1,0,0:0:0:0:
192,192,26840,1,0,0:0:0:0:
64,192,26977,1,0,0:0:0:0:
448,192,26977,1,0,0:0:0:0:
320,192,27114,1,0,0:0:0:0:
320,192,27251,1,0,0:0:0:0:
192,192,27388,1,0,0:0:0:0:
64,192,27388,1,0,0:0:0:0:
448,192,27525,1,0,0:0:0:0:
64,192,27661,1,0,0:0:0:0:
320,192,27798,1,0,0:0:0:0:
192,192,27935,1,0,0:0:0:0:
64,192,28072,1,0,0:0:0:0:
320,192,28209,1,0,0:0:0:0:
192,192,28346,1,0,0:0:0:0:
320,192,28483,1,0,0:0:0:0:
64,192,28619,128,0,29098:0:0:0:0:
448,192,28619,128,0,29098:0:0:0:0:
320,192,28756,128,0,28825:0:0:0:0:
192,192,28893,128,0,28962:0:0:0:0:
320,192,29030,128,0,29098:0:0:0:0:
448,192,29167,1,0,0:0:0:0:
320,192,29167,1,0,0:0:0:0:
64,192,29167,128,0,29509:0:0:0:0:
320,192,29441,1,0,0:0:0:0:
448,192,29441,1,0,0:0:0:0:
64,192,29577,128,0,29714:0:0:0:0:
320,192,29714,1,0,0:0:0:0:
448,192,29714,1,0,0:0:0:0:
320,192,29988,1,0,0:0:0:0:
448,192,29988,1,0,0:0:0:0:
320,192,30262,1,0,0:0:0:0:
448,192,30262,1,0,0:0:0:0:
320,192,30535,1,0,0:0:0:0:
448,192,30535,1,0,0:0:0:0:
64,192,30809,1,0,0:0:0:0:
192,192,30809,1,0,0:0:0:0:
448,192,30809,128,0,31014:0:0:0:0:
448,192,31083,128,0,31288:0:0:0:0:
192,192,31083,1,0,0:0:0:0:
64,192,31083,1,0,0:0:0:0:
448,192,31357,128,0,31699:0:0:0:0:
192,192,31357,1,0,0:0:0:0:
64,192,31357,1,0,0:0:0:0:
64,192,31630,1,0,0:0:0:0:
192,192,31630,1,0,0:0:0:0:
448,192,31767,128,0,31904:0:0:0:0:
192,192,31904,1,0,0:0:0:0:
64,192,31904,1,0,0:0:0:0:
192,192,32178,1,0,0:0:0:0:
64,192,32178,1,0,0:0:0:0:
192,192,32452,1,0,0:0:0:0:
64,192,32452,1,0,0:0:0:0:
64,192,32725,1,0,0:0:0:0:
192,192,32725,1,0,0:0:0:0:
64,192,32999,1,0,0:0:0:0:
192,192,32999,1,0,0:0:0:0:
320,192,33136,1,0,0:0:0:0:
448,192,33136,1,0,0:0:0:0:
192,192,33204,1,0,0:0:0:0:
64,192,33204,1,0,0:0:0:0:
320,192,33273,1,0,0:0:0:0:
448,192,33273,1,0,0:0:0:0:
192,192,33341,1,0,0:0:0:0:
64,192,33341,1,0,0:0:0:0:
448,192,33410,1,0,0:0:0:0:
320,192,33410,1,0,0:0:0:0:
192,192,33478,1,0,0:0:0:0:
64,192,33546,1,0,0:0:0:0:
320,192,33546,1,0,0:0:0:0:
448,192,33546,1,0,0:0:0:0:
64,192,33683,1,0,0:0:0:0:
448,192,33683,1,0,0:0:0:0:
192,192,33752,1,0,0:0:0:0:
320,192,33820,1,0,0:0:0:0:
448,192,33820,1,0,0:0:0:0:
64,192,33889,1,0,0:0:0:0:
192,192,33957,1,0,0:0:0:0:
320,192,33957,1,0,0:0:0:0:
448,192,33957,1,0,0:0:0:0:
192,192,34094,1,0,0:0:0:0:
64,192,34094,1,0,0:0:0:0:
320,192,34162,1,0,0:0:0:0:
448,192,34231,1,0,0:0:0:0:
64,192,34231,1,0,0:0:0:0:
192,192,34299,1,0,0:0:0:0:
320,192,34368,1,0,0:0:0:0:
448,192,34368,1,0,0:0:0:0:
64,192,34368,1,0,0:0:0:0:
192,192,34504,1,0,0:0:0:0:
448,192,34504,1,0,0:0:0:0:
320,192,34573,1,0,0:0:0:0:
192,192,34641,1,0,0:0:0:0:
64,192,34641,1,0,0:0:0:0:
448,192,34710,1,0,0:0:0:0:
320,192,34778,1,0,0:0:0:0:
192,192,34778,1,0,0:0:0:0:
64,192,34778,1,0,0:0:0:0:
320,192,34915,1,0,0:0:0:0:
448,192,34915,1,0,0:0:0:0:
64,192,34983,1,0,0:0:0:0:
192,192,35052,1,0,0:0:0:0:
448,192,35052,1,0,0:0:0:0:
320,192,35120,1,0,0:0:0:0:
192,192,35189,1,0,0:0:0:0:
64,192,35189,1,0,0:0:0:0:
448,192,35189,1,0,0:0:0:0:
320,192,35257,1,0,0:0:0:0:
64,192,35326,1,0,0:0:0:0:
448,192,35326,1,0,0:0:0:0:
192,192,35394,1,0,0:0:0:0:
320,192,35462,1,0,0:0:0:0:
448,192,35462,1,0,0:0:0:0:
64,192,35462,1,0,0:0:0:0:
192,192,35531,1,0,0:0:0:0:
64,192,35599,1,0,0:0:0:0:
448,192,35599,1,0,0:0:0:0:
320,192,35668,1,0,0:0:0:0:
192,192,35736,1,0,0:0:0:0:
64,192,35736,1,0,0:0:0:0:
448,192,35736,1,0,0:0:0:0:
320,192,35736,1,0,0:0:0:0:
64,192,35873,1,0,0:0:0:0:
192,192,35919,1,0,0:0:0:0:
448,192,35964,1,0,0:0:0:0:
320,192,36010,1,0,0:0:0:0:
192,192,36056,1,0,0:0:0:0:
64,192,36101,1,0,0:0:0:0:
320,192,36147,1,0,0:0:0:0:
448,192,36192,1,0,0:0:0:0:
64,192,36238,1,0,0:0:0:0:
192,192,36284,1,0,0:0:0:0:
320,192,36329,1,0,0:0:0:0:
192,192,36375,1,0,0:0:0:0:
320,192,36421,1,0,0:0:0:0:
192,192,36466,1,0,0:0:0:0:
320,192,36512,1,0,0:0:0:0:
192,192,36557,128,0,36763:0:0:0:0:
64,192,36626,128,0,36763:0:0:0:0:
448,192,36694,128,0,36900:0:0:0:0:
320,192,36763,128,0,36831:0:0:0:0:
192,192,36831,128,0,37036:0:0:0:0:
64,192,36831,128,0,36968:0:0:0:0:
320,192,36900,128,0,37036:0:0:0:0:
448,192,36968,128,0,37105:0:0:0:0:
64,192,37036,128,0,37173:0:0:0:0:
192,192,37105,128,0,37242:0:0:0:0:
320,192,37105,128,0,37310:0:0:0:0:
448,192,37173,128,0,37310:0:0:0:0:
64,192,37242,128,0,37447:0:0:0:0:
192,192,37310,128,0,37379:0:0:0:0:
320,192,37379,128,0,37584:0:0:0:0:
448,192,37379,128,0,37515:0:0:0:0:
192,192,37447,128,0,37584:0:0:0:0:
64,192,37515,128,0,37652:0:0:0:0:
448,192,37584,128,0,37721:0:0:0:0:
192,192,37652,128,0,37858:0:0:0:0:
320,192,37652,128,0,37789:0:0:0:0:
64,192,37721,128,0,37858:0:0:0:0:
448,192,37789,128,0,37926:0:0:0:0:
320,192,37858,128,0,37926:0:0:0:0:
192,192,37926,1,0,0:0:0:0:
64,192,37926,1,0,0:0:0:0:
448,192,38200,1,0,0:0:0:0:
64,192,38200,1,0,0:0:0:0:
320,192,38200,1,0,0:0:0:0:
192,192,38337,1,0,0:0:0:0:
64,192,38337,1,0,0:0:0:0:
192,192,38405,1,0,0:0:0:0:
64,192,38405,1,0,0:0:0:0:
320,192,38473,1,0,0:0:0:0:
448,192,38473,1,0,0:0:0:0:
64,192,38565,1,0,0:0:0:0:
448,192,38610,1,0,0:0:0:0:
320,192,38656,1,0,0:0:0:0:
192,192,38702,1,0,0:0:0:0:
320,192,38747,1,0,0:0:0:0:
64,192,38747,1,0,0:0:0:0:
448,192,38747,1,0,0:0:0:0:
192,192,38838,1,0,0:0:0:0:
64,192,38884,1,0,0:0:0:0:
320,192,38930,1,0,0:0:0:0:
448,192,38970,1,0,0:0:0:0:
64,192,39021,1,0,0:0:0:0:
192,192,39021,1,0,0:0:0:0:
320,192,39067,1,0,0:0:0:0:
448,192,39112,1,0,0:0:0:0:
64,192,39158,1,0,0:0:0:0:
192,192,39203,1,0,0:0:0:0:
320,192,39249,1,0,0:0:0:0:
448,192,39295,1,0,0:0:0:0:
192,192,39295,1,0,0:0:0:0:
64,192,39295,1,0,0:0:0:0:
320,192,39363,1,0,0:0:0:0:
192,192,39431,128,0,39534:0:0:0:0:
64,192,39449,128,0,39551:0:0:0:0:
448,192,39568,128,0,39705:0:0:0:0:
320,192,39568,128,0,39842:0:0:0:0:
192,192,39637,128,0,39774:0:0:0:0:
64,192,39705,128,0,39774:0:0:0:0:
448,192,39774,128,0,39910:0:0:0:0:
64,192,39842,128,0,39979:0:0:0:0:
192,192,39842,128,0,40116:0:0:0:0:
320,192,39910,128,0,40047:0:0:0:0:
448,192,39979,128,0,40047:0:0:0:0:
64,192,40047,128,0,40116:0:0:0:0:
320,192,40116,1,0,0:0:0:0:
448,192,40116,1,0,0:0:0:0:
64,192,40389,1,0,0:0:0:0:
320,192,40389,1,0,0:0:0:0:
448,192,40389,1,0,0:0:0:0:
192,192,40458,1,0,0:0:0:0:
320,192,40526,1,0,0:0:0:0:
448,192,40526,1,0,0:0:0:0:
320,192,40595,1,0,0:0:0:0:
448,192,40595,1,0,0:0:0:0:
192,192,40663,1,0,0:0:0:0:
64,192,40663,1,0,0:0:0:0:
448,192,40754,1,0,0:0:0:0:
320,192,40800,1,0,0:0:0:0:
64,192,40846,1,0,0:0:0:0:
192,192,40891,1,0,0:0:0:0:
448,192,40937,1,0,0:0:0:0:
320,192,40937,1,0,0:0:0:0:
64,192,40937,1,0,0:0:0:0:
320,192,41028,1,0,0:0:0:0:
448,192,41074,1,0,0:0:0:0:
64,192,41119,1,0,0:0:0:0:
192,192,41165,1,0,0:0:0:0:
320,192,41211,1,0,0:0:0:0:
448,192,41211,1,0,0:0:0:0:
64,192,41256,1,0,0:0:0:0:
448,192,41302,1,0,0:0:0:0:
320,192,41348,1,0,0:0:0:0:
64,192,41393,1,0,0:0:0:0:
192,192,41439,1,0,0:0:0:0:
320,192,41484,1,0,0:0:0:0:
448,192,41484,1,0,0:0:0:0:
64,192,41484,1,0,0:0:0:0:
192,192,41553,1,0,0:0:0:0:
320,192,41621,128,0,41724:0:0:0:0:
448,192,41638,128,0,41741:0:0:0:0:
64,192,41758,128,0,41963:0:0:0:0:
192,192,41758,128,0,41895:0:0:0:0:
448,192,41827,128,0,41963:0:0:0:0:
320,192,41895,128,0,42032:0:0:0:0:
192,192,41963,128,0,42100:0:0:0:0:
448,192,42032,128,0,42306:0:0:0:0:
64,192,42032,128,0,42237:0:0:0:0:
320,192,42100,128,0,42169:0:0:0:0:
192,192,42169,128,0,42237:0:0:0:0:
320,192,42237,128,0,42306:0:0:0:0:
64,192,42306,1,0,0:0:0:0:
192,192,42306,1,0,0:0:0:0:
192,192,42579,1,0,0:0:0:0:
320,192,42579,1,0,0:0:0:0:
448,192,42579,1,0,0:0:0:0:
64,192,42648,1,0,0:0:0:0:
320,192,42716,1,0,0:0:0:0:
448,192,42716,1,0,0:0:0:0:
320,192,42785,1,0,0:0:0:0:
448,192,42785,1,0,0:0:0:0:
192,192,42853,1,0,0:0:0:0:
64,192,42853,1,0,0:0:0:0:
448,192,42944,1,0,0:0:0:0:
64,192,42990,1,0,0:0:0:0:
192,192,43035,1,0,0:0:0:0:
320,192,43081,1,0,0:0:0:0:
448,192,43127,1,0,0:0:0:0:
64,192,43127,1,0,0:0:0:0:
448,192,43218,1,0,0:0:0:0:
320,192,43264,1,0,0:0:0:0:
64,192,43309,1,0,0:0:0:0:
192,192,43355,1,0,0:0:0:0:
320,192,43400,1,0,0:0:0:0:
448,192,43400,1,0,0:0:0:0:
64,192,43446,1,0,0:0:0:0:
448,192,43492,1,0,0:0:0:0:
192,192,43537,1,0,0:0:0:0:
320,192,43583,1,0,0:0:0:0:
448,192,43629,1,0,0:0:0:0:
192,192,43674,1,0,0:0:0:0:
64,192,43674,1,0,0:0:0:0:
320,192,43743,1,0,0:0:0:0:
192,192,43811,128,0,43914:0:0:0:0:
64,192,43828,128,0,43931:0:0:0:0:
448,192,43948,128,0,44085:0:0:0:0:
320,192,43948,128,0,44222:0:0:0:0:
192,192,44016,128,0,44153:0:0:0:0:
64,192,44085,128,0,44153:0:0:0:0:
448,192,44153,128,0,44290:0:0:0:0:
64,192,44222,128,0,44358:0:0:0:0:
192,192,44222,128,0,44495:0:0:0:0:
320,192,44290,128,0,44427:0:0:0:0:
448,192,44358,128,0,44427:0:0:0:0:
64,192,44427,128,0,44495:0:0:0:0:
320,192,44495,1,0,0:0:0:0:
448,192,44495,1,0,0:0:0:0:
64,192,44701,1,0,0:0:0:0:
192,192,44701,1,0,0:0:0:0:
64,192,44769,1,0,0:0:0:0:
448,192,44769,1,0,0:0:0:0:
192,192,44769,1,0,0:0:0:0:
320,192,44837,1,0,0:0:0:0:
448,192,44837,1,0,0:0:0:0:
320,192,44906,1,0,0:0:0:0:
448,192,44906,1,0,0:0:0:0:
320,192,44974,1,0,0:0:0:0:
448,192,44974,1,0,0:0:0:0:
320,192,45043,1,0,0:0:0:0:
448,192,45043,1,0,0:0:0:0:
64,192,45043,1,0,0:0:0:0:
192,192,45043,1,0,0:0:0:0:
448,192,45248,1,0,0:0:0:0:
64,192,45248,1,0,0:0:0:0:
64,192,45317,1,0,0:0:0:0:
448,192,45317,1,0,0:0:0:0:
192,192,45317,1,0,0:0:0:0:
320,192,45362,1,0,0:0:0:0:
192,192,45408,1,0,0:0:0:0:
448,192,45453,1,0,0:0:0:0:
64,192,45499,1,0,0:0:0:0:
192,192,45545,1,0,0:0:0:0:
64,192,45590,1,0,0:0:0:0:
320,192,45590,1,0,0:0:0:0:
448,192,45590,1,0,0:0:0:0:
192,192,45636,1,0,0:0:0:0:
448,192,45681,1,0,0:0:0:0:
320,192,45727,1,0,0:0:0:0:
64,192,45773,1,0,0:0:0:0:
320,192,45796,1,0,0:0:0:0:
448,192,45796,1,0,0:0:0:0:
192,192,45818,1,0,0:0:0:0:
64,192,45864,1,0,0:0:0:0:
448,192,45910,1,0,0:0:0:0:
320,192,45955,1,0,0:0:0:0:
192,192,46001,1,0,0:0:0:0:
64,192,46001,1,0,0:0:0:0:
448,192,46001,1,0,0:0:0:0:
320,192,46046,1,0,0:0:0:0:
64,192,46092,1,0,0:0:0:0:
192,192,46138,1,0,0:0:0:0:
320,192,46183,1,0,0:0:0:0:
64,192,46206,1,0,0:0:0:0:
448,192,46206,1,0,0:0:0:0:
320,192,46275,128,0,46411:0:0:0:0:
448,192,46343,128,0,46617:0:0:0:0:
192,192,46411,128,0,46480:0:0:0:0:
64,192,46411,128,0,46548:0:0:0:0:
320,192,46480,128,0,46548:0:0:0:0:
192,192,46548,128,0,46617:0:0:0:0:
64,192,46617,128,0,46685:0:0:0:0:
320,192,46685,128,0,46959:0:0:0:0:
448,192,46685,128,0,46754:0:0:0:0:
192,192,46754,128,0,46822:0:0:0:0:
64,192,46822,128,0,46890:0:0:0:0:
448,192,46890,128,0,47096:0:0:0:0:
192,192,46959,128,0,47027:0:0:0:0:
64,192,46959,128,0,47027:0:0:0:0:
320,192,47027,128,0,47096:0:0:0:0:
192,192,47096,1,0,0:0:0:0:
64,192,47096,1,0,0:0:0:0:
192,192,47164,128,0,47369:0:0:0:0:
64,192,47164,1,0,0:0:0:0:
320,192,47233,128,0,47301:0:0:0:0:
448,192,47233,128,0,47301:0:0:0:0:
64,192,47301,128,0,47438:0:0:0:0:
448,192,47369,128,0,47575:0:0:0:0:
320,192,47438,128,0,47506:0:0:0:0:
64,192,47506,128,0,47780:0:0:0:0:
192,192,47506,128,0,47575:0:0:0:0:
320,192,47575,128,0,47643:0:0:0:0:
448,192,47643,128,0,47712:0:0:0:0:
320,192,47712,128,0,47780:0:0:0:0:
192,192,47780,1,0,0:0:0:0:
448,192,47780,1,0,0:0:0:0:
64,192,47917,1,0,0:0:0:0:
64,192,48054,1,0,0:0:0:0:
192,192,48054,1,0,0:0:0:0:
320,192,48054,1,0,0:0:0:0:
448,192,48054,1,0,0:0:0:0:
448,192,48191,1,0,0:0:0:0:
64,192,48327,1,0,0:0:0:0:
192,192,48327,1,0,0:0:0:0:
320,192,48327,1,0,0:0:0:0:
448,192,48327,1,0,0:0:0:0:
64,192,48464,1,0,0:0:0:0:
192,192,48464,1,0,0:0:0:0:
320,192,48464,1,0,0:0:0:0:
448,192,48464,1,0,0:0:0:0:
64,192,48601,1,0,0:0:0:0:
192,192,48601,1,0,0:0:0:0:
320,192,48601,1,0,0:0:0:0:
448,192,48601,1,0,0:0:0:0:
64,192,48738,1,0,0:0:0:0:
448,192,48738,1,0,0:0:0:0:
64,192,48875,128,0,49149:0:0:0:0:
192,192,48875,128,0,48943:0:0:0:0:
448,192,48875,128,0,48943:0:0:0:0:
320,192,48943,128,0,49012:0:0:0:0:
448,192,49012,128,0,49080:0:0:0:0:
320,192,49080,128,0,49149:0:0:0:0:
192,192,49149,128,0,49285:0:0:0:0:
448,192,49149,128,0,49217:0:0:0:0:
64,192,49217,128,0,49354:0:0:0:0:
320,192,49285,1,0,0:0:0:0:
448,192,49285,1,0,0:0:0:0:
320,192,49354,1,0,0:0:0:0:
448,192,49354,128,0,49559:0:0:0:0:
192,192,49422,128,0,49491:0:0:0:0:
64,192,49422,128,0,49491:0:0:0:0:
320,192,49491,128,0,49559:0:0:0:0:
64,192,49559,128,0,49628:0:0:0:0:
448,192,49628,128,0,49696:0:0:0:0:
192,192,49696,128,0,49970:0:0:0:0:
320,192,49696,128,0,49764:0:0:0:0:
64,192,49764,128,0,49833:0:0:0:0:
448,192,49833,128,0,49901:0:0:0:0:
320,192,49901,128,0,49970:0:0:0:0:
64,192,49970,1,0,0:0:0:0:
448,192,49970,128,0,50038:0:0:0:0:
320,192,50038,128,0,50107:0:0:0:0:
192,192,50107,1,0,0:0:0:0:
64,192,50107,1,0,0:0:0:0:
64,192,50244,1,0,0:0:0:0:
320,192,50244,1,0,0:0:0:0:
448,192,50244,1,0,0:0:0:0:
192,192,50244,1,0,0:0:0:0:
320,192,50380,1,0,0:0:0:0:
64,192,50449,1,0,0:0:0:0:
448,192,50449,1,0,0:0:0:0:
64,192,50517,1,0,0:0:0:0:
192,192,50517,1,0,0:0:0:0:
320,192,50517,1,0,0:0:0:0:
448,192,50517,1,0,0:0:0:0:
64,192,50654,1,0,0:0:0:0:
192,192,50654,1,0,0:0:0:0:
192,192,50723,1,0,0:0:0:0:
64,192,50723,1,0,0:0:0:0:
320,192,50791,1,0,0:0:0:0:
448,192,50791,1,0,0:0:0:0:
64,192,50859,1,0,0:0:0:0:
448,192,50928,1,0,0:0:0:0:
320,192,50996,1,0,0:0:0:0:
192,192,51065,1,0,0:0:0:0:
64,192,51065,1,0,0:0:0:0:
448,192,51065,1,0,0:0:0:0:
320,192,51110,1,0,0:0:0:0:
64,192,51156,1,0,0:0:0:0:
448,192,51202,1,0,0:0:0:0:
192,192,51247,1,0,0:0:0:0:
320,192,51293,1,0,0:0:0:0:
448,192,51338,1,0,0:0:0:0:
64,192,51338,1,0,0:0:0:0:
192,192,51407,1,0,0:0:0:0:
64,192,51407,1,0,0:0:0:0:
64,192,51475,1,0,0:0:0:0:
192,192,51475,1,0,0:0:0:0:
320,192,51544,1,0,0:0:0:0:
448,192,51544,1,0,0:0:0:0:
64,192,51612,1,0,0:0:0:0:
448,192,51612,1,0,0:0:0:0:
320,192,51612,1,0,0:0:0:0:
192,192,51658,1,0,0:0:0:0:
64,192,51703,1,0,0:0:0:0:
448,192,51749,128,0,51835:0:0:0:0:
320,192,51766,128,0,51852:0:0:0:0:
320,192,51886,128,0,51971:0:0:0:0:
448,192,51903,128,0,51988:0:0:0:0:
448,192,52023,128,0,52108:0:0:0:0:
320,192,52040,128,0,52125:0:0:0:0:
64,192,52160,1,0,0:0:0:0:
448,192,52160,1,0,0:0:0:0:
192,192,52160,1,0,0:0:0:0:
320,192,52205,1,0,0:0:0:0:
448,192,52251,1,0,0:0:0:0:
64,192,52296,128,0,52382:0:0:0:0:
192,192,52314,128,0,52399:0:0:0:0:
192,192,52433,128,0,52519:0:0:0:0:
64,192,52450,128,0,52536:0:0:0:0:
64,192,52570,128,0,52656:0:0:0:0:
192,192,52587,128,0,52673:0:0:0:0:
320,192,52707,128,0,52775:0:0:0:0:
448,192,52707,128,0,52775:0:0:0:0:
64,192,52707,128,0,52775:0:0:0:0:
192,192,52707,128,0,52775:0:0:0:0:
64,192,52844,128,0,52981:0:0:0:0:
448,192,52844,128,0,52889:0:0:0:0:
320,192,52889,128,0,52935:0:0:0:0:
192,192,52935,128,0,52981:0:0:0:0:
320,192,52981,128,0,53026:0:0:0:0:
448,192,52981,128,0,53026:0:0:0:0:
64,192,53026,128,0,53072:0:0:0:0:
448,192,53072,128,0,53118:0:0:0:0:
192,192,53118,128,0,53163:0:0:0:0:
320,192,53163,128,0,53209:0:0:0:0:
64,192,53209,128,0,53254:0:0:0:0:
448,192,53254,1,0,0:0:0:0:
320,192,53254,1,0,0:0:0:0:
64,192,53300,1,0,0:0:0:0:
448,192,53346,1,0,0:0:0:0:
192,192,53391,1,0,0:0:0:0:
320,192,53437,1,0,0:0:0:0:
64,192,53483,1,0,0:0:0:0:
320,192,53528,1,0,0:0:0:0:
448,192,53528,1,0,0:0:0:0:
192,192,53528,1,0,0:0:0:0:
64,192,53528,1,0,0:0:0:0:
64,192,53802,1,0,0:0:0:0:
448,192,53802,1,0,0:0:0:0:
192,192,53939,128,0,54007:0:0:0:0:
320,192,53939,128,0,54007:0:0:0:0:
64,192,54076,1,0,0:0:0:0:
192,192,54076,1,0,0:0:0:0:
320,192,54076,1,0,0:0:0:0:
448,192,54076,1,0,0:0:0:0:
64,192,54349,1,0,0:0:0:0:
448,192,54349,1,0,0:0:0:0:
192,192,54418,1,0,0:0:0:0:
64,192,54418,1,0,0:0:0:0:
192,192,54486,1,0,0:0:0:0:
64,192,54486,1,0,0:0:0:0:
192,192,54555,1,0,0:0:0:0:
64,192,54555,1,0,0:0:0:0:
64,192,54623,1,0,0:0:0:0:
192,192,54623,1,0,0:0:0:0:
448,192,54623,1,0,0:0:0:0:
320,192,54623,1,0,0:0:0:0:
64,192,54897,1,0,0:0:0:0:
448,192,54897,1,0,0:0:0:0:
64,192,55102,1,0,0:0:0:0:
448,192,55102,1,0,0:0:0:0:
64,192,55307,1,0,0:0:0:0:
448,192,55307,1,0,0:0:0:0:
448,192,55444,1,0,0:0:0:0:
64,192,55444,1,0,0:0:0:0:
320,192,55444,1,0,0:0:0:0:
192,192,55490,1,0,0:0:0:0:
320,192,55535,1,0,0:0:0:0:
64,192,55581,1,0,0:0:0:0:
448,192,55627,1,0,0:0:0:0:
320,192,55672,1,0,0:0:0:0:
192,192,55718,1,0,0:0:0:0:
448,192,55764,1,0,0:0:0:0:
64,192,55809,1,0,0:0:0:0:
192,192,55855,1,0,0:0:0:0:
320,192,55900,1,0,0:0:0:0:
448,192,55946,1,0,0:0:0:0:
64,192,55992,1,0,0:0:0:0:
192,192,56000,1,0,0:0:0:0:
448,192,56009,1,0,0:0:0:0:
320,192,56017,1,0,0:0:0:0:
192,192,56197,1,0,0:0:0:0:
64,192,56205,1,0,0:0:0:0:
320,192,56214,1,0,0:0:0:0:
448,192,56222,1,0,0:0:0:0:
448,192,56402,1,0,0:0:0:0:
320,192,56411,1,0,0:0:0:0:
192,192,56419,1,0,0:0:0:0:
64,192,56428,1,0,0:0:0:0:
320,192,56607,1,0,0:0:0:0:
448,192,56616,1,0,0:0:0:0:
64,192,56624,1,0,0:0:0:0:
192,192,56633,1,0,0:0:0:0:
64,192,56813,1,0,0:0:0:0:
192,192,56821,1,0,0:0:0:0:
448,192,56830,1,0,0:0:0:0:
320,192,56838,1,0,0:0:0:0:
192,192,57018,1,0,0:0:0:0:
64,192,57027,1,0,0:0:0:0:
320,192,57035,1,0,0:0:0:0:
448,192,57044,1,0,0:0:0:0:
64,192,57223,1,0,0:0:0:0:
192,192,57232,1,0,0:0:0:0:
448,192,57240,1,0,0:0:0:0:
320,192,57249,1,0,0:0:0:0:
448,192,57429,1,0,0:0:0:0:
320,192,57437,1,0,0:0:0:0:
192,192,57446,1,0,0:0:0:0:
64,192,57454,1,0,0:0:0:0:
192,192,57634,1,0,0:0:0:0:
64,192,57634,1,0,0:0:0:0:
448,192,57679,1,0,0:0:0:0:
320,192,57725,1,0,0:0:0:0:
64,192,57770,1,0,0:0:0:0:
192,192,57816,1,0,0:0:0:0:
320,192,57862,1,0,0:0:0:0:
64,192,57907,1,0,0:0:0:0:
448,192,57953,1,0,0:0:0:0:
320,192,57998,1,0,0:0:0:0:
192,192,58044,1,0,0:0:0:0:
320,192,58090,1,0,0:0:0:0:
64,192,58135,1,0,0:0:0:0:
448,192,58181,1,0,0:0:0:0:
320,192,58189,1,0,0:0:0:0:
64,192,58198,1,0,0:0:0:0:
192,192,58206,1,0,0:0:0:0:
320,192,58386,1,0,0:0:0:0:
448,192,58394,1,0,0:0:0:0:
192,192,58403,1,0,0:0:0:0:
64,192,58411,1,0,0:0:0:0:
64,192,58591,1,0,0:0:0:0:
192,192,58600,1,0,0:0:0:0:
320,192,58608,1,0,0:0:0:0:
448,192,58617,1,0,0:0:0:0:
192,192,58796,1,0,0:0:0:0:
64,192,58805,1,0,0:0:0:0:
448,192,58813,1,0,0:0:0:0:
320,192,58822,1,0,0:0:0:0:
448,192,59002,1,0,0:0:0:0:
320,192,59010,1,0,0:0:0:0:
64,192,59019,1,0,0:0:0:0:
192,192,59027,1,0,0:0:0:0:
320,192,59207,1,0,0:0:0:0:
448,192,59216,1,0,0:0:0:0:
192,192,59224,1,0,0:0:0:0:
64,192,59233,1,0,0:0:0:0:
448,192,59412,1,0,0:0:0:0:
320,192,59421,1,0,0:0:0:0:
64,192,59429,1,0,0:0:0:0:
192,192,59438,1,0,0:0:0:0:
64,192,59549,1,0,0:0:0:0:
192,192,59558,1,0,0:0:0:0:
320,192,59566,1,0,0:0:0:0:
448,192,59575,1,0,0:0:0:0:
320,192,59686,1,0,0:0:0:0:
448,192,59695,1,0,0:0:0:0:
192,192,59703,1,0,0:0:0:0:
64,192,59712,1,0,0:0:0:0:
64,192,59823,1,0,0:0:0:0:
320,192,59823,1,0,0:0:0:0:
448,192,59823,1,0,0:0:0:0:
192,192,59868,1,0,0:0:0:0:
320,192,59914,1,0,0:0:0:0:
64,192,59959,1,0,0:0:0:0:
448,192,60005,1,0,0:0:0:0:
192,192,60051,1,0,0:0:0:0:
320,192,60096,1,0,0:0:0:0:
192,192,60142,1,0,0:0:0:0:
64,192,60187,1,0,0:0:0:0:
448,192,60233,1,0,0:0:0:0:
320,192,60279,1,0,0:0:0:0:
192,192,60324,1,0,0:0:0:0:
448,192,60370,1,0,0:0:0:0:
320,192,60378,1,0,0:0:0:0:
64,192,60387,1,0,0:0:0:0:
192,192,60395,1,0,0:0:0:0:
320,192,60575,1,0,0:0:0:0:
448,192,60583,1,0,0:0:0:0:
192,192,60592,1,0,0:0:0:0:
64,192,60600,1,0,0:0:0:0:
64,192,60780,1,0,0:0:0:0:
192,192,60789,1,0,0:0:0:0:
320,192,60797,1,0,0:0:0:0:
448,192,60806,1,0,0:0:0:0:
192,192,60985,1,0,0:0:0:0:
64,192,60994,1,0,0:0:0:0:
448,192,61002,1,0,0:0:0:0:
320,192,61011,1,0,0:0:0:0:
448,192,61191,1,0,0:0:0:0:
320,192,61199,1,0,0:0:0:0:
64,192,61208,1,0,0:0:0:0:
192,192,61216,1,0,0:0:0:0:
320,192,61396,1,0,0:0:0:0:
448,192,61405,1,0,0:0:0:0:
192,192,61413,1,0,0:0:0:0:
64,192,61422,1,0,0:0:0:0:
448,192,61601,1,0,0:0:0:0:
320,192,61610,1,0,0:0:0:0:
64,192,61618,1,0,0:0:0:0:
192,192,61627,1,0,0:0:0:0:
64,192,61807,1,0,0:0:0:0:
192,192,61815,1,0,0:0:0:0:
320,192,61824,1,0,0:0:0:0:
448,192,61832,1,0,0:0:0:0:
64,192,62012,128,0,62217:0:0:0:0:
192,192,62012,128,0,62200:0:0:0:0:
320,192,62012,128,0,62183:0:0:0:0:
448,192,62012,128,0,62165:0:0:0:0:
64,192,62285,1,0,0:0:0:0:
448,192,62285,1,0,0:0:0:0:
192,192,62319,1,0,0:0:0:0:
320,192,62354,1,0,0:0:0:0:
448,192,62388,1,0,0:0:0:0:
64,192,62422,1,0,0:0:0:0:
192,192,62456,1,0,0:0:0:0:
320,192,62491,1,0,0:0:0:0:
192,192,62525,1,0,0:0:0:0:
64,192,62559,128,0,62747:0:0:0:0:
320,192,62559,128,0,62764:0:0:0:0:
448,192,62559,128,0,62730:0:0:0:0:
64,192,62833,1,0,0:0:0:0:
448,192,62833,1,0,0:0:0:0:
320,192,62867,1,0,0:0:0:0:
192,192,62901,1,0,0:0:0:0:
448,192,62970,1,0,0:0:0:0:
320,192,63004,1,0,0:0:0:0:
192,192,63038,1,0,0:0:0:0:
64,192,63106,128,0,63260:0:0:0:0:
192,192,63106,128,0,63277:0:0:0:0:
320,192,63106,128,0,63295:0:0:0:0:
448,192,63106,128,0,63312:0:0:0:0:
64,192,63380,1,0,0:0:0:0:
448,192,63380,1,0,0:0:0:0:
192,192,63414,1,0,0:0:0:0:
320,192,63449,1,0,0:0:0:0:
64,192,63483,1,0,0:0:0:0:
448,192,63517,1,0,0:0:0:0:
320,192,63551,1,0,0:0:0:0:
192,192,63585,1,0,0:0:0:0:
64,192,63620,1,0,0:0:0:0:
320,192,63654,128,0,63699:0:0:0:0:
448,192,63654,128,0,63699:0:0:0:0:
64,192,63699,128,0,63745:0:0:0:0:
192,192,63745,128,0,63791:0:0:0:0:
320,192,63791,128,0,63836:0:0:0:0:
64,192,63836,128,0,63882:0:0:0:0:
448,192,63882,128,0,63928:0:0:0:0:
320,192,63928,128,0,63973:0:0:0:0:
192,192,63973,128,0,64019:0:0:0:0:
64,192,64019,128,0,64064:0:0:0:0:
320,192,64064,128,0,64110:0:0:0:0:
192,192,64110,128,0,64156:0:0:0:0:
320,192,64156,128,0,64201:0:0:0:0:
64,192,64201,1,0,0:0:0:0:
192,192,64201,1,0,0:0:0:0:
448,192,64201,128,0,64749:0:0:0:0:
192,192,64475,1,0,0:0:0:0:
64,192,64475,1,0,0:0:0:0:
192,192,64749,1,0,0:0:0:0:
64,192,64749,1,0,0:0:0:0:
192,192,65022,1,0,0:0:0:0:
64,192,65022,1,0,0:0:0:0:
448,192,65022,128,0,65159:0:0:0:0:
192,192,65296,1,0,0:0:0:0:
320,192,65296,128,0,65433:0:0:0:0:
64,192,65296,1,0,0:0:0:0:
320,192,65570,1,0,0:0:0:0:
192,192,65570,128,0,65707:0:0:0:0:
64,192,65570,1,0,0:0:0:0:
192,192,65844,1,0,0:0:0:0:
320,192,65844,1,0,0:0:0:0:
64,192,65844,128,0,65980:0:0:0:0:
192,192,66117,1,0,0:0:0:0:
320,192,66117,1,0,0:0:0:0:
448,192,66117,128,0,66254:0:0:0:0:
320,192,66391,1,0,0:0:0:0:
448,192,66391,1,0,0:0:0:0:
64,192,66391,128,0,66939:0:0:0:0:
448,192,66665,1,0,0:0:0:0:
320,192,66665,1,0,0:0:0:0:
320,192,66939,1,0,0:0:0:0:
448,192,66939,1,0,0:0:0:0:
192,192,66939,128,0,67486:0:0:0:0:
320,192,67212,1,0,0:0:0:0:
448,192,67212,1,0,0:0:0:0:
64,192,67486,1,0,0:0:0:0:
448,192,67486,1,0,0:0:0:0:
320,192,67486,128,0,68033:0:0:0:0:
64,192,67760,1,0,0:0:0:0:
448,192,67760,1,0,0:0:0:0:
448,192,68033,128,0,68581:0:0:0:0:
64,192,68033,1,0,0:0:0:0:
192,192,68033,1,0,0:0:0:0:
64,192,68307,1,0,0:0:0:0:
192,192,68307,1,0,0:0:0:0:
64,192,68581,1,0,0:0:0:0:
192,192,68581,1,0,0:0:0:0:
448,192,68855,1,0,0:0:0:0:
320,192,68855,1,0,0:0:0:0:
192,192,68855,128,0,68991:0:0:0:0:
192,192,69128,1,0,0:0:0:0:
448,192,69128,1,0,0:0:0:0:
320,192,69128,128,0,69265:0:0:0:0:
192,192,69402,1,0,0:0:0:0:
448,192,69402,128,0,69539:0:0:0:0:
64,192,69402,1,0,0:0:0:0:
192,192,69676,1,0,0:0:0:0:
320,192,69676,128,0,69813:0:0:0:0:
448,192,69676,1,0,0:0:0:0:
320,192,69949,1,0,0:0:0:0:
64,192,69949,1,0,0:0:0:0:
192,192,69949,128,0,70086:0:0:0:0:
320,192,70223,1,0,0:0:0:0:
64,192,70223,128,0,70360:0:0:0:0:
448,192,70223,1,0,0:0:0:0:
320,192,70360,1,0,0:0:0:0:
448,192,70360,1,0,0:0:0:0:
320,192,70428,1,0,0:0:0:0:
448,192,70428,1,0,0:0:0:0:
64,192,70497,1,0,0:0:0:0:
192,192,70497,1,0,0:0:0:0:
320,192,70634,5,0,0:0:0:0:
448,192,70668,1,0,0:0:0:0:
192,192,70702,1,0,0:0:0:0:
64,192,70736,1,0,0:0:0:0:
320,192,70771,1,0,0:0:0:0:
448,192,70771,128,0,71181:0:0:0:0:
192,192,70907,1,0,0:0:0:0:
320,192,71044,1,0,0:0:0:0:
192,192,71044,1,0,0:0:0:0:
64,192,71044,128,0,72002:0:0:0:0:
320,192,71181,1,0,0:0:0:0:
192,192,71318,1,0,0:0:0:0:
448,192,71318,1,0,0:0:0:0:
320,192,71455,1,0,0:0:0:0:
448,192,71592,1,0,0:0:0:0:
192,192,71592,128,0,71729:0:0:0:0:
320,192,71729,1,0,0:0:0:0:
448,192,71866,128,0,72002:0:0:0:0:
192,192,71866,1,0,0:0:0:0:
320,192,72002,1,0,0:0:0:0:
320,192,72139,128,0,72276:0:0:0:0:
64,192,72139,1,0,0:0:0:0:
448,192,72139,1,0,0:0:0:0:
64,192,72276,1,0,0:0:0:0:
192,192,72413,128,0,72550:0:0:0:0:
320,192,72413,1,0,0:0:0:0:
448,192,72413,1,0,0:0:0:0:
448,192,72550,1,0,0:0:0:0:
64,192,72687,128,0,72824:0:0:0:0:
320,192,72687,1,0,0:0:0:0:
192,192,72687,1,0,0:0:0:0:
320,192,72824,1,0,0:0:0:0:
448,192,72960,128,0,73234:0:0:0:0:
192,192,72960,1,0,0:0:0:0:
64,192,72960,1,0,0:0:0:0:
192,192,73097,1,0,0:0:0:0:
64,192,73234,1,0,0:0:0:0:
320,192,73234,128,0,73508:0:0:0:0:
192,192,73234,1,0,0:0:0:0:
448,192,73371,1,0,0:0:0:0:
192,192,73508,128,0,73782:0:0:0:0:
64,192,73508,128,0,73782:0:0:0:0:
448,192,73508,1,0,0:0:0:0:
320,192,73645,1,0,0:0:0:0:
320,192,73782,128,0,74055:0:0:0:0:
448,192,73782,1,0,0:0:0:0:
192,192,73918,1,0,0:0:0:0:
64,192,74055,128,0,74534:0:0:0:0:
448,192,74055,128,0,74534:0:0:0:0:
192,192,74055,1,0,0:0:0:0:
320,192,74192,1,0,0:0:0:0:
320,192,74329,1,0,0:0:0:0:
192,192,74329,1,0,0:0:0:0:
192,192,74466,1,0,0:0:0:0:
448,192,74603,128,0,75082:0:0:0:0:
320,192,74603,128,0,75082:0:0:0:0:
64,192,74603,1,0,0:0:0:0:
192,192,74740,1,0,0:0:0:0:
192,192,74876,1,0,0:0:0:0:
64,192,74876,1,0,0:0:0:0:
64,192,75013,1,0,0:0:0:0:
64,192,75150,1,0,0:0:0:0:
192,192,75150,1,0,0:0:0:0:
320,192,75150,1,0,0:0:0:0:
448,192,75150,1,0,0:0:0:0:
64,192,75287,1,0,0:0:0:0:
192,192,75287,1,0,0:0:0:0:
320,192,75287,1,0,0:0:0:0:
448,192,75287,1,0,0:0:0:0:
448,192,75424,1,0,0:0:0:0:
320,192,75424,1,0,0:0:0:0:
64,192,75424,1,0,0:0:0:0:
192,192,75424,128,0,75698:0:0:0:0:
448,192,75561,1,0,0:0:0:0:
320,192,75698,128,0,75971:0:0:0:0:
448,192,75698,1,0,0:0:0:0:
64,192,75698,1,0,0:0:0:0:
64,192,75834,1,0,0:0:0:0:
448,192,75971,128,0,76245:0:0:0:0:
192,192,75971,1,0,0:0:0:0:
64,192,75971,1,0,0:0:0:0:
192,192,76108,1,0,0:0:0:0:
64,192,76245,128,0,76519:0:0:0:0:
320,192,76245,1,0,0:0:0:0:
192,192,76245,1,0,0:0:0:0:
320,192,76382,1,0,0:0:0:0:
192,192,76519,1,0,0:0:0:0:
320,192,76519,1,0,0:0:0:0:
448,192,76519,1,0,0:0:0:0:
192,192,76656,1,0,0:0:0:0:
448,192,76793,128,0,76998:0:0:0:0:
64,192,76793,1,0,0:0:0:0:
192,192,76793,1,0,0:0:0:0:
320,192,76929,1,0,0:0:0:0:
192,192,76998,1,0,0:0:0:0:
64,192,76998,1,0,0:0:0:0:
192,192,77066,1,0,0:0:0:0:
64,192,77066,1,0,0:0:0:0:
448,192,77157,1,0,0:0:0:0:
320,192,77157,1,0,0:0:0:0:
64,192,77249,1,0,0:0:0:0:
448,192,77249,1,0,0:0:0:0:
320,192,77340,1,0,0:0:0:0:
448,192,77340,1,0,0:0:0:0:
64,192,77340,1,0,0:0:0:0:
192,192,77340,128,0,77887:0:0:0:0:
320,192,77887,1,0,0:0:0:0:
448,192,77887,128,0,78754:0:0:0:0:
64,192,77956,1,0,0:0:0:0:
192,192,78024,1,0,0:0:0:0:
320,192,78093,1,0,0:0:0:0:
64,192,78161,1,0,0:0:0:0:
192,192,78230,1,0,0:0:0:0:
64,192,78298,1,0,0:0:0:0:
320,192,78366,1,0,0:0:0:0:
192,192,78435,128,0,78754:0:0:0:0:
64,192,78435,128,0,78754:0:0:0:0:
192,192,78800,1,0,0:0:0:0:
64,192,78800,1,0,0:0:0:0:
448,192,78800,1,0,0:0:0:0:
192,192,78891,1,0,0:0:0:0:
320,192,78891,1,0,0:0:0:0:
320,192,78982,1,0,0:0:0:0:
448,192,78982,1,0,0:0:0:0:
64,192,78982,128,0,79165:0:0:0:0:
448,192,79165,1,0,0:0:0:0:
320,192,79165,1,0,0:0:0:0:
192,192,79165,128,0,79347:0:0:0:0:
64,192,79347,1,0,0:0:0:0:
448,192,79347,1,0,0:0:0:0:
320,192,79347,128,0,79530:0:0:0:0:
64,192,79530,1,0,0:0:0:0:
192,192,79530,1,0,0:0:0:0:
448,192,79530,1,0,0:0:0:0:
320,192,79575,1,0,0:0:0:0:
192,192,79621,1,0,0:0:0:0:
448,192,79667,1,0,0:0:0:0:
64,192,79712,1,0,0:0:0:0:
192,192,79758,1,0,0:0:0:0:
320,192,79803,1,0,0:0:0:0:
448,192,79803,1,0,0:0:0:0:
320,192,79872,1,0,0:0:0:0:
448,192,79872,1,0,0:0:0:0:
192,192,79940,1,0,0:0:0:0:
64,192,79940,1,0,0:0:0:0:
192,192,80009,1,0,0:0:0:0:
64,192,80009,1,0,0:0:0:0:
64,192,80077,1,0,0:0:0:0:
320,192,80077,1,0,0:0:0:0:
448,192,80077,1,0,0:0:0:0:
192,192,80123,1,0,0:0:0:0:
320,192,80168,1,0,0:0:0:0:
64,192,80214,128,0,80300:0:0:0:0:
192,192,80231,128,0,80317:0:0:0:0:
192,192,80351,128,0,80436:0:0:0:0:
64,192,80368,128,0,80454:0:0:0:0:
64,192,80488,128,0,80573:0:0:0:0:
192,192,80505,128,0,80590:0:0:0:0:
320,192,80625,1,0,0:0:0:0:
448,192,80625,1,0,0:0:0:0:
64,192,80625,1,0,0:0:0:0:
192,192,80670,1,0,0:0:0:0:
448,192,80716,1,0,0:0:0:0:
320,192,80761,1,0,0:0:0:0:
64,192,80807,1,0,0:0:0:0:
192,192,80853,1,0,0:0:0:0:
320,192,80898,128,0,80984:0:0:0:0:
448,192,80915,128,0,81001:0:0:0:0:
448,192,81035,128,0,81121:0:0:0:0:
320,192,81052,128,0,81138:0:0:0:0:
192,192,81172,1,0,0:0:0:0:
64,192,81172,1,0,0:0:0:0:
448,192,81172,1,0,0:0:0:0:
320,192,81218,1,0,0:0:0:0:
192,192,81263,1,0,0:0:0:0:
448,192,81309,1,0,0:0:0:0:
64,192,81355,1,0,0:0:0:0:
320,192,81400,1,0,0:0:0:0:
192,192,81446,1,0,0:0:0:0:
448,192,81491,1,0,0:0:0:0:
320,192,81537,1,0,0:0:0:0:
64,192,81583,1,0,0:0:0:0:
192,192,81628,1,0,0:0:0:0:
320,192,81674,1,0,0:0:0:0:
64,192,81720,1,0,0:0:0:0:
192,192,81720,1,0,0:0:0:0:
448,192,81720,1,0,0:0:0:0:
320,192,81765,1,0,0:0:0:0:
64,192,81811,1,0,0:0:0:0:
448,192,81856,1,0,0:0:0:0:
192,192,81902,1,0,0:0:0:0:
320,192,81948,1,0,0:0:0:0:
192,192,81993,1,0,0:0:0:0:
64,192,81993,1,0,0:0:0:0:
192,192,82062,1,0,0:0:0:0:
64,192,82062,1,0,0:0:0:0:
320,192,82130,1,0,0:0:0:0:
448,192,82130,1,0,0:0:0:0:
320,192,82199,1,0,0:0:0:0:
448,192,82199,1,0,0:0:0:0:
192,192,82267,1,0,0:0:0:0:
64,192,82267,1,0,0:0:0:0:
448,192,82267,1,0,0:0:0:0:
320,192,82313,1,0,0:0:0:0:
64,192,82358,1,0,0:0:0:0:
448,192,82404,1,0,0:0:0:0:
192,192,82449,1,0,0:0:0:0:
320,192,82495,1,0,0:0:0:0:
192,192,82541,128,0,82626:0:0:0:0:
64,192,82558,128,0,82643:0:0:0:0:
64,192,82678,128,0,82763:0:0:0:0:
192,192,82695,128,0,82780:0:0:0:0:
64,192,82814,1,0,0:0:0:0:
320,192,82814,1,0,0:0:0:0:
448,192,82814,1,0,0:0:0:0:
192,192,82860,1,0,0:0:0:0:
320,192,82906,1,0,0:0:0:0:
64,192,82951,1,0,0:0:0:0:
448,192,82997,1,0,0:0:0:0:
192,192,83043,1,0,0:0:0:0:
320,192,83088,128,0,83174:0:0:0:0:
448,192,83105,128,0,83191:0:0:0:0:
448,192,83225,128,0,83311:0:0:0:0:
320,192,83242,128,0,83328:0:0:0:0:
64,192,83362,1,0,0:0:0:0:
320,192,83362,1,0,0:0:0:0:
448,192,83362,1,0,0:0:0:0:
192,192,83396,1,0,0:0:0:0:
320,192,83430,1,0,0:0:0:0:
64,192,83465,1,0,0:0:0:0:
448,192,83499,1,0,0:0:0:0:
320,192,83533,1,0,0:0:0:0:
192,192,83567,1,0,0:0:0:0:
448,192,83601,1,0,0:0:0:0:
64,192,83636,1,0,0:0:0:0:
320,192,83670,1,0,0:0:0:0:
192,192,83704,1,0,0:0:0:0:
448,192,83738,1,0,0:0:0:0:
320,192,83772,1,0,0:0:0:0:
64,192,83807,1,0,0:0:0:0:
192,192,83841,1,0,0:0:0:0:
320,192,83875,1,0,0:0:0:0:
448,192,83909,1,0,0:0:0:0:
64,192,83909,1,0,0:0:0:0:
192,192,83909,1,0,0:0:0:0:
320,192,83955,1,0,0:0:0:0:
64,192,84001,1,0,0:0:0:0:
448,192,84046,1,0,0:0:0:0:
192,192,84092,1,0,0:0:0:0:
320,192,84137,1,0,0:0:0:0:
64,192,84183,1,0,0:0:0:0:
448,192,84183,1,0,0:0:0:0:
448,192,84274,1,0,0:0:0:0:
320,192,84274,1,0,0:0:0:0:
64,192,84274,1,0,0:0:0:0:
64,192,84388,1,0,0:0:0:0:
192,192,84388,1,0,0:0:0:0:
320,192,84388,1,0,0:0:0:0:
320,192,84457,1,0,0:0:0:0:
192,192,84457,1,0,0:0:0:0:
64,192,84457,1,0,0:0:0:0:
192,192,84639,1,0,0:0:0:0:
320,192,84639,1,0,0:0:0:0:
448,192,84639,1,0,0:0:0:0:
448,192,84822,1,0,0:0:0:0:
64,192,84822,1,0,0:0:0:0:
192,192,84822,1,0,0:0:0:0:
448,192,85004,1,0,0:0:0:0:
64,192,85004,1,0,0:0:0:0:
320,192,85050,1,0,0:0:0:0:
192,192,85095,1,0,0:0:0:0:
64,192,85141,1,0,0:0:0:0:
320,192,85141,1,0,0:0:0:0:
448,192,85141,1,0,0:0:0:0:
64,192,85278,1,0,0:0:0:0:
192,192,85278,1,0,0:0:0:0:
448,192,85278,1,0,0:0:0:0:
64,192,85415,1,0,0:0:0:0:
192,192,85483,1,0,0:0:0:0:
448,192,85483,1,0,0:0:0:0:
320,192,85483,1,0,0:0:0:0:
192,192,85552,1,0,0:0:0:0:
320,192,85552,1,0,0:0:0:0:
448,192,85552,1,0,0:0:0:0:
64,192,85757,1,0,0:0:0:0:
192,192,85757,1,0,0:0:0:0:
448,192,85757,1,0,0:0:0:0:
64,192,85917,1,0,0:0:0:0:
192,192,85917,1,0,0:0:0:0:
320,192,85917,1,0,0:0:0:0:
64,192,86099,1,0,0:0:0:0:
320,192,86099,1,0,0:0:0:0:
448,192,86099,1,0,0:0:0:0:
192,192,86145,1,0,0:0:0:0:
448,192,86190,1,0,0:0:0:0:
320,192,86236,1,0,0:0:0:0:
64,192,86282,1,0,0:0:0:0:
192,192,86327,1,0,0:0:0:0:
320,192,86373,1,0,0:0:0:0:
64,192,86418,1,0,0:0:0:0:
192,192,86464,1,0,0:0:0:0:
320,192,86464,1,0,0:0:0:0:
448,192,86464,1,0,0:0:0:0:
64,192,86578,1,0,0:0:0:0:
192,192,86578,1,0,0:0:0:0:
448,192,86578,1,0,0:0:0:0:
64,192,86647,1,0,0:0:0:0:
192,192,86647,1,0,0:0:0:0:
448,192,86647,1,0,0:0:0:0:
448,192,86783,1,0,0:0:0:0:
320,192,86852,1,0,0:0:0:0:
192,192,86852,1,0,0:0:0:0:
64,192,86852,1,0,0:0:0:0:
64,192,87011,1,0,0:0:0:0:
448,192,87011,1,0,0:0:0:0:
320,192,87011,1,0,0:0:0:0:
192,192,87194,5,0,0:0:0:0:
448,192,87240,1,0,0:0:0:0:
320,192,87285,1,0,0:0:0:0:
192,192,87331,5,0,0:0:0:0:
448,192,87331,1,0,0:0:0:0:
64,192,87331,1,0,0:0:0:0:
320,192,87468,1,0,0:0:0:0:
192,192,87468,1,0,0:0:0:0:
64,192,87468,1,0,0:0:0:0:
320,192,87673,1,0,0:0:0:0:
448,192,87673,1,0,0:0:0:0:
192,192,87673,1,0,0:0:0:0:
192,192,87741,1,0,0:0:0:0:
320,192,87741,1,0,0:0:0:0:
448,192,87741,1,0,0:0:0:0:
192,192,87947,1,0,0:0:0:0:
320,192,87947,1,0,0:0:0:0:
64,192,87947,1,0,0:0:0:0:
64,192,88152,1,0,0:0:0:0:
448,192,88152,1,0,0:0:0:0:
320,192,88152,1,0,0:0:0:0:
448,192,88289,5,0,0:0:0:0:
64,192,88289,1,0,0:0:0:0:
320,192,88323,1,0,0:0:0:0:
192,192,88357,1,0,0:0:0:0:
64,192,88392,1,0,0:0:0:0:
320,192,88426,1,0,0:0:0:0:
448,192,88460,1,0,0:0:0:0:
192,192,88494,1,0,0:0:0:0:
320,192,88528,1,0,0:0:0:0:
64,192,88563,1,0,0:0:0:0:
192,192,88597,1,0,0:0:0:0:
448,192,88631,1,0,0:0:0:0:
320,192,88665,1,0,0:0:0:0:
192,192,88699,1,0,0:0:0:0:
64,192,88734,1,0,0:0:0:0:
320,192,88768,1,0,0:0:0:0:
448,192,88802,1,0,0:0:0:0:
64,192,88836,1,0,0:0:0:0:
192,192,88871,1,0,0:0:0:0:
448,192,88905,1,0,0:0:0:0:
320,192,88939,1,0,0:0:0:0:
192,192,88973,1,0,0:0:0:0:
64,192,89007,1,0,0:0:0:0:
448,192,89042,1,0,0:0:0:0:
320,192,89076,1,0,0:0:0:0:
64,192,89110,1,0,0:0:0:0:
192,192,89144,1,0,0:0:0:0:
320,192,89178,1,0,0:0:0:0:
448,192,89213,1,0,0:0:0:0:
192,192,89247,1,0,0:0:0:0:
64,192,89281,1,0,0:0:0:0:
320,192,89315,1,0,0:0:0:0:
192,192,89350,1,0,0:0:0:0:
448,192,89384,1,0,0:0:0:0:
320,192,89429,1,0,0:0:0:0:
64,192,89475,1,0,0:0:0:0:
192,192,89521,1,0,0:0:0:0:
320,192,89566,1,0,0:0:0:0:
448,192,89612,1,0,0:0:0:0:
192,192,89657,1,0,0:0:0:0:
64,192,89703,1,0,0:0:0:0:
320,192,89749,1,0,0:0:0:0:
448,192,89794,1,0,0:0:0:0:
64,192,89840,1,0,0:0:0:0:
192,192,89886,1,0,0:0:0:0:
448,192,89931,1,0,0:0:0:0:
320,192,89977,1,0,0:0:0:0:
192,192,90022,1,0,0:0:0:0:
64,192,90068,1,0,0:0:0:0:
320,192,90114,1,0,0:0:0:0:
448,192,90159,1,0,0:0:0:0:
192,192,90205,1,0,0:0:0:0:
320,192,90251,1,0,0:0:0:0:
64,192,90296,1,0,0:0:0:0:
192,192,90342,1,0,0:0:0:0:
448,192,90387,1,0,0:0:0:0:
320,192,90433,1,0,0:0:0:0:
64,192,90479,1,0,0:0:0:0:
192,192,90547,1,0,0:0:0:0:
320,192,90616,1,0,0:0:0:0:
192,192,90684,1,0,0:0:0:0:
320,192,90752,1,0,0:0:0:0:
448,192,90821,1,0,0:0:0:0:
320,192,90889,1,0,0:0:0:0:
192,192,90958,1,0,0:0:0:0:
64,192,91026,1,0,0:0:0:0:
192,192,91095,1,0,0:0:0:0:
320,192,91163,1,0,0:0:0:0:
448,192,91231,1,0,0:0:0:0:
320,192,91300,1,0,0:0:0:0:
64,192,91368,1,0,0:0:0:0:
192,192,91437,1,0,0:0:0:0:
320,192,91505,1,0,0:0:0:0:
448,192,91574,1,0,0:0:0:0:
320,192,91619,1,0,0:0:0:0:
192,192,91665,1,0,0:0:0:0:
64,192,91710,1,0,0:0:0:0:
448,192,91756,128,0,92668:0:0:0:0:
320,192,91756,128,0,92668:0:0:0:0:
64,192,92668,128,0,93763:0:0:0:0:
448,192,93079,1,0,0:0:0:0:
448,192,93490,1,0,0:0:0:0:
192,192,93763,128,0,94311:0:0:0:0:
448,192,93900,1,0,0:0:0:0:
320,192,94311,128,0,94858:0:0:0:0:
64,192,94311,1,0,0:0:0:0:
64,192,94584,1,0,0:0:0:0:
448,192,94858,128,0,95406:0:0:0:0:
64,192,94858,1,0,0:0:0:0:
320,192,95269,1,0,0:0:0:0:
64,192,95406,128,0,95679:0:0:0:0:
320,192,95679,1,0,0:0:0:0:
192,192,95953,128,0,96501:0:0:0:0:
320,192,96090,1,0,0:0:0:0:
320,192,96501,128,0,96774:0:0:0:0:
64,192,96501,128,0,96774:0:0:0:0:
448,192,96501,1,0,0:0:0:0:
448,192,96774,128,0,97048:0:0:0:0:
64,192,97048,128,0,97869:0:0:0:0:
192,192,97048,128,0,97869:0:0:0:0:
320,192,97048,1,0,0:0:0:0:
448,192,97459,1,0,0:0:0:0:
448,192,97869,1,0,0:0:0:0:
64,192,98143,128,0,98553:0:0:0:0:
448,192,98143,128,0,98553:0:0:0:0:
320,192,98143,1,0,0:0:0:0:
192,192,98553,1,0,0:0:0:0:
320,192,98690,128,0,99101:0:0:0:0:
64,192,98690,128,0,99101:0:0:0:0:
448,192,98690,1,0,0:0:0:0:
192,192,98964,1,0,0:0:0:0:
320,192,99238,128,0,100812:0:0:0:0:
448,192,99238,128,0,100812:0:0:0:0:
64,192,99238,1,0,0:0:0:0:
64,192,99648,1,0,0:0:0:0:
64,192,100059,1,0,0:0:0:0:
64,192,100333,128,0,100812:0:0:0:0:
192,192,100333,128,0,100812:0:0:0:0:
448,192,100880,1,0,0:0:0:0:
64,192,100880,1,0,0:0:0:0:
64,192,101154,1,0,0:0:0:0:
448,192,101154,1,0,0:0:0:0:
448,192,101428,1,0,0:0:0:0:
64,192,101428,128,0,102522:0:0:0:0:
320,192,101428,1,0,0:0:0:0:
320,192,101838,1,0,0:0:0:0:
448,192,101838,1,0,0:0:0:0:
448,192,102249,1,0,0:0:0:0:
448,192,102522,128,0,103070:0:0:0:0:
64,192,102659,1,0,0:0:0:0:
320,192,103070,128,0,103617:0:0:0:0:
64,192,103070,1,0,0:0:0:0:
192,192,103070,1,0,0:0:0:0:
192,192,103344,1,0,0:0:0:0:
64,192,103344,1,0,0:0:0:0:
192,192,103617,128,0,104165:0:0:0:0:
64,192,103617,1,0,0:0:0:0:
448,192,104028,1,0,0:0:0:0:
320,192,104028,1,0,0:0:0:0:
64,192,104165,128,0,104712:0:0:0:0:
448,192,104439,1,0,0:0:0:0:
320,192,104712,128,0,105260:0:0:0:0:
64,192,104849,1,0,0:0:0:0:
192,192,105260,128,0,105670:0:0:0:0:
64,192,105260,128,0,105670:0:0:0:0:
448,192,105260,1,0,0:0:0:0:
320,192,105533,1,0,0:0:0:0:
448,192,105533,1,0,0:0:0:0:
448,192,105807,128,0,106902:0:0:0:0:
64,192,105807,128,0,106218:0:0:0:0:
192,192,105944,1,0,0:0:0:0:
320,192,106081,1,0,0:0:0:0:
192,192,106218,128,0,106628:0:0:0:0:
320,192,106355,1,0,0:0:0:0:
64,192,106491,1,0,0:0:0:0:
320,192,106628,128,0,106902:0:0:0:0:
192,192,106765,1,0,0:0:0:0:
64,192,106902,1,0,0:0:0:0:
192,192,106902,1,0,0:0:0:0:
320,192,106970,1,0,0:0:0:0:
448,192,106970,1,0,0:0:0:0:
192,192,107039,1,0,0:0:0:0:
64,192,107039,1,0,0:0:0:0:
320,192,107107,1,0,0:0:0:0:
448,192,107107,1,0,0:0:0:0:
192,192,107176,1,0,0:0:0:0:
64,192,107176,1,0,0:0:0:0:
448,192,107210,1,0,0:0:0:0:
320,192,107244,1,0,0:0:0:0:
64,192,107278,1,0,0:0:0:0:
192,192,107313,1,0,0:0:0:0:
448,192,107347,1,0,0:0:0:0:
320,192,107381,1,0,0:0:0:0:
192,192,107415,1,0,0:0:0:0:
64,192,107449,1,0,0:0:0:0:
448,192,107449,1,0,0:0:0:0:
192,192,107518,1,0,0:0:0:0:
320,192,107518,1,0,0:0:0:0:
64,192,107586,1,0,0:0:0:0:
448,192,107586,1,0,0:0:0:0:
192,192,107655,1,0,0:0:0:0:
320,192,107655,1,0,0:0:0:0:
64,192,107723,1,0,0:0:0:0:
448,192,107723,1,0,0:0:0:0:
192,192,107757,1,0,0:0:0:0:
320,192,107792,1,0,0:0:0:0:
448,192,107826,1,0,0:0:0:0:
192,192,107860,1,0,0:0:0:0:
64,192,107894,1,0,0:0:0:0:
448,192,107928,1,0,0:0:0:0:
320,192,107963,1,0,0:0:0:0:
192,192,107997,1,0,0:0:0:0:
64,192,107997,1,0,0:0:0:0:
64,192,108134,1,0,0:0:0:0:
192,192,108134,1,0,0:0:0:0:
320,192,108134,1,0,0:0:0:0:
448,192,108134,1,0,0:0:0:0:
64,192,108271,1,0,0:0:0:0:
192,192,108271,1,0,0:0:0:0:
320,192,108271,1,0,0:0:0:0:
448,192,108271,1,0,0:0:0:0:
64,192,108544,1,0,0:0:0:0:
192,192,108544,1,0,0:0:0:0:
320,192,108544,1,0,0:0:0:0:
448,192,108544,1,0,0:0:0:0:
448,192,108681,1,0,0:0:0:0:
320,192,108681,1,0,0:0:0:0:
192,192,108681,1,0,0:0:0:0:
64,192,108681,1,0,0:0:0:0:
64,192,108955,1,0,0:0:0:0:
192,192,108955,1,0,0:0:0:0:
320,192,108955,1,0,0:0:0:0:
448,192,108955,1,0,0:0:0:0:
448,192,109092,1,0,0:0:0:0:
320,192,109092,1,0,0:0:0:0:
192,192,109092,1,0,0:0:0:0:
64,192,109092,1,0,0:0:0:0:
64,192,109366,1,0,0:0:0:0:
320,192,109366,1,0,0:0:0:0:
448,192,109366,1,0,0:0:0:0:
192,192,109366,1,0,0:0:0:0:
64,192,109502,1,0,0:0:0:0:
192,192,109502,1,0,0:0:0:0:
320,192,109502,1,0,0:0:0:0:
448,192,109502,1,0,0:0:0:0:
448,192,109639,128,0,109708:0:0:0:0:
320,192,109708,128,0,109776:0:0:0:0:
192,192,109776,128,0,109845:0:0:0:0:
320,192,109845,128,0,109913:0:0:0:0:
192,192,109913,128,0,109981:0:0:0:0:
64,192,109981,128,0,110050:0:0:0:0:
192,192,110050,128,0,110118:0:0:0:0:
320,192,110118,128,0,110187:0:0:0:0:
192,192,110187,5,0,0:0:0:0:
448,192,110187,1,0,0:0:0:0:
64,192,110187,1,0,0:0:0:0:
64,192,110734,128,0,111008:0:0:0:0:
192,192,110734,128,0,111190:0:0:0:0:
320,192,110825,128,0,110917:0:0:0:0:
448,192,110917,128,0,111099:0:0:0:0:
320,192,111008,128,0,111190:0:0:0:0:
64,192,111099,128,0,111282:0:0:0:0:
448,192,111190,128,0,111464:0:0:0:0:
192,192,111282,128,0,111373:0:0:0:0:
320,192,111282,128,0,111738:0:0:0:0:
64,192,111373,128,0,111555:0:0:0:0:
192,192,111464,128,0,111647:0:0:0:0:
448,192,111555,128,0,111738:0:0:0:0:
64,192,111647,128,0,111829:0:0:0:0:
192,192,111738,128,0,111829:0:0:0:0:
320,192,111829,128,0,111966:0:0:0:0:
448,192,111829,128,0,112034:0:0:0:0:
192,192,111966,1,0,0:0:0:0:
64,192,111966,1,0,0:0:0:0:
320,192,112034,1,0,0:0:0:0:
192,192,112103,1,0,0:0:0:0:
64,192,112103,1,0,0:0:0:0:
448,192,112103,1,0,0:0:0:0:
64,192,112376,128,0,112445:0:0:0:0:
320,192,112376,128,0,112445:0:0:0:0:
448,192,112376,128,0,112445:0:0:0:0:
192,192,112445,128,0,112513:0:0:0:0:
320,192,112513,128,0,112582:0:0:0:0:
64,192,112582,128,0,112650:0:0:0:0:
192,192,112650,128,0,112719:0:0:0:0:
320,192,112650,128,0,112719:0:0:0:0:
448,192,112650,128,0,112719:0:0:0:0:
64,192,112719,128,0,112787:0:0:0:0:
448,192,112787,128,0,112855:0:0:0:0:
320,192,112855,128,0,112924:0:0:0:0:
192,192,112924,128,0,112992:0:0:0:0:
64,192,112924,128,0,112992:0:0:0:0:
448,192,112924,128,0,112992:0:0:0:0:
320,192,112992,128,0,113061:0:0:0:0:
192,192,113061,128,0,113129:0:0:0:0:
448,192,113129,128,0,113198:0:0:0:0:
64,192,113198,128,0,113403:0:0:0:0:
192,192,113198,128,0,113266:0:0:0:0:
320,192,113198,128,0,113266:0:0:0:0:
448,192,113266,128,0,113334:0:0:0:0:
192,192,113334,128,0,113403:0:0:0:0:
320,192,113403,128,0,113471:0:0:0:0:
192,192,113471,128,0,113677:0:0:0:0:
448,192,113471,128,0,113540:0:0:0:0:
64,192,113471,128,0,113540:0:0:0:0:
320,192,113540,128,0,113608:0:0:0:0:
448,192,113608,128,0,113677:0:0:0:0:
64,192,113677,128,0,113745:0:0:0:0:
320,192,113745,128,0,113950:0:0:0:0:
192,192,113745,128,0,113814:0:0:0:0:
448,192,113745,128,0,113814:0:0:0:0:
64,192,113814,128,0,113882:0:0:0:0:
448,192,113882,128,0,113950:0:0:0:0:
192,192,113950,128,0,114019:0:0:0:0:
448,192,114019,128,0,114224:0:0:0:0:
64,192,114019,128,0,114087:0:0:0:0:
320,192,114019,128,0,114087:0:0:0:0:
192,192,114087,128,0,114156:0:0:0:0:
64,192,114156,128,0,114224:0:0:0:0:
320,192,114224,128,0,114293:0:0:0:0:
64,192,114293,128,0,114498:0:0:0:0:
192,192,114293,128,0,114361:0:0:0:0:
448,192,114293,128,0,114361:0:0:0:0:
320,192,114361,128,0,114429:0:0:0:0:
448,192,114429,128,0,114498:0:0:0:0:
192,192,114498,128,0,114566:0:0:0:0:
448,192,114566,128,0,114977:0:0:0:0:
320,192,114566,128,0,114635:0:0:0:0:
64,192,114566,128,0,114635:0:0:0:0:
192,192,114635,128,0,114703:0:0:0:0:
64,192,114703,128,0,114772:0:0:0:0:
320,192,114772,128,0,114840:0:0:0:0:
192,192,114840,128,0,114908:0:0:0:0:
64,192,114840,128,0,114908:0:0:0:0:
320,192,114908,128,0,114977:0:0:0:0:
192,192,114977,128,0,115045:0:0:0:0:
448,192,115045,128,0,115114:0:0:0:0:
320,192,115114,128,0,115524:0:0:0:0:
192,192,115114,128,0,115182:0:0:0:0:
64,192,115114,128,0,115182:0:0:0:0:
448,192,115182,128,0,115251:0:0:0:0:
64,192,115251,128,0,115319:0:0:0:0:
192,192,115319,128,0,115387:0:0:0:0:
64,192,115387,128,0,115456:0:0:0:0:
448,192,115387,128,0,115456:0:0:0:0:
192,192,115456,128,0,115524:0:0:0:0:
448,192,115524,128,0,115593:0:0:0:0:
320,192,115593,128,0,115661:0:0:0:0:
192,192,115661,128,0,116072:0:0:0:0:
448,192,115661,128,0,115730:0:0:0:0:
64,192,115661,128,0,115730:0:0:0:0:
320,192,115730,128,0,115798:0:0:0:0:
64,192,115798,128,0,115866:0:0:0:0:
320,192,115866,128,0,115935:0:0:0:0:
448,192,115935,128,0,116003:0:0:0:0:
64,192,115935,128,0,116003:0:0:0:0:
320,192,116003,128,0,116072:0:0:0:0:
448,192,116072,128,0,116140:0:0:0:0:
192,192,116140,128,0,116209:0:0:0:0:
64,192,116209,128,0,116619:0:0:0:0:
320,192,116209,128,0,116277:0:0:0:0:
448,192,116209,128,0,116277:0:0:0:0:
192,192,116277,128,0,116345:0:0:0:0:
320,192,116345,128,0,116414:0:0:0:0:
448,192,116414,128,0,116482:0:0:0:0:
192,192,116482,128,0,116551:0:0:0:0:
320,192,116482,128,0,116551:0:0:0:0:
448,192,116551,128,0,116619:0:0:0:0:
192,192,116619,128,0,116688:0:0:0:0:
320,192,116688,128,0,116756:0:0:0:0:
192,192,116756,128,0,116824:0:0:0:0:
64,192,116756,128,0,116824:0:0:0:0:
448,192,116756,128,0,116824:0:0:0:0:
320,192,116824,128,0,116893:0:0:0:0:
64,192,116893,128,0,116961:0:0:0:0:
192,192,116961,128,0,117030:0:0:0:0:
320,192,117030,128,0,117235:0:0:0:0:
448,192,117030,128,0,117098:0:0:0:0:
64,192,117030,128,0,117098:0:0:0:0:
192,192,117098,128,0,117167:0:0:0:0:
448,192,117167,128,0,117235:0:0:0:0:
64,192,117235,128,0,117303:0:0:0:0:
192,192,117303,128,0,117509:0:0:0:0:
320,192,117303,128,0,117372:0:0:0:0:
448,192,117303,128,0,117372:0:0:0:0:
64,192,117372,128,0,117440:0:0:0:0:
320,192,117440,128,0,117509:0:0:0:0:
448,192,117509,128,0,117577:0:0:0:0:
64,192,117577,128,0,117782:0:0:0:0:
192,192,117577,128,0,117646:0:0:0:0:
320,192,117577,128,0,117646:0:0:0:0:
448,192,117646,128,0,117714:0:0:0:0:
192,192,117714,128,0,117782:0:0:0:0:
320,192,117782,128,0,117851:0:0:0:0:
192,192,117851,128,0,118056:0:0:0:0:
448,192,117851,128,0,117919:0:0:0:0:
64,192,117851,128,0,117919:0:0:0:0:
320,192,117919,128,0,117988:0:0:0:0:
64,192,117988,128,0,118056:0:0:0:0:
448,192,118056,128,0,118125:0:0:0:0:
320,192,118125,128,0,118330:0:0:0:0:
192,192,118125,128,0,118193:0:0:0:0:
64,192,118125,128,0,118193:0:0:0:0:
448,192,118193,128,0,118261:0:0:0:0:
192,192,118261,128,0,118330:0:0:0:0:
64,192,118330,128,0,118398:0:0:0:0:
448,192,118398,128,0,118604:0:0:0:0:
192,192,118398,128,0,118467:0:0:0:0:
320,192,118398,128,0,118467:0:0:0:0:
64,192,118467,128,0,118535:0:0:0:0:
320,192,118535,128,0,118604:0:0:0:0:
192,192,118604,128,0,118672:0:0:0:0:
64,192,118672,128,0,118877:0:0:0:0:
320,192,118672,128,0,118741:0:0:0:0:
448,192,118672,128,0,118741:0:0:0:0:
192,192,118741,128,0,118809:0:0:0:0:
448,192,118809,128,0,118877:0:0:0:0:
320,192,118877,128,0,118946:0:0:0:0:
192,192,118946,1,0,0:0:0:0:
64,192,118946,1,0,0:0:0:0:
448,192,118946,1,0,0:0:0:0:
320,192,118991,1,0,0:0:0:0:
64,192,119037,1,0,0:0:0:0:
448,192,119083,1,0,0:0:0:0:
192,192,119128,1,0,0:0:0:0:
320,192,119174,1,0,0:0:0:0:
64,192,119220,128,0,119425:0:0:0:0:
448,192,119220,128,0,119288:0:0:0:0:
192,192,119220,128,0,119288:0:0:0:0:
320,192,119288,128,0,119356:0:0:0:0:
448,192,119356,128,0,119425:0:0:0:0:
192,192,119356,128,0,119425:0:0:0:0:
320,192,119425,1,0,0:0:0:0:
192,192,119493,128,0,119699:0:0:0:0:
64,192,119493,128,0,119562:0:0:0:0:
448,192,119493,128,0,119562:0:0:0:0:
320,192,119562,128,0,119630:0:0:0:0:
64,192,119630,128,0,119699:0:0:0:0:
448,192,119630,1,0,0:0:0:0:
320,192,119699,1,0,0:0:0:0:
448,192,119699,1,0,0:0:0:0:
320,192,119767,128,0,119972:0:0:0:0:
192,192,119767,128,0,119835:0:0:0:0:
448,192,119767,128,0,119835:0:0:0:0:
64,192,119835,128,0,119904:0:0:0:0:
448,192,119904,128,0,119972:0:0:0:0:
192,192,119904,128,0,119972:0:0:0:0:
64,192,119972,1,0,0:0:0:0:
448,192,120041,128,0,120246:0:0:0:0:
64,192,120041,128,0,120109:0:0:0:0:
192,192,120041,128,0,120109:0:0:0:0:
320,192,120109,128,0,120178:0:0:0:0:
192,192,120178,128,0,120246:0:0:0:0:
64,192,120178,128,0,120246:0:0:0:0:
320,192,120246,1,0,0:0:0:0:
320,192,120314,128,0,120520:0:0:0:0:
64,192,120314,128,0,120383:0:0:0:0:
448,192,120314,128,0,120383:0:0:0:0:
192,192,120383,128,0,120451:0:0:0:0:
448,192,120451,128,0,120520:0:0:0:0:
64,192,120451,128,0,120520:0:0:0:0:
192,192,120520,1,0,0:0:0:0:
192,192,120588,128,0,120793:0:0:0:0:
320,192,120588,128,0,120657:0:0:0:0:
448,192,120588,128,0,120657:0:0:0:0:
64,192,120657,128,0,120725:0:0:0:0:
320,192,120725,128,0,120793:0:0:0:0:
448,192,120725,128,0,120793:0:0:0:0:
64,192,120793,1,0,0:0:0:0:
64,192,120862,128,0,121016:0:0:0:0:
192,192,120862,128,0,121033:0:0:0:0:
320,192,120862,128,0,121050:0:0:0:0:
448,192,120862,128,0,121067:0:0:0:0:
448,192,121136,128,0,121204:0:0:0:0:
192,192,121136,128,0,121204:0:0:0:0:
64,192,121136,128,0,121204:0:0:0:0:
320,192,121204,128,0,121272:0:0:0:0:
192,192,121272,128,0,121341:0:0:0:0:
448,192,121341,128,0,121409:0:0:0:0:
320,192,121409,128,0,121478:0:0:0:0:
192,192,121409,128,0,121478:0:0:0:0:
64,192,121409,128,0,121478:0:0:0:0:
448,192,121478,128,0,121546:0:0:0:0:
64,192,121546,128,0,121615:0:0:0:0:
192,192,121615,128,0,121683:0:0:0:0:
320,192,121683,128,0,121751:0:0:0:0:
448,192,121683,128,0,121751:0:0:0:0:
64,192,121683,128,0,121751:0:0:0:0:
192,192,121751,128,0,121820:0:0:0:0:
320,192,121820,128,0,121888:0:0:0:0:
64,192,121888,128,0,121957:0:0:0:0:
448,192,121957,128,0,122162:0:0:0:0:
320,192,121957,128,0,122025:0:0:0:0:
192,192,121957,128,0,122025:0:0:0:0:
64,192,122025,128,0,122094:0:0:0:0:
320,192,122094,128,0,122162:0:0:0:0:
192,192,122162,128,0,122230:0:0:0:0:
320,192,122230,128,0,122436:0:0:0:0:
64,192,122230,128,0,122299:0:0:0:0:
448,192,122230,128,0,122299:0:0:0:0:
192,192,122299,128,0,122367:0:0:0:0:
64,192,122367,128,0,122436:0:0:0:0:
448,192,122436,128,0,122504:0:0:0:0:
192,192,122504,128,0,122709:0:0:0:0:
320,192,122504,128,0,122573:0:0:0:0:
64,192,122504,128,0,122573:0:0:0:0:
448,192,122573,128,0,122641:0:0:0:0:
64,192,122641,128,0,122709:0:0:0:0:
320,192,122709,128,0,122778:0:0:0:0:
64,192,122778,128,0,122983:0:0:0:0:
448,192,122778,128,0,122846:0:0:0:0:
192,192,122778,128,0,122846:0:0:0:0:
320,192,122846,128,0,122915:0:0:0:0:
448,192,122915,128,0,122983:0:0:0:0:
192,192,122983,128,0,123052:0:0:0:0:
448,192,123052,128,0,123257:0:0:0:0:
320,192,123052,128,0,123120:0:0:0:0:
64,192,123052,128,0,123120:0:0:0:0:
192,192,123120,128,0,123189:0:0:0:0:
64,192,123189,128,0,123257:0:0:0:0:
320,192,123257,128,0,123325:0:0:0:0:
64,192,123325,128,0,123736:0:0:0:0:
192,192,123325,128,0,123394:0:0:0:0:
448,192,123325,128,0,123394:0:0:0:0:
320,192,123394,128,0,123462:0:0:0:0:
448,192,123462,128,0,123531:0:0:0:0:
192,192,123531,128,0,123599:0:0:0:0:
320,192,123599,128,0,123668:0:0:0:0:
448,192,123599,128,0,123668:0:0:0:0:
192,192,123668,128,0,123736:0:0:0:0:
448,192,123736,128,0,123804:0:0:0:0:
320,192,123804,128,0,123873:0:0:0:0:
192,192,123873,128,0,124283:0:0:0:0:
64,192,123873,128,0,123941:0:0:0:0:
448,192,123873,128,0,123941:0:0:0:0:
320,192,123941,128,0,124010:0:0:0:0:
64,192,124010,128,0,124078:0:0:0:0:
320,192,124078,128,0,124147:0:0:0:0:
448,192,124147,128,0,124215:0:0:0:0:
64,192,124147,128,0,124215:0:0:0:0:
320,192,124215,128,0,124283:0:0:0:0:
448,192,124283,128,0,124352:0:0:0:0:
64,192,124352,128,0,124420:0:0:0:0:
320,192,124420,128,0,124831:0:0:0:0:
192,192,124420,128,0,124489:0:0:0:0:
448,192,124420,128,0,124489:0:0:0:0:
64,192,124489,128,0,124557:0:0:0:0:
192,192,124557,128,0,124626:0:0:0:0:
448,192,124626,128,0,124694:0:0:0:0:
192,192,124694,128,0,124762:0:0:0:0:
64,192,124694,128,0,124762:0:0:0:0:
448,192,124762,128,0,124831:0:0:0:0:
64,192,124831,128,0,124899:0:0:0:0:
192,192,124899,128,0,124968:0:0:0:0:
448,192,124968,128,0,125241:0:0:0:0:
320,192,124968,128,0,125036:0:0:0:0:
64,192,124968,128,0,125036:0:0:0:0:
192,192,125036,128,0,125105:0:0:0:0:
320,192,125105,128,0,125173:0:0:0:0:
64,192,125173,128,0,125241:0:0:0:0:
320,192,125241,128,0,125515:0:0:0:0:
192,192,125241,128,0,125310:0:0:0:0:
448,192,125310,128,0,125378:0:0:0:0:
64,192,125378,128,0,125447:0:0:0:0:
448,192,125447,128,0,125515:0:0:0:0:
192,192,125515,128,0,126063:0:0:0:0:
64,192,125515,128,0,125584:0:0:0:0:
320,192,125584,128,0,125652:0:0:0:0:
448,192,125652,128,0,125720:0:0:0:0:
320,192,125720,128,0,125789:0:0:0:0:
448,192,125789,128,0,125857:0:0:0:0:
64,192,125789,128,0,125857:0:0:0:0:
320,192,125857,128,0,125926:0:0:0:0:
64,192,125926,128,0,125994:0:0:0:0:
448,192,125994,128,0,126063:0:0:0:0:
64,192,126063,128,0,126131:0:0:0:0:
320,192,126063,128,0,126131:0:0:0:0:
192,192,126131,128,0,126199:0:0:0:0:
64,192,126199,128,0,126268:0:0:0:0:
448,192,126199,128,0,126268:0:0:0:0:
320,192,126268,128,0,126336:0:0:0:0:
64,192,126336,128,0,126405:0:0:0:0:
192,192,126336,128,0,126405:0:0:0:0:
448,192,126336,128,0,126405:0:0:0:0:
320,192,126405,128,0,126473:0:0:0:0:
448,192,126473,128,0,126542:0:0:0:0:
64,192,126473,128,0,126542:0:0:0:0:
192,192,126542,128,0,126610:0:0:0:0:
64,192,126610,128,0,126678:0:0:0:0:
320,192,126610,128,0,126678:0:0:0:0:
448,192,126610,128,0,126678:0:0:0:0:
192,192,126678,128,0,126747:0:0:0:0:
64,192,126747,128,0,126815:0:0:0:0:
320,192,126747,128,0,126815:0:0:0:0:
448,192,126747,128,0,126815:0:0:0:0:
192,192,126815,128,0,126884:0:0:0:0:
448,192,126884,128,0,126952:0:0:0:0:
320,192,126952,128,0,127021:0:0:0:0:
192,192,126952,128,0,127021:0:0:0:0:
64,192,126952,128,0,127021:0:0:0:0:
448,192,127021,128,0,127089:0:0:0:0:
64,192,127089,128,0,127157:0:0:0:0:
192,192,127157,128,0,127226:0:0:0:0:
448,192,127157,128,0,127226:0:0:0:0:
320,192,127157,128,0,127226:0:0:0:0:
64,192,127226,128,0,127294:0:0:0:0:
320,192,127294,128,0,127363:0:0:0:0:
192,192,127363,128,0,127431:0:0:0:0:
64,192,127363,128,0,127431:0:0:0:0:
448,192,127363,128,0,127431:0:0:0:0:
320,192,127431,128,0,127500:0:0:0:0:
192,192,127500,128,0,127568:0:0:0:0:
64,192,127568,128,0,127636:0:0:0:0:
320,192,127568,128,0,127636:0:0:0:0:
448,192,127568,128,0,127636:0:0:0:0:
192,192,127636,128,0,127705:0:0:0:0:
64,192,127705,128,0,127773:0:0:0:0:
448,192,127705,128,0,127773:0:0:0:0:
320,192,127773,1,0,0:0:0:0:
192,192,127842,1,0,0:0:0:0:
64,192,127842,1,0,0:0:0:0:
448,192,127842,1,0,0:0:0:0:
320,192,127842,1,0,0:0:0:0:
64,192,127979,1,0,0:0:0:0:
192,192,127979,1,0,0:0:0:0:
448,192,127979,1,0,0:0:0:0:
320,192,127979,1,0,0:0:0:0:
64,192,128252,1,0,0:0:0:0:
192,192,128252,1,0,0:0:0:0:
448,192,128252,1,0,0:0:0:0:
320,192,128252,1,0,0:0:0:0:
64,192,128389,1,0,0:0:0:0:
192,192,128389,1,0,0:0:0:0:
320,192,128389,1,0,0:0:0:0:
448,192,128389,1,0,0:0:0:0:
64,192,128663,1,0,0:0:0:0:
192,192,128663,1,0,0:0:0:0:
320,192,128663,1,0,0:0:0:0:
448,192,128663,1,0,0:0:0:0:
320,192,128800,1,0,0:0:0:0:
192,192,128800,1,0,0:0:0:0:
64,192,128800,1,0,0:0:0:0:
448,192,128800,1,0,0:0:0:0:
64,192,129074,1,0,0:0:0:0:
192,192,129074,1,0,0:0:0:0:
320,192,129074,1,0,0:0:0:0:
448,192,129074,1,0,0:0:0:0:
192,192,129210,1,0,0:0:0:0:
448,192,129210,1,0,0:0:0:0:
64,192,129210,1,0,0:0:0:0:
320,192,129210,1,0,0:0:0:0:
64,192,129347,1,0,0:0:0:0:
448,192,129347,1,0,0:0:0:0:
192,192,129484,128,0,129553:0:0:0:0:
448,192,129553,128,0,129621:0:0:0:0:
64,192,129621,128,0,129689:0:0:0:0:
320,192,129689,128,0,129758:0:0:0:0:
192,192,129758,128,0,129826:0:0:0:0:
320,192,129826,128,0,129895:0:0:0:0:
192,192,129895,128,0,129963:0:0:0:0:
64,192,129963,128,0,130032:0:0:0:0:
192,192,130032,1,0,0:0:0:0:
320,192,130032,1,0,0:0:0:0:
448,192,130032,1,0,0:0:0:0:
64,192,130168,1,0,0:0:0:0:
192,192,130168,1,0,0:0:0:0:
320,192,130168,1,0,0:0:0:0:
448,192,130168,1,0,0:0:0:0:
64,192,130442,1,0,0:0:0:0:
192,192,130442,1,0,0:0:0:0:
320,192,130442,1,0,0:0:0:0:
448,192,130442,1,0,0:0:0:0:
64,192,130579,1,0,0:0:0:0:
192,192,130579,1,0,0:0:0:0:
320,192,130579,1,0,0:0:0:0:
448,192,130579,1,0,0:0:0:0:
64,192,130853,1,0,0:0:0:0:
192,192,130853,1,0,0:0:0:0:
448,192,130853,1,0,0:0:0:0:
320,192,130853,1,0,0:0:0:0:
320,192,130990,1,0,0:0:0:0:
64,192,130990,1,0,0:0:0:0:
192,192,130990,1,0,0:0:0:0:
448,192,130990,1,0,0:0:0:0:
192,192,131263,1,0,0:0:0:0:
64,192,131263,1,0,0:0:0:0:
320,192,131263,1,0,0:0:0:0:
448,192,131263,1,0,0:0:0:0:
320,192,131400,1,0,0:0:0:0:
192,192,131400,1,0,0:0:0:0:
64,192,131400,1,0,0:0:0:0:
448,192,131400,1,0,0:0:0:0:
64,192,131674,128,0,131742:0:0:0:0:
448,192,131674,128,0,131742:0:0:0:0:
192,192,131742,128,0,131811:0:0:0:0:
320,192,131811,128,0,131879:0:0:0:0:
448,192,131811,128,0,131879:0:0:0:0:
64,192,131879,128,0,131948:0:0:0:0:
192,192,131948,128,0,132016:0:0:0:0:
320,192,131948,128,0,132016:0:0:0:0:
448,192,132016,128,0,132084:0:0:0:0:
192,192,132084,128,0,132153:0:0:0:0:
64,192,132084,128,0,132153:0:0:0:0:
320,192,132153,128,0,132221:0:0:0:0:
448,192,132221,1,0,0:0:0:0:
64,192,132221,1,0,0:0:0:0:
192,192,132221,1,0,0:0:0:0:
64,192,132358,1,0,0:0:0:0:
192,192,132358,1,0,0:0:0:0:
320,192,132358,1,0,0:0:0:0:
448,192,132358,1,0,0:0:0:0:
64,192,132632,1,0,0:0:0:0:
192,192,132632,1,0,0:0:0:0:
320,192,132632,1,0,0:0:0:0:
448,192,132632,1,0,0:0:0:0:
64,192,132769,1,0,0:0:0:0:
192,192,132769,1,0,0:0:0:0:
320,192,132769,1,0,0:0:0:0:
448,192,132769,1,0,0:0:0:0:
64,192,133043,1,0,0:0:0:0:
192,192,133043,1,0,0:0:0:0:
448,192,133043,1,0,0:0:0:0:
320,192,133043,1,0,0:0:0:0:
320,192,133179,1,0,0:0:0:0:
192,192,133179,1,0,0:0:0:0:
64,192,133179,1,0,0:0:0:0:
448,192,133179,1,0,0:0:0:0:
64,192,133453,1,0,0:0:0:0:
192,192,133453,1,0,0:0:0:0:
448,192,133453,1,0,0:0:0:0:
320,192,133453,1,0,0:0:0:0:
448,192,133590,1,0,0:0:0:0:
320,192,133590,1,0,0:0:0:0:
64,192,133590,1,0,0:0:0:0:
192,192,133590,1,0,0:0:0:0:
64,192,133727,128,0,133864:0:0:0:0:
448,192,133727,128,0,133864:0:0:0:0:
320,192,133864,1,0,0:0:0:0:
64,192,134001,1,0,0:0:0:0:
192,192,134001,1,0,0:0:0:0:
448,192,134069,1,0,0:0:0:0:
64,192,134137,1,0,0:0:0:0:
320,192,134206,1,0,0:0:0:0:
192,192,134274,1,0,0:0:0:0:
448,192,134343,1,0,0:0:0:0:
192,192,134411,1,0,0:0:0:0:
64,192,134411,1,0,0:0:0:0:
320,192,134411,1,0,0:0:0:0:
64,192,134548,1,0,0:0:0:0:
192,192,134548,1,0,0:0:0:0:
320,192,134548,1,0,0:0:0:0:
448,192,134548,1,0,0:0:0:0:
64,192,134822,1,0,0:0:0:0:
192,192,134822,1,0,0:0:0:0:
320,192,134822,1,0,0:0:0:0:
448,192,134822,1,0,0:0:0:0:
448,192,134959,1,0,0:0:0:0:
320,192,134959,1,0,0:0:0:0:
64,192,134959,1,0,0:0:0:0:
192,192,134959,1,0,0:0:0:0:
64,192,135232,1,0,0:0:0:0:
192,192,135232,1,0,0:0:0:0:
448,192,135232,1,0,0:0:0:0:
320,192,135232,1,0,0:0:0:0:
448,192,135369,1,0,0:0:0:0:
320,192,135369,1,0,0:0:0:0:
192,192,135369,1,0,0:0:0:0:
64,192,135369,1,0,0:0:0:0:
192,192,135643,1,0,0:0:0:0:
320,192,135643,1,0,0:0:0:0:
448,192,135643,1,0,0:0:0:0:
64,192,135643,1,0,0:0:0:0:
64,192,135780,1,0,0:0:0:0:
192,192,135780,1,0,0:0:0:0:
320,192,135780,1,0,0:0:0:0:
448,192,135780,1,0,0:0:0:0:
64,192,136053,1,0,0:0:0:0:
448,192,136053,1,0,0:0:0:0:
192,192,136099,1,0,0:0:0:0:
320,192,136145,1,0,0:0:0:0:
64,192,136190,1,0,0:0:0:0:
448,192,136236,1,0,0:0:0:0:
192,192,136282,1,0,0:0:0:0:
320,192,136327,1,0,0:0:0:0:
448,192,136373,1,0,0:0:0:0:
64,192,136418,1,0,0:0:0:0:
320,192,136464,1,0,0:0:0:0:
192,192,136510,1,0,0:0:0:0:
448,192,136555,1,0,0:0:0:0:
320,192,136601,1,0,0:0:0:0:
192,192,136601,1,0,0:0:0:0:
64,192,136601,1,0,0:0:0:0:
64,192,136738,1,0,0:0:0:0:
192,192,136738,1,0,0:0:0:0:
448,192,136738,1,0,0:0:0:0:
320,192,136738,1,0,0:0:0:0:
64,192,137011,1,0,0:0:0:0:
192,192,137011,1,0,0:0:0:0:
320,192,137011,1,0,0:0:0:0:
448,192,137011,1,0,0:0:0:0:
64,192,137148,1,0,0:0:0:0:
192,192,137148,1,0,0:0:0:0:
320,192,137148,1,0,0:0:0:0:
448,192,137148,1,0,0:0:0:0:
64,192,137422,1,0,0:0:0:0:
192,192,137422,1,0,0:0:0:0:
320,192,137422,1,0,0:0:0:0:
448,192,137422,1,0,0:0:0:0:
448,192,137559,1,0,0:0:0:0:
320,192,137559,1,0,0:0:0:0:
64,192,137559,1,0,0:0:0:0:
192,192,137559,1,0,0:0:0:0:
64,192,137833,1,0,0:0:0:0:
192,192,137833,1,0,0:0:0:0:
320,192,137833,1,0,0:0:0:0:
448,192,137833,1,0,0:0:0:0:
448,192,137970,1,0,0:0:0:0:
320,192,137970,1,0,0:0:0:0:
192,192,137970,1,0,0:0:0:0:
64,192,137970,1,0,0:0:0:0:
64,192,138106,1,0,0:0:0:0:
448,192,138106,1,0,0:0:0:0:
192,192,138243,128,0,138654:0:0:0:0:
64,192,138277,128,0,138654:0:0:0:0:
320,192,138517,128,0,138654:0:0:0:0:
448,192,138551,128,0,138654:0:0:0:0:
64,192,138791,1,0,0:0:0:0:
192,192,138791,1,0,0:0:0:0:
448,192,138791,1,0,0:0:0:0:
320,192,138791,1,0,0:0:0:0:
448,192,138928,1,0,0:0:0:0:
320,192,138928,1,0,0:0:0:0:
192,192,138928,1,0,0:0:0:0:
64,192,138928,1,0,0:0:0:0:
64,192,139201,1,0,0:0:0:0:
192,192,139201,1,0,0:0:0:0:
320,192,139201,1,0,0:0:0:0:
448,192,139201,1,0,0:0:0:0:
448,192,139338,1,0,0:0:0:0:
320,192,139338,1,0,0:0:0:0:
192,192,139338,1,0,0:0:0:0:
64,192,139338,1,0,0:0:0:0:
64,192,139612,1,0,0:0:0:0:
192,192,139612,1,0,0:0:0:0:
320,192,139612,1,0,0:0:0:0:
448,192,139612,1,0,0:0:0:0:
448,192,139749,1,0,0:0:0:0:
320,192,139749,1,0,0:0:0:0:
192,192,139749,1,0,0:0:0:0:
64,192,139749,1,0,0:0:0:0:
64,192,140022,1,0,0:0:0:0:
192,192,140022,1,0,0:0:0:0:
320,192,140022,1,0,0:0:0:0:
448,192,140022,1,0,0:0:0:0:
448,192,140159,1,0,0:0:0:0:
320,192,140159,1,0,0:0:0:0:
192,192,140159,1,0,0:0:0:0:
64,192,140159,1,0,0:0:0:0:
64,192,140433,1,0,0:0:0:0:
448,192,140479,1,0,0:0:0:0:
192,192,140524,1,0,0:0:0:0:
320,192,140570,1,0,0:0:0:0:
448,192,140616,1,0,0:0:0:0:
192,192,140661,1,0,0:0:0:0:
64,192,140707,1,0,0:0:0:0:
448,192,140752,1,0,0:0:0:0:
320,192,140798,1,0,0:0:0:0:
192,192,140844,1,0,0:0:0:0:
64,192,140844,1,0,0:0:0:0:
448,192,140980,1,0,0:0:0:0:
64,192,141117,1,0,0:0:0:0:
320,192,141254,1,0,0:0:0:0:
192,192,141391,1,0,0:0:0:0:
448,192,141528,1,0,0:0:0:0:
64,192,141665,1,0,0:0:0:0:
192,192,141802,1,0,0:0:0:0:
320,192,141939,1,0,0:0:0:0:
64,192,142075,1,0,0:0:0:0:
448,192,142212,1,0,0:0:0:0:
192,192,142349,1,0,0:0:0:0:
64,192,142486,1,0,0:0:0:0:
448,192,142486,1,0,0:0:0:0:
320,192,142623,1,0,0:0:0:0:
64,192,142760,1,0,0:0:0:0:
448,192,142760,1,0,0:0:0:0:
192,192,142897,1,0,0:0:0:0:
64,192,143033,1,0,0:0:0:0:
448,192,143033,1,0,0:0:0:0:
320,192,143170,1,0,0:0:0:0:
192,192,143307,1,0,0:0:0:0:
448,192,143444,1,0,0:0:0:0:
320,192,143444,1,0,0:0:0:0:
64,192,143581,1,0,0:0:0:0:
448,192,143718,1,0,0:0:0:0:
192,192,143855,1,0,0:0:0:0:
320,192,143991,1,0,0:0:0:0:
64,192,144128,1,0,0:0:0:0:
448,192,144265,1,0,0:0:0:0:
192,192,144402,1,0,0:0:0:0:
320,192,144539,1,0,0:0:0:0:
64,192,144676,1,0,0:0:0:0:
448,192,144676,1,0,0:0:0:0:
192,192,144813,1,0,0:0:0:0:
64,192,144949,1,0,0:0:0:0:
448,192,144949,1,0,0:0:0:0:
320,192,145086,1,0,0:0:0:0:
448,192,145223,128,0,145565:0:0:0:0:
192,192,145223,1,0,0:0:0:0:
64,192,145223,1,0,0:0:0:0:
64,192,145497,1,0,0:0:0:0:
192,192,145497,1,0,0:0:0:0:
448,192,145634,128,0,145771:0:0:0:0:
64,192,145771,1,0,0:0:0:0:
192,192,145771,1,0,0:0:0:0:
64,192,146044,1,0,0:0:0:0:
192,192,146044,1,0,0:0:0:0:
64,192,146318,1,0,0:0:0:0:
192,192,146318,1,0,0:0:0:0:
64,192,146592,1,0,0:0:0:0:
192,192,146592,1,0,0:0:0:0:
64,192,146866,128,0,147071:0:0:0:0:
320,192,146866,1,0,0:0:0:0:
448,192,146866,1,0,0:0:0:0:
448,192,147139,1,0,0:0:0:0:
320,192,147139,1,0,0:0:0:0:
64,192,147139,128,0,147345:0:0:0:0:
448,192,147413,1,0,0:0:0:0:
320,192,147413,1,0,0:0:0:0:
64,192,147413,128,0,147755:0:0:0:0:
320,192,147687,1,0,0:0:0:0:
448,192,147687,1,0,0:0:0:0:
64,192,147824,128,0,147960:0:0:0:0:
448,192,147960,1,0,0:0:0:0:
320,192,147960,1,0,0:0:0:0:
448,192,148234,1,0,0:0:0:0:
320,192,148234,1,0,0:0:0:0:
448,192,148508,1,0,0:0:0:0:
320,192,148508,1,0,0:0:0:0:
320,192,148782,1,0,0:0:0:0:
448,192,148782,1,0,0:0:0:0:
320,192,149055,1,0,0:0:0:0:
448,192,149055,1,0,0:0:0:0:
64,192,149192,1,0,0:0:0:0:
192,192,149192,1,0,0:0:0:0:
448,192,149261,1,0,0:0:0:0:
320,192,149261,1,0,0:0:0:0:
64,192,149329,1,0,0:0:0:0:
192,192,149329,1,0,0:0:0:0:
448,192,149397,1,0,0:0:0:0:
320,192,149397,1,0,0:0:0:0:
192,192,149466,1,0,0:0:0:0:
64,192,149466,1,0,0:0:0:0:
320,192,149534,1,0,0:0:0:0:
64,192,149603,1,0,0:0:0:0:
192,192,149603,1,0,0:0:0:0:
448,192,149603,1,0,0:0:0:0:
64,192,149740,1,0,0:0:0:0:
448,192,149740,1,0,0:0:0:0:
320,192,149808,1,0,0:0:0:0:
64,192,149876,1,0,0:0:0:0:
192,192,149876,1,0,0:0:0:0:
448,192,149945,1,0,0:0:0:0:
64,192,150013,1,0,0:0:0:0:
192,192,150013,1,0,0:0:0:0:
320,192,150013,1,0,0:0:0:0:
448,192,150150,1,0,0:0:0:0:
320,192,150150,1,0,0:0:0:0:
192,192,150219,1,0,0:0:0:0:
448,192,150287,1,0,0:0:0:0:
64,192,150287,1,0,0:0:0:0:
320,192,150355,1,0,0:0:0:0:
448,192,150424,1,0,0:0:0:0:
64,192,150424,1,0,0:0:0:0:
192,192,150424,1,0,0:0:0:0:
64,192,150561,1,0,0:0:0:0:
320,192,150561,1,0,0:0:0:0:
192,192,150629,1,0,0:0:0:0:
448,192,150698,1,0,0:0:0:0:
320,192,150698,1,0,0:0:0:0:
64,192,150766,1,0,0:0:0:0:
448,192,150834,1,0,0:0:0:0:
320,192,150834,1,0,0:0:0:0:
192,192,150834,1,0,0:0:0:0:
64,192,150971,1,0,0:0:0:0:
192,192,150971,1,0,0:0:0:0:
448,192,151040,1,0,0:0:0:0:
64,192,151108,1,0,0:0:0:0:
320,192,151108,1,0,0:0:0:0:
192,192,151177,1,0,0:0:0:0:
64,192,151245,1,0,0:0:0:0:
448,192,151245,1,0,0:0:0:0:
320,192,151245,1,0,0:0:0:0:
192,192,151314,1,0,0:0:0:0:
64,192,151382,1,0,0:0:0:0:
448,192,151382,1,0,0:0:0:0:
320,192,151450,1,0,0:0:0:0:
448,192,151519,1,0,0:0:0:0:
64,192,151519,1,0,0:0:0:0:
192,192,151519,1,0,0:0:0:0:
320,192,151587,1,0,0:0:0:0:
64,192,151656,1,0,0:0:0:0:
448,192,151656,1,0,0:0:0:0:
192,192,151724,1,0,0:0:0:0:
64,192,151793,1,0,0:0:0:0:
192,192,151793,1,0,0:0:0:0:
320,192,151793,1,0,0:0:0:0:
448,192,151793,1,0,0:0:0:0:
64,192,153982,128,0,154051:0:0:0:0:
320,192,153982,128,0,154188:0:0:0:0:
448,192,153982,128,0,154119:0:0:0:0:
192,192,154051,128,0,154188:0:0:0:0:
64,192,154119,128,0,154188:0:0:0:0:
448,192,154188,128,0,154256:0:0:0:0:
320,192,154256,128,0,154461:0:0:0:0:
192,192,154256,128,0,154324:0:0:0:0:
64,192,154256,128,0,154393:0:0:0:0:
448,192,154324,128,0,154461:0:0:0:0:
192,192,154393,128,0,154461:0:0:0:0:
64,192,154461,128,0,154530:0:0:0:0:
192,192,154530,128,0,154667:0:0:0:0:
320,192,154530,128,0,154598:0:0:0:0:
448,192,154530,128,0,154735:0:0:0:0:
64,192,154598,128,0,154735:0:0:0:0:
320,192,154667,128,0,154735:0:0:0:0:
192,192,154735,128,0,154803:0:0:0:0:
64,192,154803,128,0,155009:0:0:0:0:
320,192,154803,128,0,154940:0:0:0:0:
448,192,154803,128,0,154872:0:0:0:0:
192,192,154872,128,0,155009:0:0:0:0:
448,192,154940,128,0,155077:0:0:0:0:
320,192,155009,128,0,155077:0:0:0:0:
192,192,155077,1,0,0:0:0:0:
64,192,155077,1,0,0:0:0:0:
320,192,155146,1,0,0:0:0:0:
448,192,155146,1,0,0:0:0:0:
192,192,155214,1,0,0:0:0:0:
64,192,155214,1,0,0:0:0:0:
320,192,155282,1,0,0:0:0:0:
448,192,155282,1,0,0:0:0:0:
192,192,155351,1,0,0:0:0:0:
64,192,155351,1,0,0:0:0:0:
320,192,155419,1,0,0:0:0:0:
448,192,155419,1,0,0:0:0:0:
192,192,155488,1,0,0:0:0:0:
64,192,155488,1,0,0:0:0:0:
320,192,155556,1,0,0:0:0:0:
448,192,155556,1,0,0:0:0:0:
192,192,155625,1,0,0:0:0:0:
64,192,155625,1,0,0:0:0:0:
320,192,155693,1,0,0:0:0:0:
448,192,155693,1,0,0:0:0:0:
64,192,155761,1,0,0:0:0:0:
192,192,155761,1,0,0:0:0:0:
320,192,155830,1,0,0:0:0:0:
448,192,155830,1,0,0:0:0:0:
64,192,155898,1,0,0:0:0:0:
192,192,155898,1,0,0:0:0:0:
320,192,155898,1,0,0:0:0:0:
448,192,155898,1,0,0:0:0:0:
64,192,156172,128,0,156309:0:0:0:0:
320,192,156172,128,0,156241:0:0:0:0:
448,192,156172,128,0,156377:0:0:0:0:
192,192,156241,128,0,156377:0:0:0:0:
320,192,156309,128,0,156377:0:0:0:0:
64,192,156377,128,0,156446:0:0:0:0:
192,192,156446,128,0,156651:0:0:0:0:
320,192,156446,128,0,156583:0:0:0:0:
448,192,156446,128,0,156514:0:0:0:0:
64,192,156514,128,0,156651:0:0:0:0:
448,192,156583,128,0,156651:0:0:0:0:
320,192,156651,128,0,156720:0:0:0:0:
448,192,156720,128,0,156925:0:0:0:0:
64,192,156720,128,0,156856:0:0:0:0:
192,192,156720,128,0,156788:0:0:0:0:
320,192,156788,128,0,156925:0:0:0:0:
192,192,156856,128,0,156925:0:0:0:0:
64,192,156925,128,0,156993:0:0:0:0:
192,192,156993,128,0,157130:0:0:0:0:
320,192,156993,128,0,157062:0:0:0:0:
448,192,156993,128,0,157199:0:0:0:0:
64,192,157062,128,0,157199:0:0:0:0:
320,192,157130,128,0,157199:0:0:0:0:
192,192,157199,128,0,157267:0:0:0:0:
320,192,157267,128,0,157335:0:0:0:0:
448,192,157267,128,0,157404:0:0:0:0:
64,192,157267,128,0,157472:0:0:0:0:
192,192,157335,128,0,157472:0:0:0:0:
320,192,157404,128,0,157472:0:0:0:0:
448,192,157472,128,0,157541:0:0:0:0:
320,192,157541,128,0,157746:0:0:0:0:
192,192,157541,128,0,157678:0:0:0:0:
64,192,157541,128,0,157609:0:0:0:0:
448,192,157609,128,0,157746:0:0:0:0:
64,192,157678,128,0,157746:0:0:0:0:
192,192,157746,128,0,157814:0:0:0:0:
64,192,157814,128,0,157951:0:0:0:0:
320,192,157814,128,0,157883:0:0:0:0:
448,192,157814,128,0,158020:0:0:0:0:
192,192,157883,128,0,158020:0:0:0:0:
320,192,157951,128,0,158020:0:0:0:0:
64,192,158020,128,0,158088:0:0:0:0:
192,192,158088,128,0,158293:0:0:0:0:
320,192,158088,128,0,158225:0:0:0:0:
448,192,158088,128,0,158157:0:0:0:0:
64,192,158157,128,0,158293:0:0:0:0:
448,192,158225,128,0,158293:0:0:0:0:
320,192,158293,128,0,158362:0:0:0:0:
448,192,158362,128,0,158567:0:0:0:0:
64,192,158362,128,0,158567:0:0:0:0:
192,192,158362,128,0,158430:0:0:0:0:
320,192,158430,128,0,158499:0:0:0:0:
192,192,158499,128,0,158567:0:0:0:0:
320,192,158567,128,0,158636:0:0:0:0:
192,192,158636,128,0,158841:0:0:0:0:
448,192,158636,128,0,158704:0:0:0:0:
64,192,158636,128,0,158772:0:0:0:0:
320,192,158704,128,0,158841:0:0:0:0:
448,192,158772,128,0,158841:0:0:0:0:
64,192,158841,128,0,158909:0:0:0:0:
192,192,158909,128,0,159046:0:0:0:0:
320,192,158909,128,0,158978:0:0:0:0:
448,192,158909,128,0,159115:0:0:0:0:
64,192,158978,128,0,159115:0:0:0:0:
320,192,159046,128,0,159115:0:0:0:0:
192,192,159115,128,0,159183:0:0:0:0:
64,192,159183,128,0,159388:0:0:0:0:
320,192,159183,128,0,159320:0:0:0:0:
448,192,159183,128,0,159251:0:0:0:0:
192,192,159251,128,0,159388:0:0:0:0:
448,192,159320,128,0,159388:0:0:0:0:
320,192,159388,128,0,159457:0:0:0:0:
64,192,159457,128,0,159594:0:0:0:0:
192,192,159457,128,0,159525:0:0:0:0:
448,192,159457,128,0,159662:0:0:0:0:
320,192,159525,128,0,159662:0:0:0:0:
192,192,159594,128,0,159662:0:0:0:0:
64,192,159662,128,0,159730:0:0:0:0:
192,192,159730,128,0,159936:0:0:0:0:
320,192,159730,128,0,159799:0:0:0:0:
448,192,159730,128,0,159799:0:0:0:0:
64,192,159799,128,0,159936:0:0:0:0:
320,192,159867,1,0,0:0:0:0:
448,192,159867,1,0,0:0:0:0:
448,192,159936,1,0,0:0:0:0:
320,192,159936,128,0,160004:0:0:0:0:
64,192,160004,128,0,160073:0:0:0:0:
192,192,160004,128,0,160141:0:0:0:0:
448,192,160004,128,0,160141:0:0:0:0:
320,192,160073,128,0,160141:0:0:0:0:
64,192,160141,128,0,160209:0:0:0:0:
192,192,160209,128,0,160346:0:0:0:0:
320,192,160209,128,0,160346:0:0:0:0:
448,192,160209,128,0,160278:0:0:0:0:
64,192,160278,128,0,160346:0:0:0:0:
448,192,160346,128,0,160415:0:0:0:0:
320,192,160415,128,0,160483:0:0:0:0:
192,192,160415,128,0,160483:0:0:0:0:
64,192,160415,128,0,160483:0:0:0:0:
448,192,160483,1,0,0:0:0:0:
320,192,160552,1,0,0:0:0:0:
192,192,160552,1,0,0:0:0:0:
448,192,160552,1,0,0:0:0:0:
64,192,160552,1,0,0:0:0:0:
64,192,160825,1,0,0:0:0:0:
448,192,160825,1,0,0:0:0:0:
320,192,160825,1,0,0:0:0:0:
192,192,160894,1,0,0:0:0:0:
64,192,160962,1,0,0:0:0:0:
448,192,160962,128,0,161099:0:0:0:0:
320,192,161031,1,0,0:0:0:0:
192,192,161099,1,0,0:0:0:0:
64,192,161099,1,0,0:0:0:0:
320,192,161099,1,0,0:0:0:0:
448,192,161168,1,0,0:0:0:0:
192,192,161236,1,0,0:0:0:0:
64,192,161236,1,0,0:0:0:0:
64,192,161304,1,0,0:0:0:0:
192,192,161304,1,0,0:0:0:0:
64,192,161373,1,0,0:0:0:0:
320,192,161373,1,0,0:0:0:0:
448,192,161373,1,0,0:0:0:0:
192,192,161441,1,0,0:0:0:0:
320,192,161510,1,0,0:0:0:0:
448,192,161510,1,0,0:0:0:0:
320,192,161578,1,0,0:0:0:0:
448,192,161578,1,0,0:0:0:0:
64,192,161647,1,0,0:0:0:0:
192,192,161647,1,0,0:0:0:0:
448,192,161647,1,0,0:0:0:0:
320,192,161715,1,0,0:0:0:0:
192,192,161783,1,0,0:0:0:0:
448,192,161783,1,0,0:0:0:0:
448,192,161852,1,0,0:0:0:0:
192,192,161852,1,0,0:0:0:0:
192,192,161920,1,0,0:0:0:0:
320,192,161920,1,0,0:0:0:0:
64,192,161920,1,0,0:0:0:0:
448,192,161989,1,0,0:0:0:0:
320,192,162057,1,0,0:0:0:0:
64,192,162057,1,0,0:0:0:0:
320,192,162126,1,0,0:0:0:0:
64,192,162126,1,0,0:0:0:0:
192,192,162194,1,0,0:0:0:0:
320,192,162194,1,0,0:0:0:0:
448,192,162194,1,0,0:0:0:0:
64,192,162240,1,0,0:0:0:0:
448,192,162285,1,0,0:0:0:0:
320,192,162331,1,0,0:0:0:0:
64,192,162376,1,0,0:0:0:0:
192,192,162422,1,0,0:0:0:0:
320,192,162468,1,0,0:0:0:0:
448,192,162468,1,0,0:0:0:0:
64,192,162468,1,0,0:0:0:0:
192,192,162513,1,0,0:0:0:0:
320,192,162559,1,0,0:0:0:0:
64,192,162605,1,0,0:0:0:0:
448,192,162650,1,0,0:0:0:0:
320,192,162696,1,0,0:0:0:0:
320,192,162741,1,0,0:0:0:0:
192,192,162741,1,0,0:0:0:0:
64,192,162741,1,0,0:0:0:0:
448,192,162741,1,0,0:0:0:0:
64,192,163015,1,0,0:0:0:0:
192,192,163015,1,0,0:0:0:0:
448,192,163015,1,0,0:0:0:0:
320,192,163084,1,0,0:0:0:0:
64,192,163152,128,0,163220:0:0:0:0:
448,192,163152,128,0,163220:0:0:0:0:
320,192,163289,1,0,0:0:0:0:
448,192,163289,1,0,0:0:0:0:
192,192,163289,1,0,0:0:0:0:
64,192,163289,1,0,0:0:0:0:
320,192,163426,128,0,163494:0:0:0:0:
448,192,163426,128,0,163494:0:0:0:0:
64,192,163563,1,0,0:0:0:0:
192,192,163563,1,0,0:0:0:0:
320,192,163563,1,0,0:0:0:0:
448,192,163563,1,0,0:0:0:0:
64,192,163699,128,0,163768:0:0:0:0:
192,192,163699,128,0,163768:0:0:0:0:
64,192,163836,1,0,0:0:0:0:
192,192,163836,1,0,0:0:0:0:
448,192,163836,1,0,0:0:0:0:
320,192,163836,1,0,0:0:0:0:
64,192,164042,1,0,0:0:0:0:
448,192,164042,1,0,0:0:0:0:
320,192,164042,1,0,0:0:0:0:
192,192,164042,1,0,0:0:0:0:
64,192,164110,1,0,0:0:0:0:
448,192,164110,1,0,0:0:0:0:
192,192,164110,1,0,0:0:0:0:
320,192,164110,1,0,0:0:0:0:
64,192,164247,1,0,0:0:0:0:
192,192,164247,1,0,0:0:0:0:
320,192,164247,1,0,0:0:0:0:
448,192,164247,1,0,0:0:0:0:
64,192,164452,1,0,0:0:0:0:
192,192,164452,1,0,0:0:0:0:
320,192,164452,1,0,0:0:0:0:
448,192,164452,1,0,0:0:0:0:
64,192,164657,1,0,0:0:0:0:
192,192,164657,1,0,0:0:0:0:
448,192,164657,1,0,0:0:0:0:
320,192,164657,1,0,0:0:0:0:
64,192,164931,1,0,0:0:0:0:
448,192,164931,1,0,0:0:0:0:
64,192,165068,1,0,0:0:0:0:
448,192,165068,1,0,0:0:0:0:
448,192,165205,1,0,0:0:0:0:
320,192,165205,1,0,0:0:0:0:
192,192,165205,1,0,0:0:0:0:
64,192,165205,1,0,0:0:0:0:
64,192,165479,128,0,165616:0:0:0:0:
320,192,165479,128,0,165547:0:0:0:0:
448,192,165479,128,0,165684:0:0:0:0:
192,192,165547,128,0,165684:0:0:0:0:
320,192,165616,128,0,165684:0:0:0:0:
64,192,165684,128,0,165752:0:0:0:0:
192,192,165752,128,0,165821:0:0:0:0:
320,192,165752,128,0,165958:0:0:0:0:
448,192,165752,128,0,165889:0:0:0:0:
64,192,165821,128,0,165958:0:0:0:0:
192,192,165889,128,0,165958:0:0:0:0:
448,192,165958,128,0,166026:0:0:0:0:
320,192,166026,128,0,166231:0:0:0:0:
192,192,166026,128,0,166163:0:0:0:0:
64,192,166026,128,0,166095:0:0:0:0:
448,192,166095,128,0,166231:0:0:0:0:
64,192,166163,128,0,166231:0:0:0:0:
192,192,166231,128,0,166300:0:0:0:0:
64,192,166300,128,0,166437:0:0:0:0:
320,192,166300,128,0,166368:0:0:0:0:
448,192,166300,128,0,166505:0:0:0:0:
192,192,166368,128,0,166505:0:0:0:0:
320,192,166437,128,0,166505:0:0:0:0:
64,192,166505,128,0,166574:0:0:0:0:
192,192,166574,128,0,166779:0:0:0:0:
320,192,166574,128,0,166710:0:0:0:0:
448,192,166574,128,0,166642:0:0:0:0:
64,192,166642,128,0,166779:0:0:0:0:
448,192,166710,128,0,166779:0:0:0:0:
320,192,166779,128,0,166847:0:0:0:0:
192,192,166847,128,0,166916:0:0:0:0:
64,192,166847,128,0,166984:0:0:0:0:
448,192,166847,128,0,167053:0:0:0:0:
320,192,166916,128,0,167053:0:0:0:0:
192,192,166984,128,0,167121:0:0:0:0:
64,192,167053,128,0,167121:0:0:0:0:
320,192,167121,1,0,0:0:0:0:
448,192,167121,1,0,0:0:0:0:
320,192,167212,1,0,0:0:0:0:
448,192,167212,1,0,0:0:0:0:
320,192,167303,1,0,0:0:0:0:
448,192,167303,1,0,0:0:0:0:
64,192,167395,128,0,167600:0:0:0:0:
192,192,167395,128,0,167463:0:0:0:0:
448,192,167395,128,0,167532:0:0:0:0:
320,192,167463,128,0,167600:0:0:0:0:
192,192,167532,128,0,167600:0:0:0:0:
448,192,167600,128,0,167668:0:0:0:0:
64,192,167668,128,0,167874:0:0:0:0:
192,192,167668,128,0,167805:0:0:0:0:
320,192,167668,128,0,167737:0:0:0:0:
448,192,167737,128,0,167874:0:0:0:0:
320,192,167805,128,0,167874:0:0:0:0:
192,192,167874,128,0,167942:0:0:0:0:
64,192,167942,128,0,168147:0:0:0:0:
320,192,167942,128,0,168079:0:0:0:0:
448,192,167942,128,0,168011:0:0:0:0:
192,192,168011,128,0,168147:0:0:0:0:
448,192,168079,128,0,168147:0:0:0:0:
320,192,168147,128,0,168216:0:0:0:0:
192,192,168216,1,0,0:0:0:0:
64,192,168216,1,0,0:0:0:0:
448,192,168216,1,0,0:0:0:0:
192,192,168421,1,0,0:0:0:0:
64,192,168421,1,0,0:0:0:0:
320,192,168421,1,0,0:0:0:0:
448,192,168421,1,0,0:0:0:0:
192,192,168626,1,0,0:0:0:0:
64,192,168626,1,0,0:0:0:0:
320,192,168626,1,0,0:0:0:0:
448,192,168626,1,0,0:0:0:0:
192,192,168763,1,0,0:0:0:0:
64,192,168763,1,0,0:0:0:0:
320,192,168763,1,0,0:0:0:0:
448,192,168763,1,0,0:0:0:0:
192,192,168969,1,0,0:0:0:0:
64,192,168969,1,0,0:0:0:0:
320,192,168969,1,0,0:0:0:0:
448,192,168969,1,0,0:0:0:0:
192,192,169174,1,0,0:0:0:0:
64,192,169174,1,0,0:0:0:0:
320,192,169174,1,0,0:0:0:0:
448,192,169174,1,0,0:0:0:0:
448,192,169311,1,0,0:0:0:0:
192,192,169311,1,0,0:0:0:0:
64,192,169311,1,0,0:0:0:0:
320,192,169379,1,0,0:0:0:0:
64,192,169448,1,0,0:0:0:0:
192,192,169448,1,0,0:0:0:0:
448,192,169516,1,0,0:0:0:0:
64,192,169584,1,0,0:0:0:0:
320,192,169584,1,0,0:0:0:0:
192,192,169653,1,0,0:0:0:0:
64,192,169721,1,0,0:0:0:0:
320,192,169721,1,0,0:0:0:0:
448,192,169721,1,0,0:0:0:0:
192,192,169721,1,0,0:0:0:0:
320,192,169858,1,0,0:0:0:0:
448,192,169858,1,0,0:0:0:0:
192,192,169858,1,0,0:0:0:0:
64,192,169927,1,0,0:0:0:0:
448,192,169995,1,0,0:0:0:0:
320,192,169995,1,0,0:0:0:0:
192,192,170064,1,0,0:0:0:0:
192,192,170132,1,0,0:0:0:0:
64,192,170132,1,0,0:0:0:0:
320,192,170132,1,0,0:0:0:0:
448,192,170132,1,0,0:0:0:0:
64,192,170269,1,0,0:0:0:0:
448,192,170269,1,0,0:0:0:0:
320,192,170269,1,0,0:0:0:0:
192,192,170337,1,0,0:0:0:0:
320,192,170406,1,0,0:0:0:0:
64,192,170406,1,0,0:0:0:0:
448,192,170474,1,0,0:0:0:0:
320,192,170543,1,0,0:0:0:0:
192,192,170543,1,0,0:0:0:0:
64,192,170543,1,0,0:0:0:0:
448,192,170543,1,0,0:0:0:0:
192,192,170679,1,0,0:0:0:0:
448,192,170679,1,0,0:0:0:0:
320,192,170679,1,0,0:0:0:0:
64,192,170748,1,0,0:0:0:0:
320,192,170816,1,0,0:0:0:0:
448,192,170816,1,0,0:0:0:0:
192,192,170885,1,0,0:0:0:0:
64,192,170953,1,0,0:0:0:0:
192,192,170953,1,0,0:0:0:0:
320,192,170953,1,0,0:0:0:0:
448,192,170953,1,0,0:0:0:0:
64,192,171090,1,0,0:0:0:0:
192,192,171090,1,0,0:0:0:0:
448,192,171158,1,0,0:0:0:0:
320,192,171158,1,0,0:0:0:0:
320,192,171227,1,0,0:0:0:0:
448,192,171227,1,0,0:0:0:0:
64,192,171227,1,0,0:0:0:0:
192,192,171227,1,0,0:0:0:0:
64,192,171364,1,0,0:0:0:0:
448,192,171364,1,0,0:0:0:0:
192,192,171432,1,0,0:0:0:0:
320,192,171432,1,0,0:0:0:0:
64,192,171501,5,0,0:0:0:0:
192,192,171501,1,0,0:0:0:0:
448,192,171501,1,0,0:0:0:0:
320,192,171501,1,0,0:0:0:0:
320,192,171592,1,0,0:0:0:0:
64,192,171592,1,0,0:0:0:0:
320,192,171683,1,0,0:0:0:0:
448,192,171683,1,0,0:0:0:0:
64,192,171774,1,0,0:0:0:0:
448,192,171774,1,0,0:0:0:0:
192,192,171866,1,0,0:0:0:0:
64,192,171866,1,0,0:0:0:0:
192,192,171957,1,0,0:0:0:0:
448,192,171957,1,0,0:0:0:0:
320,192,172048,1,0,0:0:0:0:
448,192,172048,1,0,0:0:0:0:
320,192,172139,1,0,0:0:0:0:
64,192,172139,1,0,0:0:0:0:
192,192,172230,1,0,0:0:0:0:
448,192,172230,1,0,0:0:0:0:
192,192,172322,1,0,0:0:0:0:
64,192,172322,1,0,0:0:0:0:
64,192,172413,1,0,0:0:0:0:
448,192,172413,1,0,0:0:0:0:
320,192,172504,5,0,0:0:0:0:
448,192,172504,1,0,0:0:0:0:
64,192,172595,1,0,0:0:0:0:
192,192,172595,1,0,0:0:0:0:
448,192,172595,1,0,0:0:0:0:
320,192,172595,1,0,0:0:0:0:
320,192,173690,5,0,0:0:0:0:
448,192,173690,1,0,0:0:0:0:
64,192,173690,1,0,0:0:0:0:
192,192,173736,1,0,0:0:0:0:
320,192,173782,1,0,0:0:0:0:
64,192,173827,1,0,0:0:0:0:
448,192,173873,1,0,0:0:0:0:
320,192,173918,1,0,0:0:0:0:
64,192,173964,1,0,0:0:0:0:
192,192,173964,1,0,0:0:0:0:
192,192,174032,1,0,0:0:0:0:
64,192,174032,1,0,0:0:0:0:
448,192,174101,1,0,0:0:0:0:
320,192,174101,1,0,0:0:0:0:
320,192,174169,1,0,0:0:0:0:
448,192,174169,1,0,0:0:0:0:
192,192,174238,1,0,0:0:0:0:
448,192,174238,1,0,0:0:0:0:
64,192,174238,1,0,0:0:0:0:
320,192,174283,1,0,0:0:0:0:
192,192,174329,1,0,0:0:0:0:
448,192,174375,128,0,174460:0:0:0:0:
320,192,174392,128,0,174477:0:0:0:0:
320,192,174511,128,0,174597:0:0:0:0:
448,192,174529,128,0,174614:0:0:0:0:
448,192,174648,128,0,174734:0:0:0:0:
320,192,174665,128,0,174751:0:0:0:0:
64,192,174785,1,0,0:0:0:0:
192,192,174785,1,0,0:0:0:0:
448,192,174785,1,0,0:0:0:0:
320,192,174831,1,0,0:0:0:0:
64,192,174876,1,0,0:0:0:0:
192,192,174922,1,0,0:0:0:0:
448,192,174968,1,0,0:0:0:0:
320,192,175013,1,0,0:0:0:0:
192,192,175059,128,0,175144:0:0:0:0:
64,192,175076,128,0,175162:0:0:0:0:
64,192,175196,128,0,175281:0:0:0:0:
192,192,175213,128,0,175298:0:0:0:0:
448,192,175333,1,0,0:0:0:0:
320,192,175333,1,0,0:0:0:0:
64,192,175333,1,0,0:0:0:0:
192,192,175378,1,0,0:0:0:0:
320,192,175424,1,0,0:0:0:0:
64,192,175470,1,0,0:0:0:0:
448,192,175515,1,0,0:0:0:0:
192,192,175561,1,0,0:0:0:0:
320,192,175606,1,0,0:0:0:0:
64,192,175652,1,0,0:0:0:0:
192,192,175698,1,0,0:0:0:0:
448,192,175743,1,0,0:0:0:0:
320,192,175789,1,0,0:0:0:0:
192,192,175834,1,0,0:0:0:0:
64,192,175880,1,0,0:0:0:0:
448,192,175880,1,0,0:0:0:0:
320,192,175880,1,0,0:0:0:0:
192,192,175926,1,0,0:0:0:0:
448,192,175971,1,0,0:0:0:0:
64,192,176017,1,0,0:0:0:0:
320,192,176063,1,0,0:0:0:0:
192,192,176108,1,0,0:0:0:0:
320,192,176154,1,0,0:0:0:0:
448,192,176154,1,0,0:0:0:0:
448,192,176222,1,0,0:0:0:0:
320,192,176222,1,0,0:0:0:0:
192,192,176291,1,0,0:0:0:0:
64,192,176291,1,0,0:0:0:0:
192,192,176359,1,0,0:0:0:0:
64,192,176359,1,0,0:0:0:0:
448,192,176428,1,0,0:0:0:0:
64,192,176428,1,0,0:0:0:0:
320,192,176428,1,0,0:0:0:0:
192,192,176473,1,0,0:0:0:0:
448,192,176519,1,0,0:0:0:0:
64,192,176564,1,0,0:0:0:0:
320,192,176610,1,0,0:0:0:0:
192,192,176656,1,0,0:0:0:0:
320,192,176701,128,0,176787:0:0:0:0:
448,192,176718,128,0,176804:0:0:0:0:
448,192,176838,128,0,176924:0:0:0:0:
320,192,176855,128,0,176941:0:0:0:0:
192,192,176975,1,0,0:0:0:0:
64,192,176975,1,0,0:0:0:0:
448,192,176975,1,0,0:0:0:0:
320,192,177021,1,0,0:0:0:0:
192,192,177066,1,0,0:0:0:0:
448,192,177112,1,0,0:0:0:0:
64,192,177157,1,0,0:0:0:0:
320,192,177203,1,0,0:0:0:0:
192,192,177249,128,0,177334:0:0:0:0:
64,192,177266,128,0,177351:0:0:0:0:
64,192,177386,128,0,177471:0:0:0:0:
192,192,177403,128,0,177488:0:0:0:0:
192,192,177522,1,0,0:0:0:0:
64,192,177522,1,0,0:0:0:0:
448,192,177522,1,0,0:0:0:0:
320,192,177557,1,0,0:0:0:0:
192,192,177591,1,0,0:0:0:0:
448,192,177625,1,0,0:0:0:0:
64,192,177659,1,0,0:0:0:0:
192,192,177694,1,0,0:0:0:0:
320,192,177728,1,0,0:0:0:0:
64,192,177762,1,0,0:0:0:0:
448,192,177796,1,0,0:0:0:0:
192,192,177830,1,0,0:0:0:0:
320,192,177865,1,0,0:0:0:0:
64,192,177899,1,0,0:0:0:0:
192,192,177933,1,0,0:0:0:0:
448,192,177967,1,0,0:0:0:0:
320,192,178001,1,0,0:0:0:0:
192,192,178036,1,0,0:0:0:0:
448,192,178070,1,0,0:0:0:0:
320,192,178070,1,0,0:0:0:0:
64,192,178070,1,0,0:0:0:0:
192,192,178116,1,0,0:0:0:0:
448,192,178161,1,0,0:0:0:0:
64,192,178207,1,0,0:0:0:0:
320,192,178252,1,0,0:0:0:0:
192,192,178298,1,0,0:0:0:0:
448,192,178344,1,0,0:0:0:0:
64,192,178344,1,0,0:0:0:0:
448,192,178435,1,0,0:0:0:0:
64,192,178435,1,0,0:0:0:0:
192,192,178435,1,0,0:0:0:0:
192,192,178549,1,0,0:0:0:0:
320,192,178549,1,0,0:0:0:0:
448,192,178549,1,0,0:0:0:0:
448,192,178617,1,0,0:0:0:0:
192,192,178617,1,0,0:0:0:0:
320,192,178617,1,0,0:0:0:0:
64,192,178800,1,0,0:0:0:0:
192,192,178800,1,0,0:0:0:0:
320,192,178800,1,0,0:0:0:0:
448,192,178982,1,0,0:0:0:0:
320,192,178982,1,0,0:0:0:0:
64,192,178982,1,0,0:0:0:0:
448,192,179165,1,0,0:0:0:0:
64,192,179165,1,0,0:0:0:0:
192,192,179210,1,0,0:0:0:0:
320,192,179256,1,0,0:0:0:0:
64,192,179302,1,0,0:0:0:0:
448,192,179302,1,0,0:0:0:0:
192,192,179302,1,0,0:0:0:0:
448,192,179439,1,0,0:0:0:0:
64,192,179439,1,0,0:0:0:0:
320,192,179439,1,0,0:0:0:0:
448,192,179575,1,0,0:0:0:0:
64,192,179644,1,0,0:0:0:0:
192,192,179644,1,0,0:0:0:0:
320,192,179644,1,0,0:0:0:0:
192,192,179712,1,0,0:0:0:0:
320,192,179712,1,0,0:0:0:0:
64,192,179712,1,0,0:0:0:0:
320,192,179918,1,0,0:0:0:0:
64,192,179918,1,0,0:0:0:0:
448,192,179918,1,0,0:0:0:0:
192,192,180077,1,0,0:0:0:0:
320,192,180077,1,0,0:0:0:0:
448,192,180077,1,0,0:0:0:0:
192,192,180260,1,0,0:0:0:0:
64,192,180260,1,0,0:0:0:0:
448,192,180260,1,0,0:0:0:0:
320,192,180305,1,0,0:0:0:0:
64,192,180351,1,0,0:0:0:0:
192,192,180397,1,0,0:0:0:0:
448,192,180442,1,0,0:0:0:0:
320,192,180488,1,0,0:0:0:0:
192,192,180533,1,0,0:0:0:0:
448,192,180579,1,0,0:0:0:0:
64,192,180625,1,0,0:0:0:0:
192,192,180625,1,0,0:0:0:0:
320,192,180625,1,0,0:0:0:0:
320,192,180739,1,0,0:0:0:0:
64,192,180739,1,0,0:0:0:0:
448,192,180739,1,0,0:0:0:0:
320,192,180807,1,0,0:0:0:0:
64,192,180807,1,0,0:0:0:0:
448,192,180807,1,0,0:0:0:0:
64,192,180944,1,0,0:0:0:0:
320,192,181012,1,0,0:0:0:0:
448,192,181012,1,0,0:0:0:0:
192,192,181012,1,0,0:0:0:0:
192,192,181172,1,0,0:0:0:0:
64,192,181172,1,0,0:0:0:0:
448,192,181172,1,0,0:0:0:0:
320,192,181355,5,0,0:0:0:0:
64,192,181400,1,0,0:0:0:0:
192,192,181446,1,0,0:0:0:0:
320,192,181491,5,0,0:0:0:0:
64,192,181491,1,0,0:0:0:0:
448,192,181491,1,0,0:0:0:0:
320,192,181628,1,0,0:0:0:0:
448,192,181628,1,0,0:0:0:0:
192,192,181628,1,0,0:0:0:0:
320,192,181834,1,0,0:0:0:0:
64,192,181834,1,0,0:0:0:0:
192,192,181834,1,0,0:0:0:0:
192,192,181902,1,0,0:0:0:0:
64,192,181902,1,0,0:0:0:0:
320,192,181902,1,0,0:0:0:0:
448,192,182107,1,0,0:0:0:0:
192,192,182107,1,0,0:0:0:0:
320,192,182107,1,0,0:0:0:0:
192,192,182313,1,0,0:0:0:0:
64,192,182313,1,0,0:0:0:0:
448,192,182313,1,0,0:0:0:0:
448,192,182449,1,0,0:0:0:0:
64,192,182449,128,0,182860:0:0:0:0:
448,192,182860,1,0,0:0:0:0:
192,192,182997,128,0,183544:0:0:0:0:
448,192,183271,1,0,0:0:0:0:
320,192,183544,128,0,183955:0:0:0:0:
64,192,183681,1,0,0:0:0:0:
448,192,183955,128,0,184229:0:0:0:0:
64,192,184092,1,0,0:0:0:0:
64,192,184229,128,0,184708:0:0:0:0:
192,192,184366,128,0,184708:0:0:0:0:
320,192,184502,128,0,184708:0:0:0:0:
448,192,184502,128,0,184708:0:0:0:0:
64,192,184776,1,0,0:0:0:0:
192,192,184776,1,0,0:0:0:0:
320,192,184776,1,0,0:0:0:0:
448,192,184776,1,0,0:0:0:0:
64,192,184913,1,0,0:0:0:0:
192,192,184913,1,0,0:0:0:0:
320,192,184913,1,0,0:0:0:0:
448,192,184913,1,0,0:0:0:0:
64,192,185187,1,0,0:0:0:0:
192,192,185187,1,0,0:0:0:0:
320,192,185187,1,0,0:0:0:0:
448,192,185187,1,0,0:0:0:0:
448,192,185324,1,0,0:0:0:0:
320,192,185324,1,0,0:0:0:0:
64,192,185324,1,0,0:0:0:0:
192,192,185324,1,0,0:0:0:0:
192,192,185597,1,0,0:0:0:0:
320,192,185597,1,0,0:0:0:0:
64,192,185597,1,0,0:0:0:0:
448,192,185597,1,0,0:0:0:0:
64,192,185734,1,0,0:0:0:0:
192,192,185734,1,0,0:0:0:0:
448,192,185734,1,0,0:0:0:0:
320,192,185734,1,0,0:0:0:0:
320,192,186008,1,0,0:0:0:0:
64,192,186008,1,0,0:0:0:0:
192,192,186008,1,0,0:0:0:0:
448,192,186008,1,0,0:0:0:0:
64,192,186145,1,0,0:0:0:0:
448,192,186145,1,0,0:0:0:0:
192,192,186145,1,0,0:0:0:0:
320,192,186145,1,0,0:0:0:0:
64,192,186282,1,0,0:0:0:0:
448,192,186350,1,0,0:0:0:0:
192,192,186418,1,0,0:0:0:0:
320,192,186487,1,0,0:0:0:0:
448,192,186555,1,0,0:0:0:0:
64,192,186555,1,0,0:0:0:0:
192,192,186692,1,0,0:0:0:0:
320,192,186692,1,0,0:0:0:0:
64,192,186829,1,0,0:0:0:0:
448,192,186829,128,0,187240:0:0:0:0:
192,192,186829,1,0,0:0:0:0:
320,192,186829,1,0,0:0:0:0:
64,192,187240,1,0,0:0:0:0:
320,192,187376,128,0,187924:0:0:0:0:
64,192,187650,1,0,0:0:0:0:
192,192,187924,128,0,188334:0:0:0:0:
448,192,188061,1,0,0:0:0:0:
64,192,188334,128,0,188608:0:0:0:0:
448,192,188471,1,0,0:0:0:0:
448,192,188608,128,0,189087:0:0:0:0:
320,192,188745,128,0,189087:0:0:0:0:
192,192,188882,128,0,189087:0:0:0:0:
64,192,188882,128,0,189087:0:0:0:0:
448,192,189156,1,0,0:0:0:0:
320,192,189156,1,0,0:0:0:0:
192,192,189156,1,0,0:0:0:0:
64,192,189156,1,0,0:0:0:0:
448,192,189293,1,0,0:0:0:0:
320,192,189293,1,0,0:0:0:0:
192,192,189293,1,0,0:0:0:0:
64,192,189293,1,0,0:0:0:0:
448,192,189566,1,0,0:0:0:0:
320,192,189566,1,0,0:0:0:0:
192,192,189566,1,0,0:0:0:0:
64,192,189566,1,0,0:0:0:0:
64,192,189703,1,0,0:0:0:0:
192,192,189703,1,0,0:0:0:0:
448,192,189703,1,0,0:0:0:0:
320,192,189703,1,0,0:0:0:0:
320,192,189977,1,0,0:0:0:0:
192,192,189977,1,0,0:0:0:0:
448,192,189977,1,0,0:0:0:0:
64,192,189977,1,0,0:0:0:0:
448,192,190114,1,0,0:0:0:0:
320,192,190114,1,0,0:0:0:0:
64,192,190114,1,0,0:0:0:0:
192,192,190114,1,0,0:0:0:0:
192,192,190387,1,0,0:0:0:0:
448,192,190387,1,0,0:0:0:0:
320,192,190387,1,0,0:0:0:0:
64,192,190387,1,0,0:0:0:0:
448,192,190524,1,0,0:0:0:0:
64,192,190524,1,0,0:0:0:0:
320,192,190524,1,0,0:0:0:0:
192,192,190524,1,0,0:0:0:0:
448,192,190661,1,0,0:0:0:0:
320,192,190661,1,0,0:0:0:0:
192,192,190730,1,0,0:0:0:0:
64,192,190730,1,0,0:0:0:0:
448,192,190798,1,0,0:0:0:0:
320,192,190798,1,0,0:0:0:0:
192,192,190866,1,0,0:0:0:0:
64,192,190866,1,0,0:0:0:0:
448,192,190935,1,0,0:0:0:0:
320,192,190935,1,0,0:0:0:0:
192,192,191003,1,0,0:0:0:0:
64,192,191003,1,0,0:0:0:0:
448,192,191072,1,0,0:0:0:0:
320,192,191072,1,0,0:0:0:0:
64,192,191140,1,0,0:0:0:0:
192,192,191140,1,0,0:0:0:0:
320,192,191209,1,0,0:0:0:0:
192,192,191209,1,0,0:0:0:0:
64,192,191209,1,0,0:0:0:0:
448,192,191209,128,0,191482:0:0:0:0:
64,192,191482,128,0,192303:0:0:0:0:
448,192,191756,128,0,192030:0:0:0:0:
320,192,192030,128,0,192303:0:0:0:0:
192,192,192303,128,0,192577:0:0:0:0:
448,192,192577,128,0,193398:0:0:0:0:
64,192,192851,128,0,193125:0:0:0:0:
192,192,193125,128,0,193398:0:0:0:0:
320,192,193398,128,0,193672:0:0:0:0:
448,192,193672,128,0,194493:0:0:0:0:
192,192,193946,128,0,194220:0:0:0:0:
320,192,194220,128,0,194493:0:0:0:0:
192,192,194493,128,0,194767:0:0:0:0:
64,192,194767,128,0,195588:0:0:0:0:
320,192,195041,128,0,195314:0:0:0:0:
192,192,195314,128,0,195588:0:0:0:0:
320,192,195588,128,0,195862:0:0:0:0:
448,192,195862,128,0,196683:0:0:0:0:
64,192,196136,128,0,196409:0:0:0:0:
320,192,196409,128,0,196683:0:0:0:0:
192,192,196683,128,0,196957:0:0:0:0:
64,192,196957,128,0,197778:0:0:0:0:
448,192,197230,128,0,197504:0:0:0:0:
192,192,197504,128,0,197778:0:0:0:0:
320,192,197778,128,0,198052:0:0:0:0:
448,192,198052,128,0,198599:0:0:0:0:
64,192,198325,128,0,198599:0:0:0:0:
192,192,198599,128,0,198873:0:0:0:0:
320,192,198873,128,0,199147:0:0:0:0:
448,192,199147,128,0,199694:0:0:0:0:
320,192,199420,128,0,199694:0:0:0:0:
192,192,199694,128,0,199968:0:0:0:0:
64,192,199968,1,0,0:0:0:0:
448,192,199968,1,0,0:0:0:0:
64,192,202157,1,0,0:0:0:0:
320,192,202157,1,0,0:0:0:0:
448,192,202157,1,0,0:0:0:0:
192,192,202157,1,0,0:0:0:0:
448,192,202431,128,0,202517:0:0:0:0:
320,192,202448,128,0,202534:0:0:0:0:
320,192,202568,128,0,202654:0:0:0:0:
448,192,202585,128,0,202671:0:0:0:0:
64,192,202705,128,0,202739:0:0:0:0:
192,192,202722,128,0,202756:0:0:0:0:
64,192,202773,128,0,202808:0:0:0:0:
192,192,202790,128,0,202825:0:0:0:0:
448,192,202842,128,0,202876:0:0:0:0:
320,192,202859,128,0,202893:0:0:0:0:
448,192,202910,128,0,202944:0:0:0:0:
320,192,202927,128,0,202962:0:0:0:0:
64,192,202979,128,0,203064:0:0:0:0:
192,192,202996,128,0,203081:0:0:0:0:
192,192,203116,128,0,203201:0:0:0:0:
64,192,203133,128,0,203218:0:0:0:0:
64,192,203252,1,0,0:0:0:0:
320,192,203252,1,0,0:0:0:0:
448,192,203252,1,0,0:0:0:0:
192,192,203298,1,0,0:0:0:0:
320,192,203344,1,0,0:0:0:0:
64,192,203389,1,0,0:0:0:0:
448,192,203435,1,0,0:0:0:0:
192,192,203480,1,0,0:0:0:0:
320,192,203526,128,0,203612:0:0:0:0:
448,192,203543,128,0,203629:0:0:0:0:
448,192,203663,128,0,203748:0:0:0:0:
320,192,203680,128,0,203766:0:0:0:0:
64,192,203800,1,0,0:0:0:0:
192,192,203834,1,0,0:0:0:0:
448,192,203868,1,0,0:0:0:0:
320,192,203902,1,0,0:0:0:0:
192,192,203937,1,0,0:0:0:0:
64,192,203971,1,0,0:0:0:0:
320,192,204005,1,0,0:0:0:0:
448,192,204039,1,0,0:0:0:0:
192,192,204074,1,0,0:0:0:0:
320,192,204108,1,0,0:0:0:0:
64,192,204142,1,0,0:0:0:0:
192,192,204176,1,0,0:0:0:0:
320,192,204210,1,0,0:0:0:0:
64,192,204245,1,0,0:0:0:0:
448,192,204279,1,0,0:0:0:0:
320,192,204313,1,0,0:0:0:0:
64,192,204347,5,0,0:0:0:0:
448,192,204347,1,0,0:0:0:0:
192,192,204347,1,0,0:0:0:0:
320,192,204393,1,0,0:0:0:0:
192,192,204439,1,0,0:0:0:0:
448,192,204484,1,0,0:0:0:0:
64,192,204530,1,0,0:0:0:0:
192,192,204575,1,0,0:0:0:0:
320,192,204621,1,0,0:0:0:0:
64,192,204667,1,0,0:0:0:0:
448,192,204712,1,0,0:0:0:0:
320,192,204758,1,0,0:0:0:0:
192,192,204803,1,0,0:0:0:0:
64,192,204849,1,0,0:0:0:0:
448,192,204895,1,0,0:0:0:0:
320,192,204903,1,0,0:0:0:0:
64,192,204912,1,0,0:0:0:0:
192,192,204920,1,0,0:0:0:0:
320,192,205100,1,0,0:0:0:0:
448,192,205108,1,0,0:0:0:0:
192,192,205117,1,0,0:0:0:0:
64,192,205125,1,0,0:0:0:0:
64,192,205305,1,0,0:0:0:0:
192,192,205314,1,0,0:0:0:0:
320,192,205322,1,0,0:0:0:0:
448,192,205331,1,0,0:0:0:0:
192,192,205510,1,0,0:0:0:0:
64,192,205519,1,0,0:0:0:0:
448,192,205527,1,0,0:0:0:0:
320,192,205536,1,0,0:0:0:0:
448,192,205716,1,0,0:0:0:0:
320,192,205724,1,0,0:0:0:0:
64,192,205733,1,0,0:0:0:0:
192,192,205741,1,0,0:0:0:0:
320,192,205921,1,0,0:0:0:0:
448,192,205930,1,0,0:0:0:0:
192,192,205938,1,0,0:0:0:0:
64,192,205947,1,0,0:0:0:0:
448,192,206126,1,0,0:0:0:0:
320,192,206135,1,0,0:0:0:0:
64,192,206143,1,0,0:0:0:0:
192,192,206152,1,0,0:0:0:0:
64,192,206332,1,0,0:0:0:0:
192,192,206340,1,0,0:0:0:0:
320,192,206349,1,0,0:0:0:0:
448,192,206357,1,0,0:0:0:0:
320,192,206537,1,0,0:0:0:0:
448,192,206537,1,0,0:0:0:0:
64,192,206582,1,0,0:0:0:0:
192,192,206628,1,0,0:0:0:0:
448,192,206673,1,0,0:0:0:0:
320,192,206719,1,0,0:0:0:0:
192,192,206765,1,0,0:0:0:0:
448,192,206810,1,0,0:0:0:0:
64,192,206856,1,0,0:0:0:0:
192,192,206901,1,0,0:0:0:0:
320,192,206947,1,0,0:0:0:0:
192,192,206993,1,0,0:0:0:0:
448,192,207038,1,0,0:0:0:0:
64,192,207084,1,0,0:0:0:0:
192,192,207092,1,0,0:0:0:0:
448,192,207101,1,0,0:0:0:0:
320,192,207109,1,0,0:0:0:0:
192,192,207289,1,0,0:0:0:0:
64,192,207297,1,0,0:0:0:0:
320,192,207306,1,0,0:0:0:0:
448,192,207314,1,0,0:0:0:0:
448,192,207494,1,0,0:0:0:0:
320,192,207503,1,0,0:0:0:0:
192,192,207511,1,0,0:0:0:0:
64,192,207520,1,0,0:0:0:0:
320,192,207699,1,0,0:0:0:0:
448,192,207708,1,0,0:0:0:0:
64,192,207716,1,0,0:0:0:0:
192,192,207725,1,0,0:0:0:0:
64,192,207905,1,0,0:0:0:0:
192,192,207913,1,0,0:0:0:0:
448,192,207922,1,0,0:0:0:0:
320,192,207930,1,0,0:0:0:0:
192,192,208110,1,0,0:0:0:0:
64,192,208119,1,0,0:0:0:0:
320,192,208127,1,0,0:0:0:0:
448,192,208136,1,0,0:0:0:0:
64,192,208315,1,0,0:0:0:0:
192,192,208324,1,0,0:0:0:0:
448,192,208332,1,0,0:0:0:0:
320,192,208341,1,0,0:0:0:0:
448,192,208452,1,0,0:0:0:0:
320,192,208461,1,0,0:0:0:0:
192,192,208469,1,0,0:0:0:0:
64,192,208478,1,0,0:0:0:0:
192,192,208589,1,0,0:0:0:0:
64,192,208598,1,0,0:0:0:0:
320,192,208606,1,0,0:0:0:0:
448,192,208615,1,0,0:0:0:0:
448,192,208726,1,0,0:0:0:0:
192,192,208726,1,0,0:0:0:0:
64,192,208726,1,0,0:0:0:0:
320,192,208771,1,0,0:0:0:0:
192,192,208817,1,0,0:0:0:0:
448,192,208862,1,0,0:0:0:0:
64,192,208908,1,0,0:0:0:0:
320,192,208954,1,0,0:0:0:0:
192,192,208999,1,0,0:0:0:0:
320,192,209045,1,0,0:0:0:0:
448,192,209090,1,0,0:0:0:0:
64,192,209136,1,0,0:0:0:0:
192,192,209182,1,0,0:0:0:0:
320,192,209227,1,0,0:0:0:0:
64,192,209273,1,0,0:0:0:0:
192,192,209281,1,0,0:0:0:0:
448,192,209290,1,0,0:0:0:0:
320,192,209298,1,0,0:0:0:0:
192,192,209478,1,0,0:0:0:0:
64,192,209486,1,0,0:0:0:0:
320,192,209495,1,0,0:0:0:0:
448,192,209503,1,0,0:0:0:0:
448,192,209683,1,0,0:0:0:0:
320,192,209692,1,0,0:0:0:0:
192,192,209700,1,0,0:0:0:0:
64,192,209709,1,0,0:0:0:0:
320,192,209888,1,0,0:0:0:0:
448,192,209897,1,0,0:0:0:0:
64,192,209905,1,0,0:0:0:0:
192,192,209914,1,0,0:0:0:0:
64,192,210094,1,0,0:0:0:0:
192,192,210102,1,0,0:0:0:0:
448,192,210111,1,0,0:0:0:0:
320,192,210119,1,0,0:0:0:0:
192,192,210299,1,0,0:0:0:0:
64,192,210308,1,0,0:0:0:0:
320,192,210316,1,0,0:0:0:0:
448,192,210325,1,0,0:0:0:0:
64,192,210504,1,0,0:0:0:0:
192,192,210513,1,0,0:0:0:0:
448,192,210521,1,0,0:0:0:0:
320,192,210530,1,0,0:0:0:0:
448,192,210710,1,0,0:0:0:0:
320,192,210718,1,0,0:0:0:0:
192,192,210727,1,0,0:0:0:0:
64,192,210735,1,0,0:0:0:0:
448,192,210915,128,0,211120:0:0:0:0:
320,192,210915,128,0,211103:0:0:0:0:
192,192,210915,128,0,211086:0:0:0:0:
64,192,210915,128,0,211068:0:0:0:0:
448,192,211188,1,0,0:0:0:0:
64,192,211188,1,0,0:0:0:0:
320,192,211222,1,0,0:0:0:0:
192,192,211257,1,0,0:0:0:0:
64,192,211291,1,0,0:0:0:0:
448,192,211325,1,0,0:0:0:0:
320,192,211359,1,0,0:0:0:0:
192,192,211394,1,0,0:0:0:0:
320,192,211428,1,0,0:0:0:0:
448,192,211462,128,0,211650:0:0:0:0:
192,192,211462,128,0,211667:0:0:0:0:
64,192,211462,128,0,211633:0:0:0:0:
448,192,211736,1,0,0:0:0:0:
64,192,211736,1,0,0:0:0:0:
192,192,211770,1,0,0:0:0:0:
320,192,211804,1,0,0:0:0:0:
64,192,211873,1,0,0:0:0:0:
192,192,211907,1,0,0:0:0:0:
320,192,211941,1,0,0:0:0:0:
448,192,212009,128,0,212163:0:0:0:0:
320,192,212009,128,0,212180:0:0:0:0:
192,192,212009,128,0,212198:0:0:0:0:
64,192,212009,128,0,212215:0:0:0:0:
448,192,212283,1,0,0:0:0:0:
64,192,212283,1,0,0:0:0:0:
320,192,212317,1,0,0:0:0:0:
192,192,212352,1,0,0:0:0:0:
448,192,212386,1,0,0:0:0:0:
64,192,212420,1,0,0:0:0:0:
192,192,212454,1,0,0:0:0:0:
320,192,212488,1,0,0:0:0:0:
448,192,212523,1,0,0:0:0:0:
192,192,212557,128,0,212602:0:0:0:0:
64,192,212557,128,0,212602:0:0:0:0:
448,192,212602,128,0,212648:0:0:0:0:
320,192,212648,128,0,212694:0:0:0:0:
192,192,212694,128,0,212739:0:0:0:0:
448,192,212739,128,0,212785:0:0:0:0:
64,192,212785,128,0,212831:0:0:0:0:
192,192,212831,128,0,212876:0:0:0:0:
320,192,212876,128,0,212922:0:0:0:0:
448,192,212922,128,0,212967:0:0:0:0:
192,192,212967,128,0,213013:0:0:0:0:
320,192,213013,128,0,213059:0:0:0:0:
192,192,213059,128,0,213104:0:0:0:0:
448,192,213104,1,0,0:0:0:0:
320,192,213104,1,0,0:0:0:0:
64,192,213104,1,0,0:0:0:0:
192,192,213150,1,0,0:0:0:0:
448,192,213196,1,0,0:0:0:0:
320,192,213241,1,0,0:0:0:0:
64,192,213287,1,0,0:0:0:0:
192,192,213332,1,0,0:0:0:0:
320,192,213378,1,0,0:0:0:0:
448,192,213378,1,0,0:0:0:0:
64,192,213378,1,0,0:0:0:0:
192,192,213446,1,0,0:0:0:0:
320,192,213515,1,0,0:0:0:0:
64,192,213583,1,0,0:0:0:0:
448,192,213652,1,0,0:0:0:0:
192,192,213720,1,0,0:0:0:0:
320,192,213789,1,0,0:0:0:0:
448,192,213789,1,0,0:0:0:0:
192,192,213857,1,0,0:0:0:0:
320,192,213925,1,0,0:0:0:0:
448,192,213925,1,0,0:0:0:0:
64,192,213925,1,0,0:0:0:0:
192,192,213994,1,0,0:0:0:0:
320,192,214062,1,0,0:0:0:0:
64,192,214131,1,0,0:0:0:0:
192,192,214199,1,0,0:0:0:0:
448,192,214199,1,0,0:0:0:0:
320,192,214268,1,0,0:0:0:0:
64,192,214336,1,0,0:0:0:0:
448,192,214404,1,0,0:0:0:0:
320,192,214473,1,0,0:0:0:0:
192,192,214473,1,0,0:0:0:0:
64,192,214473,1,0,0:0:0:0:
448,192,214541,1,0,0:0:0:0:
192,192,214610,1,0,0:0:0:0:
320,192,214678,1,0,0:0:0:0:
64,192,214747,1,0,0:0:0:0:
448,192,214815,1,0,0:0:0:0:
64,192,214883,1,0,0:0:0:0:
192,192,214883,1,0,0:0:0:0:
320,192,214952,1,0,0:0:0:0:
448,192,215020,1,0,0:0:0:0:
192,192,215020,1,0,0:0:0:0:
64,192,215020,1,0,0:0:0:0:
320,192,215089,1,0,0:0:0:0:
192,192,215157,1,0,0:0:0:0:
448,192,215226,1,0,0:0:0:0:
320,192,215294,1,0,0:0:0:0:
64,192,215294,1,0,0:0:0:0:
192,192,215362,1,0,0:0:0:0:
448,192,215431,1,0,0:0:0:0:
320,192,215499,1,0,0:0:0:0:
192,192,215568,1,0,0:0:0:0:
64,192,215568,1,0,0:0:0:0:
448,192,215568,1,0,0:0:0:0:
320,192,215636,1,0,0:0:0:0:
192,192,215705,1,0,0:0:0:0:
64,192,215773,1,0,0:0:0:0:
448,192,215842,1,0,0:0:0:0:
320,192,215910,1,0,0:0:0:0:
192,192,215978,1,0,0:0:0:0:
64,192,215978,1,0,0:0:0:0:
320,192,216047,1,0,0:0:0:0:
448,192,216115,1,0,0:0:0:0:
192,192,216115,1,0,0:0:0:0:
64,192,216115,1,0,0:0:0:0:
320,192,216184,1,0,0:0:0:0:
192,192,216252,1,0,0:0:0:0:
448,192,216321,1,0,0:0:0:0:
64,192,216389,1,0,0:0:0:0:
320,192,216389,1,0,0:0:0:0:
192,192,216457,1,0,0:0:0:0:
448,192,216526,1,0,0:0:0:0:
64,192,216594,1,0,0:0:0:0:
192,192,216663,1,0,0:0:0:0:
320,192,216663,1,0,0:0:0:0:
448,192,216663,1,0,0:0:0:0:
64,192,216731,1,0,0:0:0:0:
320,192,216800,1,0,0:0:0:0:
192,192,216868,1,0,0:0:0:0:
448,192,216936,1,0,0:0:0:0:
320,192,217005,1,0,0:0:0:0:
192,192,217073,1,0,0:0:0:0:
64,192,217073,1,0,0:0:0:0:
320,192,217142,1,0,0:0:0:0:
448,192,217210,1,0,0:0:0:0:
192,192,217210,1,0,0:0:0:0:
64,192,217210,1,0,0:0:0:0:
320,192,217279,1,0,0:0:0:0:
64,192,217347,1,0,0:0:0:0:
192,192,217415,1,0,0:0:0:0:
320,192,217484,1,0,0:0:0:0:
448,192,217484,1,0,0:0:0:0:
64,192,217484,1,0,0:0:0:0:
192,192,217529,1,0,0:0:0:0:
320,192,217575,1,0,0:0:0:0:
64,192,217621,1,0,0:0:0:0:
448,192,217666,1,0,0:0:0:0:
320,192,217712,1,0,0:0:0:0:
192,192,217758,1,0,0:0:0:0:
64,192,217758,1,0,0:0:0:0:
448,192,217758,1,0,0:0:0:0:
320,192,217826,1,0,0:0:0:0:
64,192,217894,1,0,0:0:0:0:
448,192,217963,1,0,0:0:0:0:
192,192,218031,1,0,0:0:0:0:
320,192,218100,1,0,0:0:0:0:
448,192,218168,1,0,0:0:0:0:
64,192,218168,1,0,0:0:0:0:
192,192,218237,1,0,0:0:0:0:
320,192,218305,1,0,0:0:0:0:
448,192,218305,1,0,0:0:0:0:
64,192,218305,1,0,0:0:0:0:
192,192,218373,1,0,0:0:0:0:
320,192,218442,1,0,0:0:0:0:
64,192,218510,1,0,0:0:0:0:
192,192,218579,1,0,0:0:0:0:
448,192,218579,1,0,0:0:0:0:
320,192,218647,1,0,0:0:0:0:
64,192,218716,1,0,0:0:0:0:
448,192,218784,1,0,0:0:0:0:
320,192,218852,1,0,0:0:0:0:
192,192,218852,1,0,0:0:0:0:
64,192,218852,1,0,0:0:0:0:
448,192,218921,1,0,0:0:0:0:
192,192,218989,1,0,0:0:0:0:
320,192,219058,1,0,0:0:0:0:
64,192,219126,1,0,0:0:0:0:
192,192,219195,1,0,0:0:0:0:
320,192,219263,1,0,0:0:0:0:
448,192,219263,1,0,0:0:0:0:
192,192,219331,1,0,0:0:0:0:
64,192,219400,1,0,0:0:0:0:
320,192,219400,1,0,0:0:0:0:
448,192,219400,1,0,0:0:0:0:
192,192,219468,1,0,0:0:0:0:
448,192,219537,1,0,0:0:0:0:
320,192,219605,1,0,0:0:0:0:
64,192,219674,128,0,219879:0:0:0:0:
192,192,219674,128,0,219862:0:0:0:0:
448,192,219674,128,0,219828:0:0:0:0:
320,192,219674,128,0,219845:0:0:0:0:
64,192,219947,1,0,0:0:0:0:
448,192,219947,1,0,0:0:0:0:
192,192,219982,1,0,0:0:0:0:
320,192,220016,1,0,0:0:0:0:
448,192,220050,1,0,0:0:0:0:
64,192,220084,1,0,0:0:0:0:
192,192,220118,1,0,0:0:0:0:
320,192,220153,1,0,0:0:0:0:
192,192,220187,1,0,0:0:0:0:
64,192,220221,128,0,220409:0:0:0:0:
320,192,220221,128,0,220426:0:0:0:0:
448,192,220221,128,0,220392:0:0:0:0:
64,192,220495,1,0,0:0:0:0:
448,192,220495,1,0,0:0:0:0:
320,192,220529,1,0,0:0:0:0:
192,192,220563,1,0,0:0:0:0:
448,192,220632,1,0,0:0:0:0:
320,192,220666,1,0,0:0:0:0:
192,192,220700,1,0,0:0:0:0:
64,192,220769,128,0,220922:0:0:0:0:
192,192,220769,128,0,220940:0:0:0:0:
320,192,220769,128,0,220957:0:0:0:0:
448,192,220769,128,0,220974:0:0:0:0:
64,192,221042,1,0,0:0:0:0:
448,192,221042,1,0,0:0:0:0:
192,192,221076,1,0,0:0:0:0:
320,192,221111,1,0,0:0:0:0:
64,192,221145,1,0,0:0:0:0:
448,192,221179,1,0,0:0:0:0:
320,192,221213,1,0,0:0:0:0:
192,192,221248,1,0,0:0:0:0:
64,192,221282,1,0,0:0:0:0:
320,192,221316,128,0,221350:0:0:0:0:
448,192,221316,128,0,221350:0:0:0:0:
192,192,221350,128,0,221384:0:0:0:0:
64,192,221384,128,0,221419:0:0:0:0:
448,192,221419,128,0,221453:0:0:0:0:
320,192,221453,128,0,221487:0:0:0:0:
64,192,221487,128,0,221521:0:0:0:0:
192,192,221521,128,0,221555:0:0:0:0:
320,192,221555,128,0,221590:0:0:0:0:
448,192,221590,128,0,221624:0:0:0:0:
192,192,221624,128,0,221658:0:0:0:0:
64,192,221658,128,0,221692:0:0:0:0:
320,192,221692,128,0,221727:0:0:0:0:
192,192,221727,128,0,221761:0:0:0:0:
448,192,221761,128,0,221795:0:0:0:0:
320,192,221795,128,0,221829:0:0:0:0:
192,192,221829,128,0,221863:0:0:0:0:
448,192,221863,1,0,0:0:0:0:
64,192,221863,128,0,222958:0:0:0:0:
320,192,221863,1,0,0:0:0:0:
320,192,222274,1,0,0:0:0:0:
448,192,222274,1,0,0:0:0:0:
192,192,222411,1,0,0:0:0:0:
320,192,222411,1,0,0:0:0:0:
448,192,222411,1,0,0:0:0:0:
448,192,222821,1,0,0:0:0:0:
192,192,222958,128,0,223506:0:0:0:0:
448,192,223095,1,0,0:0:0:0:
320,192,223095,1,0,0:0:0:0:
64,192,223164,1,0,0:0:0:0:
448,192,223232,1,0,0:0:0:0:
320,192,223232,1,0,0:0:0:0:
64,192,223369,1,0,0:0:0:0:
448,192,223369,1,0,0:0:0:0:
320,192,223506,128,0,224053:0:0:0:0:
448,192,223506,1,0,0:0:0:0:
64,192,223506,1,0,0:0:0:0:
192,192,223779,1,0,0:0:0:0:
448,192,224053,128,0,224874:0:0:0:0:
64,192,224053,1,0,0:0:0:0:
192,192,224053,1,0,0:0:0:0:
192,192,224327,1,0,0:0:0:0:
64,192,224327,1,0,0:0:0:0:
64,192,224601,128,0,225148:0:0:0:0:
192,192,224601,1,0,0:0:0:0:
320,192,224601,1,0,0:0:0:0:
320,192,224874,1,0,0:0:0:0:
448,192,225011,1,0,0:0:0:0:
192,192,225148,128,0,225696:0:0:0:0:
64,192,225285,1,0,0:0:0:0:
448,192,225285,1,0,0:0:0:0:
320,192,225353,1,0,0:0:0:0:
64,192,225422,1,0,0:0:0:0:
448,192,225422,1,0,0:0:0:0:
320,192,225559,1,0,0:0:0:0:
448,192,225559,1,0,0:0:0:0:
320,192,225696,128,0,226243:0:0:0:0:
64,192,225696,128,0,225969:0:0:0:0:
448,192,225696,1,0,0:0:0:0:
192,192,225832,1,0,0:0:0:0:
448,192,225832,1,0,0:0:0:0:
448,192,225969,128,0,226243:0:0:0:0:
192,192,226106,1,0,0:0:0:0:
64,192,226106,1,0,0:0:0:0:
64,192,226243,128,0,227201:0:0:0:0:
192,192,226243,128,0,227201:0:0:0:0:
320,192,226517,1,0,0:0:0:0:
320,192,226654,1,0,0:0:0:0:
448,192,226654,1,0,0:0:0:0:
448,192,226790,1,0,0:0:0:0:
320,192,226790,1,0,0:0:0:0:
448,192,227064,1,0,0:0:0:0:
320,192,227201,1,0,0:0:0:0:
64,192,227338,128,0,227748:0:0:0:0:
448,192,227338,128,0,227748:0:0:0:0:
192,192,227475,1,0,0:0:0:0:
320,192,227543,1,0,0:0:0:0:
192,192,227612,1,0,0:0:0:0:
320,192,227748,1,0,0:0:0:0:
192,192,227748,1,0,0:0:0:0:
320,192,227885,128,0,228296:0:0:0:0:
448,192,227885,128,0,228296:0:0:0:0:
64,192,227885,1,0,0:0:0:0:
64,192,228159,1,0,0:0:0:0:
64,192,228433,128,0,229391:0:0:0:0:
192,192,228433,128,0,229391:0:0:0:0:
320,192,228433,1,0,0:0:0:0:
448,192,228433,1,0,0:0:0:0:
320,192,228706,1,0,0:0:0:0:
448,192,228706,1,0,0:0:0:0:
320,192,228980,1,0,0:0:0:0:
448,192,228980,1,0,0:0:0:0:
448,192,229391,1,0,0:0:0:0:
320,192,229528,128,0,230212:0:0:0:0:
448,192,229528,128,0,230212:0:0:0:0:
64,192,229664,1,0,0:0:0:0:
192,192,229733,1,0,0:0:0:0:
64,192,229801,1,0,0:0:0:0:
192,192,229938,1,0,0:0:0:0:
64,192,230007,1,0,0:0:0:0:
192,192,230075,1,0,0:0:0:0:
192,192,230212,1,0,0:0:0:0:
64,192,230212,1,0,0:0:0:0:
320,192,230349,1,0,0:0:0:0:
448,192,230486,1,0,0:0:0:0:
64,192,230486,1,0,0:0:0:0:
64,192,230623,1,0,0:0:0:0:
320,192,230623,1,0,0:0:0:0:
448,192,230623,1,0,0:0:0:0:
192,192,230623,128,0,231717:0:0:0:0:
320,192,230896,1,0,0:0:0:0:
64,192,231033,1,0,0:0:0:0:
448,192,231033,1,0,0:0:0:0:
320,192,231170,1,0,0:0:0:0:
448,192,231170,1,0,0:0:0:0:
64,192,231170,1,0,0:0:0:0:
64,192,231581,1,0,0:0:0:0:
320,192,231717,128,0,232265:0:0:0:0:
192,192,231854,1,0,0:0:0:0:
64,192,231854,1,0,0:0:0:0:
448,192,231923,1,0,0:0:0:0:
192,192,231991,1,0,0:0:0:0:
64,192,231991,1,0,0:0:0:0:
64,192,232128,1,0,0:0:0:0:
448,192,232128,1,0,0:0:0:0:
448,192,232265,128,0,232812:0:0:0:0:
192,192,232265,1,0,0:0:0:0:
64,192,232265,1,0,0:0:0:0:
320,192,232539,1,0,0:0:0:0:
64,192,232812,128,0,233633:0:0:0:0:
192,192,232812,1,0,0:0:0:0:
320,192,233086,1,0,0:0:0:0:
448,192,233086,1,0,0:0:0:0:
448,192,233360,128,0,233907:0:0:0:0:
192,192,233360,1,0,0:0:0:0:
320,192,233360,1,0,0:0:0:0:
192,192,233633,1,0,0:0:0:0:
64,192,233770,1,0,0:0:0:0:
320,192,233907,128,0,234455:0:0:0:0:
64,192,234044,1,0,0:0:0:0:
448,192,234044,1,0,0:0:0:0:
192,192,234112,1,0,0:0:0:0:
64,192,234181,1,0,0:0:0:0:
448,192,234181,1,0,0:0:0:0:
64,192,234318,1,0,0:0:0:0:
192,192,234318,1,0,0:0:0:0:
448,192,234386,1,0,0:0:0:0:
192,192,234455,128,0,235002:0:0:0:0:
64,192,234455,128,0,235002:0:0:0:0:
320,192,234592,1,0,0:0:0:0:
448,192,234592,1,0,0:0:0:0:
320,192,234865,1,0,0:0:0:0:
448,192,234865,1,0,0:0:0:0:
448,192,235002,1,0,0:0:0:0:
320,192,235002,1,0,0:0:0:0:
192,192,235139,1,0,0:0:0:0:
448,192,235139,1,0,0:0:0:0:
320,192,235276,1,0,0:0:0:0:
64,192,235276,1,0,0:0:0:0:
192,192,235413,1,0,0:0:0:0:
64,192,235413,1,0,0:0:0:0:
192,192,235550,1,0,0:0:0:0:
320,192,235550,1,0,0:0:0:0:
448,192,235550,1,0,0:0:0:0:
64,192,235686,1,0,0:0:0:0:
448,192,235686,1,0,0:0:0:0:
192,192,235823,1,0,0:0:0:0:
64,192,235823,1,0,0:0:0:0:
192,192,235960,1,0,0:0:0:0:
448,192,235960,1,0,0:0:0:0:
320,192,236097,1,0,0:0:0:0:
448,192,236097,1,0,0:0:0:0:
192,192,236165,1,0,0:0:0:0:
64,192,236165,1,0,0:0:0:0:
320,192,236234,1,0,0:0:0:0:
448,192,236234,1,0,0:0:0:0:
192,192,236302,1,0,0:0:0:0:
64,192,236302,1,0,0:0:0:0:
320,192,236371,1,0,0:0:0:0:
448,192,236371,1,0,0:0:0:0:
64,192,236405,1,0,0:0:0:0:
192,192,236439,1,0,0:0:0:0:
448,192,236473,1,0,0:0:0:0:
320,192,236508,1,0,0:0:0:0:
192,192,236542,1,0,0:0:0:0:
64,192,236576,1,0,0:0:0:0:
448,192,236576,1,0,0:0:0:0:
320,192,236610,1,0,0:0:0:0:
192,192,236644,1,0,0:0:0:0:
64,192,236644,1,0,0:0:0:0:
320,192,236713,1,0,0:0:0:0:
448,192,236713,1,0,0:0:0:0:
192,192,236781,1,0,0:0:0:0:
64,192,236781,1,0,0:0:0:0:
320,192,236850,1,0,0:0:0:0:
448,192,236850,1,0,0:0:0:0:
192,192,236918,1,0,0:0:0:0:
64,192,236918,1,0,0:0:0:0:
448,192,236952,1,0,0:0:0:0:
320,192,236987,1,0,0:0:0:0:
64,192,237021,1,0,0:0:0:0:
192,192,237055,1,0,0:0:0:0:
448,192,237089,1,0,0:0:0:0:
320,192,237123,1,0,0:0:0:0:
192,192,237158,1,0,0:0:0:0:
64,192,237192,1,0,0:0:0:0:
448,192,237192,1,0,0:0:0:0:
64,192,237329,1,0,0:0:0:0:
192,192,237329,1,0,0:0:0:0:
320,192,237329,1,0,0:0:0:0:
448,192,237329,1,0,0:0:0:0:
64,192,237466,1,0,0:0:0:0:
192,192,237466,1,0,0:0:0:0:
320,192,237466,1,0,0:0:0:0:
448,192,237466,1,0,0:0:0:0:
64,192,237739,1,0,0:0:0:0:
192,192,237739,1,0,0:0:0:0:
448,192,237739,1,0,0:0:0:0:
320,192,237739,1,0,0:0:0:0:
64,192,237876,1,0,0:0:0:0:
192,192,237876,1,0,0:0:0:0:
320,192,237876,1,0,0:0:0:0:
448,192,237876,1,0,0:0:0:0:
192,192,238150,1,0,0:0:0:0:
320,192,238150,1,0,0:0:0:0:
64,192,238150,1,0,0:0:0:0:
448,192,238150,1,0,0:0:0:0:
64,192,238287,1,0,0:0:0:0:
192,192,238287,1,0,0:0:0:0:
448,192,238287,1,0,0:0:0:0:
320,192,238287,1,0,0:0:0:0:
448,192,238560,1,0,0:0:0:0:
64,192,238560,1,0,0:0:0:0:
192,192,238560,1,0,0:0:0:0:
320,192,238560,1,0,0:0:0:0:
320,192,238697,1,0,0:0:0:0:
64,192,238697,1,0,0:0:0:0:
448,192,238697,1,0,0:0:0:0:
192,192,238697,1,0,0:0:0:0:
64,192,238834,1,0,0:0:0:0:
448,192,238834,1,0,0:0:0:0:
320,192,238971,128,0,239450:0:0:0:0:
448,192,238971,128,0,239450:0:0:0:0:
64,192,239108,128,0,239450:0:0:0:0:
192,192,239108,128,0,239450:0:0:0:0:
64,192,239519,1,0,0:0:0:0:
448,192,239519,1,0,0:0:0:0:
192,192,239519,1,0,0:0:0:0:
320,192,239519,1,0,0:0:0:0:
448,192,239655,1,0,0:0:0:0:
320,192,239655,1,0,0:0:0:0:
64,192,239655,1,0,0:0:0:0:
192,192,239655,1,0,0:0:0:0:
192,192,239929,1,0,0:0:0:0:
320,192,239929,1,0,0:0:0:0:
448,192,239929,1,0,0:0:0:0:
64,192,239929,1,0,0:0:0:0:
448,192,240066,1,0,0:0:0:0:
192,192,240066,1,0,0:0:0:0:
320,192,240066,1,0,0:0:0:0:
64,192,240066,1,0,0:0:0:0:
192,192,240340,1,0,0:0:0:0:
320,192,240340,1,0,0:0:0:0:
64,192,240340,1,0,0:0:0:0:
448,192,240340,1,0,0:0:0:0:
64,192,240477,1,0,0:0:0:0:
192,192,240477,1,0,0:0:0:0:
448,192,240477,1,0,0:0:0:0:
320,192,240477,1,0,0:0:0:0:
448,192,240750,1,0,0:0:0:0:
64,192,240750,1,0,0:0:0:0:
192,192,240750,1,0,0:0:0:0:
320,192,240750,1,0,0:0:0:0:
320,192,240887,1,0,0:0:0:0:
64,192,240887,1,0,0:0:0:0:
448,192,240887,1,0,0:0:0:0:
192,192,240887,1,0,0:0:0:0:
192,192,241024,128,0,241092:0:0:0:0:
320,192,241092,128,0,241161:0:0:0:0:
448,192,241161,128,0,241229:0:0:0:0:
320,192,241229,128,0,241298:0:0:0:0:
192,192,241298,128,0,241366:0:0:0:0:
64,192,241366,128,0,241435:0:0:0:0:
192,192,241435,128,0,241503:0:0:0:0:
320,192,241503,128,0,241571:0:0:0:0:
64,192,241571,5,0,0:0:0:0:
448,192,241571,1,0,0:0:0:0:
192,192,241571,1,0,0:0:0:0:
320,192,242119,128,0,242575:0:0:0:0:
448,192,242119,128,0,242393:0:0:0:0:
192,192,242210,128,0,242301:0:0:0:0:
64,192,242301,128,0,242484:0:0:0:0:
192,192,242393,128,0,242575:0:0:0:0:
448,192,242484,128,0,242666:0:0:0:0:
64,192,242575,128,0,242849:0:0:0:0:
320,192,242666,128,0,242758:0:0:0:0:
192,192,242666,128,0,243123:0:0:0:0:
448,192,242758,128,0,242940:0:0:0:0:
320,192,242849,128,0,243031:0:0:0:0:
64,192,242940,128,0,243123:0:0:0:0:
448,192,243031,128,0,243214:0:0:0:0:
320,192,243123,128,0,243214:0:0:0:0:
192,192,243214,128,0,243351:0:0:0:0:
64,192,243214,128,0,243419:0:0:0:0:
320,192,243351,1,0,0:0:0:0:
448,192,243351,1,0,0:0:0:0:
192,192,243419,1,0,0:0:0:0:
320,192,243487,1,0,0:0:0:0:
448,192,243487,1,0,0:0:0:0:
64,192,243487,1,0,0:0:0:0:
448,192,243761,128,0,243898:0:0:0:0:
192,192,243761,128,0,243830:0:0:0:0:
64,192,243761,128,0,243967:0:0:0:0:
320,192,243830,128,0,243967:0:0:0:0:
192,192,243898,128,0,243967:0:0:0:0:
448,192,243967,128,0,244035:0:0:0:0:
320,192,244035,128,0,244240:0:0:0:0:
192,192,244035,128,0,244172:0:0:0:0:
64,192,244035,128,0,244103:0:0:0:0:
448,192,244103,128,0,244240:0:0:0:0:
64,192,244172,128,0,244240:0:0:0:0:
192,192,244240,128,0,244309:0:0:0:0:
320,192,244309,128,0,244377:0:0:0:0:
448,192,244309,128,0,244514:0:0:0:0:
64,192,244309,128,0,244446:0:0:0:0:
192,192,244377,128,0,244514:0:0:0:0:
320,192,244446,128,0,244514:0:0:0:0:
64,192,244514,128,0,244582:0:0:0:0:
448,192,244582,128,0,244788:0:0:0:0:
320,192,244582,128,0,244651:0:0:0:0:
192,192,244582,128,0,244719:0:0:0:0:
64,192,244651,128,0,244788:0:0:0:0:
320,192,244719,128,0,244788:0:0:0:0:
192,192,244788,128,0,244856:0:0:0:0:
320,192,244856,128,0,245061:0:0:0:0:
64,192,244856,128,0,244925:0:0:0:0:
448,192,244856,128,0,244993:0:0:0:0:
192,192,244925,128,0,245061:0:0:0:0:
64,192,244993,128,0,245061:0:0:0:0:
448,192,245061,128,0,245130:0:0:0:0:
192,192,245130,128,0,245335:0:0:0:0:
320,192,245130,128,0,245267:0:0:0:0:
64,192,245130,128,0,245198:0:0:0:0:
448,192,245198,128,0,245335:0:0:0:0:
64,192,245267,128,0,245335:0:0:0:0:
320,192,245335,128,0,245404:0:0:0:0:
64,192,245404,128,0,245609:0:0:0:0:
448,192,245404,128,0,245472:0:0:0:0:
192,192,245404,128,0,245540:0:0:0:0:
320,192,245472,128,0,245609:0:0:0:0:
448,192,245540,128,0,245609:0:0:0:0:
192,192,245609,128,0,245677:0:0:0:0:
448,192,245677,128,0,245883:0:0:0:0:
320,192,245677,128,0,245814:0:0:0:0:
64,192,245677,128,0,245746:0:0:0:0:
192,192,245746,128,0,245883:0:0:0:0:
64,192,245814,128,0,245883:0:0:0:0:
320,192,245883,128,0,245951:0:0:0:0:
64,192,245951,128,0,246362:0:0:0:0:
192,192,245951,128,0,246088:0:0:0:0:
448,192,245951,128,0,246019:0:0:0:0:
320,192,246019,128,0,246156:0:0:0:0:
448,192,246088,128,0,246156:0:0:0:0:
192,192,246156,128,0,246225:0:0:0:0:
320,192,246225,128,0,246293:0:0:0:0:
448,192,246225,128,0,246430:0:0:0:0:
192,192,246293,128,0,246430:0:0:0:0:
320,192,246362,128,0,246430:0:0:0:0:
64,192,246430,128,0,246498:0:0:0:0:
192,192,246498,128,0,246909:0:0:0:0:
320,192,246498,128,0,246635:0:0:0:0:
448,192,246498,128,0,246567:0:0:0:0:
64,192,246567,128,0,246704:0:0:0:0:
448,192,246635,128,0,246704:0:0:0:0:
320,192,246704,128,0,246772:0:0:0:0:
448,192,246772,128,0,246977:0:0:0:0:
64,192,246772,128,0,246841:0:0:0:0:
320,192,246841,128,0,246977:0:0:0:0:
64,192,246909,128,0,246977:0:0:0:0:
192,192,246977,128,0,247046:0:0:0:0:
320,192,247046,128,0,247456:0:0:0:0:
64,192,247046,128,0,247251:0:0:0:0:
448,192,247046,128,0,247114:0:0:0:0:
192,192,247114,128,0,247183:0:0:0:0:
448,192,247183,128,0,247251:0:0:0:0:
192,192,247251,128,0,247320:0:0:0:0:
64,192,247320,128,0,247388:0:0:0:0:
448,192,247320,128,0,247525:0:0:0:0:
192,192,247388,128,0,247525:0:0:0:0:
64,192,247456,128,0,247525:0:0:0:0:
320,192,247525,128,0,247593:0:0:0:0:
448,192,247593,128,0,248072:0:0:0:0:
192,192,247593,128,0,247662:0:0:0:0:
64,192,247593,128,0,247730:0:0:0:0:
320,192,247662,128,0,247799:0:0:0:0:
192,192,247730,128,0,247799:0:0:0:0:
64,192,247799,128,0,247867:0:0:0:0:
320,192,247867,128,0,247935:0:0:0:0:
192,192,247867,128,0,248004:0:0:0:0:
64,192,247935,128,0,248072:0:0:0:0:
320,192,248004,128,0,248072:0:0:0:0:
192,192,248072,128,0,248141:0:0:0:0:
320,192,248141,128,0,248278:0:0:0:0:
448,192,248141,128,0,248209:0:0:0:0:
64,192,248141,128,0,248346:0:0:0:0:
192,192,248209,128,0,248346:0:0:0:0:
448,192,248278,128,0,248346:0:0:0:0:
320,192,248346,128,0,248414:0:0:0:0:
192,192,248414,128,0,248620:0:0:0:0:
64,192,248414,128,0,248483:0:0:0:0:
448,192,248414,128,0,248551:0:0:0:0:
320,192,248483,128,0,248620:0:0:0:0:
64,192,248551,128,0,248620:0:0:0:0:
448,192,248620,128,0,248688:0:0:0:0:
320,192,248688,128,0,248894:0:0:0:0:
192,192,248688,128,0,248757:0:0:0:0:
64,192,248688,128,0,248825:0:0:0:0:
448,192,248757,128,0,248894:0:0:0:0:
192,192,248825,128,0,248894:0:0:0:0:
64,192,248894,128,0,248962:0:0:0:0:
448,192,248962,128,0,249167:0:0:0:0:
320,192,248962,128,0,249030:0:0:0:0:
192,192,248962,128,0,249099:0:0:0:0:
64,192,249030,128,0,249167:0:0:0:0:
320,192,249099,128,0,249167:0:0:0:0:
192,192,249167,128,0,249236:0:0:0:0:
320,192,249236,128,0,249441:0:0:0:0:
64,192,249236,128,0,249373:0:0:0:0:
448,192,249236,128,0,249304:0:0:0:0:
192,192,249304,128,0,249441:0:0:0:0:
448,192,249373,128,0,249441:0:0:0:0:
64,192,249441,128,0,249509:0:0:0:0:
192,192,249509,128,0,249715:0:0:0:0:
320,192,249509,128,0,249578:0:0:0:0:
448,192,249509,128,0,249646:0:0:0:0:
64,192,249578,128,0,249715:0:0:0:0:
320,192,249646,128,0,249715:0:0:0:0:
448,192,249715,128,0,249783:0:0:0:0:
64,192,249783,128,0,249988:0:0:0:0:
320,192,249783,128,0,249920:0:0:0:0:
192,192,249783,128,0,249852:0:0:0:0:
448,192,249852,128,0,249988:0:0:0:0:
192,192,249920,128,0,249988:0:0:0:0:
320,192,249988,128,0,250057:0:0:0:0:
448,192,250057,128,0,250262:0:0:0:0:
192,192,250057,128,0,250194:0:0:0:0:
64,192,250057,128,0,250125:0:0:0:0:
320,192,250125,128,0,250262:0:0:0:0:
64,192,250194,128,0,250262:0:0:0:0:
192,192,250262,128,0,250331:0:0:0:0:
320,192,250331,1,0,0:0:0:0:
448,192,250331,1,0,0:0:0:0:
64,192,250331,1,0,0:0:0:0:
192,192,250365,1,0,0:0:0:0:
448,192,250399,1,0,0:0:0:0:
320,192,250433,1,0,0:0:0:0:
192,192,250467,1,0,0:0:0:0:
448,192,250502,1,0,0:0:0:0:
64,192,250536,1,0,0:0:0:0:
192,192,250570,1,0,0:0:0:0:
448,192,250604,128,0,250810:0:0:0:0:
64,192,250604,128,0,250673:0:0:0:0:
320,192,250604,128,0,250673:0:0:0:0:
192,192,250673,128,0,250741:0:0:0:0:
64,192,250741,128,0,250810:0:0:0:0:
320,192,250741,128,0,250810:0:0:0:0:
192,192,250810,1,0,0:0:0:0:
320,192,250878,128,0,251083:0:0:0:0:
448,192,250878,128,0,250946:0:0:0:0:
64,192,250878,128,0,250946:0:0:0:0:
192,192,250946,128,0,251015:0:0:0:0:
448,192,251015,128,0,251083:0:0:0:0:
64,192,251015,1,0,0:0:0:0:
192,192,251083,1,0,0:0:0:0:
64,192,251083,1,0,0:0:0:0:
192,192,251152,128,0,251357:0:0:0:0:
320,192,251152,128,0,251220:0:0:0:0:
64,192,251152,128,0,251220:0:0:0:0:
448,192,251220,128,0,251289:0:0:0:0:
64,192,251289,128,0,251357:0:0:0:0:
320,192,251289,128,0,251357:0:0:0:0:
448,192,251357,1,0,0:0:0:0:
64,192,251425,128,0,251631:0:0:0:0:
448,192,251425,128,0,251494:0:0:0:0:
320,192,251425,128,0,251494:0:0:0:0:
192,192,251494,128,0,251562:0:0:0:0:
320,192,251562,128,0,251631:0:0:0:0:
448,192,251562,128,0,251631:0:0:0:0:
192,192,251631,1,0,0:0:0:0:
192,192,251699,128,0,251904:0:0:0:0:
448,192,251699,128,0,251768:0:0:0:0:
64,192,251699,128,0,251768:0:0:0:0:
320,192,251768,128,0,251836:0:0:0:0:
64,192,251836,128,0,251904:0:0:0:0:
448,192,251836,128,0,251904:0:0:0:0:
320,192,251904,1,0,0:0:0:0:
320,192,251973,128,0,252178:0:0:0:0:
192,192,251973,128,0,252041:0:0:0:0:
64,192,251973,128,0,252041:0:0:0:0:
448,192,252041,128,0,252110:0:0:0:0:
192,192,252110,128,0,252178:0:0:0:0:
64,192,252110,128,0,252178:0:0:0:0:
448,192,252178,1,0,0:0:0:0:
448,192,252247,128,0,252401:0:0:0:0:
320,192,252247,128,0,252418:0:0:0:0:
192,192,252247,128,0,252435:0:0:0:0:
64,192,252247,128,0,252452:0:0:0:0:
64,192,252520,128,0,252657:0:0:0:0:
320,192,252520,128,0,252589:0:0:0:0:
448,192,252520,128,0,252726:0:0:0:0:
192,192,252589,128,0,252726:0:0:0:0:
320,192,252657,128,0,252726:0:0:0:0:
64,192,252726,128,0,252794:0:0:0:0:
192,192,252794,128,0,252999:0:0:0:0:
320,192,252794,128,0,252931:0:0:0:0:
448,192,252794,128,0,252862:0:0:0:0:
64,192,252862,128,0,252999:0:0:0:0:
448,192,252931,128,0,252999:0:0:0:0:
320,192,252999,128,0,253068:0:0:0:0:
192,192,253068,128,0,253136:0:0:0:0:
64,192,253068,128,0,253273:0:0:0:0:
448,192,253068,128,0,253205:0:0:0:0:
320,192,253136,128,0,253273:0:0:0:0:
192,192,253205,128,0,253273:0:0:0:0:
448,192,253273,128,0,253342:0:0:0:0:
64,192,253342,128,0,253547:0:0:0:0:
192,192,253342,128,0,253410:0:0:0:0:
320,192,253342,128,0,253478:0:0:0:0:
448,192,253410,128,0,253547:0:0:0:0:
192,192,253478,128,0,253547:0:0:0:0:
320,192,253547,128,0,253615:0:0:0:0:
192,192,253615,128,0,253821:0:0:0:0:
448,192,253615,128,0,253684:0:0:0:0:
64,192,253615,128,0,253752:0:0:0:0:
320,192,253684,128,0,253821:0:0:0:0:
448,192,253752,128,0,253821:0:0:0:0:
64,192,253821,128,0,253889:0:0:0:0:
320,192,253889,128,0,254094:0:0:0:0:
192,192,253889,128,0,254026:0:0:0:0:
448,192,253889,128,0,253957:0:0:0:0:
64,192,253957,128,0,254094:0:0:0:0:
448,192,254026,128,0,254094:0:0:0:0:
192,192,254094,128,0,254163:0:0:0:0:
448,192,254163,128,0,254368:0:0:0:0:
64,192,254163,128,0,254231:0:0:0:0:
320,192,254163,128,0,254300:0:0:0:0:
192,192,254231,128,0,254368:0:0:0:0:
64,192,254300,128,0,254368:0:0:0:0:
320,192,254368,128,0,254436:0:0:0:0:
64,192,254436,128,0,254642:0:0:0:0:
192,192,254436,128,0,254573:0:0:0:0:
448,192,254436,128,0,254505:0:0:0:0:
320,192,254505,128,0,254642:0:0:0:0:
448,192,254573,128,0,254642:0:0:0:0:
192,192,254642,128,0,254710:0:0:0:0:
448,192,254710,128,0,255189:0:0:0:0:
320,192,254710,128,0,254847:0:0:0:0:
64,192,254710,128,0,254779:0:0:0:0:
192,192,254779,128,0,254915:0:0:0:0:
64,192,254847,128,0,254915:0:0:0:0:
320,192,254915,128,0,254984:0:0:0:0:
192,192,254984,128,0,255121:0:0:0:0:
64,192,254984,128,0,255052:0:0:0:0:
320,192,255052,128,0,255189:0:0:0:0:
64,192,255121,128,0,255189:0:0:0:0:
192,192,255189,128,0,255258:0:0:0:0:
320,192,255258,128,0,255737:0:0:0:0:
448,192,255258,128,0,255326:0:0:0:0:
64,192,255258,128,0,255394:0:0:0:0:
192,192,255326,128,0,255394:0:0:0:0:
448,192,255394,128,0,255463:0:0:0:0:
192,192,255463,128,0,255531:0:0:0:0:
64,192,255463,128,0,255600:0:0:0:0:
448,192,255531,128,0,255668:0:0:0:0:
192,192,255600,128,0,255737:0:0:0:0:
64,192,255668,128,0,255737:0:0:0:0:
448,192,255737,128,0,255805:0:0:0:0:
192,192,255805,128,0,256284:0:0:0:0:
320,192,255805,128,0,255873:0:0:0:0:
64,192,255805,128,0,255942:0:0:0:0:
448,192,255873,128,0,256010:0:0:0:0:
320,192,255942,128,0,256010:0:0:0:0:
64,192,256010,128,0,256079:0:0:0:0:
320,192,256079,128,0,256216:0:0:0:0:
448,192,256079,128,0,256147:0:0:0:0:
64,192,256147,128,0,256284:0:0:0:0:
448,192,256216,128,0,256284:0:0:0:0:
320,192,256284,128,0,256352:0:0:0:0:
64,192,256352,128,0,256626:0:0:0:0:
192,192,256352,128,0,256421:0:0:0:0:
448,192,256352,128,0,256489:0:0:0:0:
320,192,256421,128,0,256558:0:0:0:0:
192,192,256489,128,0,256558:0:0:0:0:
448,192,256558,128,0,256695:0:0:0:0:
192,192,256626,128,0,256900:0:0:0:0:
320,192,256626,128,0,256831:0:0:0:0:
64,192,256695,128,0,256763:0:0:0:0:
448,192,256763,128,0,256831:0:0:0:0:
64,192,256831,128,0,256968:0:0:0:0:
320,192,256900,128,0,257447:0:0:0:0:
448,192,256900,128,0,257105:0:0:0:0:
192,192,256968,128,0,257037:0:0:0:0:
64,192,257037,128,0,257105:0:0:0:0:
192,192,257105,128,0,257174:0:0:0:0:
64,192,257174,128,0,257310:0:0:0:0:
448,192,257174,128,0,257242:0:0:0:0:
192,192,257242,128,0,257379:0:0:0:0:
448,192,257310,128,0,257379:0:0:0:0:
64,192,257379,128,0,257516:0:0:0:0:
448,192,257447,128,0,257516:0:0:0:0:
192,192,257447,128,0,257584:0:0:0:0:
320,192,257516,128,0,257653:0:0:0:0:
448,192,257584,128,0,257653:0:0:0:0:
64,192,257584,128,0,257653:0:0:0:0:
192,192,257653,128,0,257721:0:0:0:0:
448,192,257721,128,0,257789:0:0:0:0:
320,192,257721,128,0,257858:0:0:0:0:
64,192,257721,128,0,257789:0:0:0:0:
192,192,257789,128,0,257926:0:0:0:0:
64,192,257858,128,0,257926:0:0:0:0:
448,192,257858,128,0,257926:0:0:0:0:
320,192,257926,128,0,257995:0:0:0:0:
448,192,257995,128,0,258063:0:0:0:0:
192,192,257995,128,0,258063:0:0:0:0:
64,192,257995,128,0,258063:0:0:0:0:
320,192,258063,128,0,258132:0:0:0:0:
448,192,258132,128,0,258269:0:0:0:0:
192,192,258132,128,0,258269:0:0:0:0:
64,192,258132,128,0,258200:0:0:0:0:
320,192,258200,128,0,258269:0:0:0:0:
64,192,258269,128,0,258337:0:0:0:0:
192,192,258337,128,0,258474:0:0:0:0:
320,192,258337,128,0,258474:0:0:0:0:
448,192,258337,128,0,258405:0:0:0:0:
64,192,258405,128,0,258474:0:0:0:0:
448,192,258474,128,0,258542:0:0:0:0:
320,192,258542,128,0,258679:0:0:0:0:
64,192,258542,128,0,258679:0:0:0:0:
192,192,258542,128,0,258611:0:0:0:0:
448,192,258611,128,0,258679:0:0:0:0:
192,192,258679,128,0,258748:0:0:0:0:
320,192,258748,128,0,258816:0:0:0:0:
448,192,258748,128,0,258884:0:0:0:0:
64,192,258748,128,0,258884:0:0:0:0:
192,192,258816,128,0,258884:0:0:0:0:
320,192,258884,128,0,258953:0:0:0:0:
448,192,258953,128,0,259021:0:0:0:0:
192,192,258953,128,0,259090:0:0:0:0:
64,192,258953,128,0,259021:0:0:0:0:
320,192,259021,128,0,259158:0:0:0:0:
64,192,259090,128,0,259158:0:0:0:0:
448,192,259090,128,0,259158:0:0:0:0:
192,192,259158,1,0,0:0:0:0:
192,192,259227,1,0,0:0:0:0:
64,192,259227,1,0,0:0:0:0:
320,192,259227,1,0,0:0:0:0:
448,192,259227,1,0,0:0:0:0:
64,192,259363,1,0,0:0:0:0:
192,192,259363,1,0,0:0:0:0:
320,192,259363,1,0,0:0:0:0:
448,192,259363,1,0,0:0:0:0:
64,192,259637,1,0,0:0:0:0:
192,192,259637,1,0,0:0:0:0:
320,192,259637,1,0,0:0:0:0:
448,192,259637,1,0,0:0:0:0:
448,192,259774,1,0,0:0:0:0:
320,192,259774,1,0,0:0:0:0:
192,192,259774,1,0,0:0:0:0:
64,192,259774,1,0,0:0:0:0:
64,192,260048,1,0,0:0:0:0:
192,192,260048,1,0,0:0:0:0:
320,192,260048,1,0,0:0:0:0:
448,192,260048,1,0,0:0:0:0:
64,192,260185,1,0,0:0:0:0:
192,192,260185,1,0,0:0:0:0:
320,192,260185,1,0,0:0:0:0:
448,192,260185,1,0,0:0:0:0:
64,192,260458,1,0,0:0:0:0:
192,192,260458,1,0,0:0:0:0:
320,192,260458,1,0,0:0:0:0:
448,192,260458,1,0,0:0:0:0:
448,192,260595,1,0,0:0:0:0:
320,192,260595,1,0,0:0:0:0:
192,192,260595,1,0,0:0:0:0:
64,192,260595,1,0,0:0:0:0:
192,192,260869,128,0,260937:0:0:0:0:
320,192,260937,128,0,261006:0:0:0:0:
192,192,261006,128,0,261074:0:0:0:0:
320,192,261074,128,0,261143:0:0:0:0:
64,192,261143,128,0,261211:0:0:0:0:
448,192,261211,128,0,261279:0:0:0:0:
192,192,261279,128,0,261348:0:0:0:0:
320,192,261348,128,0,261416:0:0:0:0:
64,192,261416,5,0,0:0:0:0:
192,192,261416,1,0,0:0:0:0:
448,192,261416,1,0,0:0:0:0:
448,192,261553,1,0,0:0:0:0:
320,192,261553,1,0,0:0:0:0:
64,192,261553,1,0,0:0:0:0:
192,192,261553,1,0,0:0:0:0:
64,192,261827,1,0,0:0:0:0:
192,192,261827,1,0,0:0:0:0:
320,192,261827,1,0,0:0:0:0:
448,192,261827,1,0,0:0:0:0:
448,192,261964,1,0,0:0:0:0:
320,192,261964,1,0,0:0:0:0:
192,192,261964,1,0,0:0:0:0:
64,192,261964,1,0,0:0:0:0:
64,192,262237,1,0,0:0:0:0:
192,192,262237,1,0,0:0:0:0:
320,192,262237,1,0,0:0:0:0:
448,192,262237,1,0,0:0:0:0:
448,192,262374,1,0,0:0:0:0:
320,192,262374,1,0,0:0:0:0:
192,192,262374,1,0,0:0:0:0:
64,192,262374,1,0,0:0:0:0:
64,192,262648,1,0,0:0:0:0:
192,192,262648,1,0,0:0:0:0:
448,192,262648,1,0,0:0:0:0:
320,192,262648,1,0,0:0:0:0:
448,192,262785,1,0,0:0:0:0:
320,192,262785,1,0,0:0:0:0:
192,192,262785,1,0,0:0:0:0:
64,192,262785,1,0,0:0:0:0:
448,192,263059,128,0,263127:0:0:0:0:
64,192,263059,128,0,263127:0:0:0:0:
320,192,263127,128,0,263196:0:0:0:0:
192,192,263196,128,0,263264:0:0:0:0:
448,192,263264,128,0,263332:0:0:0:0:
64,192,263332,128,0,263401:0:0:0:0:
320,192,263401,128,0,263469:0:0:0:0:
64,192,263469,128,0,263538:0:0:0:0:
192,192,263469,128,0,263538:0:0:0:0:
448,192,263469,128,0,263606:0:0:0:0:
320,192,263538,128,0,263675:0:0:0:0:
192,192,263606,128,0,263675:0:0:0:0:
64,192,263606,128,0,263675:0:0:0:0:
448,192,263675,128,0,263743:0:0:0:0:
320,192,263743,128,0,263811:0:0:0:0:
192,192,263743,128,0,263811:0:0:0:0:
64,192,263743,128,0,263880:0:0:0:0:
448,192,263811,128,0,263948:0:0:0:0:
320,192,263880,128,0,263948:0:0:0:0:
192,192,263880,128,0,263948:0:0:0:0:
64,192,263948,128,0,264017:0:0:0:0:
192,192,264017,128,0,264154:0:0:0:0:
320,192,264017,128,0,264085:0:0:0:0:
448,192,264017,128,0,264085:0:0:0:0:
64,192,264085,128,0,264222:0:0:0:0:
320,192,264154,128,0,264222:0:0:0:0:
448,192,264154,128,0,264222:0:0:0:0:
192,192,264222,128,0,264290:0:0:0:0:
64,192,264290,128,0,264359:0:0:0:0:
320,192,264290,128,0,264427:0:0:0:0:
448,192,264290,128,0,264359:0:0:0:0:
192,192,264359,128,0,264496:0:0:0:0:
64,192,264427,128,0,264496:0:0:0:0:
448,192,264427,128,0,264496:0:0:0:0:
320,192,264496,128,0,264564:0:0:0:0:
192,192,264564,128,0,264701:0:0:0:0:
448,192,264564,128,0,264633:0:0:0:0:
64,192,264564,128,0,264633:0:0:0:0:
320,192,264633,128,0,264769:0:0:0:0:
448,192,264701,128,0,264769:0:0:0:0:
64,192,264701,128,0,264769:0:0:0:0:
192,192,264769,128,0,264838:0:0:0:0:
64,192,264838,128,0,264975:0:0:0:0:
320,192,264838,128,0,264906:0:0:0:0:
448,192,264838,128,0,264906:0:0:0:0:
192,192,264906,128,0,265043:0:0:0:0:
320,192,264975,128,0,265043:0:0:0:0:
448,192,264975,128,0,265043:0:0:0:0:
64,192,265043,128,0,265112:0:0:0:0:
192,192,265112,128,0,265180:0:0:0:0:
320,192,265112,128,0,265180:0:0:0:0:
448,192,265112,128,0,265248:0:0:0:0:
64,192,265180,128,0,265317:0:0:0:0:
192,192,265248,128,0,265317:0:0:0:0:
320,192,265248,128,0,265317:0:0:0:0:
448,192,265317,128,0,265385:0:0:0:0:
320,192,265385,128,0,265522:0:0:0:0:
192,192,265385,128,0,265454:0:0:0:0:
64,192,265385,128,0,265454:0:0:0:0:
448,192,265454,128,0,265591:0:0:0:0:
64,192,265522,128,0,265591:0:0:0:0:
192,192,265522,128,0,265591:0:0:0:0:
320,192,265591,128,0,265659:0:0:0:0:
192,192,265659,128,0,265727:0:0:0:0:
64,192,265659,128,0,265796:0:0:0:0:
448,192,265659,128,0,265727:0:0:0:0:
320,192,265727,128,0,265864:0:0:0:0:
192,192,265796,128,0,265864:0:0:0:0:
448,192,265796,128,0,265864:0:0:0:0:
64,192,265864,128,0,265933:0:0:0:0:
192,192,265933,128,0,266001:0:0:0:0:
320,192,265933,128,0,266001:0:0:0:0:
448,192,265933,128,0,266070:0:0:0:0:
64,192,266001,128,0,266138:0:0:0:0:
192,192,266070,128,0,266138:0:0:0:0:
320,192,266070,128,0,266138:0:0:0:0:
448,192,266138,128,0,266206:0:0:0:0:
320,192,266206,128,0,266275:0:0:0:0:
192,192,266206,128,0,266343:0:0:0:0:
64,192,266206,128,0,266275:0:0:0:0:
448,192,266275,128,0,266412:0:0:0:0:
64,192,266343,128,0,266412:0:0:0:0:
320,192,266343,128,0,266412:0:0:0:0:
192,192,266412,128,0,266480:0:0:0:0:
64,192,266480,128,0,266549:0:0:0:0:
320,192,266480,128,0,266617:0:0:0:0:
448,192,266480,128,0,266549:0:0:0:0:
192,192,266549,128,0,266685:0:0:0:0:
64,192,266617,128,0,266685:0:0:0:0:
448,192,266617,128,0,266685:0:0:0:0:
320,192,266685,128,0,266754:0:0:0:0:
192,192,266754,128,0,266822:0:0:0:0:
64,192,266754,128,0,266822:0:0:0:0:
448,192,266754,128,0,266959:0:0:0:0:
320,192,266822,128,0,266891:0:0:0:0:
192,192,266891,128,0,266959:0:0:0:0:
64,192,266891,128,0,266959:0:0:0:0:
320,192,266959,128,0,267028:0:0:0:0:
448,192,267028,128,0,267096:0:0:0:0:
64,192,267028,128,0,267164:0:0:0:0:
192,192,267028,128,0,267096:0:0:0:0:
320,192,267096,128,0,267233:0:0:0:0:
192,192,267164,128,0,267233:0:0:0:0:
448,192,267164,128,0,267233:0:0:0:0:
64,192,267233,128,0,267301:0:0:0:0:
192,192,267301,128,0,267438:0:0:0:0:
320,192,267301,128,0,267370:0:0:0:0:
448,192,267301,128,0,267370:0:0:0:0:
64,192,267370,128,0,267507:0:0:0:0:
320,192,267438,128,0,267507:0:0:0:0:
448,192,267438,128,0,267507:0:0:0:0:
192,192,267507,128,0,267575:0:0:0:0:
64,192,267575,128,0,267644:0:0:0:0:
320,192,267575,128,0,267712:0:0:0:0:
448,192,267575,128,0,267644:0:0:0:0:
192,192,267644,128,0,267780:0:0:0:0:
64,192,267712,128,0,267780:0:0:0:0:
448,192,267712,128,0,267780:0:0:0:0:
320,192,267780,128,0,267849:0:0:0:0:
448,192,267849,128,0,268054:0:0:0:0:
192,192,267849,128,0,267917:0:0:0:0:
64,192,267849,128,0,267917:0:0:0:0:
320,192,267917,128,0,267986:0:0:0:0:
64,192,267986,128,0,268054:0:0:0:0:
192,192,267986,128,0,268054:0:0:0:0:
320,192,268054,128,0,268123:0:0:0:0:
192,192,268123,128,0,268259:0:0:0:0:
64,192,268123,128,0,268191:0:0:0:0:
448,192,268123,128,0,268191:0:0:0:0:
320,192,268191,128,0,268328:0:0:0:0:
448,192,268259,128,0,268328:0:0:0:0:
64,192,268259,128,0,268328:0:0:0:0:
192,192,268328,128,0,268396:0:0:0:0:
64,192,268396,128,0,268465:0:0:0:0:
320,192,268396,128,0,268465:0:0:0:0:
448,192,268396,128,0,268533:0:0:0:0:
192,192,268465,128,0,268602:0:0:0:0:
64,192,268533,128,0,268602:0:0:0:0:
320,192,268533,128,0,268602:0:0:0:0:
448,192,268602,128,0,268670:0:0:0:0:
320,192,268670,128,0,268738:0:0:0:0:
192,192,268670,128,0,268738:0:0:0:0:
64,192,268670,128,0,268807:0:0:0:0:
448,192,268738,128,0,268875:0:0:0:0:
320,192,268807,128,0,268875:0:0:0:0:
192,192,268807,128,0,268875:0:0:0:0:
64,192,268875,128,0,268944:0:0:0:0:
192,192,268944,128,0,269012:0:0:0:0:
320,192,268944,128,0,269081:0:0:0:0:
448,192,268944,128,0,269012:0:0:0:0:
64,192,269012,128,0,269149:0:0:0:0:
192,192,269081,128,0,269149:0:0:0:0:
448,192,269081,128,0,269149:0:0:0:0:
320,192,269149,128,0,269217:0:0:0:0:
192,192,269217,128,0,269354:0:0:0:0:
448,192,269217,128,0,269286:0:0:0:0:
64,192,269217,128,0,269286:0:0:0:0:
320,192,269286,128,0,269423:0:0:0:0:
448,192,269354,128,0,269423:0:0:0:0:
64,192,269354,128,0,269423:0:0:0:0:
192,192,269423,128,0,269491:0:0:0:0:
64,192,269491,128,0,269696:0:0:0:0:
320,192,269491,128,0,269560:0:0:0:0:
448,192,269491,128,0,269560:0:0:0:0:
192,192,269560,128,0,269628:0:0:0:0:
320,192,269628,128,0,269696:0:0:0:0:
448,192,269628,128,0,269696:0:0:0:0:
192,192,269696,128,0,269765:0:0:0:0:
64,192,269765,128,0,269833:0:0:0:0:
320,192,269765,128,0,269902:0:0:0:0:
448,192,269765,128,0,269833:0:0:0:0:
192,192,269833,128,0,269970:0:0:0:0:
64,192,269902,128,0,269970:0:0:0:0:
448,192,269902,128,0,269970:0:0:0:0:
320,192,269970,128,0,270039:0:0:0:0:
64,192,270039,128,0,270107:0:0:0:0:
192,192,270039,128,0,270107:0:0:0:0:
448,192,270039,128,0,270175:0:0:0:0:
320,192,270107,128,0,270175:0:0:0:0:
64,192,270175,128,0,270244:0:0:0:0:
192,192,270175,128,0,270244:0:0:0:0:
448,192,270244,1,0,0:0:0:0:
320,192,270244,1,0,0:0:0:0:
64,192,270312,1,0,0:0:0:0:
320,192,270312,1,0,0:0:0:0:
448,192,270312,1,0,0:0:0:0:
192,192,270358,1,0,0:0:0:0:
320,192,270404,1,0,0:0:0:0:
448,192,270449,1,0,0:0:0:0:
64,192,270449,1,0,0:0:0:0:
192,192,270449,1,0,0:0:0:0:
320,192,270495,1,0,0:0:0:0:
64,192,270540,1,0,0:0:0:0:
448,192,270586,1,0,0:0:0:0:
320,192,270632,1,0,0:0:0:0:
192,192,270654,1,0,0:0:0:0:
64,192,270654,1,0,0:0:0:0:
448,192,270677,1,0,0:0:0:0:
192,192,270723,1,0,0:0:0:0:
320,192,270769,1,0,0:0:0:0:
64,192,270814,1,0,0:0:0:0:
192,192,270860,1,0,0:0:0:0:
320,192,270860,1,0,0:0:0:0:
448,192,270860,1,0,0:0:0:0:
64,192,270905,1,0,0:0:0:0:
448,192,270951,1,0,0:0:0:0:
192,192,270997,1,0,0:0:0:0:
320,192,271042,1,0,0:0:0:0:
192,192,271088,1,0,0:0:0:0:
64,192,271133,1,0,0:0:0:0:
320,192,271133,1,0,0:0:0:0:
448,192,271133,1,0,0:0:0:0:
192,192,271179,1,0,0:0:0:0:
64,192,271225,1,0,0:0:0:0:
320,192,271270,1,0,0:0:0:0:
192,192,271316,1,0,0:0:0:0:
64,192,271339,1,0,0:0:0:0:
448,192,271339,1,0,0:0:0:0:
320,192,271362,1,0,0:0:0:0:
192,192,271407,1,0,0:0:0:0:
64,192,271407,1,0,0:0:0:0:
448,192,271407,1,0,0:0:0:0:
320,192,271453,1,0,0:0:0:0:
192,192,271498,1,0,0:0:0:0:
64,192,271544,128,0,271612:0:0:0:0:
448,192,271544,128,0,271612:0:0:0:0:
320,192,271612,128,0,271681:0:0:0:0:
64,192,271681,128,0,271749:0:0:0:0:
192,192,271681,128,0,271749:0:0:0:0:
448,192,271681,128,0,271818:0:0:0:0:
320,192,271749,128,0,271886:0:0:0:0:
192,192,271818,128,0,271886:0:0:0:0:
64,192,271818,128,0,271886:0:0:0:0:
448,192,271886,128,0,271955:0:0:0:0:
320,192,271955,128,0,272023:0:0:0:0:
192,192,271955,128,0,272023:0:0:0:0:
64,192,271955,128,0,272092:0:0:0:0:
448,192,272023,128,0,272160:0:0:0:0:
192,192,272092,128,0,272160:0:0:0:0:
320,192,272092,128,0,272160:0:0:0:0:
64,192,272160,128,0,272297:0:0:0:0:
192,192,272228,128,0,272297:0:0:0:0:
320,192,272228,128,0,272297:0:0:0:0:
448,192,272228,128,0,272297:0:0:0:0:
64,192,272365,128,0,272434:0:0:0:0:
448,192,272365,128,0,272434:0:0:0:0:
320,192,272365,128,0,272434:0:0:0:0:
192,192,272365,128,0,272434:0:0:0:0:
320,192,272502,1,0,0:0:0:0:
64,192,272502,128,0,272571:0:0:0:0:
192,192,272502,128,0,272571:0:0:0:0:
448,192,272502,128,0,272639:0:0:0:0:
320,192,272571,128,0,272707:0:0:0:0:
192,192,272639,128,0,272707:0:0:0:0:
64,192,272639,128,0,272707:0:0:0:0:
448,192,272707,1,0,0:0:0:0:
320,192,272776,1,0,0:0:0:0:
192,192,272776,128,0,272913:0:0:0:0:
64,192,272776,128,0,272844:0:0:0:0:
448,192,272776,128,0,272844:0:0:0:0:
320,192,272844,128,0,272981:0:0:0:0:
64,192,272913,128,0,272981:0:0:0:0:
448,192,272913,128,0,272981:0:0:0:0:
192,192,272981,1,0,0:0:0:0:
64,192,273050,1,0,0:0:0:0:
192,192,273050,128,0,273186:0:0:0:0:
320,192,273050,128,0,273118:0:0:0:0:
448,192,273050,128,0,273118:0:0:0:0:
64,192,273118,128,0,273255:0:0:0:0:
320,192,273186,128,0,273255:0:0:0:0:
448,192,273186,128,0,273255:0:0:0:0:
192,192,273255,1,0,0:0:0:0:
448,192,273323,1,0,0:0:0:0:
64,192,273323,128,0,273392:0:0:0:0:
192,192,273323,128,0,273460:0:0:0:0:
320,192,273323,128,0,273392:0:0:0:0:
448,192,273392,128,0,273529:0:0:0:0:
64,192,273460,128,0,273529:0:0:0:0:
320,192,273460,128,0,273529:0:0:0:0:
192,192,273529,1,0,0:0:0:0:
320,192,273597,1,0,0:0:0:0:
64,192,273597,128,0,273734:0:0:0:0:
192,192,273597,128,0,273665:0:0:0:0:
448,192,273597,128,0,273665:0:0:0:0:
320,192,273665,128,0,273802:0:0:0:0:
192,192,273734,128,0,273802:0:0:0:0:
448,192,273734,128,0,273802:0:0:0:0:
64,192,273802,1,0,0:0:0:0:
448,192,273871,1,0,0:0:0:0:
192,192,273871,128,0,273939:0:0:0:0:
64,192,273871,128,0,274008:0:0:0:0:
320,192,273871,128,0,273939:0:0:0:0:
448,192,273939,128,0,274076:0:0:0:0:
320,192,274008,128,0,274076:0:0:0:0:
192,192,274008,128,0,274076:0:0:0:0:
64,192,274076,1,0,0:0:0:0:
448,192,274144,1,0,0:0:0:0:
64,192,274144,128,0,274213:0:0:0:0:
192,192,274144,128,0,274213:0:0:0:0:
320,192,274144,128,0,274281:0:0:0:0:
448,192,274213,128,0,274350:0:0:0:0:
192,192,274281,128,0,274350:0:0:0:0:
64,192,274281,128,0,274350:0:0:0:0:
320,192,274350,1,0,0:0:0:0:
192,192,274418,1,0,0:0:0:0:
320,192,274418,128,0,274555:0:0:0:0:
64,192,274418,128,0,274487:0:0:0:0:
448,192,274418,128,0,274487:0:0:0:0:
192,192,274487,128,0,274623:0:0:0:0:
64,192,274555,128,0,274623:0:0:0:0:
448,192,274555,128,0,274623:0:0:0:0:
320,192,274623,1,0,0:0:0:0:
64,192,274692,1,0,0:0:0:0:
192,192,274692,128,0,274760:0:0:0:0:
320,192,274692,128,0,274829:0:0:0:0:
448,192,274692,128,0,274760:0:0:0:0:
64,192,274760,128,0,274897:0:0:0:0:
192,192,274829,128,0,274897:0:0:0:0:
448,192,274829,128,0,274897:0:0:0:0:
320,192,274897,1,0,0:0:0:0:
64,192,274966,1,0,0:0:0:0:
192,192,274966,128,0,275102:0:0:0:0:
320,192,274966,128,0,275034:0:0:0:0:
448,192,274966,128,0,275034:0:0:0:0:
64,192,275034,128,0,275171:0:0:0:0:
320,192,275102,128,0,275171:0:0:0:0:
448,192,275102,128,0,275171:0:0:0:0:
192,192,275171,1,0,0:0:0:0:
448,192,275239,1,0,0:0:0:0:
64,192,275239,128,0,275376:0:0:0:0:
192,192,275239,128,0,275308:0:0:0:0:
320,192,275239,128,0,275308:0:0:0:0:
448,192,275308,128,0,275445:0:0:0:0:
320,192,275376,128,0,275445:0:0:0:0:
192,192,275376,128,0,275445:0:0:0:0:
64,192,275445,1,0,0:0:0:0:
448,192,275513,1,0,0:0:0:0:
64,192,275513,128,0,275581:0:0:0:0:
192,192,275513,128,0,275581:0:0:0:0:
320,192,275513,128,0,275650:0:0:0:0:
448,192,275581,128,0,275718:0:0:0:0:
192,192,275650,128,0,275718:0:0:0:0:
64,192,275650,128,0,275718:0:0:0:0:
320,192,275718,1,0,0:0:0:0:
192,192,275787,1,0,0:0:0:0:
320,192,275787,128,0,275924:0:0:0:0:
64,192,275787,128,0,275855:0:0:0:0:
448,192,275787,128,0,275855:0:0:0:0:
192,192,275855,128,0,275992:0:0:0:0:
64,192,275924,128,0,275992:0:0:0:0:
448,192,275924,128,0,275992:0:0:0:0:
320,192,275992,1,0,0:0:0:0:
64,192,276060,128,0,276129:0:0:0:0:
192,192,276060,128,0,276129:0:0:0:0:
320,192,276060,128,0,276129:0:0:0:0:
448,192,276060,128,0,276129:0:0:0:0:
64,192,276197,128,0,276403:0:0:0:0:
448,192,276197,128,0,276266:0:0:0:0:
192,192,276266,128,0,276334:0:0:0:0:
320,192,276334,128,0,276471:0:0:0:0:
448,192,276334,128,0,276403:0:0:0:0:
192,192,276403,128,0,276539:0:0:0:0:
64,192,276471,128,0,276539:0:0:0:0:
448,192,276471,128,0,276539:0:0:0:0:
320,192,276539,128,0,276676:0:0:0:0:
192,192,276608,128,0,276676:0:0:0:0:
64,192,276608,128,0,276676:0:0:0:0:
448,192,276608,128,0,276676:0:0:0:0:
64,192,276745,1,0,0:0:0:0:
448,192,276745,1,0,0:0:0:0:
192,192,276813,1,0,0:0:0:0:
320,192,276813,1,0,0:0:0:0:
448,192,276882,128,0,277019:0:0:0:0:
64,192,276882,128,0,276950:0:0:0:0:
320,192,276950,128,0,277087:0:0:0:0:
192,192,277019,128,0,277087:0:0:0:0:
64,192,277019,128,0,277155:0:0:0:0:
448,192,277087,128,0,277224:0:0:0:0:
320,192,277155,128,0,277224:0:0:0:0:
192,192,277155,128,0,277292:0:0:0:0:
64,192,277224,128,0,277361:0:0:0:0:
320,192,277292,128,0,277361:0:0:0:0:
448,192,277292,128,0,277361:0:0:0:0:
192,192,277361,128,0,277429:0:0:0:0:
64,192,277429,128,0,277498:0:0:0:0:
320,192,277429,128,0,277566:0:0:0:0:
448,192,277429,128,0,277498:0:0:0:0:
192,192,277498,128,0,277634:0:0:0:0:
64,192,277566,128,0,277634:0:0:0:0:
448,192,277566,128,0,277703:0:0:0:0:
320,192,277634,128,0,277771:0:0:0:0:
64,192,277703,128,0,277771:0:0:0:0:
192,192,277703,128,0,277771:0:0:0:0:
448,192,277771,128,0,277840:0:0:0:0:
320,192,277840,128,0,277977:0:0:0:0:
192,192,277840,128,0,277908:0:0:0:0:
64,192,277840,128,0,277908:0:0:0:0:
448,192,277908,128,0,277977:0:0:0:0:
64,192,277977,128,0,278011:0:0:0:0:
192,192,277994,128,0,278028:0:0:0:0:
64,192,278045,128,0,278079:0:0:0:0:
192,192,278062,128,0,278096:0:0:0:0:
448,192,278113,128,0,278148:0:0:0:0:
320,192,278131,128,0,278165:0:0:0:0:
448,192,278182,128,0,278216:0:0:0:0:
320,192,278199,128,0,278233:0:0:0:0:
192,192,278250,128,0,278319:0:0:0:0:
64,192,278250,128,0,278319:0:0:0:0:
448,192,278250,128,0,278456:0:0:0:0:
320,192,278319,128,0,278387:0:0:0:0:
64,192,278387,128,0,278456:0:0:0:0:
192,192,278456,128,0,278524:0:0:0:0:
64,192,278524,128,0,278729:0:0:0:0:
320,192,278524,128,0,278592:0:0:0:0:
448,192,278524,128,0,278592:0:0:0:0:
192,192,278592,128,0,278729:0:0:0:0:
320,192,278661,128,0,279619:0:0:0:0:
448,192,278729,128,0,279550:0:0:0:0:
64,192,278798,128,0,279824:0:0:0:0:
192,192,278798,128,0,279687:0:0:0:0:
448,192,279619,128,0,279687:0:0:0:0:
320,192,279687,128,0,279756:0:0:0:0:
192,192,279756,128,0,279824:0:0:0:0:
320,192,279824,128,0,279893:0:0:0:0:
192,192,279893,128,0,279961:0:0:0:0:
64,192,279893,128,0,279961:0:0:0:0:
448,192,279961,128,0,280029:0:0:0:0:
320,192,280029,128,0,280098:0:0:0:0:
192,192,280098,128,0,280166:0:0:0:0:
64,192,280166,128,0,280235:0:0:0:0:
448,192,280166,128,0,280235:0:0:0:0:
192,192,280235,128,0,280303:0:0:0:0:
320,192,280303,128,0,280372:0:0:0:0:
192,192,280372,128,0,280440:0:0:0:0:
320,192,280440,128,0,280508:0:0:0:0:
448,192,280440,128,0,280508:0:0:0:0:
64,192,280508,128,0,280577:0:0:0:0:
192,192,280577,128,0,280645:0:0:0:0:
320,192,280645,128,0,280714:0:0:0:0:
64,192,280714,128,0,280782:0:0:0:0:
192,192,280714,128,0,280782:0:0:0:0:
320,192,280782,128,0,280851:0:0:0:0:
448,192,280851,128,0,280919:0:0:0:0:
320,192,280919,128,0,280987:0:0:0:0:
64,192,280987,1,0,0:0:0:0:
192,192,280987,1,0,0:0:0:0:
448,192,280987,1,0,0:0:0:0:
64,192,281261,1,0,0:0:0:0:
448,192,281261,1,0,0:0:0:0:
192,192,281261,128,0,281330:0:0:0:0:
320,192,281261,1,0,0:0:0:0:
320,192,281330,128,0,281398:0:0:0:0:
64,192,281398,1,0,0:0:0:0:
192,192,281398,1,0,0:0:0:0:
192,192,281467,1,0,0:0:0:0:
64,192,281467,1,0,0:0:0:0:
320,192,281535,1,0,0:0:0:0:
448,192,281535,1,0,0:0:0:0:
64,192,281535,128,0,281603:0:0:0:0:
192,192,281603,128,0,281672:0:0:0:0:
320,192,281672,128,0,281740:0:0:0:0:
64,192,281740,128,0,281809:0:0:0:0:
320,192,281809,1,0,0:0:0:0:
448,192,281809,1,0,0:0:0:0:
192,192,281809,128,0,281877:0:0:0:0:
64,192,281877,128,0,281946:0:0:0:0:
448,192,281946,128,0,282014:0:0:0:0:
320,192,282014,128,0,282082:0:0:0:0:
64,192,282082,1,0,0:0:0:0:
448,192,282082,1,0,0:0:0:0:
192,192,282082,128,0,282151:0:0:0:0:
320,192,282151,128,0,282219:0:0:0:0:
192,192,282219,128,0,282288:0:0:0:0:
64,192,282288,128,0,282356:0:0:0:0:
320,192,282356,1,0,0:0:0:0:
448,192,282356,1,0,0:0:0:0:
192,192,282356,128,0,282425:0:0:0:0:
64,192,282425,128,0,282493:0:0:0:0:
448,192,282493,128,0,282561:0:0:0:0:
320,192,282561,128,0,282630:0:0:0:0:
64,192,282630,1,0,0:0:0:0:
448,192,282630,1,0,0:0:0:0:
192,192,282630,128,0,282698:0:0:0:0:
320,192,282698,128,0,282767:0:0:0:0:
192,192,282767,128,0,282835:0:0:0:0:
320,192,282835,128,0,282904:0:0:0:0:
448,192,282904,1,0,0:0:0:0:
64,192,282904,1,0,0:0:0:0:
192,192,282904,1,0,0:0:0:0:
448,192,283040,128,0,283109:0:0:0:0:
64,192,283040,128,0,283109:0:0:0:0:
192,192,283040,128,0,283109:0:0:0:0:
320,192,283040,128,0,283109:0:0:0:0:
64,192,283177,1,0,0:0:0:0:
192,192,283177,1,0,0:0:0:0:
320,192,283177,1,0,0:0:0:0:
448,192,283177,1,0,0:0:0:0:
64,192,283451,128,0,283605:0:0:0:0:
192,192,283451,128,0,283622:0:0:0:0:
320,192,283451,128,0,283639:0:0:0:0:
448,192,283451,128,0,283656:0:0:0:0:
64,192,283725,1,0,0:0:0:0:
448,192,283725,1,0,0:0:0:0:
192,192,283725,1,0,0:0:0:0:
448,192,283862,1,0,0:0:0:0:
320,192,283862,1,0,0:0:0:0:
448,192,283930,1,0,0:0:0:0:
320,192,283930,1,0,0:0:0:0:
192,192,283998,1,0,0:0:0:0:
320,192,283998,1,0,0:0:0:0:
64,192,283998,1,0,0:0:0:0:
64,192,284067,1,0,0:0:0:0:
448,192,284067,1,0,0:0:0:0:
64,192,284135,1,0,0:0:0:0:
448,192,284135,1,0,0:0:0:0:
192,192,284204,1,0,0:0:0:0:
320,192,284272,1,0,0:0:0:0:
448,192,284272,1,0,0:0:0:0:
64,192,284272,1,0,0:0:0:0:
192,192,284272,1,0,0:0:0:0:
64,192,284363,1,0,0:0:0:0:
320,192,284363,1,0,0:0:0:0:
448,192,284363,1,0,0:0:0:0:
192,192,284363,1,0,0:0:0:0:
64,192,284455,1,0,0:0:0:0:
320,192,284455,1,0,0:0:0:0:
448,192,284455,1,0,0:0:0:0:
192,192,284455,1,0,0:0:0:0:
64,192,284546,1,0,0:0:0:0:
448,192,284546,1,0,0:0:0:0:
320,192,284546,1,0,0:0:0:0:
192,192,284546,1,0,0:0:0:0:
64,192,284637,1,0,0:0:0:0:
320,192,284637,1,0,0:0:0:0:
448,192,284637,1,0,0:0:0:0:
192,192,284637,1,0,0:0:0:0:
64,192,284728,1,0,0:0:0:0:
320,192,284728,1,0,0:0:0:0:
448,192,284728,1,0,0:0:0:0:
192,192,284728,1,0,0:0:0:0:
64,192,284820,1,0,0:0:0:0:
192,192,284820,1,0,0:0:0:0:
320,192,284820,1,0,0:0:0:0:
448,192,284820,1,0,0:0:0:0:
64,192,284956,1,0,0:0:0:0:
192,192,284956,1,0,0:0:0:0:
320,192,284956,1,0,0:0:0:0:
448,192,284956,1,0,0:0:0:0:
64,192,285230,1,0,0:0:0:0:
192,192,285230,1,0,0:0:0:0:
448,192,285230,1,0,0:0:0:0:
320,192,285230,1,0,0:0:0:0:
64,192,285504,1,0,0:0:0:0:
192,192,285504,1,0,0:0:0:0:
192,192,285572,1,0,0:0:0:0:
64,192,285572,1,0,0:0:0:0:
320,192,285641,1,0,0:0:0:0:
448,192,285641,1,0,0:0:0:0:
64,192,285641,1,0,0:0:0:0:
192,192,285709,1,0,0:0:0:0:
320,192,285778,1,0,0:0:0:0:
64,192,285846,1,0,0:0:0:0:
192,192,285846,1,0,0:0:0:0:
448,192,285846,1,0,0:0:0:0:
64,192,286051,1,0,0:0:0:0:
192,192,286051,1,0,0:0:0:0:
320,192,286051,1,0,0:0:0:0:
448,192,286051,1,0,0:0:0:0:
64,192,286257,1,0,0:0:0:0:
192,192,286257,1,0,0:0:0:0:
320,192,286257,1,0,0:0:0:0:
448,192,286257,1,0,0:0:0:0:
64,192,286462,1,0,0:0:0:0:
192,192,286462,1,0,0:0:0:0:
320,192,286462,1,0,0:0:0:0:
448,192,286462,1,0,0:0:0:0:
320,192,286736,1,0,0:0:0:0:
448,192,286753,1,0,0:0:0:0:
320,192,286804,1,0,0:0:0:0:
448,192,286821,1,0,0:0:0:0:
192,192,286873,1,0,0:0:0:0:
64,192,286890,1,0,0:0:0:0:
192,192,286941,1,0,0:0:0:0:
64,192,286958,1,0,0:0:0:0:
192,192,287009,1,0,0:0:0:0:
64,192,287009,1,0,0:0:0:0:
448,192,287009,1,0,0:0:0:0:
320,192,287044,1,0,0:0:0:0:
64,192,287078,1,0,0:0:0:0:
192,192,287112,1,0,0:0:0:0:
320,192,287146,1,0,0:0:0:0:
64,192,287180,1,0,0:0:0:0:
448,192,287215,1,0,0:0:0:0:
320,192,287249,1,0,0:0:0:0:
192,192,287283,1,0,0:0:0:0:
448,192,287317,1,0,0:0:0:0:
64,192,287352,1,0,0:0:0:0:
320,192,287386,1,0,0:0:0:0:
192,192,287420,1,0,0:0:0:0:
448,192,287454,1,0,0:0:0:0:
320,192,287488,1,0,0:0:0:0:
64,192,287523,1,0,0:0:0:0:
192,192,287557,1,0,0:0:0:0:
320,192,287557,1,0,0:0:0:0:
448,192,287557,1,0,0:0:0:0:
64,192,287557,1,0,0:0:0:0:
64,192,287648,1,0,0:0:0:0:
192,192,287648,1,0,0:0:0:0:
320,192,287648,1,0,0:0:0:0:
448,192,287648,1,0,0:0:0:0:
64,192,287739,1,0,0:0:0:0:
192,192,287739,1,0,0:0:0:0:
448,192,287739,1,0,0:0:0:0:
320,192,287739,1,0,0:0:0:0:
64,192,287831,1,0,0:0:0:0:
192,192,287831,1,0,0:0:0:0:
320,192,287831,1,0,0:0:0:0:
448,192,287831,1,0,0:0:0:0:
192,192,287967,1,0,0:0:0:0:
320,192,287967,1,0,0:0:0:0:
448,192,287967,1,0,0:0:0:0:
64,192,287967,1,0,0:0:0:0:
64,192,288104,1,0,0:0:0:0:
192,192,288104,1,0,0:0:0:0:
320,192,288104,1,0,0:0:0:0:
448,192,288104,1,0,0:0:0:0:
64,192,288241,1,0,0:0:0:0:
192,192,288241,1,0,0:0:0:0:
320,192,288241,1,0,0:0:0:0:
448,192,288241,1,0,0:0:0:0:
64,192,288378,1,0,0:0:0:0:
192,192,288378,1,0,0:0:0:0:
320,192,288378,1,0,0:0:0:0:
448,192,288378,1,0,0:0:0:0:
64,192,288469,1,0,0:0:0:0:
192,192,288469,1,0,0:0:0:0:
320,192,288469,1,0,0:0:0:0:
448,192,288469,1,0,0:0:0:0:
320,192,288560,1,0,0:0:0:0:
192,192,288560,1,0,0:0:0:0:
64,192,288560,1,0,0:0:0:0:
448,192,288560,1,0,0:0:0:0:
64,192,288652,1,0,0:0:0:0:
192,192,288652,1,0,0:0:0:0:
320,192,288652,1,0,0:0:0:0:
448,192,288652,1,0,0:0:0:0:
64,192,288789,1,0,0:0:0:0:
192,192,288789,1,0,0:0:0:0:
320,192,288789,1,0,0:0:0:0:
448,192,288789,1,0,0:0:0:0:
64,192,288925,1,0,0:0:0:0:
192,192,288925,1,0,0:0:0:0:
320,192,288925,1,0,0:0:0:0:
448,192,288925,1,0,0:0:0:0:
64,192,289062,1,0,0:0:0:0:
192,192,289062,1,0,0:0:0:0:
320,192,289062,1,0,0:0:0:0:
448,192,289062,1,0,0:0:0:0:
64,192,289131,1,0,0:0:0:0:
192,192,289131,1,0,0:0:0:0:
320,192,289131,1,0,0:0:0:0:
448,192,289131,1,0,0:0:0:0:
64,192,289199,1,0,0:0:0:0:
192,192,289199,1,0,0:0:0:0:
448,192,289199,1,0,0:0:0:0:
320,192,289199,1,0,0:0:0:0:
64,192,289883,5,0,0:0:0:0:
448,192,289883,1,0,0:0:0:0:
64,192,290294,1,0,0:0:0:0:
448,192,290294,1,0,0:0:0:0:
64,192,290842,1,0,0:0:0:0:
448,192,290842,1,0,0:0:0:0:
64,192,291252,1,0,0:0:0:0:
448,192,291252,1,0,0:0:0:0:
64,192,291800,1,0,0:0:0:0:
448,192,291800,1,0,0:0:0:0:
64,192,292210,1,0,0:0:0:0:
448,192,292210,1,0,0:0:0:0:
448,192,292484,128,0,297411:0:0:0:0:
320,192,292484,128,0,297411:0:0:0:0:
192,192,292484,128,0,297411:0:0:0:0:
64,192,292484,128,0,297411:0:0:0:0:
