osu file format v14

[General]
AudioFilename: audio.mp3
AudioLeadIn: 0
PreviewTime: 110462
Countdown: 0
SampleSet: Normal
StackLeniency: 0.7
Mode: 3
LetterboxInBreaks: 0
SpecialStyle: 0
WidescreenStoryboard: 1

[Editor]
Bookmarks: 105809,140861,153999,156189,165222,173707,182466,191225,204364,213123,221882,263479,280998
DistanceSpacing: 2
BeatDivisor: 4
GridSize: 8
TimelineZoom: 2.300001

[Metadata]
Title:Lowermost revolt ("Jeremiad" Long ver.)
TitleUnicode:Lowermost revolt ("Jeremiad" Long ver.)
Artist:Camellia feat. Kagekiha Gakusei
ArtistUnicode:かめりあ feat. 歌劇派学生
Creator:FelixSpade
Version:4K // ChocoCoki-'s Insurrection
Source:SOUND VOLTEX IV HEAVENLY HAVEN
Tags:ChocoCoki- Virtue- XDerbyX nayuu eZmmR Onta_Bekasi Ceker_Ayam hardcore renaissance electronic opera Xroniàl Xéro semi-dump inverses ln sv apanese English PCCA-04883 PONY CANYON cametek kamelcamellia かめるかめりあ 大箭将也 Masaya Oya Xronial Xero
BeatmapID:2926727
BeatmapSetID:1184745

[Difficulty]
HPDrainRate:8
CircleSize:4
OverallDifficulty:6
ApproachRate:5
SliderMultiplier:1.4
SliderTickRate:1

[Events]
//Background and Video events
0,0,"bgcoki.jpg",0,0
//Break Periods
//Storyboard Layer 0 (Background)
//Storyboard Layer 1 (Fail)
//Storyboard Layer 2 (Pass)
//Storyboard Layer 3 (Foreground)
//Storyboard Layer 4 (Overlay)
//Storyboard Sound Samples

[TimingPoints]
2890,273.722627737226,4,1,0,5,1,0
112379,-100,4,1,0,5,0,1
127707,-100,4,1,0,5,0,0
243765,-100,4,1,0,5,0,1
259094,-100,4,1,0,5,0,0
263473,-100,4,1,0,5,0,1
278802,-100,4,1,0,5,0,0

[HitObjects]
64,192,2889,5,0,0:0:0:0:
192,192,3026,1,0,0:0:0:0:
320,192,3163,1,0,0:0:0:0:
448,192,3300,1,0,0:0:0:0:
192,192,3711,1,0,0:0:0:0:
64,192,3711,128,0,4737:0:0:0:0:
320,192,3984,128,0,4805:0:0:0:0:
448,192,4258,128,0,4669:0:0:0:0:
192,192,4532,128,0,4942:0:0:0:0:
64,192,4805,128,0,5011:0:0:0:0:
192,192,5079,128,0,5763:0:0:0:0:
320,192,5113,128,0,5832:0:0:0:0:
448,192,5148,128,0,5900:0:0:0:0:
320,192,6174,128,0,6584:0:0:0:0:
192,192,6208,128,0,6653:0:0:0:0:
64,192,6242,128,0,6721:0:0:0:0:
448,192,6721,128,0,7132:0:0:0:0:
320,192,6755,128,0,7200:0:0:0:0:
192,192,7269,128,0,8021:0:0:0:0:
64,192,7406,128,0,8090:0:0:0:0:
448,192,7542,128,0,8090:0:0:0:0:
320,192,7679,128,0,8158:0:0:0:0:
192,192,8090,128,0,9116:0:0:0:0:
64,192,8158,128,0,9048:0:0:0:0:
320,192,8227,128,0,9185:0:0:0:0:
448,192,8261,128,0,9253:0:0:0:0:
64,192,9321,128,0,9458:0:0:0:0:
192,192,9458,1,0,0:0:0:0:
320,192,9527,128,0,9595:0:0:0:0:
448,192,9561,128,0,9629:0:0:0:0:
64,192,9732,128,0,9800:0:0:0:0:
192,192,9766,128,0,9835:0:0:0:0:
192,192,10006,128,0,10074:0:0:0:0:
320,192,10040,128,0,10108:0:0:0:0:
320,192,10279,128,0,10348:0:0:0:0:
448,192,10314,128,0,10382:0:0:0:0:
448,192,10553,1,0,0:0:0:0:
320,192,10553,128,0,10621:0:0:0:0:
192,192,10587,128,0,10656:0:0:0:0:
320,192,10827,1,0,0:0:0:0:
192,192,10827,128,0,10895:0:0:0:0:
64,192,10861,128,0,10929:0:0:0:0:
192,192,11100,1,0,0:0:0:0:
320,192,11100,128,0,11169:0:0:0:0:
448,192,11135,128,0,11203:0:0:0:0:
320,192,11374,128,0,11443:0:0:0:0:
64,192,11374,128,0,11579:0:0:0:0:
448,192,11408,128,0,11477:0:0:0:0:
64,192,11648,1,0,0:0:0:0:
448,192,11648,1,0,0:0:0:0:
320,192,11785,1,0,0:0:0:0:
192,192,11922,1,0,0:0:0:0:
64,192,12058,1,0,0:0:0:0:
448,192,12058,128,0,12127:0:0:0:0:
192,192,12195,128,0,12264:0:0:0:0:
64,192,12332,128,0,12401:0:0:0:0:
448,192,12469,128,0,12537:0:0:0:0:
192,192,12469,1,0,0:0:0:0:
320,192,12606,128,0,12674:0:0:0:0:
64,192,12743,128,0,12811:0:0:0:0:
192,192,12743,1,0,0:0:0:0:
448,192,12880,128,0,12948:0:0:0:0:
192,192,13016,128,0,13085:0:0:0:0:
320,192,13016,1,0,0:0:0:0:
64,192,13153,128,0,13222:0:0:0:0:
448,192,13290,128,0,13358:0:0:0:0:
192,192,13290,1,0,0:0:0:0:
320,192,13427,128,0,13495:0:0:0:0:
64,192,13564,128,0,13632:0:0:0:0:
448,192,13701,128,0,13769:0:0:0:0:
64,192,13837,128,0,13906:0:0:0:0:
320,192,13837,1,0,0:0:0:0:
192,192,13974,128,0,14043:0:0:0:0:
448,192,14111,128,0,14180:0:0:0:0:
64,192,14248,128,0,14316:0:0:0:0:
320,192,14385,128,0,14453:0:0:0:0:
192,192,14385,128,0,14590:0:0:0:0:
448,192,14522,128,0,14590:0:0:0:0:
64,192,14659,128,0,14864:0:0:0:0:
192,192,14795,128,0,14864:0:0:0:0:
320,192,14932,1,0,0:0:0:0:
448,192,14932,128,0,15138:0:0:0:0:
320,192,15069,128,0,15138:0:0:0:0:
64,192,15206,1,0,0:0:0:0:
192,192,15206,128,0,15411:0:0:0:0:
64,192,15343,128,0,15411:0:0:0:0:
192,192,15480,1,0,0:0:0:0:
320,192,15480,128,0,15685:0:0:0:0:
192,192,15616,128,0,15685:0:0:0:0:
448,192,15753,128,0,15959:0:0:0:0:
320,192,15753,1,0,0:0:0:0:
64,192,15753,128,0,15959:0:0:0:0:
320,192,15890,128,0,15959:0:0:0:0:
64,192,16027,1,0,0:0:0:0:
448,192,16027,1,0,0:0:0:0:
192,192,16164,1,0,0:0:0:0:
320,192,16301,1,0,0:0:0:0:
448,192,16438,1,0,0:0:0:0:
64,192,16438,128,0,16506:0:0:0:0:
192,192,16574,128,0,16643:0:0:0:0:
320,192,16711,128,0,16780:0:0:0:0:
64,192,16848,128,0,16917:0:0:0:0:
448,192,16848,1,0,0:0:0:0:
192,192,16985,128,0,17053:0:0:0:0:
448,192,17122,128,0,17190:0:0:0:0:
64,192,17122,1,0,0:0:0:0:
320,192,17259,128,0,17327:0:0:0:0:
192,192,17396,128,0,17464:0:0:0:0:
448,192,17532,128,0,17601:0:0:0:0:
320,192,17669,128,0,17738:0:0:0:0:
192,192,17669,1,0,0:0:0:0:
64,192,17806,128,0,17875:0:0:0:0:
192,192,17943,128,0,18011:0:0:0:0:
320,192,17943,1,0,0:0:0:0:
320,192,18080,128,0,18148:0:0:0:0:
64,192,18217,128,0,18422:0:0:0:0:
448,192,18353,128,0,18490:0:0:0:0:
192,192,18490,128,0,18696:0:0:0:0:
64,192,18490,1,0,0:0:0:0:
448,192,18627,128,0,18764:0:0:0:0:
320,192,18764,128,0,18969:0:0:0:0:
64,192,18764,1,0,0:0:0:0:
192,192,18798,1,0,0:0:0:0:
448,192,18901,128,0,19038:0:0:0:0:
64,192,19038,1,0,0:0:0:0:
192,192,19072,1,0,0:0:0:0:
320,192,19106,1,0,0:0:0:0:
448,192,19175,128,0,19311:0:0:0:0:
192,192,19311,128,0,19517:0:0:0:0:
64,192,19448,128,0,19585:0:0:0:0:
320,192,19585,128,0,19790:0:0:0:0:
64,192,19722,128,0,19859:0:0:0:0:
448,192,19859,128,0,20064:0:0:0:0:
64,192,19996,128,0,20133:0:0:0:0:
448,192,20133,128,0,20338:0:0:0:0:
64,192,20269,128,0,20406:0:0:0:0:
192,192,20406,128,0,20612:0:0:0:0:
320,192,20475,128,0,20885:0:0:0:0:
448,192,20543,128,0,21159:0:0:0:0:
192,192,20680,128,0,21022:0:0:0:0:
64,192,20817,128,0,21159:0:0:0:0:
320,192,20954,128,0,21159:0:0:0:0:
192,192,21090,128,0,21980:0:0:0:0:
320,192,21227,128,0,22254:0:0:0:0:
448,192,21227,128,0,22527:0:0:0:0:
64,192,21227,128,0,21433:0:0:0:0:
64,192,21501,128,0,21706:0:0:0:0:
64,192,21775,128,0,21980:0:0:0:0:
192,192,22048,128,0,22185:0:0:0:0:
320,192,22322,128,0,22391:0:0:0:0:
448,192,22596,1,0,0:0:0:0:
64,192,22596,128,0,22733:0:0:0:0:
320,192,22733,128,0,22870:0:0:0:0:
192,192,22870,128,0,23006:0:0:0:0:
64,192,23006,128,0,23554:0:0:0:0:
448,192,23417,1,0,0:0:0:0:
320,192,23485,1,0,0:0:0:0:
192,192,23554,1,0,0:0:0:0:
64,192,23622,1,0,0:0:0:0:
320,192,23691,1,0,0:0:0:0:
448,192,23691,128,0,24717:0:0:0:0:
64,192,24238,128,0,24717:0:0:0:0:
192,192,24238,128,0,24717:0:0:0:0:
320,192,24238,128,0,24717:0:0:0:0:
64,192,24785,128,0,24991:0:0:0:0:
448,192,24785,128,0,24991:0:0:0:0:
64,192,25196,128,0,26359:0:0:0:0:
448,192,25196,128,0,26359:0:0:0:0:
64,192,26428,128,0,26633:0:0:0:0:
448,192,26428,128,0,26633:0:0:0:0:
64,192,26701,128,0,26907:0:0:0:0:
448,192,26701,128,0,26907:0:0:0:0:
64,192,26975,128,0,28480:0:0:0:0:
448,192,26975,128,0,28480:0:0:0:0:
192,192,27386,128,0,28480:0:0:0:0:
320,192,27386,128,0,28480:0:0:0:0:
64,192,28617,128,0,28822:0:0:0:0:
448,192,28617,128,0,28822:0:0:0:0:
192,192,28891,128,0,29096:0:0:0:0:
320,192,28891,128,0,29096:0:0:0:0:
64,192,29165,128,0,32928:0:0:0:0:
320,192,29165,1,0,0:0:0:0:
448,192,29165,128,0,29233:0:0:0:0:
448,192,29438,128,0,29507:0:0:0:0:
320,192,29438,1,0,0:0:0:0:
192,192,29575,1,0,0:0:0:0:
448,192,29712,128,0,29780:0:0:0:0:
320,192,29712,1,0,0:0:0:0:
448,192,29986,128,0,30054:0:0:0:0:
320,192,29986,1,0,0:0:0:0:
448,192,30259,128,0,30328:0:0:0:0:
320,192,30259,1,0,0:0:0:0:
320,192,30533,1,0,0:0:0:0:
448,192,30533,128,0,30602:0:0:0:0:
192,192,30738,1,0,0:0:0:0:
320,192,30807,1,0,0:0:0:0:
448,192,30807,128,0,30875:0:0:0:0:
192,192,31012,1,0,0:0:0:0:
320,192,31080,1,0,0:0:0:0:
448,192,31080,128,0,31149:0:0:0:0:
448,192,31354,128,0,31423:0:0:0:0:
320,192,31354,1,0,0:0:0:0:
192,192,31354,1,0,0:0:0:0:
448,192,31628,128,0,31696:0:0:0:0:
320,192,31628,1,0,0:0:0:0:
192,192,31696,1,0,0:0:0:0:
192,192,31833,1,0,0:0:0:0:
448,192,31902,128,0,31970:0:0:0:0:
320,192,31902,1,0,0:0:0:0:
320,192,32175,1,0,0:0:0:0:
448,192,32175,128,0,32244:0:0:0:0:
320,192,32449,1,0,0:0:0:0:
448,192,32449,128,0,32517:0:0:0:0:
320,192,32723,1,0,0:0:0:0:
448,192,32723,128,0,32791:0:0:0:0:
320,192,32996,1,0,0:0:0:0:
448,192,32996,128,0,33475:0:0:0:0:
64,192,33065,1,0,0:0:0:0:
320,192,33133,1,0,0:0:0:0:
64,192,33202,1,0,0:0:0:0:
320,192,33270,1,0,0:0:0:0:
64,192,33339,1,0,0:0:0:0:
320,192,33407,1,0,0:0:0:0:
64,192,33475,1,0,0:0:0:0:
192,192,33544,1,0,0:0:0:0:
320,192,33544,128,0,33612:0:0:0:0:
448,192,33544,128,0,33681:0:0:0:0:
64,192,33681,1,0,0:0:0:0:
192,192,33681,1,0,0:0:0:0:
448,192,33749,1,0,0:0:0:0:
320,192,33817,1,0,0:0:0:0:
448,192,33886,1,0,0:0:0:0:
192,192,33954,128,0,34023:0:0:0:0:
64,192,33954,128,0,34091:0:0:0:0:
320,192,33954,1,0,0:0:0:0:
320,192,34091,1,0,0:0:0:0:
448,192,34160,1,0,0:0:0:0:
192,192,34228,1,0,0:0:0:0:
64,192,34296,1,0,0:0:0:0:
192,192,34365,1,0,0:0:0:0:
320,192,34365,128,0,34433:0:0:0:0:
448,192,34365,128,0,34502:0:0:0:0:
64,192,34502,1,0,0:0:0:0:
192,192,34502,1,0,0:0:0:0:
448,192,34570,1,0,0:0:0:0:
320,192,34639,1,0,0:0:0:0:
448,192,34707,1,0,0:0:0:0:
320,192,34775,1,0,0:0:0:0:
192,192,34775,128,0,34844:0:0:0:0:
64,192,34775,128,0,34912:0:0:0:0:
448,192,34912,1,0,0:0:0:0:
320,192,34981,1,0,0:0:0:0:
64,192,35049,1,0,0:0:0:0:
192,192,35118,1,0,0:0:0:0:
448,192,35186,128,0,35391:0:0:0:0:
320,192,35186,128,0,35323:0:0:0:0:
64,192,35254,128,0,35391:0:0:0:0:
192,192,35323,128,0,35391:0:0:0:0:
320,192,35391,1,0,0:0:0:0:
192,192,35460,128,0,35597:0:0:0:0:
64,192,35460,128,0,35665:0:0:0:0:
448,192,35528,128,0,35665:0:0:0:0:
320,192,35597,128,0,35665:0:0:0:0:
192,192,35665,1,0,0:0:0:0:
320,192,35733,1,0,0:0:0:0:
448,192,35733,1,0,0:0:0:0:
64,192,35733,1,0,0:0:0:0:
448,192,36007,1,0,0:0:0:0:
64,192,36007,128,0,36212:0:0:0:0:
64,192,36281,1,0,0:0:0:0:
448,192,36281,128,0,36691:0:0:0:0:
192,192,36418,1,0,0:0:0:0:
320,192,36486,1,0,0:0:0:0:
64,192,36554,1,0,0:0:0:0:
192,192,36623,1,0,0:0:0:0:
320,192,36691,1,0,0:0:0:0:
64,192,36760,1,0,0:0:0:0:
320,192,36828,128,0,36965:0:0:0:0:
448,192,36828,128,0,36965:0:0:0:0:
64,192,36965,1,0,0:0:0:0:
448,192,37033,1,0,0:0:0:0:
64,192,37102,128,0,37239:0:0:0:0:
192,192,37102,128,0,37239:0:0:0:0:
448,192,37239,1,0,0:0:0:0:
64,192,37307,1,0,0:0:0:0:
320,192,37376,128,0,37512:0:0:0:0:
448,192,37376,128,0,37581:0:0:0:0:
192,192,37444,1,0,0:0:0:0:
64,192,37512,1,0,0:0:0:0:
320,192,37581,1,0,0:0:0:0:
192,192,37649,128,0,37786:0:0:0:0:
64,192,37649,128,0,37855:0:0:0:0:
448,192,37718,1,0,0:0:0:0:
320,192,37786,1,0,0:0:0:0:
192,192,37855,1,0,0:0:0:0:
64,192,37923,1,0,0:0:0:0:
320,192,37960,1,0,0:0:0:0:
448,192,37994,1,0,0:0:0:0:
192,192,38063,1,0,0:0:0:0:
64,192,38131,1,0,0:0:0:0:
320,192,38200,128,0,38268:0:0:0:0:
192,192,38234,128,0,38302:0:0:0:0:
64,192,38268,128,0,38337:0:0:0:0:
448,192,38337,1,0,0:0:0:0:
320,192,38405,1,0,0:0:0:0:
448,192,38473,1,0,0:0:0:0:
64,192,38542,128,0,38610:0:0:0:0:
192,192,38576,128,0,38645:0:0:0:0:
320,192,38610,128,0,38679:0:0:0:0:
192,192,38747,1,0,0:0:0:0:
64,192,38816,1,0,0:0:0:0:
448,192,38884,1,0,0:0:0:0:
320,192,38918,1,0,0:0:0:0:
192,192,39021,128,0,39067:0:0:0:0:
64,192,39067,128,0,39112:0:0:0:0:
320,192,39112,128,0,39158:0:0:0:0:
448,192,39158,128,0,39203:0:0:0:0:
64,192,39203,1,0,0:0:0:0:
192,192,39249,1,0,0:0:0:0:
320,192,39295,128,0,39386:0:0:0:0:
448,192,39340,128,0,39431:0:0:0:0:
192,192,39431,128,0,39523:0:0:0:0:
320,192,39477,128,0,39568:0:0:0:0:
64,192,39568,128,0,39705:0:0:0:0:
448,192,39614,128,0,39751:0:0:0:0:
192,192,39705,1,0,0:0:0:0:
320,192,39774,1,0,0:0:0:0:
192,192,39842,1,0,0:0:0:0:
448,192,39910,1,0,0:0:0:0:
64,192,39979,1,0,0:0:0:0:
448,192,40047,1,0,0:0:0:0:
320,192,40116,1,0,0:0:0:0:
192,192,40150,1,0,0:0:0:0:
64,192,40184,1,0,0:0:0:0:
320,192,40253,1,0,0:0:0:0:
448,192,40321,1,0,0:0:0:0:
192,192,40389,128,0,40458:0:0:0:0:
320,192,40424,128,0,40492:0:0:0:0:
448,192,40458,128,0,40526:0:0:0:0:
64,192,40526,1,0,0:0:0:0:
192,192,40595,1,0,0:0:0:0:
64,192,40663,1,0,0:0:0:0:
448,192,40732,128,0,40800:0:0:0:0:
320,192,40766,128,0,40834:0:0:0:0:
192,192,40800,128,0,40869:0:0:0:0:
320,192,40937,1,0,0:0:0:0:
448,192,41005,1,0,0:0:0:0:
64,192,41074,1,0,0:0:0:0:
192,192,41108,1,0,0:0:0:0:
320,192,41211,128,0,41245:0:0:0:0:
448,192,41245,128,0,41279:0:0:0:0:
64,192,41348,128,0,41382:0:0:0:0:
192,192,41382,128,0,41416:0:0:0:0:
320,192,41484,128,0,41553:0:0:0:0:
448,192,41553,128,0,41621:0:0:0:0:
64,192,41621,128,0,41690:0:0:0:0:
192,192,41690,128,0,41758:0:0:0:0:
448,192,41758,128,0,41849:0:0:0:0:
320,192,41804,128,0,41895:0:0:0:0:
64,192,41849,1,0,0:0:0:0:
192,192,41895,1,0,0:0:0:0:
320,192,41941,128,0,42032:0:0:0:0:
448,192,41986,128,0,42077:0:0:0:0:
192,192,42032,1,0,0:0:0:0:
64,192,42077,1,0,0:0:0:0:
320,192,42123,1,0,0:0:0:0:
192,192,42169,1,0,0:0:0:0:
448,192,42214,1,0,0:0:0:0:
320,192,42260,1,0,0:0:0:0:
192,192,42306,1,0,0:0:0:0:
64,192,42306,1,0,0:0:0:0:
320,192,42374,1,0,0:0:0:0:
448,192,42408,1,0,0:0:0:0:
192,192,42442,1,0,0:0:0:0:
64,192,42511,1,0,0:0:0:0:
320,192,42579,128,0,42648:0:0:0:0:
192,192,42613,128,0,42682:0:0:0:0:
64,192,42648,128,0,42716:0:0:0:0:
448,192,42716,1,0,0:0:0:0:
320,192,42785,1,0,0:0:0:0:
448,192,42853,1,0,0:0:0:0:
64,192,42921,128,0,42990:0:0:0:0:
192,192,42956,128,0,43024:0:0:0:0:
320,192,42990,128,0,43058:0:0:0:0:
192,192,43127,1,0,0:0:0:0:
64,192,43195,1,0,0:0:0:0:
448,192,43264,1,0,0:0:0:0:
320,192,43298,1,0,0:0:0:0:
192,192,43400,128,0,43446:0:0:0:0:
64,192,43446,128,0,43492:0:0:0:0:
320,192,43492,128,0,43537:0:0:0:0:
448,192,43537,128,0,43583:0:0:0:0:
64,192,43583,1,0,0:0:0:0:
192,192,43629,1,0,0:0:0:0:
320,192,43674,128,0,43765:0:0:0:0:
448,192,43720,128,0,43811:0:0:0:0:
192,192,43811,128,0,43902:0:0:0:0:
320,192,43857,128,0,43948:0:0:0:0:
64,192,43948,128,0,44176:0:0:0:0:
448,192,44085,128,0,44176:0:0:0:0:
320,192,44130,128,0,44176:0:0:0:0:
192,192,44176,1,0,0:0:0:0:
64,192,44222,128,0,44358:0:0:0:0:
192,192,44267,128,0,44358:0:0:0:0:
320,192,44313,128,0,44358:0:0:0:0:
448,192,44358,128,0,44495:0:0:0:0:
320,192,44495,1,0,0:0:0:0:
192,192,44495,128,0,44564:0:0:0:0:
64,192,44495,128,0,44632:0:0:0:0:
448,192,44632,128,0,44769:0:0:0:0:
320,192,44769,1,0,0:0:0:0:
192,192,44837,128,0,44906:0:0:0:0:
64,192,44837,128,0,44974:0:0:0:0:
448,192,44837,1,0,0:0:0:0:
192,192,45043,1,0,0:0:0:0:
320,192,45043,128,0,45111:0:0:0:0:
448,192,45043,128,0,45180:0:0:0:0:
320,192,45248,1,0,0:0:0:0:
192,192,45248,128,0,45317:0:0:0:0:
64,192,45248,128,0,45385:0:0:0:0:
448,192,45385,1,0,0:0:0:0:
192,192,45453,1,0,0:0:0:0:
64,192,45522,128,0,46411:0:0:0:0:
192,192,45590,1,0,0:0:0:0:
320,192,45590,128,0,45659:0:0:0:0:
448,192,45590,128,0,45727:0:0:0:0:
448,192,45796,1,0,0:0:0:0:
320,192,45796,128,0,45864:0:0:0:0:
192,192,45796,128,0,45932:0:0:0:0:
192,192,46001,1,0,0:0:0:0:
320,192,46001,128,0,46069:0:0:0:0:
448,192,46001,128,0,46138:0:0:0:0:
320,192,46206,128,0,46343:0:0:0:0:
192,192,46206,128,0,46275:0:0:0:0:
448,192,46206,1,0,0:0:0:0:
192,192,46411,1,0,0:0:0:0:
320,192,46411,1,0,0:0:0:0:
448,192,46411,128,0,46617:0:0:0:0:
192,192,46685,1,0,0:0:0:0:
64,192,46685,128,0,46822:0:0:0:0:
448,192,46754,1,0,0:0:0:0:
320,192,46822,1,0,0:0:0:0:
192,192,46856,1,0,0:0:0:0:
64,192,46959,1,0,0:0:0:0:
448,192,46959,128,0,47096:0:0:0:0:
192,192,47096,1,0,0:0:0:0:
320,192,47130,1,0,0:0:0:0:
64,192,47233,128,0,47369:0:0:0:0:
448,192,47233,1,0,0:0:0:0:
320,192,47301,1,0,0:0:0:0:
192,192,47369,1,0,0:0:0:0:
64,192,47404,1,0,0:0:0:0:
320,192,47506,1,0,0:0:0:0:
448,192,47506,128,0,47643:0:0:0:0:
64,192,47575,1,0,0:0:0:0:
192,192,47643,1,0,0:0:0:0:
320,192,47677,1,0,0:0:0:0:
64,192,47746,1,0,0:0:0:0:
192,192,47780,128,0,47985:0:0:0:0:
320,192,47780,128,0,47985:0:0:0:0:
192,192,48054,128,0,48259:0:0:0:0:
320,192,48054,128,0,48259:0:0:0:0:
192,192,48327,128,0,48396:0:0:0:0:
320,192,48327,128,0,48396:0:0:0:0:
192,192,48464,128,0,48533:0:0:0:0:
320,192,48464,128,0,48533:0:0:0:0:
192,192,48601,128,0,48806:0:0:0:0:
320,192,48601,128,0,48806:0:0:0:0:
64,192,48738,128,0,48806:0:0:0:0:
448,192,48738,128,0,48806:0:0:0:0:
320,192,48875,1,0,0:0:0:0:
448,192,48875,128,0,49012:0:0:0:0:
64,192,48943,1,0,0:0:0:0:
192,192,49012,1,0,0:0:0:0:
320,192,49046,1,0,0:0:0:0:
448,192,49149,1,0,0:0:0:0:
64,192,49149,128,0,49285:0:0:0:0:
320,192,49217,1,0,0:0:0:0:
192,192,49285,1,0,0:0:0:0:
64,192,49320,1,0,0:0:0:0:
448,192,49422,128,0,49559:0:0:0:0:
320,192,49422,128,0,49491:0:0:0:0:
64,192,49491,128,0,49559:0:0:0:0:
192,192,49559,128,0,49628:0:0:0:0:
320,192,49593,128,0,49662:0:0:0:0:
64,192,49696,128,0,49833:0:0:0:0:
448,192,49696,1,0,0:0:0:0:
320,192,49764,1,0,0:0:0:0:
192,192,49833,1,0,0:0:0:0:
64,192,49867,1,0,0:0:0:0:
64,192,49970,128,0,50175:0:0:0:0:
448,192,49970,128,0,50175:0:0:0:0:
64,192,50244,128,0,50380:0:0:0:0:
448,192,50244,128,0,50380:0:0:0:0:
64,192,50449,1,0,0:0:0:0:
448,192,50449,1,0,0:0:0:0:
64,192,50517,1,0,0:0:0:0:
448,192,50517,1,0,0:0:0:0:
448,192,50654,1,0,0:0:0:0:
64,192,50654,128,0,50928:0:0:0:0:
192,192,50723,128,0,50859:0:0:0:0:
320,192,50791,128,0,50928:0:0:0:0:
448,192,50859,128,0,50996:0:0:0:0:
192,192,50928,1,0,0:0:0:0:
320,192,50996,1,0,0:0:0:0:
192,192,51065,1,0,0:0:0:0:
64,192,51065,1,0,0:0:0:0:
448,192,51202,1,0,0:0:0:0:
320,192,51247,1,0,0:0:0:0:
448,192,51293,1,0,0:0:0:0:
192,192,51338,128,0,51373:0:0:0:0:
64,192,51373,128,0,51407:0:0:0:0:
320,192,51475,128,0,51509:0:0:0:0:
192,192,51509,128,0,51544:0:0:0:0:
448,192,51612,128,0,51646:0:0:0:0:
64,192,51612,1,0,0:0:0:0:
320,192,51646,128,0,51681:0:0:0:0:
192,192,51749,128,0,51783:0:0:0:0:
320,192,51783,128,0,51817:0:0:0:0:
64,192,51886,128,0,51920:0:0:0:0:
192,192,51920,128,0,51954:0:0:0:0:
320,192,52023,128,0,52057:0:0:0:0:
448,192,52057,128,0,52091:0:0:0:0:
64,192,52160,1,0,0:0:0:0:
192,192,52160,128,0,52251:0:0:0:0:
320,192,52205,128,0,52296:0:0:0:0:
448,192,52251,128,0,52342:0:0:0:0:
64,192,52296,128,0,52342:0:0:0:0:
192,192,52342,128,0,52388:0:0:0:0:
320,192,52388,128,0,52433:0:0:0:0:
448,192,52433,128,0,52479:0:0:0:0:
64,192,52433,128,0,52502:0:0:0:0:
64,192,52570,128,0,52639:0:0:0:0:
64,192,52707,128,0,52912:0:0:0:0:
448,192,52707,128,0,52775:0:0:0:0:
320,192,52741,128,0,52810:0:0:0:0:
192,192,52775,128,0,52844:0:0:0:0:
448,192,52981,128,0,53186:0:0:0:0:
64,192,52981,128,0,53049:0:0:0:0:
192,192,53015,128,0,53083:0:0:0:0:
320,192,53049,128,0,53118:0:0:0:0:
64,192,53254,128,0,53528:0:0:0:0:
192,192,53460,128,0,53528:0:0:0:0:
320,192,53460,128,0,53528:0:0:0:0:
448,192,53460,128,0,53528:0:0:0:0:
448,192,53665,128,0,54007:0:0:0:0:
320,192,53665,128,0,53802:0:0:0:0:
192,192,53802,128,0,53870:0:0:0:0:
64,192,53802,128,0,53870:0:0:0:0:
64,192,53939,128,0,54007:0:0:0:0:
192,192,53939,128,0,54007:0:0:0:0:
320,192,53939,128,0,54007:0:0:0:0:
320,192,54076,128,0,54144:0:0:0:0:
448,192,54076,128,0,54144:0:0:0:0:
64,192,54076,128,0,54692:0:0:0:0:
448,192,54349,1,0,0:0:0:0:
448,192,54418,1,0,0:0:0:0:
448,192,54486,1,0,0:0:0:0:
192,192,54623,128,0,54692:0:0:0:0:
320,192,54623,128,0,54692:0:0:0:0:
448,192,54623,128,0,54692:0:0:0:0:
64,192,54897,1,0,0:0:0:0:
192,192,54897,1,0,0:0:0:0:
320,192,54897,1,0,0:0:0:0:
448,192,54897,1,0,0:0:0:0:
64,192,55079,1,0,0:0:0:0:
320,192,55079,1,0,0:0:0:0:
448,192,55079,1,0,0:0:0:0:
192,192,55079,1,0,0:0:0:0:
64,192,55262,1,0,0:0:0:0:
192,192,55262,1,0,0:0:0:0:
320,192,55262,1,0,0:0:0:0:
448,192,55262,1,0,0:0:0:0:
64,192,55444,128,0,55478:0:0:0:0:
192,192,55478,128,0,55513:0:0:0:0:
448,192,55513,128,0,55547:0:0:0:0:
320,192,55547,128,0,55581:0:0:0:0:
64,192,55581,128,0,55615:0:0:0:0:
192,192,55615,128,0,55650:0:0:0:0:
448,192,55650,128,0,55684:0:0:0:0:
320,192,55684,128,0,55718:0:0:0:0:
64,192,55718,128,0,55764:0:0:0:0:
192,192,55764,128,0,55809:0:0:0:0:
448,192,55809,128,0,55855:0:0:0:0:
320,192,55855,128,0,55900:0:0:0:0:
192,192,55900,128,0,55946:0:0:0:0:
64,192,55946,128,0,55992:0:0:0:0:
448,192,55992,128,0,56129:0:0:0:0:
320,192,56026,1,0,0:0:0:0:
192,192,56060,1,0,0:0:0:0:
448,192,56197,128,0,56334:0:0:0:0:
192,192,56231,1,0,0:0:0:0:
64,192,56265,1,0,0:0:0:0:
448,192,56402,128,0,56539:0:0:0:0:
320,192,56436,1,0,0:0:0:0:
192,192,56471,1,0,0:0:0:0:
448,192,56608,128,0,56744:0:0:0:0:
192,192,56642,1,0,0:0:0:0:
64,192,56676,1,0,0:0:0:0:
448,192,56813,128,0,56950:0:0:0:0:
320,192,56847,1,0,0:0:0:0:
192,192,56881,1,0,0:0:0:0:
448,192,57018,128,0,57155:0:0:0:0:
192,192,57052,1,0,0:0:0:0:
64,192,57087,1,0,0:0:0:0:
448,192,57223,128,0,57360:0:0:0:0:
320,192,57258,1,0,0:0:0:0:
192,192,57292,1,0,0:0:0:0:
448,192,57429,128,0,57566:0:0:0:0:
192,192,57429,1,0,0:0:0:0:
64,192,57463,1,0,0:0:0:0:
320,192,57566,1,0,0:0:0:0:
192,192,57634,128,0,57668:0:0:0:0:
64,192,57668,128,0,57702:0:0:0:0:
320,192,57702,128,0,57737:0:0:0:0:
448,192,57737,128,0,57771:0:0:0:0:
192,192,57771,128,0,57805:0:0:0:0:
64,192,57805,128,0,57839:0:0:0:0:
320,192,57839,128,0,57874:0:0:0:0:
448,192,57874,128,0,57908:0:0:0:0:
192,192,57908,128,0,57953:0:0:0:0:
64,192,57953,128,0,57999:0:0:0:0:
320,192,57999,128,0,58045:0:0:0:0:
192,192,58045,128,0,58090:0:0:0:0:
448,192,58090,128,0,58136:0:0:0:0:
320,192,58136,128,0,58181:0:0:0:0:
64,192,58181,128,0,58318:0:0:0:0:
192,192,58216,1,0,0:0:0:0:
320,192,58250,1,0,0:0:0:0:
64,192,58387,128,0,58524:0:0:0:0:
320,192,58421,1,0,0:0:0:0:
448,192,58455,1,0,0:0:0:0:
64,192,58592,128,0,58729:0:0:0:0:
192,192,58626,1,0,0:0:0:0:
320,192,58660,1,0,0:0:0:0:
64,192,58797,128,0,58934:0:0:0:0:
320,192,58832,1,0,0:0:0:0:
448,192,58866,1,0,0:0:0:0:
64,192,59003,128,0,59139:0:0:0:0:
192,192,59037,1,0,0:0:0:0:
320,192,59071,1,0,0:0:0:0:
64,192,59208,128,0,59345:0:0:0:0:
320,192,59242,1,0,0:0:0:0:
448,192,59276,1,0,0:0:0:0:
64,192,59413,128,0,59482:0:0:0:0:
448,192,59447,1,0,0:0:0:0:
64,192,59550,128,0,59619:0:0:0:0:
192,192,59550,1,0,0:0:0:0:
64,192,59687,128,0,59755:0:0:0:0:
320,192,59721,1,0,0:0:0:0:
64,192,59824,128,0,60052:0:0:0:0:
192,192,59869,128,0,60006:0:0:0:0:
320,192,59915,128,0,59961:0:0:0:0:
448,192,59961,128,0,60052:0:0:0:0:
320,192,60006,128,0,60098:0:0:0:0:
192,192,60052,128,0,60143:0:0:0:0:
64,192,60098,128,0,60189:0:0:0:0:
320,192,60143,128,0,60234:0:0:0:0:
192,192,60189,128,0,60280:0:0:0:0:
448,192,60234,128,0,60326:0:0:0:0:
320,192,60280,128,0,60326:0:0:0:0:
64,192,60326,128,0,60371:0:0:0:0:
448,192,60371,128,0,60508:0:0:0:0:
320,192,60405,1,0,0:0:0:0:
192,192,60440,1,0,0:0:0:0:
448,192,60577,128,0,60713:0:0:0:0:
192,192,60611,1,0,0:0:0:0:
64,192,60645,1,0,0:0:0:0:
448,192,60782,128,0,60919:0:0:0:0:
320,192,60816,1,0,0:0:0:0:
192,192,60850,1,0,0:0:0:0:
448,192,60987,128,0,61124:0:0:0:0:
192,192,61021,1,0,0:0:0:0:
64,192,61056,1,0,0:0:0:0:
448,192,61192,128,0,61329:0:0:0:0:
320,192,61227,1,0,0:0:0:0:
192,192,61261,1,0,0:0:0:0:
448,192,61398,128,0,61535:0:0:0:0:
192,192,61432,1,0,0:0:0:0:
64,192,61466,1,0,0:0:0:0:
448,192,61603,128,0,61740:0:0:0:0:
320,192,61637,1,0,0:0:0:0:
192,192,61671,1,0,0:0:0:0:
448,192,61808,128,0,61945:0:0:0:0:
192,192,61808,1,0,0:0:0:0:
64,192,61843,1,0,0:0:0:0:
320,192,61945,1,0,0:0:0:0:
192,192,62014,128,0,62082:0:0:0:0:
64,192,62014,128,0,62150:0:0:0:0:
448,192,62014,1,0,0:0:0:0:
320,192,62150,128,0,62219:0:0:0:0:
448,192,62219,128,0,62287:0:0:0:0:
192,192,62287,128,0,62356:0:0:0:0:
64,192,62356,128,0,62424:0:0:0:0:
192,192,62424,128,0,62493:0:0:0:0:
64,192,62493,128,0,62561:0:0:0:0:
192,192,62561,1,0,0:0:0:0:
320,192,62561,128,0,62629:0:0:0:0:
448,192,62561,128,0,62698:0:0:0:0:
64,192,62629,128,0,62698:0:0:0:0:
192,192,62698,128,0,62766:0:0:0:0:
448,192,62766,128,0,62835:0:0:0:0:
320,192,62835,128,0,62903:0:0:0:0:
64,192,62903,128,0,62972:0:0:0:0:
320,192,62972,128,0,63040:0:0:0:0:
448,192,63040,128,0,63108:0:0:0:0:
320,192,63108,1,0,0:0:0:0:
192,192,63108,128,0,63177:0:0:0:0:
64,192,63108,128,0,63245:0:0:0:0:
448,192,63177,128,0,63245:0:0:0:0:
320,192,63245,128,0,63314:0:0:0:0:
64,192,63314,128,0,63382:0:0:0:0:
448,192,63382,128,0,63451:0:0:0:0:
192,192,63451,128,0,63519:0:0:0:0:
448,192,63519,128,0,63587:0:0:0:0:
320,192,63587,128,0,63656:0:0:0:0:
64,192,63656,128,0,63724:0:0:0:0:
192,192,63656,128,0,63724:0:0:0:0:
320,192,63724,128,0,63793:0:0:0:0:
448,192,63724,128,0,63861:0:0:0:0:
192,192,63793,128,0,63930:0:0:0:0:
64,192,63793,128,0,63861:0:0:0:0:
320,192,63861,128,0,63998:0:0:0:0:
448,192,63930,128,0,63998:0:0:0:0:
64,192,63930,128,0,64067:0:0:0:0:
192,192,63998,128,0,64135:0:0:0:0:
320,192,64067,128,0,64135:0:0:0:0:
448,192,64067,128,0,64135:0:0:0:0:
64,192,64135,128,0,64203:0:0:0:0:
320,192,64203,1,0,0:0:0:0:
448,192,64203,1,0,0:0:0:0:
448,192,64477,1,0,0:0:0:0:
448,192,64751,1,0,0:0:0:0:
448,192,65025,1,0,0:0:0:0:
448,192,65298,1,0,0:0:0:0:
448,192,65572,1,0,0:0:0:0:
448,192,65846,1,0,0:0:0:0:
448,192,66119,1,0,0:0:0:0:
448,192,66393,1,0,0:0:0:0:
448,192,66667,1,0,0:0:0:0:
448,192,66941,1,0,0:0:0:0:
448,192,67214,1,0,0:0:0:0:
448,192,67488,1,0,0:0:0:0:
448,192,67762,1,0,0:0:0:0:
448,192,68035,1,0,0:0:0:0:
448,192,68309,1,0,0:0:0:0:
448,192,68583,1,0,0:0:0:0:
64,192,68583,1,0,0:0:0:0:
64,192,68857,1,0,0:0:0:0:
64,192,69130,1,0,0:0:0:0:
64,192,69404,1,0,0:0:0:0:
64,192,69678,1,0,0:0:0:0:
64,192,69952,1,0,0:0:0:0:
64,192,70225,1,0,0:0:0:0:
320,192,70362,1,0,0:0:0:0:
448,192,70431,1,0,0:0:0:0:
320,192,70499,1,0,0:0:0:0:
64,192,70499,1,0,0:0:0:0:
448,192,70636,1,0,0:0:0:0:
320,192,70681,1,0,0:0:0:0:
448,192,70727,1,0,0:0:0:0:
64,192,70773,1,0,0:0:0:0:
192,192,70773,1,0,0:0:0:0:
448,192,70910,1,0,0:0:0:0:
192,192,71046,1,0,0:0:0:0:
320,192,71046,1,0,0:0:0:0:
448,192,71183,1,0,0:0:0:0:
64,192,71320,1,0,0:0:0:0:
192,192,71320,1,0,0:0:0:0:
320,192,71457,1,0,0:0:0:0:
64,192,71594,1,0,0:0:0:0:
192,192,71594,1,0,0:0:0:0:
448,192,71731,1,0,0:0:0:0:
320,192,71868,1,0,0:0:0:0:
192,192,71868,1,0,0:0:0:0:
448,192,72004,1,0,0:0:0:0:
64,192,72141,1,0,0:0:0:0:
192,192,72141,1,0,0:0:0:0:
448,192,72278,1,0,0:0:0:0:
192,192,72415,1,0,0:0:0:0:
320,192,72415,1,0,0:0:0:0:
448,192,72552,1,0,0:0:0:0:
64,192,72689,1,0,0:0:0:0:
192,192,72689,1,0,0:0:0:0:
320,192,72826,1,0,0:0:0:0:
64,192,72962,1,0,0:0:0:0:
192,192,72962,1,0,0:0:0:0:
448,192,72962,128,0,73168:0:0:0:0:
192,192,73099,128,0,73168:0:0:0:0:
320,192,73236,128,0,73442:0:0:0:0:
64,192,73373,128,0,73442:0:0:0:0:
192,192,73510,128,0,73715:0:0:0:0:
64,192,73647,128,0,73715:0:0:0:0:
448,192,73784,128,0,73989:0:0:0:0:
64,192,73921,128,0,73989:0:0:0:0:
192,192,73989,128,0,74057:0:0:0:0:
448,192,74057,128,0,74400:0:0:0:0:
64,192,74194,1,0,0:0:0:0:
192,192,74194,1,0,0:0:0:0:
320,192,74331,1,0,0:0:0:0:
192,192,74468,1,0,0:0:0:0:
64,192,74468,128,0,74879:0:0:0:0:
320,192,74605,1,0,0:0:0:0:
448,192,74605,1,0,0:0:0:0:
192,192,74742,1,0,0:0:0:0:
320,192,74879,1,0,0:0:0:0:
448,192,74879,1,0,0:0:0:0:
192,192,75015,1,0,0:0:0:0:
320,192,75152,1,0,0:0:0:0:
448,192,75152,1,0,0:0:0:0:
64,192,75152,1,0,0:0:0:0:
64,192,75289,1,0,0:0:0:0:
320,192,75289,1,0,0:0:0:0:
448,192,75289,1,0,0:0:0:0:
64,192,75426,1,0,0:0:0:0:
320,192,75426,1,0,0:0:0:0:
448,192,75426,1,0,0:0:0:0:
192,192,75563,1,0,0:0:0:0:
320,192,75700,1,0,0:0:0:0:
448,192,75700,1,0,0:0:0:0:
64,192,75837,1,0,0:0:0:0:
192,192,75973,1,0,0:0:0:0:
320,192,75973,1,0,0:0:0:0:
64,192,76110,1,0,0:0:0:0:
320,192,76247,1,0,0:0:0:0:
448,192,76247,1,0,0:0:0:0:
192,192,76384,1,0,0:0:0:0:
320,192,76521,1,0,0:0:0:0:
448,192,76521,1,0,0:0:0:0:
64,192,76658,1,0,0:0:0:0:
192,192,76795,1,0,0:0:0:0:
320,192,76795,1,0,0:0:0:0:
192,192,76977,1,0,0:0:0:0:
64,192,76977,1,0,0:0:0:0:
64,192,77068,1,0,0:0:0:0:
192,192,77068,1,0,0:0:0:0:
320,192,77160,1,0,0:0:0:0:
448,192,77160,1,0,0:0:0:0:
320,192,77251,1,0,0:0:0:0:
448,192,77251,1,0,0:0:0:0:
64,192,77342,128,0,78369:0:0:0:0:
192,192,77342,128,0,77889:0:0:0:0:
320,192,77342,128,0,77433:0:0:0:0:
448,192,77433,128,0,77525:0:0:0:0:
320,192,77525,128,0,77616:0:0:0:0:
448,192,77616,128,0,77707:0:0:0:0:
320,192,77707,128,0,77798:0:0:0:0:
448,192,77798,128,0,78369:0:0:0:0:
320,192,77889,128,0,77981:0:0:0:0:
192,192,77981,128,0,78072:0:0:0:0:
320,192,78072,128,0,78163:0:0:0:0:
192,192,78163,128,0,78254:0:0:0:0:
320,192,78254,128,0,78369:0:0:0:0:
192,192,78369,1,0,0:0:0:0:
448,192,78437,128,0,78642:0:0:0:0:
64,192,78437,128,0,78642:0:0:0:0:
64,192,78802,1,0,0:0:0:0:
448,192,78802,1,0,0:0:0:0:
64,192,78893,1,0,0:0:0:0:
448,192,78893,1,0,0:0:0:0:
64,192,78984,128,0,79076:0:0:0:0:
448,192,78984,128,0,79076:0:0:0:0:
64,192,79167,128,0,79258:0:0:0:0:
448,192,79167,128,0,79258:0:0:0:0:
64,192,79349,128,0,79441:0:0:0:0:
448,192,79349,128,0,79441:0:0:0:0:
448,192,79532,128,0,79806:0:0:0:0:
64,192,79532,128,0,79577:0:0:0:0:
192,192,79577,128,0,79623:0:0:0:0:
320,192,79623,128,0,79669:0:0:0:0:
64,192,79669,128,0,79714:0:0:0:0:
192,192,79714,128,0,79760:0:0:0:0:
320,192,79760,128,0,79806:0:0:0:0:
64,192,79806,128,0,79874:0:0:0:0:
192,192,79874,128,0,79942:0:0:0:0:
320,192,79942,128,0,80011:0:0:0:0:
448,192,80011,128,0,80079:0:0:0:0:
192,192,80079,128,0,80113:0:0:0:0:
64,192,80113,128,0,80148:0:0:0:0:
320,192,80216,128,0,80250:0:0:0:0:
448,192,80250,128,0,80285:0:0:0:0:
192,192,80353,128,0,80387:0:0:0:0:
64,192,80387,128,0,80421:0:0:0:0:
320,192,80490,128,0,80524:0:0:0:0:
448,192,80524,128,0,80558:0:0:0:0:
320,192,80627,1,0,0:0:0:0:
192,192,80627,128,0,80661:0:0:0:0:
64,192,80661,128,0,80695:0:0:0:0:
192,192,80764,128,0,80798:0:0:0:0:
64,192,80798,128,0,80832:0:0:0:0:
320,192,80900,128,0,80935:0:0:0:0:
448,192,80935,128,0,80969:0:0:0:0:
320,192,81037,128,0,81072:0:0:0:0:
448,192,81072,128,0,81106:0:0:0:0:
192,192,81174,128,0,81414:0:0:0:0:
64,192,81208,128,0,81448:0:0:0:0:
448,192,81448,128,0,81653:0:0:0:0:
320,192,81482,128,0,81687:0:0:0:0:
192,192,81722,128,0,81767:0:0:0:0:
320,192,81767,128,0,81813:0:0:0:0:
192,192,81813,128,0,81858:0:0:0:0:
320,192,81858,128,0,81904:0:0:0:0:
192,192,81995,128,0,82030:0:0:0:0:
192,192,82064,128,0,82098:0:0:0:0:
64,192,82132,128,0,82166:0:0:0:0:
64,192,82201,128,0,82235:0:0:0:0:
320,192,82269,128,0,82303:0:0:0:0:
448,192,82303,128,0,82337:0:0:0:0:
192,192,82406,128,0,82440:0:0:0:0:
64,192,82440,128,0,82474:0:0:0:0:
320,192,82543,128,0,82577:0:0:0:0:
448,192,82577,128,0,82611:0:0:0:0:
192,192,82680,128,0,82714:0:0:0:0:
64,192,82714,128,0,82748:0:0:0:0:
192,192,82817,1,0,0:0:0:0:
320,192,82817,128,0,82851:0:0:0:0:
448,192,82851,128,0,82885:0:0:0:0:
320,192,82953,128,0,82988:0:0:0:0:
448,192,82988,128,0,83022:0:0:0:0:
192,192,83090,128,0,83124:0:0:0:0:
64,192,83124,128,0,83159:0:0:0:0:
192,192,83227,128,0,83261:0:0:0:0:
64,192,83261,128,0,83296:0:0:0:0:
448,192,83364,128,0,83592:0:0:0:0:
320,192,83410,128,0,83546:0:0:0:0:
192,192,83455,128,0,83501:0:0:0:0:
64,192,83501,128,0,83729:0:0:0:0:
192,192,83546,128,0,83683:0:0:0:0:
320,192,83592,128,0,83638:0:0:0:0:
448,192,83638,128,0,83683:0:0:0:0:
320,192,83683,128,0,83729:0:0:0:0:
192,192,83729,128,0,83775:0:0:0:0:
64,192,83775,128,0,83843:0:0:0:0:
192,192,83911,128,0,84048:0:0:0:0:
320,192,83911,128,0,84117:0:0:0:0:
448,192,83911,128,0,84185:0:0:0:0:
64,192,84185,1,0,0:0:0:0:
192,192,84185,1,0,0:0:0:0:
320,192,84254,1,0,0:0:0:0:
448,192,84254,1,0,0:0:0:0:
64,192,84322,1,0,0:0:0:0:
192,192,84322,1,0,0:0:0:0:
192,192,84459,1,0,0:0:0:0:
320,192,84459,128,0,84527:0:0:0:0:
448,192,84459,128,0,84596:0:0:0:0:
448,192,84664,1,0,0:0:0:0:
192,192,84664,128,0,84801:0:0:0:0:
320,192,84664,128,0,84733:0:0:0:0:
192,192,84869,128,0,84938:0:0:0:0:
320,192,84869,128,0,85006:0:0:0:0:
448,192,84869,128,0,85075:0:0:0:0:
192,192,85143,1,0,0:0:0:0:
320,192,85143,128,0,85212:0:0:0:0:
448,192,85143,128,0,85280:0:0:0:0:
320,192,85280,1,0,0:0:0:0:
192,192,85280,128,0,85348:0:0:0:0:
64,192,85280,128,0,85417:0:0:0:0:
320,192,85417,1,0,0:0:0:0:
448,192,85417,1,0,0:0:0:0:
64,192,85485,1,0,0:0:0:0:
192,192,85485,1,0,0:0:0:0:
320,192,85554,1,0,0:0:0:0:
448,192,85554,1,0,0:0:0:0:
64,192,85691,128,0,85827:0:0:0:0:
192,192,85691,128,0,85759:0:0:0:0:
320,192,85691,1,0,0:0:0:0:
64,192,85896,1,0,0:0:0:0:
192,192,85896,128,0,85964:0:0:0:0:
320,192,85896,128,0,86033:0:0:0:0:
64,192,86101,128,0,86306:0:0:0:0:
192,192,86101,128,0,86238:0:0:0:0:
320,192,86101,128,0,86170:0:0:0:0:
448,192,86192,128,0,86238:0:0:0:0:
320,192,86238,128,0,86284:0:0:0:0:
192,192,86284,128,0,86329:0:0:0:0:
64,192,86329,128,0,86375:0:0:0:0:
448,192,86375,128,0,86512:0:0:0:0:
64,192,86512,128,0,86580:0:0:0:0:
192,192,86512,128,0,86580:0:0:0:0:
320,192,86512,128,0,86580:0:0:0:0:
192,192,86649,128,0,86717:0:0:0:0:
320,192,86649,128,0,86717:0:0:0:0:
448,192,86649,128,0,86717:0:0:0:0:
64,192,86785,128,0,86922:0:0:0:0:
192,192,86785,128,0,86922:0:0:0:0:
320,192,86785,128,0,86922:0:0:0:0:
192,192,86991,128,0,87128:0:0:0:0:
320,192,86991,128,0,87196:0:0:0:0:
448,192,86991,128,0,87264:0:0:0:0:
320,192,87333,128,0,87401:0:0:0:0:
192,192,87333,128,0,87401:0:0:0:0:
448,192,87333,128,0,87401:0:0:0:0:
64,192,87470,128,0,87538:0:0:0:0:
192,192,87470,128,0,87538:0:0:0:0:
320,192,87470,128,0,87538:0:0:0:0:
448,192,87607,1,0,0:0:0:0:
320,192,87675,1,0,0:0:0:0:
192,192,87744,128,0,87880:0:0:0:0:
64,192,87744,128,0,87880:0:0:0:0:
448,192,87744,128,0,87880:0:0:0:0:
192,192,87949,128,0,88086:0:0:0:0:
320,192,87949,128,0,88086:0:0:0:0:
448,192,87949,128,0,88086:0:0:0:0:
320,192,88154,128,0,88223:0:0:0:0:
448,192,88154,128,0,88223:0:0:0:0:
64,192,88154,128,0,88223:0:0:0:0:
192,192,88291,128,0,91097:0:0:0:0:
64,192,88291,128,0,91507:0:0:0:0:
320,192,88291,128,0,90412:0:0:0:0:
448,192,88291,128,0,90960:0:0:0:0:
320,192,90481,128,0,90823:0:0:0:0:
320,192,90891,128,0,91233:0:0:0:0:
448,192,91028,128,0,91370:0:0:0:0:
192,192,91165,128,0,91576:0:0:0:0:
320,192,91302,128,0,91644:0:0:0:0:
448,192,91439,128,0,91712:0:0:0:0:
64,192,91576,128,0,91712:0:0:0:0:
192,192,91644,128,0,91781:0:0:0:0:
320,192,91712,128,0,91849:0:0:0:0:
448,192,91781,128,0,92602:0:0:0:0:
64,192,92397,128,0,92602:0:0:0:0:
64,192,92671,1,0,0:0:0:0:
192,192,92671,1,0,0:0:0:0:
448,192,92671,128,0,94792:0:0:0:0:
192,192,93765,128,0,94244:0:0:0:0:
64,192,94313,128,0,94792:0:0:0:0:
192,192,94860,128,0,95339:0:0:0:0:
320,192,95408,128,0,95750:0:0:0:0:
192,192,95818,128,0,95887:0:0:0:0:
64,192,95887,128,0,96297:0:0:0:0:
192,192,96503,128,0,96982:0:0:0:0:
320,192,96503,128,0,96639:0:0:0:0:
448,192,96776,128,0,96913:0:0:0:0:
448,192,97050,128,0,98008:0:0:0:0:
320,192,97050,128,0,98008:0:0:0:0:
192,192,98145,128,0,98556:0:0:0:0:
320,192,98145,128,0,98556:0:0:0:0:
64,192,98692,128,0,99171:0:0:0:0:
192,192,98692,128,0,99171:0:0:0:0:
64,192,99240,128,0,100335:0:0:0:0:
320,192,99240,128,0,100335:0:0:0:0:
448,192,100335,128,0,101361:0:0:0:0:
192,192,100335,128,0,100814:0:0:0:0:
64,192,100882,128,0,100916:0:0:0:0:
64,192,101156,128,0,101190:0:0:0:0:
64,192,101430,1,0,0:0:0:0:
192,192,101430,1,0,0:0:0:0:
448,192,101430,128,0,102525:0:0:0:0:
320,192,101840,1,0,0:0:0:0:
64,192,101840,1,0,0:0:0:0:
192,192,102251,1,0,0:0:0:0:
64,192,102251,1,0,0:0:0:0:
320,192,102525,128,0,103004:0:0:0:0:
64,192,102525,128,0,103004:0:0:0:0:
192,192,103072,128,0,103551:0:0:0:0:
448,192,103072,128,0,103551:0:0:0:0:
64,192,103072,1,0,0:0:0:0:
64,192,103346,1,0,0:0:0:0:
64,192,103619,128,0,104167:0:0:0:0:
448,192,103619,128,0,104167:0:0:0:0:
320,192,104030,128,0,104441:0:0:0:0:
192,192,104167,128,0,104714:0:0:0:0:
448,192,104714,128,0,105125:0:0:0:0:
64,192,104714,128,0,105056:0:0:0:0:
192,192,105056,128,0,105125:0:0:0:0:
320,192,105125,128,0,105741:0:0:0:0:
64,192,105262,128,0,105741:0:0:0:0:
448,192,105535,128,0,105741:0:0:0:0:
192,192,105535,128,0,105741:0:0:0:0:
448,192,105809,128,0,106836:0:0:0:0:
64,192,105809,1,0,0:0:0:0:
192,192,105809,1,0,0:0:0:0:
64,192,105946,1,0,0:0:0:0:
192,192,105946,1,0,0:0:0:0:
64,192,106083,1,0,0:0:0:0:
192,192,106083,1,0,0:0:0:0:
64,192,106220,1,0,0:0:0:0:
320,192,106220,1,0,0:0:0:0:
64,192,106357,1,0,0:0:0:0:
320,192,106357,1,0,0:0:0:0:
64,192,106494,1,0,0:0:0:0:
320,192,106494,1,0,0:0:0:0:
192,192,106630,1,0,0:0:0:0:
320,192,106630,1,0,0:0:0:0:
192,192,106767,1,0,0:0:0:0:
320,192,106767,1,0,0:0:0:0:
192,192,106904,1,0,0:0:0:0:
320,192,106904,1,0,0:0:0:0:
448,192,106973,1,0,0:0:0:0:
64,192,107041,1,0,0:0:0:0:
192,192,107087,1,0,0:0:0:0:
448,192,107132,1,0,0:0:0:0:
320,192,107178,1,0,0:0:0:0:
64,192,107212,1,0,0:0:0:0:
192,192,107246,1,0,0:0:0:0:
448,192,107280,1,0,0:0:0:0:
320,192,107315,1,0,0:0:0:0:
192,192,107349,1,0,0:0:0:0:
64,192,107383,1,0,0:0:0:0:
448,192,107452,1,0,0:0:0:0:
320,192,107497,1,0,0:0:0:0:
64,192,107543,1,0,0:0:0:0:
192,192,107588,1,0,0:0:0:0:
448,192,107634,1,0,0:0:0:0:
320,192,107680,1,0,0:0:0:0:
64,192,107725,1,0,0:0:0:0:
192,192,107759,1,0,0:0:0:0:
448,192,107794,1,0,0:0:0:0:
320,192,107828,1,0,0:0:0:0:
192,192,107862,1,0,0:0:0:0:
64,192,107896,1,0,0:0:0:0:
448,192,107896,1,0,0:0:0:0:
320,192,107931,1,0,0:0:0:0:
192,192,107965,1,0,0:0:0:0:
64,192,107999,1,0,0:0:0:0:
448,192,107999,1,0,0:0:0:0:
320,192,108067,1,0,0:0:0:0:
64,192,108136,128,0,108204:0:0:0:0:
448,192,108136,128,0,108204:0:0:0:0:
192,192,108136,128,0,108204:0:0:0:0:
64,192,108273,128,0,108478:0:0:0:0:
320,192,108273,128,0,108478:0:0:0:0:
448,192,108273,128,0,108478:0:0:0:0:
320,192,108546,128,0,108615:0:0:0:0:
448,192,108546,128,0,108615:0:0:0:0:
64,192,108546,128,0,108615:0:0:0:0:
64,192,108683,128,0,108889:0:0:0:0:
192,192,108683,128,0,108889:0:0:0:0:
448,192,108683,128,0,108889:0:0:0:0:
64,192,108957,128,0,109025:0:0:0:0:
192,192,108957,128,0,109025:0:0:0:0:
448,192,108957,128,0,109025:0:0:0:0:
448,192,109094,128,0,109299:0:0:0:0:
320,192,109094,128,0,109299:0:0:0:0:
64,192,109094,128,0,109299:0:0:0:0:
320,192,109368,128,0,109436:0:0:0:0:
64,192,109368,128,0,109436:0:0:0:0:
448,192,109368,128,0,109436:0:0:0:0:
192,192,109504,128,0,109710:0:0:0:0:
448,192,109504,128,0,109641:0:0:0:0:
64,192,109504,128,0,109778:0:0:0:0:
448,192,109710,128,0,109778:0:0:0:0:
320,192,109778,128,0,109847:0:0:0:0:
192,192,109847,128,0,109915:0:0:0:0:
64,192,109915,128,0,109983:0:0:0:0:
320,192,109983,128,0,110052:0:0:0:0:
192,192,110052,128,0,110120:0:0:0:0:
448,192,110120,128,0,110189:0:0:0:0:
320,192,110189,1,0,0:0:0:0:
192,192,110189,1,0,0:0:0:0:
64,192,110189,1,0,0:0:0:0:
64,192,110462,128,0,111284:0:0:0:0:
192,192,110736,128,0,111284:0:0:0:0:
448,192,111284,128,0,112105:0:0:0:0:
320,192,111284,128,0,111763:0:0:0:0:
192,192,111694,128,0,111763:0:0:0:0:
64,192,111763,128,0,111831:0:0:0:0:
320,192,111831,128,0,111900:0:0:0:0:
192,192,111900,128,0,111968:0:0:0:0:
64,192,111968,128,0,112036:0:0:0:0:
320,192,111968,1,0,0:0:0:0:
192,192,112036,128,0,112105:0:0:0:0:
64,192,112105,1,0,0:0:0:0:
320,192,112105,128,0,112379:0:0:0:0:
448,192,112242,128,0,112379:0:0:0:0:
64,192,112379,1,0,0:0:0:0:
192,192,112379,128,0,112515:0:0:0:0:
448,192,112447,128,0,112515:0:0:0:0:
320,192,112515,128,0,112584:0:0:0:0:
192,192,112584,128,0,112789:0:0:0:0:
448,192,112652,1,0,0:0:0:0:
64,192,112652,128,0,112789:0:0:0:0:
320,192,112721,128,0,112789:0:0:0:0:
448,192,112789,128,0,112858:0:0:0:0:
320,192,112858,1,0,0:0:0:0:
192,192,112926,1,0,0:0:0:0:
64,192,112926,128,0,113063:0:0:0:0:
320,192,112994,1,0,0:0:0:0:
192,192,113063,128,0,113131:0:0:0:0:
320,192,113131,128,0,113200:0:0:0:0:
64,192,113200,128,0,113337:0:0:0:0:
448,192,113200,1,0,0:0:0:0:
192,192,113268,128,0,113337:0:0:0:0:
448,192,113337,128,0,113405:0:0:0:0:
64,192,113405,128,0,113473:0:0:0:0:
448,192,113473,128,0,113610:0:0:0:0:
192,192,113473,1,0,0:0:0:0:
320,192,113542,128,0,113610:0:0:0:0:
64,192,113610,128,0,113679:0:0:0:0:
448,192,113679,128,0,113747:0:0:0:0:
192,192,113747,128,0,113884:0:0:0:0:
320,192,113747,1,0,0:0:0:0:
64,192,113816,128,0,113884:0:0:0:0:
448,192,113816,128,0,113884:0:0:0:0:
320,192,113884,128,0,113952:0:0:0:0:
192,192,113952,128,0,114089:0:0:0:0:
64,192,114021,128,0,114089:0:0:0:0:
448,192,114021,1,0,0:0:0:0:
320,192,114089,128,0,114158:0:0:0:0:
448,192,114158,128,0,114226:0:0:0:0:
64,192,114226,128,0,114363:0:0:0:0:
192,192,114295,128,0,114363:0:0:0:0:
448,192,114295,1,0,0:0:0:0:
320,192,114363,128,0,114431:0:0:0:0:
448,192,114431,128,0,114500:0:0:0:0:
64,192,114431,128,0,114500:0:0:0:0:
192,192,114500,128,0,114568:0:0:0:0:
448,192,114568,128,0,115047:0:0:0:0:
320,192,114568,128,0,114637:0:0:0:0:
64,192,114637,128,0,114705:0:0:0:0:
192,192,114705,128,0,114774:0:0:0:0:
320,192,114774,128,0,114842:0:0:0:0:
64,192,114842,128,0,114910:0:0:0:0:
192,192,114910,128,0,114979:0:0:0:0:
320,192,114979,128,0,115047:0:0:0:0:
192,192,115047,128,0,115116:0:0:0:0:
64,192,115116,128,0,115595:0:0:0:0:
448,192,115116,128,0,115184:0:0:0:0:
320,192,115184,128,0,115253:0:0:0:0:
192,192,115253,128,0,115321:0:0:0:0:
448,192,115321,128,0,115389:0:0:0:0:
320,192,115389,128,0,115458:0:0:0:0:
192,192,115458,128,0,115526:0:0:0:0:
320,192,115526,128,0,115595:0:0:0:0:
448,192,115595,128,0,115663:0:0:0:0:
64,192,115663,128,0,116142:0:0:0:0:
192,192,115663,128,0,115732:0:0:0:0:
320,192,115732,128,0,115800:0:0:0:0:
448,192,115800,128,0,115869:0:0:0:0:
192,192,115869,128,0,115937:0:0:0:0:
320,192,115937,128,0,116005:0:0:0:0:
448,192,116005,128,0,116074:0:0:0:0:
192,192,116074,128,0,116142:0:0:0:0:
320,192,116142,128,0,116211:0:0:0:0:
192,192,116211,128,0,116621:0:0:0:0:
64,192,116211,128,0,116279:0:0:0:0:
320,192,116279,128,0,116348:0:0:0:0:
448,192,116348,128,0,116416:0:0:0:0:
320,192,116484,128,0,116553:0:0:0:0:
64,192,116484,128,0,116758:0:0:0:0:
448,192,116553,128,0,116621:0:0:0:0:
320,192,116621,128,0,116690:0:0:0:0:
192,192,116690,128,0,116758:0:0:0:0:
320,192,116758,128,0,116827:0:0:0:0:
448,192,116758,128,0,116827:0:0:0:0:
64,192,116827,128,0,116895:0:0:0:0:
192,192,116895,128,0,116963:0:0:0:0:
320,192,116963,128,0,117032:0:0:0:0:
448,192,117032,128,0,117100:0:0:0:0:
64,192,117032,128,0,117237:0:0:0:0:
192,192,117100,128,0,117169:0:0:0:0:
320,192,117169,1,0,0:0:0:0:
192,192,117237,1,0,0:0:0:0:
64,192,117306,1,0,0:0:0:0:
448,192,117306,128,0,117511:0:0:0:0:
320,192,117374,128,0,117442:0:0:0:0:
192,192,117442,1,0,0:0:0:0:
320,192,117511,1,0,0:0:0:0:
448,192,117579,1,0,0:0:0:0:
64,192,117579,128,0,117785:0:0:0:0:
192,192,117648,128,0,117785:0:0:0:0:
320,192,117716,1,0,0:0:0:0:
448,192,117785,1,0,0:0:0:0:
320,192,117853,1,0,0:0:0:0:
64,192,117853,128,0,118058:0:0:0:0:
192,192,117921,128,0,117990:0:0:0:0:
448,192,117990,1,0,0:0:0:0:
320,192,118058,1,0,0:0:0:0:
64,192,118127,128,0,118332:0:0:0:0:
448,192,118127,1,0,0:0:0:0:
192,192,118195,128,0,118264:0:0:0:0:
320,192,118264,1,0,0:0:0:0:
448,192,118332,1,0,0:0:0:0:
320,192,118400,128,0,118469:0:0:0:0:
192,192,118400,1,0,0:0:0:0:
64,192,118469,128,0,118537:0:0:0:0:
320,192,118537,128,0,118606:0:0:0:0:
192,192,118606,128,0,118674:0:0:0:0:
448,192,118674,128,0,118743:0:0:0:0:
64,192,118674,128,0,118743:0:0:0:0:
320,192,118743,128,0,118811:0:0:0:0:
192,192,118811,128,0,118879:0:0:0:0:
64,192,118879,128,0,118948:0:0:0:0:
320,192,118948,128,0,119016:0:0:0:0:
448,192,118948,128,0,119016:0:0:0:0:
192,192,119016,128,0,119085:0:0:0:0:
448,192,119085,128,0,119153:0:0:0:0:
64,192,119085,128,0,119153:0:0:0:0:
192,192,119153,128,0,119222:0:0:0:0:
320,192,119222,128,0,119290:0:0:0:0:
448,192,119222,128,0,119290:0:0:0:0:
192,192,119290,128,0,119358:0:0:0:0:
64,192,119358,128,0,119427:0:0:0:0:
448,192,119358,128,0,119427:0:0:0:0:
320,192,119427,128,0,119495:0:0:0:0:
64,192,119495,128,0,119564:0:0:0:0:
192,192,119495,128,0,119564:0:0:0:0:
320,192,119564,128,0,119632:0:0:0:0:
448,192,119564,128,0,119632:0:0:0:0:
64,192,119632,128,0,119701:0:0:0:0:
192,192,119632,128,0,119701:0:0:0:0:
320,192,119701,128,0,119769:0:0:0:0:
448,192,119769,128,0,119837:0:0:0:0:
64,192,119769,128,0,119837:0:0:0:0:
192,192,119837,128,0,119906:0:0:0:0:
320,192,119906,128,0,119974:0:0:0:0:
448,192,119906,128,0,119974:0:0:0:0:
192,192,119974,128,0,120043:0:0:0:0:
64,192,120043,128,0,120111:0:0:0:0:
448,192,120043,128,0,120317:0:0:0:0:
320,192,120111,128,0,120180:0:0:0:0:
192,192,120180,128,0,120248:0:0:0:0:
64,192,120248,128,0,120317:0:0:0:0:
192,192,120317,128,0,120385:0:0:0:0:
320,192,120385,128,0,120453:0:0:0:0:
448,192,120453,128,0,120522:0:0:0:0:
64,192,120522,128,0,120796:0:0:0:0:
448,192,120590,128,0,120659:0:0:0:0:
192,192,120659,128,0,120796:0:0:0:0:
448,192,120727,128,0,120796:0:0:0:0:
320,192,120796,128,0,120864:0:0:0:0:
448,192,120864,128,0,120932:0:0:0:0:
320,192,120932,128,0,121001:0:0:0:0:
448,192,121001,128,0,121069:0:0:0:0:
320,192,121069,128,0,121138:0:0:0:0:
448,192,121138,1,0,0:0:0:0:
64,192,121138,128,0,121411:0:0:0:0:
192,192,121206,128,0,121275:0:0:0:0:
448,192,121275,128,0,121343:0:0:0:0:
192,192,121343,128,0,121411:0:0:0:0:
320,192,121411,1,0,0:0:0:0:
448,192,121411,128,0,121685:0:0:0:0:
64,192,121480,128,0,121548:0:0:0:0:
320,192,121548,128,0,121617:0:0:0:0:
192,192,121617,128,0,121685:0:0:0:0:
320,192,121685,128,0,121754:0:0:0:0:
64,192,121685,128,0,121959:0:0:0:0:
192,192,121754,128,0,121788:0:0:0:0:
448,192,121822,1,0,0:0:0:0:
320,192,121890,1,0,0:0:0:0:
448,192,121959,128,0,122096:0:0:0:0:
192,192,121959,128,0,122027:0:0:0:0:
64,192,122027,128,0,122096:0:0:0:0:
320,192,122096,1,0,0:0:0:0:
448,192,122164,1,0,0:0:0:0:
64,192,122233,128,0,122369:0:0:0:0:
320,192,122233,128,0,122301:0:0:0:0:
448,192,122301,128,0,122369:0:0:0:0:
192,192,122369,1,0,0:0:0:0:
64,192,122438,1,0,0:0:0:0:
320,192,122506,128,0,122575:0:0:0:0:
448,192,122506,128,0,122643:0:0:0:0:
192,192,122575,128,0,122643:0:0:0:0:
320,192,122643,1,0,0:0:0:0:
448,192,122712,1,0,0:0:0:0:
192,192,122780,128,0,122848:0:0:0:0:
64,192,122780,128,0,122917:0:0:0:0:
320,192,122848,128,0,122917:0:0:0:0:
192,192,122917,1,0,0:0:0:0:
64,192,122985,1,0,0:0:0:0:
320,192,123054,128,0,123191:0:0:0:0:
192,192,123054,128,0,123122:0:0:0:0:
64,192,123122,128,0,123191:0:0:0:0:
448,192,123191,1,0,0:0:0:0:
320,192,123259,1,0,0:0:0:0:
448,192,123327,1,0,0:0:0:0:
64,192,123327,128,0,123601:0:0:0:0:
192,192,123327,128,0,123396:0:0:0:0:
320,192,123396,128,0,123464:0:0:0:0:
448,192,123464,128,0,123533:0:0:0:0:
192,192,123533,128,0,123601:0:0:0:0:
320,192,123601,128,0,123670:0:0:0:0:
448,192,123601,128,0,123875:0:0:0:0:
192,192,123670,128,0,123738:0:0:0:0:
64,192,123738,128,0,123806:0:0:0:0:
320,192,123806,128,0,123875:0:0:0:0:
64,192,123875,128,0,124080:0:0:0:0:
192,192,123875,128,0,123943:0:0:0:0:
320,192,123943,128,0,124012:0:0:0:0:
448,192,124012,128,0,124080:0:0:0:0:
192,192,124080,128,0,124149:0:0:0:0:
320,192,124149,128,0,124217:0:0:0:0:
448,192,124217,128,0,124285:0:0:0:0:
192,192,124285,128,0,124833:0:0:0:0:
64,192,124285,128,0,124354:0:0:0:0:
320,192,124354,128,0,124422:0:0:0:0:
448,192,124422,128,0,124491:0:0:0:0:
64,192,124491,128,0,124764:0:0:0:0:
320,192,124559,128,0,124628:0:0:0:0:
448,192,124628,128,0,124696:0:0:0:0:
320,192,124696,128,0,124764:0:0:0:0:
448,192,124764,128,0,124833:0:0:0:0:
320,192,124833,128,0,124901:0:0:0:0:
448,192,124901,128,0,124970:0:0:0:0:
64,192,124970,1,0,0:0:0:0:
192,192,124970,128,0,125107:0:0:0:0:
320,192,125038,128,0,125107:0:0:0:0:
448,192,125107,1,0,0:0:0:0:
64,192,125175,128,0,125312:0:0:0:0:
192,192,125244,1,0,0:0:0:0:
448,192,125244,128,0,125380:0:0:0:0:
320,192,125312,128,0,125380:0:0:0:0:
64,192,125380,1,0,0:0:0:0:
192,192,125449,1,0,0:0:0:0:
320,192,125517,128,0,125654:0:0:0:0:
448,192,125517,128,0,125723:0:0:0:0:
64,192,125517,1,0,0:0:0:0:
192,192,125586,1,0,0:0:0:0:
64,192,125654,1,0,0:0:0:0:
320,192,125723,1,0,0:0:0:0:
192,192,125791,128,0,125928:0:0:0:0:
64,192,125791,128,0,125996:0:0:0:0:
448,192,125859,128,0,125928:0:0:0:0:
320,192,125928,128,0,125996:0:0:0:0:
192,192,125996,1,0,0:0:0:0:
64,192,126065,128,0,126270:0:0:0:0:
448,192,126065,128,0,126133:0:0:0:0:
320,192,126065,128,0,126133:0:0:0:0:
192,192,126133,128,0,126202:0:0:0:0:
320,192,126202,128,0,126270:0:0:0:0:
448,192,126202,128,0,126270:0:0:0:0:
192,192,126270,128,0,126407:0:0:0:0:
64,192,126338,128,0,126544:0:0:0:0:
320,192,126407,128,0,126544:0:0:0:0:
192,192,126475,128,0,126544:0:0:0:0:
448,192,126544,1,0,0:0:0:0:
64,192,126612,128,0,126681:0:0:0:0:
192,192,126612,128,0,126681:0:0:0:0:
320,192,126612,128,0,127296:0:0:0:0:
64,192,126749,128,0,126886:0:0:0:0:
192,192,126749,128,0,126886:0:0:0:0:
64,192,126954,128,0,127091:0:0:0:0:
192,192,126954,128,0,127091:0:0:0:0:
64,192,127160,128,0,127775:0:0:0:0:
192,192,127160,128,0,127775:0:0:0:0:
448,192,127160,128,0,127296:0:0:0:0:
320,192,127365,128,0,127502:0:0:0:0:
448,192,127365,128,0,127502:0:0:0:0:
320,192,127570,128,0,127775:0:0:0:0:
448,192,127570,128,0,127775:0:0:0:0:
64,192,127844,128,0,127912:0:0:0:0:
192,192,127844,128,0,127912:0:0:0:0:
320,192,127844,128,0,127912:0:0:0:0:
192,192,127981,128,0,128186:0:0:0:0:
320,192,127981,128,0,128186:0:0:0:0:
448,192,127981,128,0,128186:0:0:0:0:
192,192,128254,128,0,128323:0:0:0:0:
320,192,128254,128,0,128323:0:0:0:0:
448,192,128254,128,0,128323:0:0:0:0:
64,192,128391,128,0,128597:0:0:0:0:
192,192,128391,128,0,128597:0:0:0:0:
320,192,128391,128,0,128597:0:0:0:0:
64,192,128665,128,0,128733:0:0:0:0:
192,192,128665,128,0,128733:0:0:0:0:
320,192,128665,128,0,128733:0:0:0:0:
320,192,128802,128,0,129007:0:0:0:0:
448,192,128802,128,0,129007:0:0:0:0:
192,192,128802,128,0,129007:0:0:0:0:
448,192,129076,128,0,129144:0:0:0:0:
192,192,129076,128,0,129144:0:0:0:0:
320,192,129076,128,0,129144:0:0:0:0:
192,192,129212,128,0,129418:0:0:0:0:
320,192,129212,128,0,129418:0:0:0:0:
64,192,129212,128,0,129418:0:0:0:0:
320,192,129486,128,0,129555:0:0:0:0:
448,192,129555,128,0,129623:0:0:0:0:
192,192,129623,128,0,129692:0:0:0:0:
320,192,129692,128,0,129760:0:0:0:0:
64,192,129760,128,0,129828:0:0:0:0:
192,192,129828,128,0,129897:0:0:0:0:
64,192,129897,128,0,129965:0:0:0:0:
448,192,129965,128,0,130034:0:0:0:0:
320,192,130034,128,0,130102:0:0:0:0:
192,192,130034,128,0,130102:0:0:0:0:
64,192,130034,128,0,130102:0:0:0:0:
192,192,130171,128,0,130376:0:0:0:0:
448,192,130171,128,0,130376:0:0:0:0:
320,192,130171,128,0,130376:0:0:0:0:
320,192,130444,128,0,130513:0:0:0:0:
192,192,130444,128,0,130513:0:0:0:0:
448,192,130444,128,0,130513:0:0:0:0:
64,192,130581,128,0,130786:0:0:0:0:
320,192,130581,128,0,130786:0:0:0:0:
192,192,130581,128,0,130786:0:0:0:0:
64,192,130855,128,0,130923:0:0:0:0:
192,192,130855,128,0,130923:0:0:0:0:
320,192,130855,128,0,130923:0:0:0:0:
320,192,130992,128,0,131197:0:0:0:0:
448,192,130992,128,0,131197:0:0:0:0:
192,192,130992,128,0,131197:0:0:0:0:
448,192,131265,128,0,131334:0:0:0:0:
192,192,131265,128,0,131334:0:0:0:0:
320,192,131265,128,0,131334:0:0:0:0:
192,192,131402,128,0,131608:0:0:0:0:
320,192,131402,128,0,131608:0:0:0:0:
64,192,131402,128,0,131608:0:0:0:0:
448,192,131539,128,0,131676:0:0:0:0:
192,192,131676,128,0,131813:0:0:0:0:
64,192,131744,128,0,132087:0:0:0:0:
320,192,131813,128,0,131950:0:0:0:0:
192,192,131881,128,0,132087:0:0:0:0:
448,192,131950,128,0,132018:0:0:0:0:
320,192,132018,128,0,132087:0:0:0:0:
448,192,132087,128,0,132223:0:0:0:0:
320,192,132223,128,0,132292:0:0:0:0:
192,192,132223,128,0,132292:0:0:0:0:
64,192,132223,128,0,132292:0:0:0:0:
192,192,132360,128,0,132566:0:0:0:0:
448,192,132360,128,0,132566:0:0:0:0:
320,192,132360,128,0,132566:0:0:0:0:
320,192,132634,128,0,132702:0:0:0:0:
192,192,132634,128,0,132702:0:0:0:0:
448,192,132634,128,0,132702:0:0:0:0:
64,192,132771,128,0,132976:0:0:0:0:
320,192,132771,128,0,132976:0:0:0:0:
192,192,132771,128,0,132976:0:0:0:0:
192,192,133045,128,0,133113:0:0:0:0:
320,192,133045,128,0,133113:0:0:0:0:
448,192,133045,128,0,133113:0:0:0:0:
192,192,133181,128,0,133387:0:0:0:0:
320,192,133181,128,0,133387:0:0:0:0:
448,192,133181,128,0,133387:0:0:0:0:
64,192,133455,128,0,133524:0:0:0:0:
192,192,133455,128,0,133524:0:0:0:0:
320,192,133455,128,0,133524:0:0:0:0:
64,192,133592,128,0,133797:0:0:0:0:
192,192,133592,128,0,133797:0:0:0:0:
320,192,133592,128,0,133797:0:0:0:0:
448,192,133729,128,0,133866:0:0:0:0:
320,192,133866,128,0,133934:0:0:0:0:
448,192,134003,128,0,134139:0:0:0:0:
320,192,134139,128,0,134208:0:0:0:0:
64,192,134276,128,0,134413:0:0:0:0:
192,192,134413,128,0,134482:0:0:0:0:
320,192,134413,128,0,134482:0:0:0:0:
448,192,134413,128,0,134482:0:0:0:0:
64,192,134550,128,0,134755:0:0:0:0:
192,192,134550,128,0,134755:0:0:0:0:
320,192,134550,128,0,134755:0:0:0:0:
64,192,134824,128,0,134892:0:0:0:0:
192,192,134824,128,0,134892:0:0:0:0:
320,192,134824,128,0,134892:0:0:0:0:
192,192,134961,128,0,135166:0:0:0:0:
320,192,134961,128,0,135166:0:0:0:0:
448,192,134961,128,0,135166:0:0:0:0:
64,192,135234,128,0,135303:0:0:0:0:
192,192,135234,128,0,135303:0:0:0:0:
320,192,135234,128,0,135303:0:0:0:0:
192,192,135371,128,0,135577:0:0:0:0:
320,192,135371,128,0,135577:0:0:0:0:
64,192,135371,128,0,135577:0:0:0:0:
192,192,135645,128,0,135713:0:0:0:0:
320,192,135645,128,0,135713:0:0:0:0:
448,192,135645,128,0,135713:0:0:0:0:
192,192,135782,128,0,135987:0:0:0:0:
320,192,135782,128,0,135987:0:0:0:0:
448,192,135782,128,0,135987:0:0:0:0:
64,192,135919,128,0,136056:0:0:0:0:
192,192,136056,128,0,136124:0:0:0:0:
64,192,136192,128,0,136329:0:0:0:0:
192,192,136329,128,0,136398:0:0:0:0:
448,192,136466,128,0,136603:0:0:0:0:
320,192,136603,128,0,136671:0:0:0:0:
192,192,136603,128,0,136671:0:0:0:0:
64,192,136603,128,0,136671:0:0:0:0:
192,192,136740,128,0,136945:0:0:0:0:
448,192,136740,128,0,136945:0:0:0:0:
320,192,136740,128,0,136945:0:0:0:0:
320,192,137014,128,0,137082:0:0:0:0:
192,192,137014,128,0,137082:0:0:0:0:
448,192,137014,128,0,137082:0:0:0:0:
64,192,137150,128,0,137356:0:0:0:0:
320,192,137150,128,0,137356:0:0:0:0:
192,192,137150,128,0,137356:0:0:0:0:
192,192,137424,128,0,137493:0:0:0:0:
320,192,137424,128,0,137493:0:0:0:0:
448,192,137424,128,0,137493:0:0:0:0:
192,192,137561,128,0,137766:0:0:0:0:
320,192,137561,128,0,137766:0:0:0:0:
448,192,137561,128,0,137766:0:0:0:0:
64,192,137835,128,0,137903:0:0:0:0:
192,192,137835,128,0,137903:0:0:0:0:
320,192,137835,128,0,137903:0:0:0:0:
64,192,137972,128,0,138177:0:0:0:0:
192,192,137972,128,0,138177:0:0:0:0:
320,192,137972,128,0,138177:0:0:0:0:
448,192,138108,128,0,138245:0:0:0:0:
320,192,138245,128,0,138314:0:0:0:0:
448,192,138382,128,0,138519:0:0:0:0:
320,192,138519,128,0,138587:0:0:0:0:
64,192,138656,128,0,138793:0:0:0:0:
192,192,138793,128,0,138861:0:0:0:0:
320,192,138793,128,0,138861:0:0:0:0:
448,192,138793,128,0,138861:0:0:0:0:
64,192,138930,128,0,139135:0:0:0:0:
192,192,138930,128,0,139135:0:0:0:0:
320,192,138930,128,0,139135:0:0:0:0:
64,192,139203,128,0,139272:0:0:0:0:
192,192,139203,128,0,139272:0:0:0:0:
320,192,139203,128,0,139272:0:0:0:0:
192,192,139340,128,0,139546:0:0:0:0:
320,192,139340,128,0,139546:0:0:0:0:
448,192,139340,128,0,139546:0:0:0:0:
64,192,139614,128,0,139682:0:0:0:0:
192,192,139614,128,0,139682:0:0:0:0:
320,192,139614,128,0,139682:0:0:0:0:
192,192,139751,128,0,139956:0:0:0:0:
320,192,139751,128,0,139956:0:0:0:0:
64,192,139751,128,0,139956:0:0:0:0:
192,192,140025,128,0,140093:0:0:0:0:
320,192,140025,128,0,140093:0:0:0:0:
448,192,140025,128,0,140093:0:0:0:0:
192,192,140161,128,0,140367:0:0:0:0:
320,192,140161,128,0,140367:0:0:0:0:
448,192,140161,128,0,140367:0:0:0:0:
64,192,140298,128,0,140435:0:0:0:0:
192,192,140435,128,0,140504:0:0:0:0:
64,192,140572,128,0,140709:0:0:0:0:
192,192,140709,128,0,140777:0:0:0:0:
320,192,140846,1,0,0:0:0:0:
448,192,140846,128,0,142967:0:0:0:0:
64,192,141256,1,0,0:0:0:0:
192,192,141256,1,0,0:0:0:0:
64,192,141941,1,0,0:0:0:0:
192,192,142077,1,0,0:0:0:0:
64,192,142214,1,0,0:0:0:0:
64,192,142488,1,0,0:0:0:0:
192,192,142488,1,0,0:0:0:0:
192,192,142762,1,0,0:0:0:0:
320,192,142762,1,0,0:0:0:0:
64,192,143035,1,0,0:0:0:0:
192,192,143035,1,0,0:0:0:0:
448,192,143035,1,0,0:0:0:0:
64,192,143446,1,0,0:0:0:0:
192,192,143446,1,0,0:0:0:0:
64,192,143857,1,0,0:0:0:0:
192,192,143994,1,0,0:0:0:0:
64,192,144130,1,0,0:0:0:0:
64,192,144267,1,0,0:0:0:0:
64,192,144678,1,0,0:0:0:0:
192,192,144678,1,0,0:0:0:0:
192,192,144952,1,0,0:0:0:0:
320,192,144952,1,0,0:0:0:0:
448,192,145225,1,0,0:0:0:0:
320,192,145225,1,0,0:0:0:0:
64,192,145225,128,0,145567:0:0:0:0:
320,192,145499,1,0,0:0:0:0:
448,192,145499,1,0,0:0:0:0:
64,192,145636,128,0,145704:0:0:0:0:
320,192,145773,1,0,0:0:0:0:
448,192,145773,1,0,0:0:0:0:
320,192,146046,1,0,0:0:0:0:
448,192,146046,1,0,0:0:0:0:
320,192,146320,1,0,0:0:0:0:
448,192,146320,1,0,0:0:0:0:
320,192,146594,1,0,0:0:0:0:
448,192,146594,1,0,0:0:0:0:
64,192,146731,128,0,146936:0:0:0:0:
320,192,146868,1,0,0:0:0:0:
448,192,146868,1,0,0:0:0:0:
64,192,147004,128,0,147278:0:0:0:0:
320,192,147141,1,0,0:0:0:0:
448,192,147141,1,0,0:0:0:0:
64,192,147415,1,0,0:0:0:0:
192,192,147415,1,0,0:0:0:0:
448,192,147415,128,0,147757:0:0:0:0:
64,192,147689,1,0,0:0:0:0:
192,192,147689,1,0,0:0:0:0:
448,192,147826,128,0,147894:0:0:0:0:
64,192,147962,1,0,0:0:0:0:
192,192,147962,1,0,0:0:0:0:
64,192,148236,1,0,0:0:0:0:
192,192,148236,1,0,0:0:0:0:
64,192,148510,1,0,0:0:0:0:
192,192,148510,1,0,0:0:0:0:
64,192,148784,1,0,0:0:0:0:
192,192,148784,1,0,0:0:0:0:
64,192,149057,128,0,149536:0:0:0:0:
192,192,149057,128,0,149536:0:0:0:0:
320,192,149057,1,0,0:0:0:0:
448,192,149126,1,0,0:0:0:0:
320,192,149194,1,0,0:0:0:0:
448,192,149263,1,0,0:0:0:0:
320,192,149331,1,0,0:0:0:0:
448,192,149400,1,0,0:0:0:0:
320,192,149468,1,0,0:0:0:0:
448,192,149536,1,0,0:0:0:0:
64,192,149605,128,0,149742:0:0:0:0:
192,192,149605,128,0,149742:0:0:0:0:
320,192,149742,1,0,0:0:0:0:
448,192,149742,1,0,0:0:0:0:
64,192,149810,1,0,0:0:0:0:
192,192,149810,1,0,0:0:0:0:
320,192,149879,128,0,149947:0:0:0:0:
448,192,149879,128,0,149947:0:0:0:0:
64,192,149947,1,0,0:0:0:0:
192,192,149947,1,0,0:0:0:0:
320,192,150015,128,0,150152:0:0:0:0:
448,192,150015,128,0,150152:0:0:0:0:
64,192,150152,128,0,150221:0:0:0:0:
192,192,150152,128,0,150221:0:0:0:0:
320,192,150221,1,0,0:0:0:0:
448,192,150221,1,0,0:0:0:0:
64,192,150289,1,0,0:0:0:0:
192,192,150289,1,0,0:0:0:0:
320,192,150358,1,0,0:0:0:0:
448,192,150358,1,0,0:0:0:0:
192,192,150426,128,0,150494:0:0:0:0:
64,192,150426,128,0,150494:0:0:0:0:
320,192,150494,1,0,0:0:0:0:
448,192,150494,1,0,0:0:0:0:
64,192,150563,1,0,0:0:0:0:
192,192,150563,1,0,0:0:0:0:
320,192,150631,1,0,0:0:0:0:
448,192,150631,1,0,0:0:0:0:
64,192,150700,128,0,150768:0:0:0:0:
192,192,150700,128,0,150768:0:0:0:0:
320,192,150768,1,0,0:0:0:0:
448,192,150768,1,0,0:0:0:0:
64,192,150837,1,0,0:0:0:0:
192,192,150837,1,0,0:0:0:0:
320,192,150905,1,0,0:0:0:0:
448,192,150905,1,0,0:0:0:0:
192,192,150973,128,0,151042:0:0:0:0:
64,192,150973,128,0,151042:0:0:0:0:
320,192,151042,1,0,0:0:0:0:
448,192,151042,1,0,0:0:0:0:
64,192,151110,1,0,0:0:0:0:
192,192,151110,1,0,0:0:0:0:
320,192,151179,1,0,0:0:0:0:
448,192,151179,1,0,0:0:0:0:
64,192,151247,128,0,151316:0:0:0:0:
192,192,151247,128,0,151316:0:0:0:0:
320,192,151316,1,0,0:0:0:0:
448,192,151316,1,0,0:0:0:0:
64,192,151384,1,0,0:0:0:0:
192,192,151384,1,0,0:0:0:0:
320,192,151452,1,0,0:0:0:0:
448,192,151452,1,0,0:0:0:0:
64,192,151521,128,0,151726:0:0:0:0:
192,192,151521,128,0,151726:0:0:0:0:
320,192,151589,1,0,0:0:0:0:
448,192,151589,1,0,0:0:0:0:
320,192,151658,1,0,0:0:0:0:
448,192,151658,1,0,0:0:0:0:
320,192,151726,1,0,0:0:0:0:
448,192,151726,1,0,0:0:0:0:
192,192,151795,1,0,0:0:0:0:
64,192,151795,1,0,0:0:0:0:
64,192,152889,128,0,153163:0:0:0:0:
192,192,152958,128,0,153163:0:0:0:0:
320,192,153026,128,0,153984:0:0:0:0:
64,192,153437,128,0,153505:0:0:0:0:
64,192,153711,128,0,153779:0:0:0:0:
192,192,153984,128,0,154190:0:0:0:0:
64,192,153984,128,0,154190:0:0:0:0:
448,192,154121,1,0,0:0:0:0:
320,192,154190,1,0,0:0:0:0:
64,192,154258,128,0,154463:0:0:0:0:
448,192,154258,128,0,154463:0:0:0:0:
192,192,154395,1,0,0:0:0:0:
320,192,154463,1,0,0:0:0:0:
64,192,154532,128,0,154737:0:0:0:0:
192,192,154532,128,0,154737:0:0:0:0:
448,192,154669,1,0,0:0:0:0:
320,192,154737,1,0,0:0:0:0:
64,192,154806,128,0,155011:0:0:0:0:
448,192,154806,128,0,155011:0:0:0:0:
320,192,154942,1,0,0:0:0:0:
192,192,155011,1,0,0:0:0:0:
320,192,155079,128,0,155285:0:0:0:0:
448,192,155079,128,0,155285:0:0:0:0:
64,192,155079,128,0,155148:0:0:0:0:
192,192,155148,128,0,155216:0:0:0:0:
64,192,155216,128,0,155285:0:0:0:0:
192,192,155285,128,0,155353:0:0:0:0:
64,192,155353,128,0,155558:0:0:0:0:
320,192,155353,128,0,155558:0:0:0:0:
448,192,155421,128,0,155490:0:0:0:0:
192,192,155490,128,0,155558:0:0:0:0:
448,192,155558,128,0,155627:0:0:0:0:
192,192,155627,128,0,155900:0:0:0:0:
320,192,155627,128,0,155969:0:0:0:0:
64,192,155627,128,0,155695:0:0:0:0:
448,192,155695,128,0,155764:0:0:0:0:
64,192,155764,128,0,155832:0:0:0:0:
448,192,155832,128,0,156037:0:0:0:0:
64,192,155900,128,0,156106:0:0:0:0:
192,192,155969,128,0,156106:0:0:0:0:
320,192,156037,128,0,156106:0:0:0:0:
448,192,156106,1,0,0:0:0:0:
64,192,156174,128,0,156379:0:0:0:0:
320,192,156174,1,0,0:0:0:0:
192,192,156243,128,0,156311:0:0:0:0:
320,192,156311,128,0,156379:0:0:0:0:
448,192,156379,128,0,156448:0:0:0:0:
64,192,156448,128,0,156653:0:0:0:0:
320,192,156448,1,0,0:0:0:0:
192,192,156516,128,0,156653:0:0:0:0:
320,192,156585,128,0,156653:0:0:0:0:
448,192,156653,128,0,156722:0:0:0:0:
64,192,156722,128,0,156995:0:0:0:0:
320,192,156722,1,0,0:0:0:0:
192,192,156790,128,0,156927:0:0:0:0:
320,192,156858,128,0,156927:0:0:0:0:
448,192,156927,128,0,156995:0:0:0:0:
192,192,156995,128,0,157201:0:0:0:0:
320,192,156995,1,0,0:0:0:0:
64,192,157064,128,0,157201:0:0:0:0:
448,192,157132,128,0,157201:0:0:0:0:
320,192,157201,128,0,157269:0:0:0:0:
64,192,157269,128,0,157474:0:0:0:0:
192,192,157269,128,0,157337:0:0:0:0:
448,192,157337,128,0,157474:0:0:0:0:
320,192,157406,128,0,157611:0:0:0:0:
192,192,157474,128,0,157543:0:0:0:0:
448,192,157543,128,0,157748:0:0:0:0:
64,192,157543,128,0,157680:0:0:0:0:
192,192,157611,128,0,157748:0:0:0:0:
320,192,157680,128,0,157817:0:0:0:0:
64,192,157748,128,0,157885:0:0:0:0:
448,192,157817,128,0,157953:0:0:0:0:
192,192,157817,128,0,158090:0:0:0:0:
320,192,157885,128,0,158022:0:0:0:0:
64,192,157953,128,0,158022:0:0:0:0:
448,192,158022,128,0,158159:0:0:0:0:
64,192,158090,128,0,158296:0:0:0:0:
320,192,158090,128,0,158227:0:0:0:0:
192,192,158159,128,0,158296:0:0:0:0:
448,192,158227,128,0,158364:0:0:0:0:
320,192,158296,128,0,158364:0:0:0:0:
192,192,158364,1,0,0:0:0:0:
64,192,158364,128,0,158569:0:0:0:0:
448,192,158432,128,0,158501:0:0:0:0:
192,192,158501,128,0,158569:0:0:0:0:
320,192,158569,128,0,158638:0:0:0:0:
192,192,158638,1,0,0:0:0:0:
64,192,158638,128,0,158843:0:0:0:0:
448,192,158706,128,0,158843:0:0:0:0:
192,192,158775,128,0,158843:0:0:0:0:
320,192,158843,128,0,158911:0:0:0:0:
192,192,158911,1,0,0:0:0:0:
64,192,158911,128,0,159185:0:0:0:0:
448,192,158980,128,0,159117:0:0:0:0:
192,192,159048,128,0,159117:0:0:0:0:
320,192,159117,128,0,159322:0:0:0:0:
448,192,159185,128,0,159390:0:0:0:0:
192,192,159185,128,0,159254:0:0:0:0:
64,192,159254,128,0,159390:0:0:0:0:
192,192,159322,128,0,159527:0:0:0:0:
320,192,159390,128,0,159459:0:0:0:0:
64,192,159459,128,0,159664:0:0:0:0:
448,192,159459,128,0,159596:0:0:0:0:
320,192,159527,128,0,159664:0:0:0:0:
192,192,159596,128,0,159733:0:0:0:0:
448,192,159664,128,0,159733:0:0:0:0:
64,192,159733,128,0,159938:0:0:0:0:
320,192,159733,128,0,159801:0:0:0:0:
192,192,159801,128,0,159869:0:0:0:0:
320,192,159869,128,0,159904:0:0:0:0:
448,192,159869,128,0,159938:0:0:0:0:
192,192,159938,1,0,0:0:0:0:
320,192,160006,128,0,160041:0:0:0:0:
448,192,160006,128,0,160075:0:0:0:0:
192,192,160143,1,0,0:0:0:0:
320,192,160212,1,0,0:0:0:0:
64,192,160280,128,0,160348:0:0:0:0:
192,192,160280,128,0,160314:0:0:0:0:
192,192,160417,128,0,160485:0:0:0:0:
320,192,160417,128,0,160451:0:0:0:0:
320,192,160554,128,0,160622:0:0:0:0:
448,192,160554,128,0,160588:0:0:0:0:
64,192,160554,1,0,0:0:0:0:
192,192,160588,128,0,160759:0:0:0:0:
192,192,160827,128,0,161033:0:0:0:0:
448,192,160827,128,0,160862:0:0:0:0:
320,192,160827,128,0,160896:0:0:0:0:
64,192,160964,128,0,161101:0:0:0:0:
320,192,161101,1,0,0:0:0:0:
448,192,161101,1,0,0:0:0:0:
192,192,161101,1,0,0:0:0:0:
320,192,161238,128,0,161375:0:0:0:0:
448,192,161306,128,0,161375:0:0:0:0:
192,192,161375,1,0,0:0:0:0:
64,192,161409,1,0,0:0:0:0:
320,192,161512,128,0,161649:0:0:0:0:
448,192,161580,128,0,161649:0:0:0:0:
64,192,161649,1,0,0:0:0:0:
192,192,161683,1,0,0:0:0:0:
320,192,161785,128,0,161922:0:0:0:0:
448,192,161854,128,0,161922:0:0:0:0:
192,192,161922,1,0,0:0:0:0:
64,192,161957,1,0,0:0:0:0:
320,192,162059,128,0,162196:0:0:0:0:
448,192,162128,128,0,162196:0:0:0:0:
192,192,162196,1,0,0:0:0:0:
64,192,162230,1,0,0:0:0:0:
320,192,162264,128,0,162470:0:0:0:0:
448,192,162299,128,0,162504:0:0:0:0:
192,192,162470,128,0,162675:0:0:0:0:
64,192,162504,128,0,162709:0:0:0:0:
448,192,162744,1,0,0:0:0:0:
320,192,162744,128,0,163017:0:0:0:0:
192,192,162744,128,0,163017:0:0:0:0:
448,192,163017,128,0,163223:0:0:0:0:
192,192,163154,128,0,163291:0:0:0:0:
64,192,163223,128,0,163291:0:0:0:0:
320,192,163291,1,0,0:0:0:0:
448,192,163325,1,0,0:0:0:0:
64,192,163428,128,0,163565:0:0:0:0:
192,192,163496,128,0,163565:0:0:0:0:
320,192,163530,128,0,163565:0:0:0:0:
448,192,163565,1,0,0:0:0:0:
64,192,163702,128,0,163838:0:0:0:0:
320,192,163770,128,0,163838:0:0:0:0:
192,192,163804,128,0,163838:0:0:0:0:
448,192,163838,128,0,164044:0:0:0:0:
192,192,164044,1,0,0:0:0:0:
320,192,164044,1,0,0:0:0:0:
64,192,164112,1,0,0:0:0:0:
192,192,164112,1,0,0:0:0:0:
448,192,164249,128,0,164591:0:0:0:0:
320,192,164249,1,0,0:0:0:0:
64,192,164454,128,0,164728:0:0:0:0:
192,192,164454,128,0,164728:0:0:0:0:
320,192,164660,128,0,164933:0:0:0:0:
448,192,164660,128,0,164933:0:0:0:0:
64,192,164933,128,0,165002:0:0:0:0:
192,192,164933,128,0,165002:0:0:0:0:
192,192,165070,128,0,165139:0:0:0:0:
64,192,165070,128,0,165139:0:0:0:0:
320,192,165207,128,0,165275:0:0:0:0:
448,192,165207,128,0,165344:0:0:0:0:
64,192,165275,128,0,165344:0:0:0:0:
192,192,165344,128,0,165412:0:0:0:0:
448,192,165412,128,0,165481:0:0:0:0:
64,192,165481,1,0,0:0:0:0:
192,192,165549,1,0,0:0:0:0:
448,192,165618,1,0,0:0:0:0:
320,192,165686,1,0,0:0:0:0:
192,192,165754,128,0,165823:0:0:0:0:
64,192,165754,128,0,165891:0:0:0:0:
448,192,165823,128,0,165891:0:0:0:0:
320,192,165891,128,0,165960:0:0:0:0:
64,192,165960,128,0,166097:0:0:0:0:
192,192,166028,128,0,166165:0:0:0:0:
320,192,166028,128,0,166233:0:0:0:0:
448,192,166097,128,0,166302:0:0:0:0:
64,192,166165,128,0,166233:0:0:0:0:
192,192,166233,128,0,166370:0:0:0:0:
320,192,166302,128,0,166439:0:0:0:0:
64,192,166302,128,0,166507:0:0:0:0:
448,192,166370,128,0,166507:0:0:0:0:
192,192,166439,128,0,166644:0:0:0:0:
320,192,166507,128,0,166576:0:0:0:0:
64,192,166576,128,0,166712:0:0:0:0:
448,192,166576,128,0,166781:0:0:0:0:
320,192,166644,128,0,166781:0:0:0:0:
192,192,166712,128,0,166849:0:0:0:0:
64,192,166781,128,0,166918:0:0:0:0:
320,192,166849,128,0,166986:0:0:0:0:
448,192,166849,128,0,167055:0:0:0:0:
192,192,166918,128,0,167055:0:0:0:0:
64,192,166986,128,0,167123:0:0:0:0:
320,192,167055,128,0,167123:0:0:0:0:
192,192,167123,1,0,0:0:0:0:
448,192,167123,1,0,0:0:0:0:
320,192,167214,1,0,0:0:0:0:
64,192,167214,1,0,0:0:0:0:
192,192,167306,1,0,0:0:0:0:
448,192,167306,1,0,0:0:0:0:
320,192,167397,128,0,167602:0:0:0:0:
64,192,167397,128,0,167465:0:0:0:0:
192,192,167465,128,0,167534:0:0:0:0:
448,192,167534,128,0,167671:0:0:0:0:
192,192,167671,128,0,167876:0:0:0:0:
320,192,167671,128,0,167807:0:0:0:0:
64,192,167739,128,0,167944:0:0:0:0:
448,192,167807,128,0,167876:0:0:0:0:
192,192,167944,128,0,168081:0:0:0:0:
320,192,167944,128,0,168150:0:0:0:0:
448,192,168013,128,0,168218:0:0:0:0:
64,192,168081,128,0,168150:0:0:0:0:
192,192,168218,128,0,168286:0:0:0:0:
320,192,168218,128,0,168286:0:0:0:0:
192,192,168423,128,0,168492:0:0:0:0:
320,192,168423,128,0,168492:0:0:0:0:
192,192,168629,128,0,168697:0:0:0:0:
320,192,168629,128,0,168697:0:0:0:0:
192,192,168765,128,0,168902:0:0:0:0:
320,192,168765,128,0,168902:0:0:0:0:
192,192,168971,128,0,169108:0:0:0:0:
320,192,168971,128,0,169108:0:0:0:0:
192,192,169176,128,0,169244:0:0:0:0:
320,192,169176,128,0,169244:0:0:0:0:
448,192,169313,1,0,0:0:0:0:
64,192,169313,1,0,0:0:0:0:
192,192,169381,1,0,0:0:0:0:
64,192,169450,1,0,0:0:0:0:
320,192,169518,1,0,0:0:0:0:
192,192,169587,1,0,0:0:0:0:
448,192,169587,1,0,0:0:0:0:
64,192,169655,1,0,0:0:0:0:
192,192,169723,128,0,169792:0:0:0:0:
320,192,169723,128,0,169792:0:0:0:0:
448,192,169723,128,0,169792:0:0:0:0:
64,192,169860,1,0,0:0:0:0:
192,192,169860,1,0,0:0:0:0:
320,192,169929,1,0,0:0:0:0:
192,192,169997,1,0,0:0:0:0:
448,192,170066,1,0,0:0:0:0:
192,192,170134,128,0,170202:0:0:0:0:
320,192,170134,128,0,170202:0:0:0:0:
64,192,170134,128,0,170202:0:0:0:0:
448,192,170271,1,0,0:0:0:0:
64,192,170271,1,0,0:0:0:0:
320,192,170339,1,0,0:0:0:0:
448,192,170408,1,0,0:0:0:0:
192,192,170476,1,0,0:0:0:0:
448,192,170545,128,0,170613:0:0:0:0:
320,192,170545,128,0,170613:0:0:0:0:
64,192,170545,128,0,170613:0:0:0:0:
192,192,170681,1,0,0:0:0:0:
64,192,170681,1,0,0:0:0:0:
448,192,170750,1,0,0:0:0:0:
320,192,170818,1,0,0:0:0:0:
448,192,170887,1,0,0:0:0:0:
64,192,170955,128,0,171160:0:0:0:0:
192,192,170955,128,0,171160:0:0:0:0:
320,192,171024,1,0,0:0:0:0:
448,192,171092,1,0,0:0:0:0:
320,192,171160,1,0,0:0:0:0:
64,192,171229,128,0,171434:0:0:0:0:
192,192,171229,128,0,171434:0:0:0:0:
320,192,171297,1,0,0:0:0:0:
448,192,171366,1,0,0:0:0:0:
320,192,171434,1,0,0:0:0:0:
64,192,171503,1,0,0:0:0:0:
192,192,171503,1,0,0:0:0:0:
64,192,171594,1,0,0:0:0:0:
192,192,171594,1,0,0:0:0:0:
64,192,171685,1,0,0:0:0:0:
192,192,171685,1,0,0:0:0:0:
320,192,171776,1,0,0:0:0:0:
448,192,171776,1,0,0:0:0:0:
320,192,171868,1,0,0:0:0:0:
448,192,171868,1,0,0:0:0:0:
320,192,171959,1,0,0:0:0:0:
448,192,171959,1,0,0:0:0:0:
64,192,172050,1,0,0:0:0:0:
192,192,172050,1,0,0:0:0:0:
320,192,172141,1,0,0:0:0:0:
448,192,172141,1,0,0:0:0:0:
64,192,172233,1,0,0:0:0:0:
192,192,172233,1,0,0:0:0:0:
448,192,172324,1,0,0:0:0:0:
320,192,172324,1,0,0:0:0:0:
64,192,172415,1,0,0:0:0:0:
192,192,172415,1,0,0:0:0:0:
448,192,172506,1,0,0:0:0:0:
320,192,172506,1,0,0:0:0:0:
192,192,172598,1,0,0:0:0:0:
64,192,172598,128,0,173624:0:0:0:0:
448,192,173419,128,0,173624:0:0:0:0:
448,192,173692,128,0,173966:0:0:0:0:
64,192,173692,128,0,173738:0:0:0:0:
192,192,173738,128,0,173784:0:0:0:0:
320,192,173784,128,0,173829:0:0:0:0:
64,192,173829,128,0,173875:0:0:0:0:
192,192,173875,128,0,173921:0:0:0:0:
320,192,173921,128,0,173966:0:0:0:0:
64,192,173966,128,0,174035:0:0:0:0:
192,192,174035,128,0,174103:0:0:0:0:
320,192,174103,128,0,174171:0:0:0:0:
448,192,174171,128,0,174240:0:0:0:0:
192,192,174240,128,0,174274:0:0:0:0:
64,192,174274,128,0,174308:0:0:0:0:
320,192,174377,128,0,174411:0:0:0:0:
448,192,174411,128,0,174445:0:0:0:0:
192,192,174514,128,0,174548:0:0:0:0:
64,192,174548,128,0,174582:0:0:0:0:
320,192,174650,128,0,174685:0:0:0:0:
448,192,174685,128,0,174719:0:0:0:0:
320,192,174787,1,0,0:0:0:0:
192,192,174787,128,0,174822:0:0:0:0:
64,192,174822,128,0,174856:0:0:0:0:
192,192,174924,128,0,174958:0:0:0:0:
64,192,174958,128,0,174993:0:0:0:0:
320,192,175061,128,0,175095:0:0:0:0:
448,192,175095,128,0,175129:0:0:0:0:
320,192,175198,128,0,175232:0:0:0:0:
448,192,175232,128,0,175266:0:0:0:0:
192,192,175335,128,0,175574:0:0:0:0:
64,192,175369,128,0,175608:0:0:0:0:
448,192,175608,128,0,175814:0:0:0:0:
320,192,175643,128,0,175848:0:0:0:0:
192,192,175882,128,0,175928:0:0:0:0:
320,192,175928,128,0,175973:0:0:0:0:
192,192,175973,128,0,176019:0:0:0:0:
320,192,176019,128,0,176065:0:0:0:0:
192,192,176156,128,0,176190:0:0:0:0:
192,192,176224,128,0,176259:0:0:0:0:
64,192,176293,128,0,176327:0:0:0:0:
64,192,176361,128,0,176395:0:0:0:0:
320,192,176430,128,0,176464:0:0:0:0:
448,192,176464,128,0,176498:0:0:0:0:
192,192,176567,128,0,176601:0:0:0:0:
64,192,176601,128,0,176635:0:0:0:0:
320,192,176703,128,0,176738:0:0:0:0:
448,192,176738,128,0,176772:0:0:0:0:
192,192,176840,128,0,176874:0:0:0:0:
64,192,176874,128,0,176909:0:0:0:0:
192,192,176977,1,0,0:0:0:0:
320,192,176977,128,0,177011:0:0:0:0:
448,192,177011,128,0,177046:0:0:0:0:
320,192,177114,128,0,177148:0:0:0:0:
448,192,177148,128,0,177182:0:0:0:0:
192,192,177251,128,0,177285:0:0:0:0:
64,192,177285,128,0,177319:0:0:0:0:
192,192,177388,128,0,177422:0:0:0:0:
64,192,177422,128,0,177456:0:0:0:0:
448,192,177525,128,0,177753:0:0:0:0:
320,192,177570,128,0,177707:0:0:0:0:
192,192,177616,128,0,177661:0:0:0:0:
64,192,177661,128,0,177889:0:0:0:0:
192,192,177707,128,0,177844:0:0:0:0:
320,192,177753,128,0,177798:0:0:0:0:
448,192,177798,128,0,177844:0:0:0:0:
320,192,177844,128,0,177889:0:0:0:0:
192,192,177889,128,0,177935:0:0:0:0:
64,192,177935,128,0,178004:0:0:0:0:
192,192,178072,128,0,178209:0:0:0:0:
320,192,178072,128,0,178277:0:0:0:0:
448,192,178072,128,0,178346:0:0:0:0:
64,192,178346,1,0,0:0:0:0:
192,192,178346,1,0,0:0:0:0:
320,192,178414,1,0,0:0:0:0:
448,192,178414,1,0,0:0:0:0:
64,192,178483,1,0,0:0:0:0:
192,192,178483,1,0,0:0:0:0:
192,192,178619,1,0,0:0:0:0:
320,192,178619,128,0,178688:0:0:0:0:
448,192,178619,128,0,178756:0:0:0:0:
448,192,178825,1,0,0:0:0:0:
192,192,178825,128,0,178962:0:0:0:0:
320,192,178825,128,0,178893:0:0:0:0:
192,192,179030,128,0,179098:0:0:0:0:
320,192,179030,128,0,179167:0:0:0:0:
448,192,179030,128,0,179235:0:0:0:0:
192,192,179304,1,0,0:0:0:0:
320,192,179304,128,0,179372:0:0:0:0:
448,192,179304,128,0,179441:0:0:0:0:
320,192,179441,1,0,0:0:0:0:
192,192,179441,128,0,179509:0:0:0:0:
64,192,179441,128,0,179577:0:0:0:0:
320,192,179577,1,0,0:0:0:0:
448,192,179577,1,0,0:0:0:0:
64,192,179646,1,0,0:0:0:0:
192,192,179646,1,0,0:0:0:0:
320,192,179714,1,0,0:0:0:0:
448,192,179714,1,0,0:0:0:0:
64,192,179851,128,0,179988:0:0:0:0:
192,192,179851,128,0,179920:0:0:0:0:
320,192,179851,1,0,0:0:0:0:
64,192,180056,1,0,0:0:0:0:
192,192,180056,128,0,180125:0:0:0:0:
320,192,180056,128,0,180193:0:0:0:0:
64,192,180262,128,0,180467:0:0:0:0:
192,192,180262,128,0,180399:0:0:0:0:
320,192,180262,128,0,180330:0:0:0:0:
448,192,180353,128,0,180399:0:0:0:0:
320,192,180399,128,0,180444:0:0:0:0:
192,192,180444,128,0,180490:0:0:0:0:
64,192,180490,128,0,180535:0:0:0:0:
448,192,180535,128,0,180672:0:0:0:0:
64,192,180672,128,0,180741:0:0:0:0:
192,192,180672,128,0,180741:0:0:0:0:
320,192,180672,128,0,180741:0:0:0:0:
448,192,180741,1,0,0:0:0:0:
192,192,180809,128,0,180878:0:0:0:0:
320,192,180809,128,0,180878:0:0:0:0:
448,192,180809,128,0,180878:0:0:0:0:
64,192,180878,1,0,0:0:0:0:
64,192,180946,128,0,181083:0:0:0:0:
192,192,180946,128,0,181083:0:0:0:0:
320,192,180946,128,0,181083:0:0:0:0:
192,192,181151,128,0,181288:0:0:0:0:
320,192,181151,128,0,181357:0:0:0:0:
448,192,181151,128,0,181425:0:0:0:0:
320,192,181494,128,0,181562:0:0:0:0:
192,192,181494,128,0,181562:0:0:0:0:
448,192,181494,128,0,181562:0:0:0:0:
64,192,181630,128,0,181699:0:0:0:0:
192,192,181630,128,0,181699:0:0:0:0:
320,192,181630,128,0,181699:0:0:0:0:
448,192,181767,1,0,0:0:0:0:
320,192,181836,1,0,0:0:0:0:
192,192,181904,128,0,182041:0:0:0:0:
64,192,181904,128,0,182041:0:0:0:0:
448,192,181904,128,0,182041:0:0:0:0:
192,192,182109,128,0,182246:0:0:0:0:
320,192,182109,128,0,182246:0:0:0:0:
448,192,182109,128,0,182246:0:0:0:0:
320,192,182315,128,0,182383:0:0:0:0:
448,192,182315,128,0,182383:0:0:0:0:
64,192,182315,128,0,182383:0:0:0:0:
192,192,182452,1,0,0:0:0:0:
64,192,182452,128,0,184573:0:0:0:0:
448,192,182999,128,0,184368:0:0:0:0:
192,192,183546,128,0,184162:0:0:0:0:
320,192,183820,128,0,184436:0:0:0:0:
192,192,184231,128,0,184504:0:0:0:0:
448,192,184504,128,0,184573:0:0:0:0:
320,192,184573,128,0,184641:0:0:0:0:
192,192,184641,128,0,184710:0:0:0:0:
64,192,184710,128,0,184778:0:0:0:0:
320,192,184778,1,0,0:0:0:0:
448,192,184778,1,0,0:0:0:0:
320,192,184915,1,0,0:0:0:0:
448,192,184915,1,0,0:0:0:0:
64,192,185189,1,0,0:0:0:0:
192,192,185189,1,0,0:0:0:0:
64,192,185326,1,0,0:0:0:0:
192,192,185326,1,0,0:0:0:0:
320,192,185599,1,0,0:0:0:0:
448,192,185599,1,0,0:0:0:0:
320,192,185736,1,0,0:0:0:0:
448,192,185736,1,0,0:0:0:0:
192,192,186010,1,0,0:0:0:0:
64,192,186010,1,0,0:0:0:0:
64,192,186147,1,0,0:0:0:0:
192,192,186147,1,0,0:0:0:0:
320,192,186284,128,0,186557:0:0:0:0:
64,192,186557,1,0,0:0:0:0:
192,192,186557,1,0,0:0:0:0:
320,192,186694,1,0,0:0:0:0:
192,192,186728,1,0,0:0:0:0:
320,192,186831,1,0,0:0:0:0:
448,192,186831,128,0,188952:0:0:0:0:
64,192,187379,128,0,188747:0:0:0:0:
320,192,187926,128,0,188679:0:0:0:0:
192,192,188268,128,0,188816:0:0:0:0:
320,192,188747,128,0,188884:0:0:0:0:
64,192,188884,128,0,188952:0:0:0:0:
192,192,188952,128,0,189021:0:0:0:0:
320,192,189021,128,0,189089:0:0:0:0:
448,192,189089,128,0,189158:0:0:0:0:
64,192,189158,1,0,0:0:0:0:
192,192,189158,1,0,0:0:0:0:
64,192,189295,1,0,0:0:0:0:
192,192,189295,1,0,0:0:0:0:
320,192,189568,1,0,0:0:0:0:
448,192,189568,1,0,0:0:0:0:
320,192,189705,1,0,0:0:0:0:
448,192,189705,1,0,0:0:0:0:
64,192,189979,1,0,0:0:0:0:
192,192,189979,1,0,0:0:0:0:
64,192,190116,1,0,0:0:0:0:
192,192,190116,1,0,0:0:0:0:
320,192,190389,1,0,0:0:0:0:
448,192,190389,1,0,0:0:0:0:
320,192,190526,1,0,0:0:0:0:
448,192,190526,1,0,0:0:0:0:
192,192,190663,128,0,190732:0:0:0:0:
320,192,190732,128,0,190800:0:0:0:0:
192,192,190800,128,0,190869:0:0:0:0:
320,192,190869,128,0,190937:0:0:0:0:
64,192,190937,128,0,191005:0:0:0:0:
448,192,191005,128,0,191074:0:0:0:0:
64,192,191074,128,0,191142:0:0:0:0:
448,192,191142,128,0,191211:0:0:0:0:
192,192,191211,1,0,0:0:0:0:
320,192,191211,1,0,0:0:0:0:
64,192,191211,128,0,193400:0:0:0:0:
320,192,191758,128,0,191963:0:0:0:0:
448,192,192032,128,0,192237:0:0:0:0:
320,192,192306,128,0,192579:0:0:0:0:
448,192,192579,128,0,192990:0:0:0:0:
192,192,192853,128,0,193058:0:0:0:0:
320,192,193127,128,0,193332:0:0:0:0:
448,192,193400,128,0,195590:0:0:0:0:
192,192,193400,128,0,193674:0:0:0:0:
64,192,193674,128,0,193879:0:0:0:0:
320,192,193948,128,0,194153:0:0:0:0:
192,192,194222,128,0,194427:0:0:0:0:
64,192,194495,128,0,194769:0:0:0:0:
192,192,194769,128,0,195043:0:0:0:0:
64,192,195043,128,0,195317:0:0:0:0:
320,192,195317,128,0,195522:0:0:0:0:
192,192,195590,128,0,197780:0:0:0:0:
64,192,195590,128,0,195796:0:0:0:0:
320,192,195864,128,0,196343:0:0:0:0:
448,192,196138,128,0,196343:0:0:0:0:
64,192,196411,128,0,196617:0:0:0:0:
448,192,196685,128,0,197164:0:0:0:0:
320,192,196959,128,0,197164:0:0:0:0:
64,192,197096,128,0,197301:0:0:0:0:
448,192,197369,128,0,197575:0:0:0:0:
64,192,197643,128,0,198054:0:0:0:0:
320,192,197780,128,0,199970:0:0:0:0:
448,192,198054,128,0,198806:0:0:0:0:
192,192,198327,128,0,198601:0:0:0:0:
64,192,198601,128,0,198875:0:0:0:0:
192,192,198875,128,0,199149:0:0:0:0:
448,192,199149,128,0,199696:0:0:0:0:
64,192,199422,128,0,199696:0:0:0:0:
192,192,199696,128,0,199901:0:0:0:0:
64,192,199970,128,0,202091:0:0:0:0:
448,192,199970,128,0,200038:0:0:0:0:
192,192,200107,128,0,200175:0:0:0:0:
320,192,200175,128,0,200244:0:0:0:0:
448,192,200244,128,0,200312:0:0:0:0:
192,192,200312,128,0,200380:0:0:0:0:
320,192,200380,128,0,200449:0:0:0:0:
448,192,200449,128,0,200517:0:0:0:0:
192,192,200517,128,0,200551:0:0:0:0:
320,192,200586,128,0,200620:0:0:0:0:
448,192,200654,128,0,200688:0:0:0:0:
192,192,200723,128,0,200757:0:0:0:0:
320,192,200791,128,0,200825:0:0:0:0:
448,192,200859,128,0,200894:0:0:0:0:
192,192,200928,1,0,0:0:0:0:
320,192,200996,1,0,0:0:0:0:
448,192,201065,1,0,0:0:0:0:
192,192,201202,1,0,0:0:0:0:
320,192,201338,1,0,0:0:0:0:
448,192,201475,1,0,0:0:0:0:
192,192,201612,1,0,0:0:0:0:
320,192,201749,1,0,0:0:0:0:
448,192,201886,128,0,202091:0:0:0:0:
320,192,202023,128,0,202091:0:0:0:0:
192,192,202091,1,0,0:0:0:0:
64,192,202160,128,0,202365:0:0:0:0:
448,192,202160,128,0,202365:0:0:0:0:
192,192,202433,128,0,202468:0:0:0:0:
320,192,202468,128,0,202502:0:0:0:0:
192,192,202570,128,0,202604:0:0:0:0:
320,192,202604,128,0,202639:0:0:0:0:
64,192,202707,128,0,202775:0:0:0:0:
448,192,202775,128,0,202844:0:0:0:0:
64,192,202844,128,0,202912:0:0:0:0:
448,192,202912,128,0,202981:0:0:0:0:
320,192,202981,128,0,203015:0:0:0:0:
192,192,203015,128,0,203049:0:0:0:0:
320,192,203118,128,0,203152:0:0:0:0:
192,192,203152,128,0,203186:0:0:0:0:
64,192,203254,128,0,203460:0:0:0:0:
448,192,203254,128,0,203460:0:0:0:0:
192,192,203528,128,0,203562:0:0:0:0:
320,192,203562,128,0,203597:0:0:0:0:
192,192,203665,128,0,203699:0:0:0:0:
320,192,203699,128,0,203733:0:0:0:0:
64,192,203802,1,0,0:0:0:0:
192,192,203870,1,0,0:0:0:0:
320,192,203939,1,0,0:0:0:0:
448,192,203984,1,0,0:0:0:0:
64,192,204007,128,0,204144:0:0:0:0:
192,192,204076,128,0,204212:0:0:0:0:
320,192,204144,128,0,204281:0:0:0:0:
448,192,204212,128,0,204349:0:0:0:0:
64,192,204349,128,0,204486:0:0:0:0:
192,192,204395,1,0,0:0:0:0:
320,192,204441,128,0,204532:0:0:0:0:
448,192,204486,128,0,204532:0:0:0:0:
192,192,204532,128,0,204692:0:0:0:0:
64,192,204577,128,0,204828:0:0:0:0:
320,192,204623,128,0,204760:0:0:0:0:
448,192,204692,128,0,204897:0:0:0:0:
192,192,204760,128,0,204897:0:0:0:0:
320,192,204828,128,0,204897:0:0:0:0:
64,192,204897,128,0,205034:0:0:0:0:
192,192,204965,1,0,0:0:0:0:
320,192,205034,128,0,205102:0:0:0:0:
448,192,205068,128,0,205102:0:0:0:0:
64,192,205102,128,0,205239:0:0:0:0:
192,192,205171,1,0,0:0:0:0:
448,192,205239,128,0,205307:0:0:0:0:
320,192,205273,128,0,205307:0:0:0:0:
64,192,205307,128,0,205444:0:0:0:0:
192,192,205376,1,0,0:0:0:0:
320,192,205444,128,0,205513:0:0:0:0:
448,192,205478,128,0,205513:0:0:0:0:
64,192,205513,128,0,205650:0:0:0:0:
192,192,205581,1,0,0:0:0:0:
448,192,205650,128,0,205718:0:0:0:0:
320,192,205684,128,0,205718:0:0:0:0:
64,192,205718,128,0,205855:0:0:0:0:
192,192,205786,1,0,0:0:0:0:
320,192,205855,128,0,205923:0:0:0:0:
448,192,205889,128,0,205923:0:0:0:0:
64,192,205923,128,0,206060:0:0:0:0:
192,192,205992,1,0,0:0:0:0:
448,192,206060,128,0,206129:0:0:0:0:
320,192,206094,128,0,206129:0:0:0:0:
64,192,206129,128,0,206265:0:0:0:0:
192,192,206197,1,0,0:0:0:0:
320,192,206265,128,0,206334:0:0:0:0:
448,192,206300,128,0,206334:0:0:0:0:
64,192,206334,128,0,206471:0:0:0:0:
192,192,206402,128,0,206539:0:0:0:0:
448,192,206539,128,0,206676:0:0:0:0:
320,192,206585,1,0,0:0:0:0:
192,192,206630,128,0,206722:0:0:0:0:
64,192,206676,128,0,206813:0:0:0:0:
320,192,206722,128,0,206881:0:0:0:0:
448,192,206767,128,0,207018:0:0:0:0:
192,192,206813,128,0,206950:0:0:0:0:
64,192,206881,128,0,207087:0:0:0:0:
320,192,206950,128,0,207087:0:0:0:0:
192,192,207018,128,0,207087:0:0:0:0:
448,192,207087,128,0,207223:0:0:0:0:
320,192,207155,1,0,0:0:0:0:
192,192,207223,128,0,207292:0:0:0:0:
64,192,207258,128,0,207292:0:0:0:0:
448,192,207292,128,0,207429:0:0:0:0:
320,192,207360,1,0,0:0:0:0:
64,192,207429,128,0,207497:0:0:0:0:
192,192,207463,128,0,207497:0:0:0:0:
448,192,207497,128,0,207634:0:0:0:0:
320,192,207566,1,0,0:0:0:0:
192,192,207634,128,0,207702:0:0:0:0:
64,192,207668,128,0,207702:0:0:0:0:
448,192,207702,128,0,207839:0:0:0:0:
320,192,207771,1,0,0:0:0:0:
64,192,207839,128,0,207908:0:0:0:0:
192,192,207874,128,0,207908:0:0:0:0:
448,192,207908,128,0,208045:0:0:0:0:
320,192,207976,1,0,0:0:0:0:
192,192,208045,128,0,208113:0:0:0:0:
64,192,208079,128,0,208113:0:0:0:0:
448,192,208113,128,0,208250:0:0:0:0:
320,192,208181,1,0,0:0:0:0:
64,192,208250,128,0,208318:0:0:0:0:
192,192,208284,128,0,208318:0:0:0:0:
448,192,208318,128,0,208387:0:0:0:0:
320,192,208318,1,0,0:0:0:0:
448,192,208455,128,0,208524:0:0:0:0:
192,192,208455,1,0,0:0:0:0:
448,192,208592,128,0,208660:0:0:0:0:
64,192,208592,1,0,0:0:0:0:
320,192,208592,128,0,208729:0:0:0:0:
64,192,208729,128,0,208866:0:0:0:0:
192,192,208775,1,0,0:0:0:0:
320,192,208820,128,0,208911:0:0:0:0:
448,192,208866,128,0,208911:0:0:0:0:
192,192,208911,128,0,209071:0:0:0:0:
64,192,208957,128,0,209208:0:0:0:0:
320,192,209003,128,0,209139:0:0:0:0:
448,192,209071,128,0,209276:0:0:0:0:
192,192,209139,128,0,209276:0:0:0:0:
320,192,209208,128,0,209276:0:0:0:0:
64,192,209276,128,0,209413:0:0:0:0:
192,192,209345,1,0,0:0:0:0:
320,192,209413,128,0,209482:0:0:0:0:
448,192,209447,128,0,209482:0:0:0:0:
64,192,209482,128,0,209619:0:0:0:0:
192,192,209550,1,0,0:0:0:0:
448,192,209619,128,0,209687:0:0:0:0:
320,192,209653,128,0,209687:0:0:0:0:
64,192,209687,128,0,209824:0:0:0:0:
192,192,209755,1,0,0:0:0:0:
320,192,209824,128,0,209892:0:0:0:0:
448,192,209858,128,0,209892:0:0:0:0:
64,192,209892,128,0,210029:0:0:0:0:
192,192,209961,1,0,0:0:0:0:
448,192,210029,128,0,210098:0:0:0:0:
320,192,210063,128,0,210098:0:0:0:0:
64,192,210098,128,0,210234:0:0:0:0:
192,192,210166,1,0,0:0:0:0:
320,192,210234,128,0,210303:0:0:0:0:
448,192,210269,128,0,210303:0:0:0:0:
64,192,210303,128,0,210440:0:0:0:0:
192,192,210371,1,0,0:0:0:0:
448,192,210440,128,0,210508:0:0:0:0:
320,192,210474,128,0,210508:0:0:0:0:
64,192,210508,128,0,210645:0:0:0:0:
192,192,210577,1,0,0:0:0:0:
320,192,210645,128,0,210713:0:0:0:0:
448,192,210679,128,0,210713:0:0:0:0:
64,192,210713,128,0,210850:0:0:0:0:
192,192,210782,128,0,210919:0:0:0:0:
448,192,210919,1,0,0:0:0:0:
320,192,210919,128,0,211056:0:0:0:0:
448,192,210987,128,0,211124:0:0:0:0:
64,192,211056,128,0,211192:0:0:0:0:
320,192,211124,128,0,211192:0:0:0:0:
192,192,211192,128,0,211261:0:0:0:0:
320,192,211261,128,0,211329:0:0:0:0:
64,192,211329,128,0,211398:0:0:0:0:
192,192,211398,128,0,211466:0:0:0:0:
320,192,211466,1,0,0:0:0:0:
448,192,211466,128,0,211603:0:0:0:0:
320,192,211535,128,0,211671:0:0:0:0:
64,192,211603,128,0,211740:0:0:0:0:
192,192,211671,128,0,211740:0:0:0:0:
448,192,211740,128,0,211808:0:0:0:0:
192,192,211808,128,0,211877:0:0:0:0:
448,192,211877,128,0,211945:0:0:0:0:
320,192,211945,128,0,212014:0:0:0:0:
64,192,212014,1,0,0:0:0:0:
192,192,212014,128,0,212150:0:0:0:0:
64,192,212082,128,0,212219:0:0:0:0:
448,192,212150,128,0,212287:0:0:0:0:
192,192,212219,128,0,212287:0:0:0:0:
320,192,212287,128,0,212356:0:0:0:0:
64,192,212287,128,0,212493:0:0:0:0:
448,192,212424,128,0,212493:0:0:0:0:
192,192,212493,128,0,212561:0:0:0:0:
320,192,212561,128,0,212629:0:0:0:0:
448,192,212561,128,0,212629:0:0:0:0:
192,192,212629,128,0,212698:0:0:0:0:
64,192,212629,128,0,212698:0:0:0:0:
320,192,212698,128,0,212835:0:0:0:0:
448,192,212698,128,0,212766:0:0:0:0:
192,192,212766,128,0,212903:0:0:0:0:
64,192,212835,128,0,212972:0:0:0:0:
448,192,212835,128,0,212903:0:0:0:0:
320,192,212903,128,0,212972:0:0:0:0:
192,192,212972,128,0,213040:0:0:0:0:
64,192,213040,128,0,213108:0:0:0:0:
320,192,213108,128,0,213177:0:0:0:0:
448,192,213143,128,0,213211:0:0:0:0:
64,192,213177,1,0,0:0:0:0:
192,192,213245,1,0,0:0:0:0:
320,192,213314,1,0,0:0:0:0:
192,192,213382,128,0,213451:0:0:0:0:
64,192,213416,128,0,213485:0:0:0:0:
448,192,213451,128,0,213587:0:0:0:0:
320,192,213519,128,0,213622:0:0:0:0:
192,192,213587,128,0,213656:0:0:0:0:
448,192,213656,1,0,0:0:0:0:
64,192,213656,128,0,213690:0:0:0:0:
320,192,213724,1,0,0:0:0:0:
192,192,213793,128,0,213861:0:0:0:0:
64,192,213827,128,0,213895:0:0:0:0:
448,192,213861,1,0,0:0:0:0:
320,192,213930,128,0,213998:0:0:0:0:
192,192,213964,128,0,214032:0:0:0:0:
448,192,214067,1,0,0:0:0:0:
64,192,214135,1,0,0:0:0:0:
448,192,214203,128,0,214272:0:0:0:0:
320,192,214238,128,0,214306:0:0:0:0:
64,192,214272,1,0,0:0:0:0:
192,192,214340,1,0,0:0:0:0:
448,192,214409,1,0,0:0:0:0:
320,192,214477,128,0,214546:0:0:0:0:
192,192,214511,128,0,214580:0:0:0:0:
448,192,214546,1,0,0:0:0:0:
320,192,214614,1,0,0:0:0:0:
64,192,214682,1,0,0:0:0:0:
448,192,214751,128,0,214785:0:0:0:0:
320,192,214785,128,0,214819:0:0:0:0:
192,192,214888,128,0,214956:0:0:0:0:
320,192,214888,128,0,214956:0:0:0:0:
192,192,215025,128,0,215059:0:0:0:0:
64,192,215059,128,0,215093:0:0:0:0:
448,192,215161,128,0,215230:0:0:0:0:
320,192,215161,128,0,215298:0:0:0:0:
192,192,215298,128,0,215401:0:0:0:0:
64,192,215332,128,0,215435:0:0:0:0:
448,192,215367,128,0,215435:0:0:0:0:
320,192,215435,128,0,215504:0:0:0:0:
192,192,215504,128,0,215572:0:0:0:0:
448,192,215572,128,0,215640:0:0:0:0:
320,192,215606,128,0,215675:0:0:0:0:
192,192,215640,128,0,215709:0:0:0:0:
64,192,215675,128,0,215777:0:0:0:0:
448,192,215709,128,0,215743:0:0:0:0:
320,192,215777,1,0,0:0:0:0:
192,192,215846,128,0,215914:0:0:0:0:
64,192,215880,128,0,215948:0:0:0:0:
448,192,215914,1,0,0:0:0:0:
320,192,215983,1,0,0:0:0:0:
64,192,216051,1,0,0:0:0:0:
320,192,216119,128,0,216188:0:0:0:0:
192,192,216154,128,0,216222:0:0:0:0:
448,192,216188,1,0,0:0:0:0:
64,192,216256,1,0,0:0:0:0:
192,192,216325,1,0,0:0:0:0:
448,192,216393,128,0,216462:0:0:0:0:
320,192,216427,128,0,216496:0:0:0:0:
192,192,216462,1,0,0:0:0:0:
64,192,216530,1,0,0:0:0:0:
448,192,216598,1,0,0:0:0:0:
320,192,216667,128,0,216735:0:0:0:0:
192,192,216701,128,0,216770:0:0:0:0:
64,192,216735,1,0,0:0:0:0:
192,192,216804,1,0,0:0:0:0:
320,192,216872,1,0,0:0:0:0:
192,192,216941,1,0,0:0:0:0:
64,192,216975,1,0,0:0:0:0:
320,192,217077,128,0,217112:0:0:0:0:
192,192,217112,128,0,217146:0:0:0:0:
448,192,217214,128,0,217283:0:0:0:0:
320,192,217249,128,0,217317:0:0:0:0:
192,192,217351,128,0,217454:0:0:0:0:
64,192,217385,128,0,217454:0:0:0:0:
448,192,217488,128,0,217625:0:0:0:0:
320,192,217556,128,0,217625:0:0:0:0:
64,192,217591,128,0,217625:0:0:0:0:
192,192,217625,128,0,217693:0:0:0:0:
320,192,217693,128,0,217762:0:0:0:0:
448,192,217762,128,0,217830:0:0:0:0:
64,192,217762,128,0,217830:0:0:0:0:
192,192,217830,128,0,217864:0:0:0:0:
320,192,217899,128,0,217967:0:0:0:0:
448,192,217967,128,0,218001:0:0:0:0:
192,192,218035,128,0,218104:0:0:0:0:
64,192,218070,128,0,218138:0:0:0:0:
448,192,218104,1,0,0:0:0:0:
320,192,218172,1,0,0:0:0:0:
192,192,218241,1,0,0:0:0:0:
448,192,218309,128,0,218378:0:0:0:0:
320,192,218343,128,0,218378:0:0:0:0:
64,192,218378,1,0,0:0:0:0:
192,192,218446,1,0,0:0:0:0:
448,192,218514,1,0,0:0:0:0:
192,192,218583,128,0,218651:0:0:0:0:
64,192,218617,128,0,218686:0:0:0:0:
448,192,218651,1,0,0:0:0:0:
320,192,218720,1,0,0:0:0:0:
192,192,218788,1,0,0:0:0:0:
448,192,218857,128,0,218925:0:0:0:0:
320,192,218891,128,0,218925:0:0:0:0:
64,192,218925,1,0,0:0:0:0:
192,192,218994,1,0,0:0:0:0:
64,192,219062,1,0,0:0:0:0:
448,192,219130,1,0,0:0:0:0:
320,192,219165,128,0,219301:0:0:0:0:
192,192,219199,128,0,219267:0:0:0:0:
64,192,219267,1,0,0:0:0:0:
192,192,219336,1,0,0:0:0:0:
448,192,219404,128,0,219473:0:0:0:0:
320,192,219438,1,0,0:0:0:0:
64,192,219473,1,0,0:0:0:0:
192,192,219541,1,0,0:0:0:0:
448,192,219541,1,0,0:0:0:0:
64,192,219609,1,0,0:0:0:0:
320,192,219609,1,0,0:0:0:0:
192,192,219678,128,0,220020:0:0:0:0:
448,192,219678,128,0,220157:0:0:0:0:
64,192,219815,128,0,219883:0:0:0:0:
320,192,219883,128,0,219952:0:0:0:0:
64,192,219952,128,0,220157:0:0:0:0:
320,192,220020,128,0,220088:0:0:0:0:
192,192,220088,128,0,220225:0:0:0:0:
320,192,220157,128,0,220431:0:0:0:0:
448,192,220225,128,0,220294:0:0:0:0:
64,192,220225,128,0,220704:0:0:0:0:
192,192,220294,128,0,220362:0:0:0:0:
448,192,220362,128,0,220704:0:0:0:0:
192,192,220431,128,0,220499:0:0:0:0:
320,192,220499,128,0,220567:0:0:0:0:
192,192,220567,128,0,220636:0:0:0:0:
320,192,220636,128,0,220773:0:0:0:0:
192,192,220704,128,0,220978:0:0:0:0:
64,192,220773,128,0,220841:0:0:0:0:
448,192,220773,128,0,221252:0:0:0:0:
320,192,220841,128,0,220910:0:0:0:0:
64,192,220910,128,0,221252:0:0:0:0:
320,192,220978,128,0,221046:0:0:0:0:
192,192,221046,128,0,221115:0:0:0:0:
320,192,221115,128,0,221183:0:0:0:0:
192,192,221183,128,0,221320:0:0:0:0:
320,192,221252,128,0,221389:0:0:0:0:
448,192,221320,128,0,221457:0:0:0:0:
64,192,221320,128,0,221525:0:0:0:0:
192,192,221389,128,0,221662:0:0:0:0:
320,192,221457,128,0,221594:0:0:0:0:
448,192,221525,128,0,221594:0:0:0:0:
64,192,221594,128,0,221731:0:0:0:0:
320,192,221662,128,0,221697:0:0:0:0:
192,192,221731,128,0,221765:0:0:0:0:
64,192,221799,128,0,221833:0:0:0:0:
320,192,221868,1,0,0:0:0:0:
448,192,221868,1,0,0:0:0:0:
448,192,222278,1,0,0:0:0:0:
320,192,222415,1,0,0:0:0:0:
448,192,222415,1,0,0:0:0:0:
192,192,222415,1,0,0:0:0:0:
448,192,223099,1,0,0:0:0:0:
320,192,223099,1,0,0:0:0:0:
192,192,223168,1,0,0:0:0:0:
320,192,223236,1,0,0:0:0:0:
448,192,223236,1,0,0:0:0:0:
320,192,223373,1,0,0:0:0:0:
448,192,223373,1,0,0:0:0:0:
192,192,223510,1,0,0:0:0:0:
320,192,223510,1,0,0:0:0:0:
448,192,223510,1,0,0:0:0:0:
64,192,224057,1,0,0:0:0:0:
192,192,224057,1,0,0:0:0:0:
64,192,224331,1,0,0:0:0:0:
64,192,224605,1,0,0:0:0:0:
192,192,224605,1,0,0:0:0:0:
320,192,224605,1,0,0:0:0:0:
64,192,225289,1,0,0:0:0:0:
192,192,225289,1,0,0:0:0:0:
320,192,225358,1,0,0:0:0:0:
64,192,225426,1,0,0:0:0:0:
192,192,225426,1,0,0:0:0:0:
64,192,225563,1,0,0:0:0:0:
192,192,225563,1,0,0:0:0:0:
448,192,225631,1,0,0:0:0:0:
64,192,225700,1,0,0:0:0:0:
192,192,225700,1,0,0:0:0:0:
320,192,225700,1,0,0:0:0:0:
64,192,225837,1,0,0:0:0:0:
192,192,225837,1,0,0:0:0:0:
64,192,226110,1,0,0:0:0:0:
320,192,226247,1,0,0:0:0:0:
448,192,226247,1,0,0:0:0:0:
448,192,226658,1,0,0:0:0:0:
192,192,226795,1,0,0:0:0:0:
448,192,226795,1,0,0:0:0:0:
320,192,226795,1,0,0:0:0:0:
320,192,227479,1,0,0:0:0:0:
448,192,227479,1,0,0:0:0:0:
192,192,227547,1,0,0:0:0:0:
448,192,227616,1,0,0:0:0:0:
320,192,227616,1,0,0:0:0:0:
448,192,227753,1,0,0:0:0:0:
320,192,227753,1,0,0:0:0:0:
448,192,227889,1,0,0:0:0:0:
320,192,227889,1,0,0:0:0:0:
192,192,227889,1,0,0:0:0:0:
64,192,228437,1,0,0:0:0:0:
192,192,228437,1,0,0:0:0:0:
64,192,228711,1,0,0:0:0:0:
64,192,228984,1,0,0:0:0:0:
192,192,228984,1,0,0:0:0:0:
320,192,228984,1,0,0:0:0:0:
64,192,229669,1,0,0:0:0:0:
192,192,229669,1,0,0:0:0:0:
320,192,229737,1,0,0:0:0:0:
64,192,229806,1,0,0:0:0:0:
192,192,229806,1,0,0:0:0:0:
64,192,229942,1,0,0:0:0:0:
192,192,229942,1,0,0:0:0:0:
448,192,230011,1,0,0:0:0:0:
64,192,230079,1,0,0:0:0:0:
192,192,230079,1,0,0:0:0:0:
320,192,230079,1,0,0:0:0:0:
64,192,230216,1,0,0:0:0:0:
192,192,230216,1,0,0:0:0:0:
64,192,230490,1,0,0:0:0:0:
192,192,230627,128,0,230661:0:0:0:0:
320,192,230627,128,0,230661:0:0:0:0:
448,192,230627,128,0,230661:0:0:0:0:
64,192,230627,128,0,230661:0:0:0:0:
448,192,231037,1,0,0:0:0:0:
192,192,231174,1,0,0:0:0:0:
448,192,231174,1,0,0:0:0:0:
320,192,231174,1,0,0:0:0:0:
320,192,231858,1,0,0:0:0:0:
448,192,231858,1,0,0:0:0:0:
192,192,231927,1,0,0:0:0:0:
448,192,231995,1,0,0:0:0:0:
320,192,231995,1,0,0:0:0:0:
448,192,232132,1,0,0:0:0:0:
320,192,232132,1,0,0:0:0:0:
448,192,232269,1,0,0:0:0:0:
320,192,232269,1,0,0:0:0:0:
192,192,232269,1,0,0:0:0:0:
64,192,232817,1,0,0:0:0:0:
192,192,232817,1,0,0:0:0:0:
64,192,233090,1,0,0:0:0:0:
64,192,233364,1,0,0:0:0:0:
192,192,233364,1,0,0:0:0:0:
320,192,233364,1,0,0:0:0:0:
64,192,234048,1,0,0:0:0:0:
192,192,234048,1,0,0:0:0:0:
320,192,234117,1,0,0:0:0:0:
64,192,234185,1,0,0:0:0:0:
192,192,234185,1,0,0:0:0:0:
64,192,234322,1,0,0:0:0:0:
192,192,234322,1,0,0:0:0:0:
448,192,234390,1,0,0:0:0:0:
64,192,234459,1,0,0:0:0:0:
192,192,234459,1,0,0:0:0:0:
320,192,234459,1,0,0:0:0:0:
192,192,234596,1,0,0:0:0:0:
64,192,234596,1,0,0:0:0:0:
64,192,234869,1,0,0:0:0:0:
320,192,235006,1,0,0:0:0:0:
448,192,235006,128,0,236033:0:0:0:0:
192,192,235006,1,0,0:0:0:0:
192,192,235143,1,0,0:0:0:0:
320,192,235143,1,0,0:0:0:0:
192,192,235280,1,0,0:0:0:0:
320,192,235280,1,0,0:0:0:0:
64,192,235417,1,0,0:0:0:0:
320,192,235417,1,0,0:0:0:0:
64,192,235554,1,0,0:0:0:0:
320,192,235554,1,0,0:0:0:0:
64,192,235691,1,0,0:0:0:0:
320,192,235691,1,0,0:0:0:0:
64,192,235827,1,0,0:0:0:0:
192,192,235827,1,0,0:0:0:0:
64,192,235964,1,0,0:0:0:0:
192,192,235964,1,0,0:0:0:0:
64,192,236101,1,0,0:0:0:0:
192,192,236101,1,0,0:0:0:0:
320,192,236170,1,0,0:0:0:0:
448,192,236170,1,0,0:0:0:0:
64,192,236238,1,0,0:0:0:0:
192,192,236238,1,0,0:0:0:0:
320,192,236306,1,0,0:0:0:0:
448,192,236306,1,0,0:0:0:0:
64,192,236375,1,0,0:0:0:0:
192,192,236409,1,0,0:0:0:0:
320,192,236443,1,0,0:0:0:0:
448,192,236478,1,0,0:0:0:0:
64,192,236512,1,0,0:0:0:0:
192,192,236546,1,0,0:0:0:0:
320,192,236580,1,0,0:0:0:0:
448,192,236614,1,0,0:0:0:0:
64,192,236649,1,0,0:0:0:0:
192,192,236649,1,0,0:0:0:0:
320,192,236717,1,0,0:0:0:0:
448,192,236717,1,0,0:0:0:0:
64,192,236785,1,0,0:0:0:0:
192,192,236785,1,0,0:0:0:0:
448,192,236854,1,0,0:0:0:0:
320,192,236854,1,0,0:0:0:0:
64,192,236922,1,0,0:0:0:0:
192,192,236957,1,0,0:0:0:0:
320,192,236991,1,0,0:0:0:0:
448,192,237025,1,0,0:0:0:0:
64,192,237059,1,0,0:0:0:0:
192,192,237093,1,0,0:0:0:0:
320,192,237128,1,0,0:0:0:0:
448,192,237162,1,0,0:0:0:0:
64,192,237196,128,0,241576:0:0:0:0:
320,192,237333,1,0,0:0:0:0:
448,192,237333,1,0,0:0:0:0:
192,192,237470,1,0,0:0:0:0:
448,192,237470,1,0,0:0:0:0:
192,192,237744,1,0,0:0:0:0:
448,192,237744,1,0,0:0:0:0:
320,192,237880,1,0,0:0:0:0:
448,192,237880,1,0,0:0:0:0:
320,192,238154,1,0,0:0:0:0:
448,192,238154,1,0,0:0:0:0:
192,192,238291,1,0,0:0:0:0:
448,192,238291,1,0,0:0:0:0:
192,192,238565,1,0,0:0:0:0:
448,192,238565,1,0,0:0:0:0:
320,192,238702,1,0,0:0:0:0:
448,192,238702,1,0,0:0:0:0:
192,192,238930,128,0,239021:0:0:0:0:
320,192,239021,128,0,239112:0:0:0:0:
448,192,239112,128,0,239203:0:0:0:0:
320,192,239203,128,0,239295:0:0:0:0:
192,192,239295,128,0,239386:0:0:0:0:
320,192,239386,128,0,239454:0:0:0:0:
320,192,239523,1,0,0:0:0:0:
448,192,239523,1,0,0:0:0:0:
192,192,239660,128,0,241576:0:0:0:0:
448,192,239660,1,0,0:0:0:0:
320,192,239933,1,0,0:0:0:0:
448,192,239933,1,0,0:0:0:0:
320,192,240070,1,0,0:0:0:0:
320,192,240344,1,0,0:0:0:0:
448,192,240344,1,0,0:0:0:0:
448,192,240481,1,0,0:0:0:0:
320,192,240754,1,0,0:0:0:0:
448,192,240754,1,0,0:0:0:0:
320,192,240891,1,0,0:0:0:0:
448,192,241165,128,0,241233:0:0:0:0:
320,192,241233,128,0,241302:0:0:0:0:
448,192,241302,128,0,241370:0:0:0:0:
320,192,241370,128,0,241439:0:0:0:0:
448,192,241439,128,0,241507:0:0:0:0:
320,192,241507,128,0,241576:0:0:0:0:
448,192,241576,1,0,0:0:0:0:
64,192,242123,128,0,243697:0:0:0:0:
320,192,242671,128,0,243218:0:0:0:0:
448,192,243218,128,0,243697:0:0:0:0:
192,192,243355,1,0,0:0:0:0:
320,192,243423,1,0,0:0:0:0:
192,192,243492,128,0,243697:0:0:0:0:
320,192,243492,128,0,243697:0:0:0:0:
192,192,243765,128,0,243834:0:0:0:0:
64,192,243765,128,0,243902:0:0:0:0:
448,192,243834,1,0,0:0:0:0:
320,192,243902,1,0,0:0:0:0:
192,192,243971,1,0,0:0:0:0:
320,192,244039,128,0,244108:0:0:0:0:
448,192,244039,128,0,244176:0:0:0:0:
64,192,244108,1,0,0:0:0:0:
320,192,244176,1,0,0:0:0:0:
192,192,244244,1,0,0:0:0:0:
320,192,244313,1,0,0:0:0:0:
448,192,244313,128,0,244450:0:0:0:0:
64,192,244313,128,0,244381:0:0:0:0:
192,192,244381,1,0,0:0:0:0:
64,192,244450,1,0,0:0:0:0:
320,192,244518,1,0,0:0:0:0:
192,192,244587,128,0,244655:0:0:0:0:
64,192,244587,128,0,244723:0:0:0:0:
448,192,244655,128,0,244723:0:0:0:0:
320,192,244723,128,0,244792:0:0:0:0:
64,192,244792,128,0,244860:0:0:0:0:
192,192,244860,128,0,244929:0:0:0:0:
448,192,244860,128,0,244997:0:0:0:0:
64,192,244929,128,0,244997:0:0:0:0:
320,192,244997,128,0,245066:0:0:0:0:
192,192,245066,128,0,245134:0:0:0:0:
320,192,245134,128,0,245202:0:0:0:0:
448,192,245134,128,0,245271:0:0:0:0:
64,192,245202,128,0,245271:0:0:0:0:
192,192,245271,128,0,245339:0:0:0:0:
64,192,245339,128,0,245408:0:0:0:0:
320,192,245408,128,0,245476:0:0:0:0:
448,192,245408,128,0,245545:0:0:0:0:
192,192,245476,128,0,245545:0:0:0:0:
320,192,245545,128,0,245613:0:0:0:0:
448,192,245613,128,0,245681:0:0:0:0:
192,192,245681,128,0,245750:0:0:0:0:
64,192,245681,128,0,245818:0:0:0:0:
320,192,245750,128,0,245818:0:0:0:0:
192,192,245818,128,0,245887:0:0:0:0:
64,192,245887,128,0,245955:0:0:0:0:
320,192,245955,128,0,246024:0:0:0:0:
448,192,245955,128,0,246160:0:0:0:0:
192,192,246024,128,0,246092:0:0:0:0:
64,192,246092,128,0,246160:0:0:0:0:
320,192,246160,128,0,246229:0:0:0:0:
192,192,246229,1,0,0:0:0:0:
64,192,246297,1,0,0:0:0:0:
320,192,246366,1,0,0:0:0:0:
448,192,246434,1,0,0:0:0:0:
64,192,246503,128,0,246708:0:0:0:0:
192,192,246503,128,0,246571:0:0:0:0:
320,192,246571,128,0,246639:0:0:0:0:
192,192,246639,128,0,246708:0:0:0:0:
320,192,246708,128,0,246776:0:0:0:0:
448,192,246776,128,0,246982:0:0:0:0:
192,192,246776,128,0,246845:0:0:0:0:
320,192,246845,128,0,246913:0:0:0:0:
192,192,246913,128,0,246982:0:0:0:0:
320,192,246982,128,0,247050:0:0:0:0:
192,192,247050,128,0,247119:0:0:0:0:
64,192,247050,128,0,247529:0:0:0:0:
320,192,247119,128,0,247187:0:0:0:0:
192,192,247187,128,0,247324:0:0:0:0:
320,192,247255,128,0,247392:0:0:0:0:
448,192,247324,128,0,247461:0:0:0:0:
192,192,247392,128,0,247461:0:0:0:0:
320,192,247461,128,0,247529:0:0:0:0:
448,192,247529,128,0,247598:0:0:0:0:
192,192,247598,128,0,247666:0:0:0:0:
64,192,247598,128,0,247666:0:0:0:0:
448,192,247666,128,0,247734:0:0:0:0:
64,192,247734,128,0,247803:0:0:0:0:
192,192,247734,128,0,247803:0:0:0:0:
320,192,247803,128,0,247871:0:0:0:0:
64,192,247871,128,0,247940:0:0:0:0:
192,192,247871,128,0,248008:0:0:0:0:
320,192,247940,128,0,248077:0:0:0:0:
448,192,248008,128,0,248282:0:0:0:0:
64,192,248008,128,0,248213:0:0:0:0:
192,192,248077,1,0,0:0:0:0:
320,192,248145,1,0,0:0:0:0:
192,192,248213,1,0,0:0:0:0:
64,192,248282,1,0,0:0:0:0:
448,192,248350,1,0,0:0:0:0:
192,192,248419,128,0,248487:0:0:0:0:
320,192,248419,128,0,248487:0:0:0:0:
64,192,248487,1,0,0:0:0:0:
448,192,248556,1,0,0:0:0:0:
320,192,248624,1,0,0:0:0:0:
192,192,248692,128,0,248761:0:0:0:0:
64,192,248692,128,0,248761:0:0:0:0:
448,192,248761,1,0,0:0:0:0:
320,192,248829,1,0,0:0:0:0:
64,192,248898,1,0,0:0:0:0:
192,192,248966,128,0,249035:0:0:0:0:
320,192,248966,128,0,249035:0:0:0:0:
448,192,249035,1,0,0:0:0:0:
64,192,249103,1,0,0:0:0:0:
192,192,249171,1,0,0:0:0:0:
320,192,249240,128,0,249308:0:0:0:0:
448,192,249240,128,0,249308:0:0:0:0:
64,192,249308,1,0,0:0:0:0:
192,192,249377,1,0,0:0:0:0:
448,192,249445,1,0,0:0:0:0:
320,192,249514,128,0,249582:0:0:0:0:
64,192,249514,128,0,249582:0:0:0:0:
192,192,249582,1,0,0:0:0:0:
64,192,249650,1,0,0:0:0:0:
320,192,249719,1,0,0:0:0:0:
192,192,249787,128,0,249856:0:0:0:0:
448,192,249787,128,0,249856:0:0:0:0:
64,192,249856,1,0,0:0:0:0:
320,192,249924,1,0,0:0:0:0:
192,192,249993,1,0,0:0:0:0:
320,192,250061,128,0,250129:0:0:0:0:
448,192,250061,128,0,250266:0:0:0:0:
192,192,250129,128,0,250198:0:0:0:0:
64,192,250198,128,0,250266:0:0:0:0:
320,192,250198,1,0,0:0:0:0:
192,192,250266,1,0,0:0:0:0:
64,192,250335,1,0,0:0:0:0:
320,192,250335,128,0,250403:0:0:0:0:
448,192,250403,128,0,250472:0:0:0:0:
320,192,250472,128,0,250540:0:0:0:0:
448,192,250540,128,0,250608:0:0:0:0:
64,192,250608,128,0,250677:0:0:0:0:
192,192,250643,128,0,250711:0:0:0:0:
448,192,250745,128,0,250814:0:0:0:0:
320,192,250814,128,0,250882:0:0:0:0:
192,192,250882,128,0,250951:0:0:0:0:
320,192,250951,128,0,251019:0:0:0:0:
192,192,251019,128,0,251087:0:0:0:0:
448,192,251087,128,0,251156:0:0:0:0:
64,192,251156,128,0,251224:0:0:0:0:
448,192,251224,128,0,251293:0:0:0:0:
64,192,251293,128,0,251361:0:0:0:0:
320,192,251361,128,0,251430:0:0:0:0:
192,192,251430,128,0,251498:0:0:0:0:
64,192,251430,128,0,251567:0:0:0:0:
448,192,251498,128,0,251567:0:0:0:0:
320,192,251567,128,0,251635:0:0:0:0:
64,192,251635,128,0,251703:0:0:0:0:
320,192,251703,128,0,251772:0:0:0:0:
448,192,251738,128,0,251806:0:0:0:0:
64,192,251840,128,0,251909:0:0:0:0:
320,192,251909,128,0,251977:0:0:0:0:
64,192,251977,128,0,252319:0:0:0:0:
320,192,252046,128,0,252388:0:0:0:0:
192,192,252114,128,0,252182:0:0:0:0:
448,192,252182,128,0,252251:0:0:0:0:
192,192,252251,128,0,252319:0:0:0:0:
448,192,252319,128,0,252388:0:0:0:0:
64,192,252388,128,0,252456:0:0:0:0:
192,192,252388,128,0,252456:0:0:0:0:
320,192,252456,128,0,252525:0:0:0:0:
448,192,252456,128,0,252525:0:0:0:0:
64,192,252525,128,0,252661:0:0:0:0:
192,192,252525,128,0,252593:0:0:0:0:
320,192,252593,1,0,0:0:0:0:
192,192,252661,1,0,0:0:0:0:
64,192,252730,1,0,0:0:0:0:
192,192,252798,128,0,252867:0:0:0:0:
320,192,252798,128,0,252935:0:0:0:0:
64,192,252867,1,0,0:0:0:0:
192,192,252935,1,0,0:0:0:0:
448,192,252935,1,0,0:0:0:0:
320,192,253004,1,0,0:0:0:0:
192,192,253072,1,0,0:0:0:0:
448,192,253072,1,0,0:0:0:0:
64,192,253072,128,0,253209:0:0:0:0:
320,192,253140,128,0,253209:0:0:0:0:
192,192,253209,128,0,253277:0:0:0:0:
448,192,253277,128,0,253346:0:0:0:0:
320,192,253346,128,0,253414:0:0:0:0:
64,192,253346,128,0,253483:0:0:0:0:
192,192,253414,128,0,253483:0:0:0:0:
448,192,253483,128,0,253551:0:0:0:0:
320,192,253551,128,0,253619:0:0:0:0:
64,192,253619,128,0,253756:0:0:0:0:
192,192,253619,128,0,253688:0:0:0:0:
320,192,253688,128,0,253756:0:0:0:0:
448,192,253756,128,0,253825:0:0:0:0:
192,192,253825,128,0,253893:0:0:0:0:
320,192,253893,128,0,253962:0:0:0:0:
64,192,253893,128,0,254030:0:0:0:0:
448,192,253962,128,0,254030:0:0:0:0:
192,192,254030,128,0,254098:0:0:0:0:
320,192,254098,128,0,254167:0:0:0:0:
64,192,254167,128,0,254235:0:0:0:0:
448,192,254167,128,0,254372:0:0:0:0:
192,192,254235,128,0,254304:0:0:0:0:
64,192,254304,128,0,254714:0:0:0:0:
192,192,254372,128,0,254441:0:0:0:0:
448,192,254441,128,0,254646:0:0:0:0:
320,192,254441,128,0,254509:0:0:0:0:
192,192,254509,128,0,254577:0:0:0:0:
320,192,254577,128,0,254646:0:0:0:0:
192,192,254646,128,0,254783:0:0:0:0:
448,192,254714,128,0,254920:0:0:0:0:
320,192,254714,128,0,254851:0:0:0:0:
64,192,254783,128,0,254851:0:0:0:0:
192,192,254851,128,0,254920:0:0:0:0:
320,192,254920,128,0,254988:0:0:0:0:
64,192,254920,1,0,0:0:0:0:
192,192,254988,1,0,0:0:0:0:
448,192,254988,128,0,255125:0:0:0:0:
320,192,255056,128,0,255125:0:0:0:0:
192,192,255125,128,0,255193:0:0:0:0:
64,192,255193,128,0,255262:0:0:0:0:
320,192,255262,128,0,255467:0:0:0:0:
448,192,255262,128,0,255467:0:0:0:0:
192,192,255330,128,0,255467:0:0:0:0:
64,192,255399,128,0,255467:0:0:0:0:
64,192,255535,128,0,255741:0:0:0:0:
192,192,255535,128,0,255741:0:0:0:0:
320,192,255604,128,0,255741:0:0:0:0:
448,192,255672,128,0,255741:0:0:0:0:
192,192,255809,128,0,256014:0:0:0:0:
448,192,255809,128,0,255878:0:0:0:0:
320,192,255878,128,0,255946:0:0:0:0:
448,192,255946,1,0,0:0:0:0:
64,192,255946,128,0,256083:0:0:0:0:
320,192,256014,1,0,0:0:0:0:
192,192,256083,1,0,0:0:0:0:
64,192,256151,128,0,256288:0:0:0:0:
192,192,256220,128,0,256288:0:0:0:0:
320,192,256288,128,0,256357:0:0:0:0:
192,192,256357,128,0,256494:0:0:0:0:
448,192,256357,128,0,256630:0:0:0:0:
64,192,256425,128,0,256562:0:0:0:0:
320,192,256494,128,0,256562:0:0:0:0:
192,192,256562,128,0,256699:0:0:0:0:
64,192,256630,128,0,256767:0:0:0:0:
320,192,256630,128,0,256836:0:0:0:0:
448,192,256699,128,0,256767:0:0:0:0:
192,192,256767,128,0,256836:0:0:0:0:
64,192,256836,128,0,256904:0:0:0:0:
320,192,256904,128,0,256973:0:0:0:0:
448,192,256904,128,0,256973:0:0:0:0:
192,192,256973,128,0,257041:0:0:0:0:
320,192,257041,128,0,257178:0:0:0:0:
448,192,257041,128,0,257109:0:0:0:0:
192,192,257109,128,0,257246:0:0:0:0:
64,192,257178,128,0,257315:0:0:0:0:
448,192,257178,128,0,257246:0:0:0:0:
320,192,257246,128,0,257315:0:0:0:0:
192,192,257315,128,0,257383:0:0:0:0:
64,192,257383,128,0,257452:0:0:0:0:
192,192,257452,128,0,257588:0:0:0:0:
448,192,257486,128,0,257520:0:0:0:0:
320,192,257588,128,0,257623:0:0:0:0:
64,192,257588,128,0,257725:0:0:0:0:
448,192,257725,128,0,257759:0:0:0:0:
192,192,257725,128,0,257862:0:0:0:0:
320,192,257794,1,0,0:0:0:0:
64,192,257862,1,0,0:0:0:0:
192,192,257908,1,0,0:0:0:0:
320,192,257953,1,0,0:0:0:0:
64,192,257999,128,0,258067:0:0:0:0:
448,192,257999,128,0,258067:0:0:0:0:
64,192,258136,128,0,258273:0:0:0:0:
448,192,258136,128,0,258273:0:0:0:0:
192,192,258341,128,0,258478:0:0:0:0:
320,192,258341,128,0,258478:0:0:0:0:
64,192,258546,128,0,258683:0:0:0:0:
448,192,258546,128,0,258683:0:0:0:0:
64,192,258752,128,0,258889:0:0:0:0:
448,192,258752,128,0,258889:0:0:0:0:
192,192,258957,128,0,259025:0:0:0:0:
320,192,258957,128,0,259094:0:0:0:0:
64,192,259025,1,0,0:0:0:0:
192,192,259094,1,0,0:0:0:0:
320,192,259162,1,0,0:0:0:0:
64,192,259231,128,0,259299:0:0:0:0:
192,192,259231,128,0,259299:0:0:0:0:
64,192,259368,128,0,259573:0:0:0:0:
448,192,259368,128,0,259573:0:0:0:0:
64,192,259641,128,0,259710:0:0:0:0:
448,192,259641,128,0,259710:0:0:0:0:
320,192,259778,128,0,259983:0:0:0:0:
448,192,259778,128,0,259983:0:0:0:0:
320,192,260052,128,0,260120:0:0:0:0:
448,192,260052,128,0,260120:0:0:0:0:
448,192,260189,128,0,260394:0:0:0:0:
64,192,260189,128,0,260394:0:0:0:0:
64,192,260462,128,0,260531:0:0:0:0:
448,192,260462,128,0,260531:0:0:0:0:
192,192,260599,128,0,260736:0:0:0:0:
64,192,260599,128,0,260736:0:0:0:0:
448,192,260736,128,0,260805:0:0:0:0:
320,192,260805,128,0,260873:0:0:0:0:
192,192,260873,128,0,260942:0:0:0:0:
64,192,260942,128,0,261010:0:0:0:0:
192,192,261010,128,0,261078:0:0:0:0:
320,192,261078,128,0,261147:0:0:0:0:
448,192,261147,128,0,261215:0:0:0:0:
64,192,261215,128,0,261284:0:0:0:0:
192,192,261284,128,0,261352:0:0:0:0:
320,192,261352,128,0,261421:0:0:0:0:
64,192,261421,128,0,261489:0:0:0:0:
448,192,261421,128,0,261489:0:0:0:0:
64,192,261557,128,0,261763:0:0:0:0:
192,192,261557,128,0,261763:0:0:0:0:
64,192,261831,128,0,261900:0:0:0:0:
448,192,261831,128,0,261900:0:0:0:0:
320,192,261968,128,0,262584:0:0:0:0:
448,192,261968,128,0,262173:0:0:0:0:
64,192,262242,128,0,262310:0:0:0:0:
448,192,262242,128,0,262721:0:0:0:0:
64,192,262379,128,0,262584:0:0:0:0:
192,192,262379,128,0,262584:0:0:0:0:
64,192,262652,128,0,262721:0:0:0:0:
192,192,262652,128,0,262721:0:0:0:0:
320,192,262652,128,0,262721:0:0:0:0:
64,192,262789,1,0,0:0:0:0:
448,192,262789,1,0,0:0:0:0:
320,192,262789,1,0,0:0:0:0:
192,192,262858,128,0,262994:0:0:0:0:
320,192,262926,128,0,262994:0:0:0:0:
64,192,262994,128,0,263131:0:0:0:0:
192,192,263063,128,0,263337:0:0:0:0:
320,192,263063,128,0,263268:0:0:0:0:
448,192,263131,128,0,263200:0:0:0:0:
64,192,263200,128,0,263473:0:0:0:0:
448,192,263268,128,0,263337:0:0:0:0:
320,192,263337,128,0,263405:0:0:0:0:
192,192,263405,128,0,263473:0:0:0:0:
320,192,263473,128,0,263610:0:0:0:0:
448,192,263473,128,0,263747:0:0:0:0:
64,192,263542,128,0,263679:0:0:0:0:
192,192,263610,128,0,263679:0:0:0:0:
320,192,263679,128,0,263816:0:0:0:0:
192,192,263747,128,0,263884:0:0:0:0:
64,192,263747,128,0,263952:0:0:0:0:
448,192,263816,128,0,263952:0:0:0:0:
320,192,263884,128,0,264021:0:0:0:0:
192,192,263952,128,0,264089:0:0:0:0:
64,192,264021,128,0,264158:0:0:0:0:
448,192,264021,128,0,264226:0:0:0:0:
320,192,264089,128,0,264226:0:0:0:0:
192,192,264158,128,0,264295:0:0:0:0:
64,192,264226,128,0,264363:0:0:0:0:
320,192,264295,128,0,264500:0:0:0:0:
448,192,264295,128,0,264500:0:0:0:0:
192,192,264363,128,0,264431:0:0:0:0:
64,192,264431,128,0,264568:0:0:0:0:
192,192,264500,128,0,264568:0:0:0:0:
320,192,264568,128,0,264774:0:0:0:0:
448,192,264568,1,0,0:0:0:0:
192,192,264637,128,0,264774:0:0:0:0:
64,192,264705,128,0,264842:0:0:0:0:
448,192,264774,128,0,264910:0:0:0:0:
192,192,264842,128,0,265047:0:0:0:0:
320,192,264842,128,0,264979:0:0:0:0:
64,192,264910,128,0,265047:0:0:0:0:
448,192,264979,128,0,265116:0:0:0:0:
320,192,265047,128,0,265184:0:0:0:0:
192,192,265116,128,0,265321:0:0:0:0:
64,192,265116,128,0,265253:0:0:0:0:
448,192,265184,128,0,265389:0:0:0:0:
320,192,265253,128,0,265321:0:0:0:0:
64,192,265321,128,0,265458:0:0:0:0:
192,192,265389,128,0,265526:0:0:0:0:
320,192,265389,128,0,265595:0:0:0:0:
448,192,265458,128,0,265595:0:0:0:0:
64,192,265526,128,0,265732:0:0:0:0:
192,192,265595,128,0,265663:0:0:0:0:
448,192,265663,128,0,265800:0:0:0:0:
320,192,265663,128,0,265869:0:0:0:0:
192,192,265732,128,0,265869:0:0:0:0:
64,192,265800,128,0,265937:0:0:0:0:
448,192,265869,128,0,266005:0:0:0:0:
192,192,265937,128,0,266142:0:0:0:0:
320,192,265937,128,0,266074:0:0:0:0:
64,192,266005,128,0,266142:0:0:0:0:
448,192,266074,128,0,266211:0:0:0:0:
320,192,266142,128,0,266279:0:0:0:0:
192,192,266211,128,0,266416:0:0:0:0:
64,192,266211,128,0,266348:0:0:0:0:
448,192,266279,128,0,266484:0:0:0:0:
320,192,266348,128,0,266416:0:0:0:0:
64,192,266416,128,0,266690:0:0:0:0:
192,192,266484,128,0,266553:0:0:0:0:
320,192,266484,128,0,266553:0:0:0:0:
448,192,266553,128,0,266621:0:0:0:0:
192,192,266621,128,0,266690:0:0:0:0:
320,192,266621,128,0,266963:0:0:0:0:
448,192,266690,128,0,266758:0:0:0:0:
192,192,266758,128,0,266963:0:0:0:0:
64,192,266758,1,0,0:0:0:0:
448,192,266827,128,0,266895:0:0:0:0:
64,192,266895,128,0,267237:0:0:0:0:
448,192,266963,128,0,267032:0:0:0:0:
192,192,267032,128,0,267100:0:0:0:0:
320,192,267032,128,0,267100:0:0:0:0:
448,192,267100,128,0,267169:0:0:0:0:
320,192,267169,128,0,267306:0:0:0:0:
192,192,267169,128,0,267237:0:0:0:0:
448,192,267237,128,0,267374:0:0:0:0:
64,192,267306,128,0,267374:0:0:0:0:
192,192,267306,128,0,267442:0:0:0:0:
320,192,267374,128,0,267511:0:0:0:0:
448,192,267442,128,0,267511:0:0:0:0:
64,192,267442,128,0,267648:0:0:0:0:
192,192,267511,128,0,267579:0:0:0:0:
320,192,267579,128,0,267716:0:0:0:0:
448,192,267579,128,0,267648:0:0:0:0:
192,192,267648,128,0,267785:0:0:0:0:
64,192,267716,128,0,267785:0:0:0:0:
448,192,267716,128,0,267785:0:0:0:0:
320,192,267785,128,0,267921:0:0:0:0:
64,192,267853,128,0,267990:0:0:0:0:
192,192,267853,1,0,0:0:0:0:
448,192,267921,128,0,268127:0:0:0:0:
320,192,267990,128,0,268058:0:0:0:0:
64,192,268058,128,0,268195:0:0:0:0:
192,192,268127,128,0,268195:0:0:0:0:
320,192,268127,128,0,268264:0:0:0:0:
448,192,268195,128,0,268332:0:0:0:0:
192,192,268264,128,0,268332:0:0:0:0:
64,192,268264,128,0,268400:0:0:0:0:
320,192,268332,128,0,268400:0:0:0:0:
192,192,268400,128,0,268469:0:0:0:0:
64,192,268469,128,0,268537:0:0:0:0:
320,192,268537,128,0,268743:0:0:0:0:
448,192,268606,128,0,268674:0:0:0:0:
64,192,268674,128,0,268811:0:0:0:0:
192,192,268674,128,0,268743:0:0:0:0:
448,192,268743,128,0,268879:0:0:0:0:
320,192,268811,128,0,268879:0:0:0:0:
192,192,268811,128,0,269016:0:0:0:0:
64,192,268879,128,0,268948:0:0:0:0:
320,192,268948,128,0,269016:0:0:0:0:
448,192,268948,128,0,269085:0:0:0:0:
64,192,269016,128,0,269153:0:0:0:0:
192,192,269085,128,0,269222:0:0:0:0:
320,192,269085,128,0,269153:0:0:0:0:
448,192,269153,128,0,269427:0:0:0:0:
64,192,269222,128,0,269290:0:0:0:0:
320,192,269222,128,0,269358:0:0:0:0:
192,192,269290,128,0,269427:0:0:0:0:
64,192,269358,128,0,269564:0:0:0:0:
320,192,269427,128,0,269495:0:0:0:0:
192,192,269495,128,0,269632:0:0:0:0:
448,192,269495,128,0,269564:0:0:0:0:
320,192,269564,128,0,269701:0:0:0:0:
448,192,269632,128,0,269769:0:0:0:0:
64,192,269632,128,0,269701:0:0:0:0:
192,192,269701,128,0,269837:0:0:0:0:
320,192,269769,128,0,269837:0:0:0:0:
64,192,269769,128,0,269906:0:0:0:0:
448,192,269837,128,0,269906:0:0:0:0:
192,192,269906,128,0,269974:0:0:0:0:
320,192,269906,128,0,269974:0:0:0:0:
64,192,269974,128,0,270043:0:0:0:0:
320,192,270043,1,0,0:0:0:0:
448,192,270043,128,0,270111:0:0:0:0:
64,192,270111,1,0,0:0:0:0:
320,192,270180,1,0,0:0:0:0:
192,192,270248,1,0,0:0:0:0:
64,192,270248,128,0,270317:0:0:0:0:
448,192,270317,128,0,270385:0:0:0:0:
320,192,270385,128,0,270453:0:0:0:0:
448,192,270453,128,0,270522:0:0:0:0:
320,192,270522,128,0,270590:0:0:0:0:
192,192,270590,128,0,270659:0:0:0:0:
320,192,270659,128,0,270727:0:0:0:0:
64,192,270727,128,0,270761:0:0:0:0:
192,192,270761,128,0,270796:0:0:0:0:
320,192,270864,128,0,270898:0:0:0:0:
448,192,270898,128,0,270932:0:0:0:0:
64,192,270932,128,0,271001:0:0:0:0:
192,192,271001,128,0,271138:0:0:0:0:
64,192,271069,128,0,271138:0:0:0:0:
320,192,271138,1,0,0:0:0:0:
448,192,271138,128,0,271206:0:0:0:0:
192,192,271206,1,0,0:0:0:0:
64,192,271275,1,0,0:0:0:0:
320,192,271343,1,0,0:0:0:0:
192,192,271411,128,0,271480:0:0:0:0:
64,192,271446,128,0,271514:0:0:0:0:
320,192,271548,128,0,271617:0:0:0:0:
192,192,271582,128,0,271651:0:0:0:0:
448,192,271685,1,0,0:0:0:0:
320,192,271685,128,0,271822:0:0:0:0:
448,192,271754,128,0,272164:0:0:0:0:
192,192,271822,128,0,271959:0:0:0:0:
320,192,271890,128,0,272164:0:0:0:0:
64,192,271959,128,0,272027:0:0:0:0:
192,192,272027,128,0,272096:0:0:0:0:
64,192,272096,128,0,272164:0:0:0:0:
192,192,272164,1,0,0:0:0:0:
320,192,272233,1,0,0:0:0:0:
448,192,272233,1,0,0:0:0:0:
64,192,272301,128,0,272506:0:0:0:0:
192,192,272369,128,0,272438:0:0:0:0:
448,192,272438,128,0,272643:0:0:0:0:
320,192,272506,1,0,0:0:0:0:
192,192,272506,1,0,0:0:0:0:
64,192,272575,128,0,272712:0:0:0:0:
320,192,272643,128,0,272780:0:0:0:0:
448,192,272712,128,0,272848:0:0:0:0:
64,192,272780,1,0,0:0:0:0:
192,192,272780,1,0,0:0:0:0:
320,192,272848,128,0,272985:0:0:0:0:
448,192,272917,128,0,272985:0:0:0:0:
192,192,272985,128,0,273054:0:0:0:0:
320,192,273054,1,0,0:0:0:0:
448,192,273054,1,0,0:0:0:0:
192,192,273122,128,0,273259:0:0:0:0:
64,192,273191,128,0,273259:0:0:0:0:
320,192,273259,128,0,273327:0:0:0:0:
192,192,273327,1,0,0:0:0:0:
64,192,273327,1,0,0:0:0:0:
320,192,273396,128,0,273533:0:0:0:0:
448,192,273464,128,0,273533:0:0:0:0:
192,192,273533,128,0,273601:0:0:0:0:
448,192,273601,1,0,0:0:0:0:
320,192,273601,1,0,0:0:0:0:
192,192,273670,128,0,273806:0:0:0:0:
64,192,273738,128,0,273806:0:0:0:0:
320,192,273806,128,0,273943:0:0:0:0:
192,192,273875,1,0,0:0:0:0:
64,192,273875,1,0,0:0:0:0:
448,192,273943,128,0,274149:0:0:0:0:
320,192,274012,128,0,274080:0:0:0:0:
64,192,274080,128,0,274217:0:0:0:0:
192,192,274149,1,0,0:0:0:0:
320,192,274149,1,0,0:0:0:0:
448,192,274217,128,0,274354:0:0:0:0:
64,192,274285,128,0,274422:0:0:0:0:
192,192,274354,128,0,274628:0:0:0:0:
320,192,274422,1,0,0:0:0:0:
448,192,274422,1,0,0:0:0:0:
64,192,274491,128,0,274559:0:0:0:0:
320,192,274559,128,0,274696:0:0:0:0:
448,192,274628,128,0,274833:0:0:0:0:
64,192,274696,1,0,0:0:0:0:
192,192,274696,1,0,0:0:0:0:
320,192,274764,128,0,274901:0:0:0:0:
192,192,274833,128,0,274970:0:0:0:0:
64,192,274901,128,0,274970:0:0:0:0:
320,192,274970,1,0,0:0:0:0:
448,192,274970,1,0,0:0:0:0:
64,192,275038,128,0,275175:0:0:0:0:
192,192,275107,128,0,275175:0:0:0:0:
320,192,275175,128,0,275244:0:0:0:0:
64,192,275244,1,0,0:0:0:0:
192,192,275244,1,0,0:0:0:0:
320,192,275312,128,0,275449:0:0:0:0:
448,192,275380,128,0,275449:0:0:0:0:
64,192,275449,128,0,275586:0:0:0:0:
320,192,275517,1,0,0:0:0:0:
448,192,275517,1,0,0:0:0:0:
192,192,275586,128,0,275723:0:0:0:0:
64,192,275654,128,0,275791:0:0:0:0:
448,192,275723,128,0,275996:0:0:0:0:
320,192,275791,1,0,0:0:0:0:
192,192,275791,1,0,0:0:0:0:
64,192,275859,128,0,275996:0:0:0:0:
320,192,275928,128,0,275996:0:0:0:0:
192,192,275996,128,0,276065:0:0:0:0:
448,192,276065,1,0,0:0:0:0:
64,192,276065,128,0,276133:0:0:0:0:
320,192,276065,128,0,276270:0:0:0:0:
192,192,276133,128,0,276202:0:0:0:0:
448,192,276202,1,0,0:0:0:0:
64,192,276202,128,0,276407:0:0:0:0:
192,192,276270,128,0,276338:0:0:0:0:
448,192,276338,1,0,0:0:0:0:
320,192,276338,128,0,276475:0:0:0:0:
192,192,276407,128,0,276544:0:0:0:0:
448,192,276475,1,0,0:0:0:0:
64,192,276475,128,0,276544:0:0:0:0:
320,192,276544,128,0,276612:0:0:0:0:
448,192,276612,1,0,0:0:0:0:
64,192,276612,1,0,0:0:0:0:
192,192,276612,1,0,0:0:0:0:
192,192,276749,1,0,0:0:0:0:
64,192,276749,1,0,0:0:0:0:
448,192,276749,1,0,0:0:0:0:
320,192,276817,1,0,0:0:0:0:
192,192,276886,128,0,276954:0:0:0:0:
64,192,276886,128,0,276954:0:0:0:0:
448,192,276886,128,0,276954:0:0:0:0:
320,192,276954,128,0,277023:0:0:0:0:
64,192,277023,128,0,277091:0:0:0:0:
192,192,277091,128,0,277160:0:0:0:0:
320,192,277160,1,0,0:0:0:0:
448,192,277160,1,0,0:0:0:0:
64,192,277160,1,0,0:0:0:0:
192,192,277228,1,0,0:0:0:0:
320,192,277296,128,0,277365:0:0:0:0:
448,192,277296,128,0,277365:0:0:0:0:
64,192,277296,128,0,277365:0:0:0:0:
192,192,277365,128,0,277433:0:0:0:0:
320,192,277433,128,0,277502:0:0:0:0:
448,192,277502,128,0,277570:0:0:0:0:
64,192,277570,1,0,0:0:0:0:
192,192,277570,1,0,0:0:0:0:
320,192,277570,1,0,0:0:0:0:
448,192,277639,1,0,0:0:0:0:
64,192,277707,128,0,277775:0:0:0:0:
192,192,277707,128,0,277775:0:0:0:0:
320,192,277707,128,0,277775:0:0:0:0:
448,192,277775,1,0,0:0:0:0:
320,192,277844,1,0,0:0:0:0:
64,192,277912,1,0,0:0:0:0:
448,192,277981,1,0,0:0:0:0:
192,192,277981,1,0,0:0:0:0:
320,192,277981,1,0,0:0:0:0:
64,192,278049,1,0,0:0:0:0:
192,192,278118,128,0,278186:0:0:0:0:
320,192,278118,128,0,278186:0:0:0:0:
448,192,278118,128,0,278186:0:0:0:0:
64,192,278186,128,0,278254:0:0:0:0:
320,192,278254,128,0,278323:0:0:0:0:
192,192,278323,128,0,278391:0:0:0:0:
64,192,278391,128,0,278733:0:0:0:0:
320,192,278391,128,0,278528:0:0:0:0:
448,192,278391,128,0,278460:0:0:0:0:
192,192,278460,128,0,278597:0:0:0:0:
448,192,278528,128,0,278665:0:0:0:0:
320,192,278597,128,0,278733:0:0:0:0:
192,192,278665,128,0,278802:0:0:0:0:
448,192,278733,128,0,278802:0:0:0:0:
320,192,278802,1,0,0:0:0:0:
64,192,278802,128,0,279828:0:0:0:0:
448,192,279623,128,0,279657:0:0:0:0:
320,192,279692,128,0,279726:0:0:0:0:
192,192,279760,128,0,279794:0:0:0:0:
320,192,279897,128,0,279931:0:0:0:0:
448,192,279931,128,0,279965:0:0:0:0:
64,192,279965,1,0,0:0:0:0:
192,192,280034,1,0,0:0:0:0:
64,192,280102,1,0,0:0:0:0:
448,192,280171,128,0,280205:0:0:0:0:
320,192,280205,128,0,280239:0:0:0:0:
64,192,280239,1,0,0:0:0:0:
192,192,280307,1,0,0:0:0:0:
64,192,280376,1,0,0:0:0:0:
320,192,280444,128,0,280581:0:0:0:0:
448,192,280444,128,0,280513:0:0:0:0:
192,192,280513,128,0,280650:0:0:0:0:
64,192,280581,128,0,280650:0:0:0:0:
448,192,280581,128,0,280786:0:0:0:0:
320,192,280650,128,0,280855:0:0:0:0:
192,192,280718,128,0,280923:0:0:0:0:
64,192,280718,128,0,280992:0:0:0:0:
448,192,280992,128,0,281129:0:0:0:0:
320,192,280992,128,0,281060:0:0:0:0:
64,192,281060,1,0,0:0:0:0:
192,192,281094,1,0,0:0:0:0:
320,192,281129,1,0,0:0:0:0:
64,192,281197,1,0,0:0:0:0:
448,192,281265,1,0,0:0:0:0:
192,192,281265,1,0,0:0:0:0:
320,192,281334,1,0,0:0:0:0:
64,192,281402,128,0,281539:0:0:0:0:
192,192,281402,128,0,281471:0:0:0:0:
448,192,281471,1,0,0:0:0:0:
320,192,281539,1,0,0:0:0:0:
192,192,281539,1,0,0:0:0:0:
64,192,281608,1,0,0:0:0:0:
192,192,281676,1,0,0:0:0:0:
448,192,281744,1,0,0:0:0:0:
320,192,281813,1,0,0:0:0:0:
64,192,281813,1,0,0:0:0:0:
192,192,281881,1,0,0:0:0:0:
320,192,281950,1,0,0:0:0:0:
448,192,282018,1,0,0:0:0:0:
64,192,282087,1,0,0:0:0:0:
192,192,282087,1,0,0:0:0:0:
320,192,282155,1,0,0:0:0:0:
192,192,282223,1,0,0:0:0:0:
448,192,282223,128,0,282566:0:0:0:0:
64,192,282292,1,0,0:0:0:0:
320,192,282360,1,0,0:0:0:0:
192,192,282429,1,0,0:0:0:0:
64,192,282497,1,0,0:0:0:0:
320,192,282566,1,0,0:0:0:0:
448,192,282634,128,0,282839:0:0:0:0:
64,192,282634,1,0,0:0:0:0:
192,192,282702,1,0,0:0:0:0:
320,192,282771,1,0,0:0:0:0:
64,192,282839,1,0,0:0:0:0:
448,192,282908,128,0,283113:0:0:0:0:
320,192,282908,1,0,0:0:0:0:
192,192,282976,1,0,0:0:0:0:
64,192,283045,1,0,0:0:0:0:
320,192,283113,1,0,0:0:0:0:
192,192,283181,128,0,283250:0:0:0:0:
64,192,283181,128,0,283318:0:0:0:0:
448,192,283318,128,0,283353:0:0:0:0:
320,192,283353,128,0,283387:0:0:0:0:
64,192,283455,128,0,283592:0:0:0:0:
192,192,283455,128,0,283524:0:0:0:0:
448,192,283524,1,0,0:0:0:0:
320,192,283558,1,0,0:0:0:0:
192,192,283592,1,0,0:0:0:0:
320,192,283729,1,0,0:0:0:0:
448,192,283729,1,0,0:0:0:0:
64,192,283866,1,0,0:0:0:0:
192,192,283866,1,0,0:0:0:0:
320,192,283934,1,0,0:0:0:0:
64,192,284003,1,0,0:0:0:0:
192,192,284003,1,0,0:0:0:0:
448,192,284071,1,0,0:0:0:0:
64,192,284139,1,0,0:0:0:0:
192,192,284139,1,0,0:0:0:0:
320,192,284208,1,0,0:0:0:0:
448,192,284276,1,0,0:0:0:0:
64,192,284276,1,0,0:0:0:0:
64,192,284368,1,0,0:0:0:0:
448,192,284368,1,0,0:0:0:0:
192,192,284459,1,0,0:0:0:0:
320,192,284459,1,0,0:0:0:0:
192,192,284550,1,0,0:0:0:0:
320,192,284550,1,0,0:0:0:0:
64,192,284641,1,0,0:0:0:0:
448,192,284641,1,0,0:0:0:0:
64,192,284733,1,0,0:0:0:0:
448,192,284733,1,0,0:0:0:0:
320,192,284824,128,0,285029:0:0:0:0:
192,192,284824,128,0,285029:0:0:0:0:
192,192,285098,128,0,285303:0:0:0:0:
320,192,285098,128,0,285303:0:0:0:0:
64,192,285234,128,0,285371:0:0:0:0:
448,192,285234,128,0,285371:0:0:0:0:
192,192,285371,1,0,0:0:0:0:
320,192,285417,1,0,0:0:0:0:
192,192,285462,1,0,0:0:0:0:
320,192,285508,1,0,0:0:0:0:
192,192,285554,1,0,0:0:0:0:
320,192,285645,128,0,285782:0:0:0:0:
64,192,285645,128,0,285782:0:0:0:0:
448,192,285645,128,0,285782:0:0:0:0:
64,192,285850,128,0,285987:0:0:0:0:
320,192,285850,128,0,285987:0:0:0:0:
448,192,285850,128,0,285987:0:0:0:0:
192,192,286056,128,0,286192:0:0:0:0:
320,192,286056,128,0,286192:0:0:0:0:
448,192,286056,128,0,286192:0:0:0:0:
192,192,286261,128,0,286398:0:0:0:0:
320,192,286261,128,0,286398:0:0:0:0:
448,192,286261,128,0,286398:0:0:0:0:
64,192,286466,128,0,286500:0:0:0:0:
192,192,286500,128,0,286535:0:0:0:0:
448,192,286535,128,0,286569:0:0:0:0:
320,192,286569,128,0,286603:0:0:0:0:
64,192,286603,128,0,286637:0:0:0:0:
192,192,286637,128,0,286671:0:0:0:0:
320,192,286694,128,0,286785:0:0:0:0:
448,192,286740,128,0,286831:0:0:0:0:
192,192,286785,128,0,286877:0:0:0:0:
320,192,286831,128,0,286922:0:0:0:0:
64,192,286877,128,0,286968:0:0:0:0:
192,192,286922,128,0,287014:0:0:0:0:
320,192,287014,128,0,287048:0:0:0:0:
448,192,287048,128,0,287082:0:0:0:0:
192,192,287082,128,0,287116:0:0:0:0:
64,192,287116,128,0,287150:0:0:0:0:
320,192,287150,128,0,287185:0:0:0:0:
448,192,287185,128,0,287219:0:0:0:0:
192,192,287219,128,0,287253:0:0:0:0:
64,192,287253,128,0,287287:0:0:0:0:
320,192,287287,128,0,287322:0:0:0:0:
448,192,287322,128,0,287356:0:0:0:0:
192,192,287356,128,0,287390:0:0:0:0:
64,192,287390,128,0,287424:0:0:0:0:
320,192,287424,128,0,287458:0:0:0:0:
448,192,287458,128,0,287493:0:0:0:0:
192,192,287493,128,0,287527:0:0:0:0:
64,192,287527,128,0,287561:0:0:0:0:
320,192,287561,1,0,0:0:0:0:
448,192,287561,1,0,0:0:0:0:
192,192,287652,1,0,0:0:0:0:
64,192,287652,1,0,0:0:0:0:
320,192,287744,1,0,0:0:0:0:
448,192,287744,1,0,0:0:0:0:
64,192,287835,128,0,287903:0:0:0:0:
192,192,287835,128,0,287903:0:0:0:0:
448,192,287835,128,0,287903:0:0:0:0:
64,192,287972,128,0,288040:0:0:0:0:
192,192,287972,128,0,288040:0:0:0:0:
448,192,287972,128,0,288040:0:0:0:0:
64,192,288108,1,0,0:0:0:0:
192,192,288108,1,0,0:0:0:0:
448,192,288245,1,0,0:0:0:0:
320,192,288245,1,0,0:0:0:0:
64,192,288337,1,0,0:0:0:0:
192,192,288337,1,0,0:0:0:0:
64,192,288428,128,0,288473:0:0:0:0:
448,192,288428,128,0,288473:0:0:0:0:
320,192,288428,128,0,288473:0:0:0:0:
64,192,288519,128,0,288587:0:0:0:0:
320,192,288519,128,0,288587:0:0:0:0:
448,192,288519,128,0,288587:0:0:0:0:
192,192,288656,1,0,0:0:0:0:
320,192,288656,1,0,0:0:0:0:
64,192,288793,1,0,0:0:0:0:
448,192,288793,1,0,0:0:0:0:
192,192,288930,1,0,0:0:0:0:
320,192,288930,1,0,0:0:0:0:
64,192,289021,1,0,0:0:0:0:
448,192,289021,1,0,0:0:0:0:
320,192,289112,1,0,0:0:0:0:
192,192,289112,1,0,0:0:0:0:
64,192,289203,1,0,0:0:0:0:
320,192,289203,1,0,0:0:0:0:
448,192,289203,1,0,0:0:0:0:
192,192,289203,128,0,289272:0:0:0:0:
320,192,289409,128,0,289443:0:0:0:0:
448,192,289546,1,0,0:0:0:0:
64,192,289751,128,0,289785:0:0:0:0:
192,192,290298,128,0,290332:0:0:0:0:
320,192,290846,128,0,290880:0:0:0:0:
192,192,291393,128,0,291427:0:0:0:0:
448,192,291393,128,0,297141:0:0:0:0:
320,192,292488,128,0,293514:0:0:0:0:
192,192,292488,128,0,293651:0:0:0:0:
64,192,292488,128,0,293788:0:0:0:0:
320,192,293583,128,0,293925:0:0:0:0:
192,192,293720,128,0,294062:0:0:0:0:
64,192,293857,128,0,294199:0:0:0:0:
320,192,293994,128,0,294336:0:0:0:0:
192,192,294130,128,0,294541:0:0:0:0:
64,192,294267,128,0,294746:0:0:0:0:
320,192,294404,128,0,294952:0:0:0:0:
192,192,294609,128,0,295157:0:0:0:0:
64,192,294815,128,0,295362:0:0:0:0:
320,192,295020,128,0,295567:0:0:0:0:
192,192,295225,128,0,295841:0:0:0:0:
64,192,295431,128,0,296115:0:0:0:0:
320,192,295636,128,0,296389:0:0:0:0:
192,192,295910,128,0,296662:0:0:0:0:
64,192,296183,128,0,297347:0:0:0:0:
320,192,296457,128,0,297210:0:0:0:0:
192,192,296731,128,0,297278:0:0:0:0:
