osu file format v14

[General]
AudioFilename: audio.mp3
AudioLeadIn: 0
PreviewTime: 155075
Countdown: 0
SampleSet: Soft
StackLeniency: 0.4
Mode: 0
LetterboxInBreaks: 0
WidescreenStoryboard: 1

[Editor]
Bookmarks: 1243,29163,29436,29710,29984,30258,30531,30805,31079,31352,31626,31900,32174,32447,32721,32995,33268,33542,33816,34090,34363,34637,34911,35185,35458,35732,36006,36279,36553,36827,37101,37374,37648,37922,38195,38469,38743,39017,39290,39564,39838,40112,40385,40659,40933,41206,41480,41754,42028,42301,42575,42849,43123,43396,43670,43944,44217,44491,44765,45039,45312,45586,45860,46133,46407,46681,64199,64473,64747,65020,65294,65568,65841,66115,66389,66663,66936,67210,67484,67758,68031,68305,68579,68852,69126,69400,69674,69947,70221,70495,70768,79528,79801,80075,80349,80623,80896,81170,81444,81717,81991,82265,82539,82812,83086,83360,83633,83907,84181,84455,84728,85002,85276,85550,85823,86097,86371,86644,86918,87192,87466,87739,88013,88287,88560,88834,89108,89382,89655,89929,90203,90477,90750,91024,91298,91571,91845,92119,92393,92666,101425,101699,101973,102247,102520,102794,103068,103341,103615,103889,104163,104436,104710,104984,105258,105531,105805,106079,106352,106626,106900,107174,107447,107721,107995,108268,108542,108816,109090,109363,109637,109911,110185,121133,121407,121681,121955,122228,122502,122776,123050,123323,123597,123871,124144,124418,124692,124966,125239,125513,125787,126060,126334,126608,126882,127155,127429,127703,127977,128250,128524,128798,129071,129345,129619,129893,130166,130440,130714,130987,131261,131535,131809,132082,145221,145495,145768,146042,146316,146590,146863,147137,147411,147685,147958,148232,148506,148779,149053,149327,149601,149874,150148,150422,150695,150969,151243,151517,151790,152064,152338,152612,152885,153159,153433,153706,153980,154254,154528,154801,155075,155349,155623,155896,156170,173688,173962,174236,174509,174783,175057,175331,175604,175878,176152,176425,176699,176973,177247,177520,177794,178068,178341,178615,178889,179163,179436,179710,179984,180258,180531,180805,181079,181352,181626,181900,182174,182447,182721,182995,183268,183542,183816,184090,184363,184637,184911,185185,185458,185732,186006,186279,186553,186827,187101,187374,187648,187922,188195,188469,188743,189017,189290,189564,189838,190112,190385,190659,190933,191206,204345,204619,204893,205166,205440,205714,205987,206261,206535,206809,207082,207356,207630,207904,208177,208451,208725,208998,209272,209546,209820,210093,210367,210641,210914,211188,211462,211736,212009,212283,212557,212831,213104,221863,222137,222411,222685,222958,223232,223506,223779,224053,224327,224601,224874,225148,225422,225695,225969,226243,226517,226790,227064,227338,227612,227885,228159,228433,228706,228980,229254,229528,229801,230075,230349,230623,230896,231170,231444,231717,231991,232265,232539,232812,233086,233360,233633,233907,234181,234455,234728,235002,235276,235550,235823,236097,236371,236644,236918,237192,237466,237739,238013,238287,238560,238834,239108,239382,239655,239929,240203,240477,240750,241024,241298,241571,241845,242119,242393,242666,242940,243214,243487,243761,263469,263743,264017,264290,264564,264838,265112,265385,265659,265933,266206,266480,266754,267028,267301,267575,267849,268123,268396,268670,268944,269217,269491,269765,270039,270312,270586,270860,271133,271407,271681,271955,272228,272502,272776,273050,273323,273597,273871,274144,274418,274692,274966,275239,275513,275787,276060,276334,276608,276882,277155,277429,277703,277977,278250,278524,278798,279071,279345,279619,279893,280166,280440,280714,280987,292484,292552,292621,292689,292758,292826,292894,292963,293031,293100,293168,293237,293305,293373,293442,293510,293579,293647,293716,293784,293852,293921,293989,294058,294126,294195,294263,294331,294400,294468,294537,294605,294674,294742,294810,294879,294947,295016,295084,295153,295221,295289,295358,295426,295495,295563,295632,295700,295768,295837,295905,295974,296042,296111,296179,296248,296316,296384,296453,296521,296590,296658,296727,296795,296863,296932,297000,297069,297137,297206,297274,297342,297411,297479,297548,297616,297685,297753,297821,297890,297958,298027,298095,298164,298232,298300,298369,298437,298506,298574,298643,298711,298779,298848,298916,298985,299053
DistanceSpacing: 0.8
BeatDivisor: 6
GridSize: 16
TimelineZoom: 3.131999

[Metadata]
Title:Lowermost revolt ("Jeremiad" Long ver.)
TitleUnicode:Lowermost revolt ("Jeremiad" Long ver.)
Artist:Camellia feat. Kagekiha Gakusei
ArtistUnicode:かめりあ feat. 歌劇派学生
Creator:h i f u
Version:Mournful Insurrection
Source:SOUND VOLTEX IV HEAVENLY HAVEN
Tags:KAC SDVX 4 Cametek Video Rhythm Game Xronial Xero Xroniàl xéro Electronic pumpcore japanese english vocals bekko hifu h_i_f_u
BeatmapID:2902384
BeatmapSetID:1407641

[Difficulty]
HPDrainRate:5.2
CircleSize:4.4
OverallDifficulty:9.7
ApproachRate:9.8
SliderMultiplier:2.19999990463257
SliderTickRate:1

[Events]
//Background and Video events
0,0,"dramatic compressed.png",0,0
//Break Periods
2,191406,199487
//Storyboard Layer 0 (Background)
//Storyboard Layer 1 (Fail)
//Storyboard Layer 2 (Pass)
//Storyboard Layer 3 (Foreground)
//Storyboard Layer 4 (Overlay)
//Storyboard Sound Samples

[TimingPoints]
696,273.722627737226,4,2,0,45,1,0
1243,-1000,4,2,0,15,0,0
2885,-400,4,2,0,45,0,0
7265,-303.030303030303,4,2,0,45,0,0
9728,-303.030303030303,4,2,0,48,0,0
10002,-303.030303030303,4,2,0,51,0,0
10276,-303.030303030303,4,2,0,55,0,0
10550,-227.272727272727,4,2,0,60,0,0
10823,-181.818181818182,4,2,0,64,0,0
11097,-151.515151515152,4,2,0,68,0,0
11371,-129.87012987013,4,2,0,71,0,0
11644,-153.846153846154,4,2,0,55,0,0
13697,-181.818181818182,4,2,0,55,0,0
14382,-153.846153846154,4,2,0,55,0,0
14929,-200,4,2,0,55,0,0
15477,-166.666666666667,4,2,0,55,0,0
16024,-153.846153846154,4,2,0,55,0,0
20404,-400,4,2,0,55,0,0
22593,-666.666666666667,4,2,0,45,0,0
23688,-222.222222222222,4,2,0,45,0,0
24783,-75.187969924812,4,2,0,60,0,0
25194,-303.030303030303,4,2,0,60,0,0
26425,-125,4,2,0,60,0,0
27384,-303.030303030303,4,2,0,60,0,0
29163,-100,4,2,0,65,0,0
30805,-86.9565217391304,4,2,0,65,0,0
31352,-100,4,2,0,70,0,0
33679,-90.9090909090909,4,2,0,73,0,0
34090,-83.3333333333333,4,2,0,77,0,0
34500,-76.9230769230769,4,2,0,80,0,0
34911,-71.4285714285714,4,2,0,84,0,0
36553,-200,4,2,0,60,0,0
36827,-66.6666666666667,4,2,0,80,0,0
37374,-133.333333333333,4,2,0,70,0,0
37648,-200,4,2,0,65,0,0
37922,-57.1428571428571,4,2,0,100,0,1
38195,-57.1428571428571,4,2,0,90,0,1
38606,-50,4,2,0,90,0,1
38743,-57.1428571428571,4,2,0,90,0,1
39427,-50,4,2,0,90,0,1
39564,-66.6666666666667,4,2,0,90,0,1
39701,-57.1428571428571,4,2,0,90,0,1
39838,-50,4,2,0,90,0,1
40659,-57.1428571428571,4,2,0,90,0,1
40796,-50,4,2,0,90,0,1
41480,-57.1428571428571,4,2,0,90,0,1
41617,-50,4,2,0,90,0,1
42028,-66.6666666666667,4,2,0,90,0,1
42301,-50,4,2,0,90,0,1
42849,-57.1428571428571,4,2,0,90,0,1
42986,-50,4,2,0,90,0,1
43123,-57.1428571428571,4,2,0,90,0,1
43396,-50,4,2,0,90,0,1
43944,-66.6666666666667,4,2,0,90,0,1
44081,-57.1428571428571,4,2,0,90,0,1
44217,-50,4,2,0,90,0,1
45039,-57.1428571428571,4,2,0,90,0,1
45586,-57.1428571428571,4,2,0,90,0,0
46407,-200,4,2,0,80,0,0
46681,-57.1428571428571,4,2,0,90,0,1
46955,-60.6060606060606,4,2,0,90,0,0
47365,-57.1428571428571,4,2,0,90,0,0
47776,-303.030303030303,4,2,0,90,0,0
48323,-101.010101010101,4,2,0,90,0,0
48597,-303.030303030303,4,2,0,90,0,0
48871,-51.2820512820513,4,2,0,90,0,0
49145,-60.6060606060606,4,2,0,90,0,0
49555,-57.1428571428571,4,2,0,90,0,0
49966,-303.030303030303,4,2,0,90,0,0
50513,-44.4444444444445,4,2,0,90,0,0
50787,-100,4,2,0,90,0,0
51060,-54.6448087431694,4,2,0,90,0,0
51334,-133.333333333333,4,2,0,90,0,0
51882,-57.1428571428571,4,2,0,90,0,0
52292,-66.6666666666667,4,2,0,90,0,0
52429,-57.1428571428571,4,2,0,90,0,0
52566,-50,4,2,0,90,0,0
53250,-303.030303030303,4,2,0,90,0,0
53524,-50,4,2,0,90,0,0
53798,-303.030303030303,4,2,0,90,0,0
54071,-57.1428571428571,4,2,0,90,0,0
54345,-151.515151515152,4,2,0,90,0,0
54619,-57.1428571428571,4,2,0,90,0,0
54893,-100,4,2,0,90,0,0
55166,-400,4,2,0,90,0,0
55440,-40,4,2,0,90,0,1
55987,-222.222222222222,4,2,0,80,0,0
57630,-50,4,2,0,90,0,1
58177,-181.818181818182,4,2,0,80,0,0
59820,-50,4,2,0,90,0,1
60367,-153.846153846154,4,2,0,80,0,0
62009,-66.6666666666667,4,2,0,90,0,0
62283,-66.6666666666667,4,2,0,80,0,0
62557,-66.6666666666667,4,2,0,90,0,0
62831,-100,4,2,0,80,0,0
63104,-66.6666666666667,4,2,0,90,0,0
63378,-57.1428571428571,4,2,0,80,0,0
63925,-80,4,2,0,80,0,0
64199,-100,4,2,0,60,0,0
65294,-133.333333333333,4,2,0,60,0,0
65841,-142.857142857143,4,2,0,60,0,0
69947,-111.111111111111,4,2,0,60,0,0
70358,-111.111111111111,4,2,0,65,0,0
70632,-100,4,2,0,70,0,0
70768,-133.333333333333,4,2,0,70,0,0
72958,-117.647058823529,4,2,0,70,0,0
75148,-111.111111111111,4,2,0,70,0,0
77338,-153.846153846153,4,2,0,70,0,0
77885,-153.846153846153,4,2,0,70,0,0
78159,-153.846153846153,4,2,0,75,0,0
78433,-90.9090909090909,4,2,0,80,0,0
78980,-100,4,2,0,80,0,0
79163,-80,4,2,0,85,0,0
79345,-66.6666666666667,4,2,0,90,0,0
79528,-44.4444444444445,4,2,0,100,0,1
80075,-66.6666666666667,4,2,0,90,0,1
80623,-52.6315789473684,4,2,0,90,0,1
80896,-50,4,2,0,90,0,1
81170,-66.6666666666667,4,2,0,90,0,1
81444,-50,4,2,0,90,0,1
81717,-44.4444444444445,4,2,0,90,0,1
82265,-66.6666666666667,4,2,0,90,0,1
82812,-50,4,2,0,90,0,1
83360,-52.6315789473684,4,2,0,90,0,1
84272,-57.1428571428571,4,2,0,90,0,1
85002,-200,4,2,0,90,0,1
85550,-57.1428571428571,4,2,0,90,0,1
87192,-200,4,2,0,90,0,1
87739,-57.1428571428571,4,2,0,90,0,1
88287,-227.272727272727,4,2,0,90,0,0
88355,-227.272727272727,4,2,0,60,0,0
92666,-434.782608695652,4,2,0,60,0,0
95404,-277.777777777778,4,2,0,60,0,0
97046,-222.222222222222,4,2,0,65,0,0
99236,-166.666666666667,4,2,0,70,0,0
101425,-133.333333333333,4,2,0,70,0,0
104436,-250,4,2,0,70,0,0
105258,-133.333333333333,4,2,0,70,0,0
106352,-133.333333333333,4,2,0,75,0,0
106900,-133.333333333333,4,2,0,80,0,0
107721,-100,4,2,0,80,0,0
108132,-66.6666666666667,4,2,0,90,0,0
109774,-133.333333333333,4,2,0,70,0,0
109842,-133.333333333333,4,2,0,5,0,0
109911,-100,4,2,0,80,0,0
109979,-100,4,2,0,5,0,0
110048,-80,4,2,0,90,0,0
110116,-80,4,2,0,5,0,0
110185,-400,4,2,0,60,0,0
111964,-400,4,2,0,80,0,0
112101,-50,4,2,0,100,0,0
112374,-71.4285714285714,4,2,0,90,0,1
112922,-86.9565217391304,4,2,0,90,0,1
113195,-100,4,2,0,90,0,1
113469,-76.9230769230769,4,2,0,90,0,1
113743,-71.4285714285714,4,2,0,90,0,1
115112,-83.3333333333333,4,2,0,90,0,1
115659,-76.9230769230769,4,2,0,90,0,1
116754,-71.4285714285714,4,2,0,90,0,1
118944,-400,4,2,0,90,0,1
119081,-50,4,2,0,90,0,1
119217,-57.1428571428571,4,2,0,90,0,1
121133,-57.1428571428571,4,2,0,90,0,1
121681,-57.1428571428571,4,2,0,90,0,1
122228,-60.6060606060606,4,2,0,90,0,1
122434,-57.1428571428571,4,2,0,90,0,1
123597,-100,4,2,0,90,0,1
123871,-50,4,2,0,90,0,1
124144,-57.1428571428571,4,2,0,90,0,1
124418,-66.6666666666667,4,2,0,90,0,1
124692,-57.1428571428571,4,2,0,90,0,1
125445,-100,4,2,0,90,0,1
125513,-57.1428571428571,4,2,0,90,0,1
126950,-66.6666666666667,4,2,0,90,0,1
127155,-57.1428571428571,4,2,0,90,0,1
127361,-66.6666666666667,4,2,0,90,0,1
127703,-200,4,2,0,90,0,1
127840,-200,4,2,0,70,0,1
128250,-200,4,2,0,75,0,1
128661,-200,4,2,0,80,0,1
129071,-200,4,2,0,85,0,1
129482,-200,4,2,0,90,0,1
129756,-200,4,2,0,80,0,1
130029,-200,4,2,0,70,0,1
130440,-200,4,2,0,75,0,1
130851,-200,4,2,0,80,0,1
131261,-200,4,2,0,85,0,1
131535,-200,4,2,0,80,0,1
131809,-200,4,2,0,90,0,1
132082,-200,4,2,0,90,0,0
132219,-95.2380952380952,4,2,0,90,0,1
132630,-86.9565217391304,4,2,0,90,0,1
133040,-80,4,2,0,90,0,1
133451,-74.0740740740741,4,2,0,90,0,1
133725,-400,4,2,0,90,0,1
134409,-95.2380952380952,4,2,0,90,0,1
134820,-86.9565217391304,4,2,0,90,0,1
135230,-80,4,2,0,90,0,1
135641,-74.0740740740741,4,2,0,90,0,1
135914,-200,4,2,0,90,0,1
136599,-95.2380952380952,4,2,0,90,0,1
137009,-86.9565217391304,4,2,0,90,0,1
137420,-80,4,2,0,90,0,1
137831,-74.0740740740741,4,2,0,90,0,1
138104,-400,4,2,0,90,0,1
138789,-95.2380952380952,4,2,0,90,0,1
139199,-86.9565217391304,4,2,0,90,0,1
139610,-80,4,2,0,90,0,1
140020,-74.0740740740741,4,2,0,90,0,1
140841,-303.030303030303,4,2,0,90,0,0
140978,-303.030303030303,4,2,0,60,0,0
145221,-100,4,2,0,60,0,0
147411,-86.9565217391304,4,2,0,65,0,0
149053,-80,4,2,0,70,0,0
149737,-80,4,2,0,75,0,0
150148,-74.0740740740741,4,2,0,80,0,0
150559,-66.6666666666667,4,2,0,85,0,0
150969,-57.1428571428571,4,2,0,90,0,0
152064,-333.333333333333,4,2,0,60,0,0
152748,-166.666666666667,4,2,0,60,0,0
153636,-250,4,2,0,60,0,0
153980,-66.6666666666667,4,2,0,90,0,0
155623,-66.6666666666667,4,2,0,100,0,0
155896,-294.117647058823,4,2,0,90,0,0
156170,-40.8163265306122,4,2,0,90,0,1
156444,-50,4,2,0,90,0,1
156717,-46.5116279069767,4,2,0,90,0,1
156991,-45.4545454545455,4,2,0,90,0,1
157128,-66.6666666666667,4,2,0,90,0,1
157265,-43.4782608695652,4,2,0,90,0,1
157539,-55.5555555555556,4,2,0,90,0,1
157812,-50,4,2,0,90,0,1
157949,-100,4,2,0,90,0,1
158086,-45.4545454545455,4,2,0,90,0,1
158360,-41.6666666666667,4,2,0,90,0,1
158633,-45.4545454545455,4,2,0,90,0,1
158907,-44.4444444444445,4,2,0,90,0,1
159044,-66.6666666666667,4,2,0,90,0,1
159181,-43.4782608695652,4,2,0,90,0,1
159318,-50,4,2,0,90,0,1
159455,-50,4,2,0,90,0,1
159728,-42.5531914893617,4,2,0,90,0,1
159865,-50,4,2,0,90,0,1
160002,-45.4545454545455,4,2,0,90,0,1
160413,-40,4,2,0,90,0,0
160550,-45.4545454545455,4,2,0,90,0,1
160960,-100,4,2,0,90,0,0
161097,-66.6666666666667,4,2,0,90,0,0
162192,-43.4782608695652,4,2,0,90,0,0
162466,-50,4,2,0,90,0,0
162739,-45.4545454545455,4,2,0,90,0,0
163013,-66.6666666666667,4,2,0,90,0,0
163150,-50,4,2,0,90,0,0
163834,-54.054054054054,4,2,0,90,0,0
164929,-303.030303030303,4,2,0,90,0,0
165203,-45.4545454545455,4,2,0,90,0,1
165340,-66.6666666666667,4,2,0,90,0,1
165477,-41.6666666666667,4,2,0,90,0,1
165750,-50,4,2,0,90,0,1
166024,-40.8163265306122,4,2,0,90,0,1
166298,-44.4444444444445,4,2,0,90,0,1
166571,-71.4285714285714,4,2,0,90,0,1
166845,-100,4,2,0,90,0,1
167119,-166.666666666667,4,2,0,90,0,1
167393,-45.4545454545455,4,2,0,90,0,1
167529,-66.6666666666667,4,2,0,90,0,1
167666,-45.4545454545455,4,2,0,90,0,1
167940,-43.4782608695652,4,2,0,90,0,1
168214,-400,4,2,0,90,0,1
168624,-200,4,2,0,90,0,1
168761,-200,4,2,0,90,0,1
169171,-100,4,2,0,90,0,1
169309,-100,4,2,0,90,0,1
169445,-66.6666666666667,4,2,0,90,0,1
169856,-62.5,4,2,0,90,0,1
170267,-58.8235294117647,4,2,0,90,0,1
170677,-55.5555555555556,4,2,0,90,0,1
171498,-75.187969924812,4,2,0,90,0,1
172593,-100,4,2,0,90,0,0
173688,-44.4444444444445,4,2,0,100,0,1
173962,-44.4444444444445,4,2,0,90,0,1
174236,-66.6666666666667,4,2,0,90,0,1
174509,-57.1428571428571,4,2,0,90,0,1
174920,-200,4,2,0,90,0,1
175057,-57.1428571428571,4,2,0,90,0,1
175604,-44.4444444444445,4,2,0,90,0,1
176426,-66.6666666666667,4,2,0,90,0,1
176699,-57.1428571428571,4,2,0,90,0,1
177110,-200,4,2,0,90,0,1
177247,-57.1428571428571,4,2,0,90,0,1
177520,-66.6666666666667,4,2,0,90,0,1
177794,-100,4,2,0,90,0,1
178068,-57.1428571428571,4,2,0,90,0,1
179163,-200,4,2,0,90,0,1
179710,-57.1428571428571,4,2,0,90,0,1
181352,-200,4,2,0,90,0,1
181900,-57.1428571428571,4,2,0,90,0,1
182447,-57.1428571428571,4,2,0,90,0,0
184637,-200,4,2,0,90,0,1
184706,-200,4,2,0,5,0,1
184774,-200,4,2,0,90,0,1
185185,-200,4,2,0,80,0,1
185595,-200,4,2,0,90,0,1
186006,-200,4,2,0,80,0,1
186827,-200,4,2,0,90,0,0
189017,-200,4,2,0,90,0,1
189085,-200,4,2,0,5,0,1
189154,-200,4,2,0,90,0,1
189564,-200,4,2,0,80,0,1
189975,-200,4,2,0,90,0,1
190385,-200,4,2,0,80,0,1
190659,-200,4,2,0,70,0,0
190933,-200,4,2,0,60,0,0
191206,-303.030303030303,4,2,0,60,0,0
199966,-303.030303030303,4,2,0,70,0,0
202018,-303.030303030303,4,2,0,5,0,0
202155,-68.9655172413793,4,2,0,90,0,0
202703,-68.9655172413793,4,2,0,80,0,0
202977,-68.9655172413793,4,2,0,70,0,0
203524,-60.2409638554217,4,2,0,90,0,0
203798,-80,4,2,0,80,0,0
204071,-80,4,2,0,90,0,0
204345,-50,4,2,0,90,0,0
204619,-66.6666666666667,4,2,0,80,0,0
204893,-100,4,2,0,80,0,0
206535,-71.4285714285714,4,2,0,90,0,0
207082,-100,4,2,0,80,0,0
208725,-71.4285714285714,4,2,0,90,0,0
209272,-100,4,2,0,80,0,0
210914,-57.1428571428571,4,2,0,90,0,0
213104,-80,4,2,0,90,0,0
213378,-66.6666666666667,4,2,0,80,0,0
213652,-75.187969924812,4,2,0,80,0,0
215294,-200,4,2,0,80,0,0
215568,-50,4,2,0,80,0,0
215841,-75.187969924812,4,2,0,80,0,0
217210,-200,4,2,0,80,0,0
217484,-66.6666666666667,4,2,0,80,0,0
217758,-57.1428571428571,4,2,0,80,0,0
218031,-75.187969924812,4,2,0,80,0,0
219674,-57.1428571428571,4,2,0,90,0,0
219947,-57.1428571428571,4,2,0,80,0,0
220221,-57.1428571428571,4,2,0,90,0,0
220495,-57.1428571428571,4,2,0,80,0,0
220768,-57.1428571428571,4,2,0,90,0,0
221042,-57.1428571428571,4,2,0,80,0,0
221316,-57.1428571428571,4,2,0,70,0,0
221590,-57.1428571428571,4,2,0,80,0,0
221863,-57.1428571428571,4,2,0,75,0,0
222274,-66.6666666666667,4,2,0,75,0,0
224258,-66.6666666666667,4,2,0,5,0,0
224327,-66.6666666666667,4,2,0,75,0,0
224532,-66.6666666666667,4,2,0,5,0,0
224601,-66.6666666666667,4,2,0,75,0,0
224874,-133.333333333333,4,2,0,75,0,0
224943,-133.333333333333,4,2,0,5,0,0
225011,-133.333333333333,4,2,0,75,0,0
225080,-133.333333333333,4,2,0,5,0,0
225148,-133.333333333333,4,2,0,75,0,0
225216,-133.333333333333,4,2,0,5,0,0
225285,-66.6666666666667,4,2,0,75,0,0
226243,-76.9230769230769,4,2,0,75,0,0
226585,-76.9230769230769,4,2,0,5,0,0
226654,-66.6666666666667,4,2,0,75,0,0
227064,-133.333333333333,4,2,0,75,0,0
227133,-133.333333333333,4,2,0,5,0,0
227201,-133.333333333333,4,2,0,75,0,0
227269,-133.333333333333,4,2,0,5,0,0
227338,-133.333333333333,4,2,0,75,0,0
227406,-133.333333333333,4,2,0,5,0,0
227475,-66.6666666666667,4,2,0,75,0,0
228638,-66.6666666666667,4,2,0,5,0,0
228706,-66.6666666666667,4,2,0,75,0,0
228912,-66.6666666666667,4,2,0,5,0,0
228980,-66.6666666666667,4,2,0,75,0,0
230623,-80,4,2,0,75,0,0
230896,-133.333333333333,4,2,0,75,0,0
231033,-66.6666666666667,4,2,0,75,0,0
231444,-133.333333333333,4,2,0,75,0,0
231512,-133.333333333333,4,2,0,5,0,0
231581,-133.333333333333,4,2,0,75,0,0
231649,-133.333333333333,4,2,0,5,0,0
231717,-133.333333333333,4,2,0,75,0,0
231786,-133.333333333333,4,2,0,5,0,0
231854,-66.6666666666667,4,2,0,75,0,0
232265,-133.333333333333,4,2,0,75,0,0
232539,-133.333333333333,4,2,0,60,0,0
232744,-133.333333333333,4,2,0,5,0,0
232812,-66.6666666666667,4,2,0,75,0,0
233018,-66.6666666666667,4,2,0,5,0,0
233086,-66.6666666666667,4,2,0,75,0,0
233291,-66.6666666666667,4,2,0,5,0,0
233360,-66.6666666666667,4,2,0,75,0,0
233633,-133.333333333333,4,2,0,75,0,0
233702,-133.333333333333,4,2,0,5,0,0
233770,-133.333333333333,4,2,0,75,0,0
233839,-133.333333333333,4,2,0,5,0,0
233907,-133.333333333333,4,2,0,75,0,0
233976,-133.333333333333,4,2,0,5,0,0
234044,-66.6666666666667,4,2,0,75,0,0
235550,-66.6666666666667,4,2,0,80,0,0
237329,-66.6666666666667,4,2,0,70,0,0
237739,-66.6666666666667,4,2,0,75,0,0
238150,-66.6666666666667,4,2,0,80,0,0
238560,-66.6666666666667,4,2,0,85,0,0
238971,-100,4,2,0,80,0,0
239039,-100,4,2,0,5,0,0
239108,-133.333333333333,4,2,0,70,0,0
239176,-133.333333333333,4,2,0,5,0,0
239245,-200,4,2,0,60,0,0
239313,-200,4,2,0,5,0,0
239382,-200,4,2,0,60,0,0
239518,-66.6666666666667,4,2,0,80,0,0
239929,-66.6666666666667,4,2,0,85,0,0
240340,-66.6666666666667,4,2,0,90,0,0
240750,-66.6666666666667,4,2,0,95,0,0
241161,-133.333333333333,4,2,0,70,0,0
241298,-100,4,2,0,80,0,0
241435,-80,4,2,0,85,0,0
241571,-200,4,2,0,90,0,0
242119,-200,4,2,0,60,0,0
243351,-66.6666666666667,4,2,0,75,0,0
243487,-45.4545454545455,4,2,0,90,0,0
243761,-61.3496932515337,4,2,0,90,0,1
244309,-57.1428571428571,4,2,0,90,0,1
244582,-65.7894736842105,4,2,0,90,0,1
244856,-61.3496932515337,4,2,0,90,0,1
245130,-65.359477124183,4,2,0,90,0,1
245404,-69.9300699300699,4,2,0,90,0,1
246498,-65.359477124183,4,2,0,90,0,1
247046,-69.9300699300699,4,2,0,90,0,1
247456,-65.359477124183,4,2,0,90,0,1
247593,-75.187969924812,4,2,0,90,0,1
247730,-81.3008130081301,4,2,0,90,0,1
247867,-88.4955752212389,4,2,0,90,0,1
248004,-97.0873786407767,4,2,0,90,0,1
248141,-50,4,2,0,90,0,1
248414,-61.3496932515337,4,2,0,90,0,1
248688,-54.6448087431694,4,2,0,90,0,1
250331,-400,4,2,0,90,0,1
250467,-47.6190476190476,4,2,0,90,0,1
250604,-50,4,2,0,90,0,1
252520,-61.3496932515337,4,2,0,90,0,1
253068,-68.9655172413793,4,2,0,90,0,1
253341,-65.7894736842105,4,2,0,90,0,1
253615,-61.3496932515337,4,2,0,90,0,1
253889,-65.359477124183,4,2,0,90,0,1
254163,-69.9300699300699,4,2,0,90,0,1
254436,-64.5161290322581,4,2,0,90,0,1
254710,-61.3496932515337,4,2,0,90,0,1
255805,-57.1428571428571,4,2,0,90,0,1
256216,-61.3496932515337,4,2,0,90,0,1
256352,-66.6666666666667,4,2,0,90,0,1
257447,-61.3496932515337,4,2,0,90,0,1
257584,-75.187969924812,4,2,0,90,0,1
257721,-61.3496932515337,4,2,0,90,0,1
257755,-61.3496932515337,4,2,0,70,0,1
257995,-57.1428571428571,4,2,0,90,0,1
258337,-66.6666666666667,4,2,0,90,0,1
258542,-57.1428571428571,4,2,0,90,0,1
258748,-66.6666666666667,4,2,0,90,0,1
258953,-57.1428571428571,4,2,0,90,0,1
259090,-200,4,2,0,90,0,1
259227,-100,4,2,0,70,0,1
259637,-100,4,2,0,85,0,1
260048,-100,4,2,0,90,0,1
260458,-100,4,2,0,95,0,1
260869,-100,4,2,0,100,0,1
261143,-100,4,2,0,90,0,1
261416,-100,4,2,0,85,0,1
261827,-100,4,2,0,90,0,1
262238,-100,4,2,0,95,0,1
262648,-100,4,2,0,100,0,1
262922,-100,4,2,0,100,0,1
263195,-100,4,2,0,90,0,1
263401,-100,4,2,0,90,0,0
263469,-50,4,2,0,100,0,1
264564,-45.4545454545455,4,2,0,100,0,1
265112,-50,4,2,0,100,0,1
265385,-44.4444444444445,4,2,0,100,0,1
265796,-50,4,2,0,100,0,1
266754,-45.4545454545455,4,2,0,100,0,1
267301,-50,4,2,0,100,0,1
267575,-44.4444444444445,4,2,0,100,0,1
267986,-45.4545454545455,4,2,0,100,0,1
268396,-50,4,2,0,100,0,1
270312,-43.4782608695652,4,2,0,100,0,1
270586,-50,4,2,0,100,0,1
270620,-50,4,2,0,5,0,1
270654,-50,4,2,0,100,0,1
270689,-50,4,2,0,5,0,1
270723,-50,4,2,0,100,0,1
270757,-50,4,2,0,5,0,1
270791,-50,4,2,0,100,0,1
270826,-50,4,2,0,5,0,1
270860,-43.4782608695652,4,2,0,100,0,1
271133,-33.3333333333333,4,2,0,100,0,1
271407,-100,4,2,0,100,0,1
271544,-50,4,2,0,100,0,1
272228,-44.4444444444445,4,2,0,100,0,1
273323,-50,4,2,0,100,0,1
277018,-66.6666666666667,4,2,0,100,0,1
277155,-57.1428571428571,4,2,0,100,0,1
277566,-50,4,2,0,100,0,1
279619,-100,4,2,0,90,0,1
280440,-66.6666666666667,4,2,0,95,0,1
280714,-50,4,2,0,100,0,1
280919,-50,4,2,0,100,0,0
280987,-52.6315789473684,4,2,0,90,0,1
281535,-61.3496932515337,4,2,0,90,0,1
281672,-53.763440860215,4,2,0,90,0,1
282082,-60.2409638554217,4,2,0,90,0,1
283177,-100,4,2,0,90,0,1
283451,-57.1428571428571,4,2,0,90,0,1
283862,-66.6666666666667,4,2,0,90,0,1
285230,-48.780487804878,4,2,0,90,0,1
285641,-60.2409638554217,4,2,0,90,0,1
287009,-39.2156862745098,4,2,0,90,0,1
287557,-50,4,2,0,90,0,1
287602,-50,4,2,0,5,0,1
287648,-50,4,2,0,90,0,1
287694,-50,4,2,0,5,0,1
287739,-50,4,2,0,90,0,1
287785,-50,4,2,0,5,0,1
287831,-50,4,2,0,90,0,1
288241,-50,4,2,0,90,0,1
288287,-50,4,2,0,5,0,1
288332,-50,4,2,0,90,0,1
288378,-50,4,2,0,5,0,1
288424,-50,4,2,0,90,0,1
288469,-50,4,2,0,5,0,1
288515,-50,4,2,0,90,0,1
288925,-50,4,2,0,90,0,1
288971,-50,4,2,0,5,0,1
289017,-50,4,2,0,90,0,1
289062,-50,4,2,0,5,0,1
289108,-50,4,2,0,90,0,1
289154,-50,4,2,0,5,0,1
289199,-100,4,2,0,90,0,0
292484,-204.081632653061,4,2,0,90,0,0
293031,-204.081632653061,4,2,0,80,0,0
293579,-204.081632653061,4,2,0,70,0,0
294126,-204.081632653061,4,2,0,60,0,0
294674,-204.081632653061,4,2,0,50,0,0
295221,-204.081632653061,4,2,0,40,0,0
295768,-204.081632653061,4,2,0,35,0,0
296316,-204.081632653061,4,2,0,30,0,0
296863,-204.081632653061,4,2,0,25,0,0
297411,-204.081632653061,4,2,0,20,0,0
297958,-204.081632653061,4,2,0,15,0,0
298506,-204.081632653061,4,2,0,10,0,0
299053,-204.081632653061,4,2,0,5,0,0

[Colours]
Combo1 : 204,44,226
Combo2 : 69,83,148
Combo3 : 125,64,176
Combo4 : 58,91,222

[HitObjects]
256,192,1243,12,0,2748,0:0:0:0:
463,123,2885,5,0,0:0:0:0:
383,109,3022,1,0,0:0:0:0:
435,48,3159,1,0,0:0:0:0:
434,56,3296,1,0,0:0:0:0:
36,291,5075,5,0,0:0:0:0:
36,291,5143,2,0,B|68:295|97:311|119:337|119:337|116:306|125:275|148:248,1,192.49999165535
213,217,6170,2,0,P|240:259|248:306,1,96.2499958276749
439,369,7265,5,0,0:0:0:0:
439,369,7333,2,0,B|478:366|518:323|475:231|367:267|349:344,1,254.09998820961
60,185,9455,5,2,0:0:0:0:
119,121,9728,5,2,0:0:0:0:
200,108,10002,5,2,0:0:0:0:
267,149,10276,5,2,0:0:0:0:
453,322,10550,6,0,L|459:274,1,48.3999993789673,2|0,0:0|0:0,0:0:0:0:
374,313,10823,6,0,L|382:253,1,60.4999992237091,2|0,0:0|0:0,0:0:0:0:
258,270,11097,6,0,L|268:341,1,72.5999966313172,2|0,0:0|0:0,0:0:0:0:
140,255,11371,6,0,L|152:338,1,84.6999946482088,2|0,0:0|0:0,0:0:0:0:
53,131,11644,5,0,0:0:0:0:
49,162,11781,1,0,0:0:0:0:
63,126,11918,1,0,0:0:0:0:
59,157,12055,1,0,0:0:0:0:
215,81,12192,6,0,L|203:25,1,53.6249952206614
222,87,12397,6,0,P|256:74|291:73,1,71.4999936275486
416,146,12671,5,0,0:0:0:0:
443,142,12808,1,0,0:0:0:0:
409,157,12945,1,0,0:0:0:0:
436,153,13082,1,0,0:0:0:0:
321,211,13218,5,0,0:0:0:0:
294,207,13355,1,0,0:0:0:0:
328,222,13492,1,0,0:0:0:0:
301,218,13629,1,0,0:0:0:0:
434,245,13766,6,0,P|445:273|446:308,1,60.4999992237091
357,379,14062,6,0,P|329:377|298:362,1,60.4999992237091
232,259,14347,6,0,P|221:294|200:324,1,60.4999992237091
132,362,14621,1,0,0:0:0:0:
18,297,14792,5,0,0:0:0:0:
18,297,14861,1,0,0:0:0:0:
18,297,14929,6,0,L|24:351,1,54.9999976158142
4,290,15203,2,0,L|10:344,1,54.9999976158142
101,165,15477,6,0,L|95:230,1,65.9999951248171
118,156,15751,2,0,L|112:221,1,65.9999951248171
20,45,16024,6,0,P|55:39|95:16,1,71.4999936275486
211,102,16298,2,0,P|179:85|144:79,1,71.4999936275486
293,22,16571,1,0,0:0:0:0:
307,99,16708,1,0,0:0:0:0:
361,154,16845,1,0,0:0:0:0:
347,231,16982,1,0,0:0:0:0:
321,316,17119,6,0,P|356:319|389:308,1,71.4999936275486
320,329,17393,2,0,P|355:332|388:321,1,71.4999936275486
470,194,17666,6,0,P|449:222|442:257,1,71.4999936275486
457,187,17940,2,0,P|436:215|429:250,1,71.4999936275486
499,384,18214,6,0,P|484:351|458:328,1,71.4999936275486
512,376,18488,2,0,P|497:343|471:320,1,71.4999936275486
321,316,18761,6,0,P|356:319|389:308,1,71.4999936275486
320,329,19035,2,0,P|355:332|388:321,1,71.4999936275486
247,272,19309,5,0,0:0:0:0:
216,277,19445,1,0,0:0:0:0:
232,287,19582,1,0,0:0:0:0:
201,292,19718,1,0,0:0:0:0:
111,345,19856,5,0,0:0:0:0:
80,340,19992,1,0,0:0:0:0:
96,330,20129,1,0,0:0:0:0:
65,325,20267,1,0,0:0:0:0:
115,142,20404,5,0,0:0:0:0:
111,167,22593,5,2,0:0:0:0:
256,192,23688,12,0,24646,0:0:0:0:
139,174,24783,6,0,B|80:183|80:183|58:201|58:201|1:210,2,146.299987630692,0|0|0,1:0|0:0|0:0,0:0:0:0:
304,147,25194,1,0,1:0:0:0:
304,147,26425,6,0,L|240:85,1,87.9999961853028,0|0,1:0|0:0,0:0:0:0:
400,242,26699,2,0,L|484:218,1,87.9999961853028,0|0,1:0|0:0,0:0:0:0:
272,279,26973,2,0,L|247:363,1,87.9999961853028,0|0,1:0|0:0,0:0:0:0:
398,59,27383,5,0,1:0:0:0:
256,192,27931,12,0,29026,0:0:0:0:
140,377,29163,6,0,P|169:341|236:327,1,109.999995231628,0|0,1:0|0:0,0:0:0:0:
250,241,29436,2,0,P|295:248|341:299,1,109.999995231628,0|0,1:0|0:0,0:0:0:0:
512,321,29710,6,0,P|466:313|420:262,1,109.999995231628,0|0,1:0|0:0,0:0:0:0:
339,292,29984,2,0,P|322:248|343:183,1,109.999995231628,0|0,1:0|0:0,0:0:0:0:
278,26,30258,6,0,P|294:69|273:134,1,109.999995231628,0|0,1:0|0:0,0:0:0:0:
339,189,30531,2,0,P|309:224|243:239,1,109.999995231628,0|0,1:0|0:0,0:0:0:0:
3,223,30805,6,0,P|87:197|131:290,1,189.749995393753,0|0,1:0|0:0,0:0:0:0:
127,280,31079,1,0,1:0:0:0:
150,15,31352,6,0,B|95:6|95:6|56:45,1,109.999995231628,0|0,1:0|0:0,0:0:0:0:
83,119,31626,2,0,B|137:127|137:127|176:88,1,109.999995231628,0|0,1:0|0:0,0:0:0:0:
271,106,31900,6,0,B|325:97|325:97|364:136,1,109.999995231628,0|0,1:0|0:0,0:0:0:0:
338,210,32174,2,0,B|283:218|283:218|244:179,1,109.999995231628,0|0,1:0|0:0,0:0:0:0:
101,201,32447,6,0,B|46:192|46:192|7:231,1,109.999995231628,0|0,1:0|0:0,0:0:0:0:
34,305,32721,2,0,B|88:313|88:313|127:274,1,109.999995231628,0|0,1:0|0:0,0:0:0:0:
391,318,32995,6,0,L|383:377,1,54.9999976158142,0|0,1:0|0:0,0:0:0:0:
384,231,33132,5,0,1:0:0:0:
394,232,33200,1,0,1:0:0:0:
404,233,33268,1,0,1:0:0:0:
415,234,33337,1,0,1:0:0:0:
425,235,33405,1,0,1:0:0:0:
436,236,33474,1,0,1:0:0:0:
448,224,33542,6,0,L|438:155,1,54.9999976158142,2|0,1:2|0:0,0:0:0:0:
303,298,33679,5,0,1:0:0:0:
310,314,33747,1,0,1:0:0:0:
316,331,33816,1,0,1:0:0:0:
323,347,33884,1,0,1:0:0:0:
343,355,33953,6,0,L|397:311,1,60.4999992237091,2|0,1:2|0:0,0:0:0:0:
192,274,34090,5,0,1:0:0:0:
179,288,34158,1,0,1:0:0:0:
166,303,34226,1,0,1:0:0:0:
154,319,34295,1,0,1:0:0:0:
152,355,34363,6,0,L|216:380,1,65.9999951248171,2|0,1:2|0:0,0:0:0:0:
126,180,34500,5,0,1:0:0:0:
98,186,34569,1,0,1:0:0:0:
70,193,34637,1,0,1:0:0:0:
42,200,34706,1,0,1:0:0:0:
22,229,34774,6,0,L|43:302,1,71.4999936275486,2|0,1:2|0:0,0:0:0:0:
173,45,34911,5,0,1:0:0:0:
136,32,34979,1,0,1:0:0:0:
99,19,35048,1,0,1:0:0:0:
62,7,35116,1,0,1:0:0:0:
18,25,35185,6,0,L|11:107,1,76.9999943122866,2|0,1:2|0:0,0:0:0:0:
207,253,35321,5,0,1:0:0:0:
238,208,35390,1,0,1:0:0:0:
269,164,35458,2,0,L|191:127,1,76.9999943122866,2|0,1:2|1:0,0:0:0:0:
0,268,35595,5,2,1:2:0:0:
19,326,35664,1,0,1:0:0:0:
37,384,35732,2,0,L|78:373,1,38.4999971561433,0|0,1:0|0:0,0:0:0:0:
510,333,36553,5,0,0:0:0:0:
501,332,36622,1,0,0:0:0:0:
492,331,36690,1,0,0:0:0:0:
483,330,36758,1,0,0:0:0:0:
421,360,36827,6,0,P|386:330|369:286,1,82.4999995708466,2|0,1:2|0:0,0:0:0:0:
292,254,36964,2,0,P|300:208|330:171,1,82.4999995708466,0|0,1:0|1:0,0:0:0:0:
497,46,37101,6,0,P|488:91|458:128,1,82.4999995708466,2|0,1:2|0:0,0:0:0:0:
469,210,37238,2,0,P|425:225|378:218,1,82.4999995708466,0|0,1:0|1:0,0:0:0:0:
186,136,37374,6,0,L|192:89,3,41.2499997854233,2|0|0|0,1:2|0:0|1:0|1:0,0:0:0:0:
330,170,37648,6,0,L|324:123,3,27.4999988079071,2|0|0|0,1:2|0:0|0:0|0:0,0:0:0:0:
83,229,37922,6,0,B|1:276|1:276|202:322,1,288.749990236759,4|0,1:0|0:0,0:0:0:0:
198,315,38195,1,8,0:0:0:0:
67,130,38332,5,0,3:0:0:0:
70,121,38401,1,0,3:0:0:0:
51,87,38469,6,0,B|96:80|96:80|101:83|101:83|144:76,1,96.2499967455864,0|0,1:0|0:0,0:0:0:0:
351,44,38606,6,0,P|336:0|325:41,1,109.999995231628,2|0,0:0|0:0,0:0:0:0:
255,226,38743,6,0,B|201:261|141:191|197:122|290:90|343:193,1,288.749990236759,8|0,0:0|0:0,0:0:0:0:
425,375,39017,2,0,B|435:292|435:292|432:248|432:248|453:219|453:219|448:182|448:182|460:82,1,288.749990236759,0|0,1:0|0:0,0:0:0:0:
465,88,39290,1,10,0:0:0:0:
219,5,39427,6,0,B|211:35|211:35|231:59|231:59|238:28|238:28|219:5,1,109.999995231628,2|0,0:0|0:0,0:0:0:0:
343,195,39564,6,0,B|319:159|319:159|261:154,1,82.4999995708466,0|0,1:0|0:0,0:0:0:0:
143,304,39701,6,0,B|187:322|187:322|242:287,1,96.2499967455864,2|0,0:0|0:0,0:0:0:0:
421,311,39838,6,0,B|342:274|342:274|301:268|301:268|271:232|271:232|229:220|229:220|123:168,1,329.999985694885,10|0,0:0|0:0,0:0:0:0:
31,211,40112,6,0,B|2:165|31:125|31:125|-9:169|29:232|29:232|63:300|17:359,1,329.999985694885,4|0,1:2|0:0,0:0:0:0:
13,353,40385,1,8,0:0:0:0:
193,187,40522,5,0,3:0:0:0:
189,176,40591,1,0,3:0:0:0:
157,160,40659,6,0,P|195:134|257:136,1,96.2499967455864,0|0,1:0|0:0,0:0:0:0:
481,208,40796,6,0,P|475:165|453:201,1,109.999995231628,2|0,0:0|0:0,0:0:0:0:
280,19,40933,6,0,B|249:-12|199:-11|199:-11|290:-29|362:33|350:131,1,329.999985694885,8|0,0:0|0:0,0:0:0:0:
452,316,41206,2,0,B|546:313|523:180|430:186|332:227|353:352,1,329.999985694885,0|0,1:0|0:0,0:0:0:0:
355,343,41480,6,0,B|310:336|310:336|305:339|305:339|262:332,1,96.2499967455864,10|0,0:0|0:0,0:0:0:0:
39,384,41617,6,0,B|47:354|47:354|27:330|27:330|20:361|20:361|39:384,1,109.999995231628,2|0,0:0|0:0,0:0:0:0:
293,235,41754,6,0,P|306:208|329:186,6,54.9999976158142,0|0|0|0|0|0|0,1:0|0:0|0:0|0:0|0:0|0:0|0:0,0:0:0:0:
136,287,42028,6,0,P|150:304|158:326,6,41.2499997854233,8|0|0|0|0|0|0,0:0|0:0|0:0|0:0|0:0|0:0|0:0,0:0:0:0:
0,217,42301,6,0,B|82:165|147:231|147:231|214:302|297:245,1,329.999985694885,4|0,1:2|0:0,0:0:0:0:
293,235,42575,1,8,0:0:0:0:
433,42,42712,5,0,3:0:0:0:
437,52,42780,1,0,3:0:0:0:
422,87,42849,6,0,B|377:80|377:80|372:83|372:83|329:76,1,96.2499967455864,0|0,1:0|0:0,0:0:0:0:
100,42,42986,6,0,P|115:-2|126:39,1,109.999995231628,2|0,0:0|0:0,0:0:0:0:
272,160,43123,6,0,B|259:105|203:91|203:91|142:130|162:224|225:252,1,288.749990236759,8|0,0:0|0:0,0:0:0:0:
436,339,43396,2,0,B|406:313|406:313|294:320|294:320|269:350|269:350|263:348|263:348|130:360,1,329.999985694885,0|0,1:0|0:0,0:0:0:0:
122,354,43670,1,10,0:0:0:0:
360,184,43807,6,0,B|368:214|368:214|348:238|348:238|341:207|341:207|360:184,1,109.999995231628,2|0,3:0|0:0,0:0:0:0:
149,9,43944,6,0,P|141:53|107:75,1,82.4999995708466,0|0,1:0|0:0,0:0:0:0:
9,104,44081,2,0,P|13:150|50:180,1,96.2499967455864,2|0,0:0|0:0,0:0:0:0:
225,240,44217,6,0,P|128:167|43:317,1,329.999985694885,10|0,0:0|0:0,0:0:0:0:
48,318,44491,6,0,B|103:289|150:327|150:327|206:375|264:341,1,219.999990463257,4|0,1:2|0:0,0:0:0:0:
361,343,44696,1,0,1:0:0:0:
342,310,44765,5,8,0:0:0:0:
345,300,44833,1,0,3:0:0:0:
348,290,44902,1,0,3:0:0:0:
350,280,44970,1,0,3:0:0:0:
407,239,45039,6,0,B|383:104|383:104|325:90,1,192.499993491173,0|0,1:0|0:0,0:0:0:0:
177,58,45244,1,0,1:0:0:0:
244,70,45312,2,0,L|233:10,6,48.1249983727932,8|0|0|0|0|0|0,0:0|0:0|0:0|0:0|0:0|0:0|0:0,0:0:0:0:
0,167,45586,6,0,B|79:179|79:179|108:200|108:200|187:212,1,192.499993491173,0|0,1:0|0:0,0:0:0:0:
326,262,45791,6,0,B|246:274|246:274|217:295|217:295|138:307,1,192.499993491173,0|0,1:0|0:0,0:0:0:0:
32,90,45997,6,0,B|111:102|111:102|140:123|140:123|219:135,1,192.499993491173,8|0,1:3|0:0,0:0:0:0:
357,336,46202,6,0,B|277:348|277:348|248:369|248:369|169:381,1,192.499993491173,8|0,1:3|0:0,0:0:0:0:
31,353,46407,6,0,P|58:349|99:392,1,82.4999964237214,0|0,1:0|0:0,0:0:0:0:
19,338,46681,6,0,B|76:330|76:330|108:160|108:160|166:153,1,288.749990236759,4|0,1:0|0:0,0:0:0:0:
193,150,46955,1,8,0:0:0:0:
331,254,47091,5,0,3:0:0:0:
346,258,47160,1,0,3:0:0:0:
369,237,47228,6,0,P|377:188|366:140,1,90.7499969315529,0|0,1:0|0:0,0:0:0:0:
254,49,47365,6,0,P|259:11|281:42,1,96.2499967455864
511,21,47502,6,0,B|496:46|496:46|488:46|488:46|495:51|495:51|508:95|508:95|505:114|505:114|505:118|505:118|502:121|502:121|484:186|484:186|486:190|486:190|483:195|483:195|478:210|478:210|469:213|469:213|479:282,1,288.749990236759,8|0,0:0|0:0,0:0:0:0:
427,371,47776,6,0,L|486:364,1,54.4499974734879,8|0,1:3|0:0,0:0:0:0:
421,381,48050,2,0,L|480:374,1,54.4499974734879,8|0,1:3|0:0,0:0:0:0:
308,210,48323,6,0,P|317:235|322:262,1,54.4499974734879,8|0,1:3|0:0,0:0:0:0:
322,205,48460,2,0,P|331:230|336:257,1,54.4499974734879,8|0,1:3|0:0,0:0:0:0:
202,328,48597,6,0,B|178:324|178:324|175:325|175:325|149:320,1,54.4499974734879,8|0,1:3|0:0,0:0:0:0:
379,48,48871,6,0,B|401:5|470:6|495:68|466:111|428:115|428:115|287:134,1,321.749987279892,4|0,1:2|0:0,0:0:0:0:
267,137,49144,1,8,0:0:0:0:
81,119,49281,5,0,3:0:0:0:
75,135,49350,1,0,3:0:0:0:
60,139,49418,6,0,B|45:166|45:166|68:251,1,90.7499969315529,0|0,1:0|0:0,0:0:0:0:
227,344,49555,6,0,P|189:339|220:317,1,96.2499967455864,2|0,3:0|0:0,0:0:0:0:
411,253,49692,6,0,B|365:247|365:247|363:245|363:245|360:246|360:246|329:242|329:242|325:244|325:244|321:241|321:241|302:239|302:239|298:237|298:237|280:257|280:257|279:261|279:261|263:282|263:282|259:280|259:280|216:275|216:275|212:271|212:271|192:268|192:268|185:270|185:270|151:266,1,288.749990236759,8|0,0:0|0:0,0:0:0:0:
28,370,49966,6,0,L|22:316,1,54.4499974734879,8|0,1:3|0:0,0:0:0:0:
20,382,50240,2,0,L|14:328,1,54.4499974734879,8|8,1:3|1:3,0:0:0:0:
218,193,50513,6,0,B|234:180|234:180|220:140|220:140|194:173|194:173|204:191,1,123.74999935627,8|0,1:3|0:0,0:0:0:0:
333,331,50650,6,0,B|323:349|323:349|349:381|349:381|362:342|362:342|347:329,1,123.74999935627,8|0,1:3|0:0,0:0:0:0:
452,124,50787,5,8,1:3:0:0:
466,122,50855,1,8,1:3:0:0:
479,124,50923,1,8,1:3:0:0:
491,131,50992,1,8,1:3:0:0:
512,154,51060,6,0,B|420:122|356:186|382:198|313:253|236:225,1,301.949981497136,4|0,1:0|0:0,0:0:0:0:
48,74,51334,5,8,0:0:0:0:
42,142,51403,1,0,0:0:0:0:
105,169,51471,1,0,3:0:0:0:
151,118,51539,1,0,3:0:0:0:
117,58,51608,6,0,L|135:21,1,41.2499997854233,0|0,1:0|0:0,0:0:0:0:
50,210,51745,6,0,L|32:247,1,41.2499997854233,2|0,3:0|0:0,0:0:0:0:
238,118,51882,6,0,P|262:122|282:135,6,48.1249983727932,8|0|0|0|0|0|0,0:0|0:0|0:0|0:0|0:0|0:0|0:0,0:0:0:0:
233,186,52155,5,0,1:0:0:0:
476,347,52292,6,0,L|470:265,1,82.4999995708466
406,360,52429,6,0,B|401:316|401:316|403:308|403:308|399:264,1,96.2499967455864,10|0,0:0|0:0,0:0:0:0:
336,374,52566,6,0,B|331:335|331:335|332:328|332:328|330:310|330:310|332:298|332:298|328:264,1,109.999995231628,2|0,0:0|0:0,0:0:0:0:
158,223,52703,6,0,B|148:113|148:113|367:94,1,329.999985694885,2|0,1:2|0:0,0:0:0:0:
347,70,52977,2,0,B|128:89|128:89|138:199,1,329.999985694885,10|0,0:0|0:0,0:0:0:0:
96,318,53250,6,0,P|82:340|62:359,1,54.4499974734879,0|0,1:0|0:0,0:0:0:0:
116,328,53524,6,0,B|100:264|100:264|289:321|289:321|240:366,1,329.999985694885,4|0,0:0|0:0,0:0:0:0:
462,268,53798,6,0,P|483:250|509:242,1,54.4499974734879,0|0,1:0|0:0,0:0:0:0:
453,246,54071,6,0,B|432:260|425:284|425:284|422:275|422:275|381:225|425:165|425:165|456:112|429:59,1,288.749990236759,4|0,0:0|0:0,0:0:0:0:
345,96,54345,6,0,B|357:98|357:98|354:110|354:110|343:108,3,36.2999983156586,0|0|0|0,1:0|0:0|3:0|3:0,0:0:0:0:
333,78,54619,6,0,B|218:88|218:88|193:140|193:140|79:150,1,288.749990236759,4|0,0:0|0:0,0:0:0:0:
175,315,54893,6,0,B|128:268|128:268|96:277|96:277|50:230,1,164.999992847443,0|0,1:0|1:0,0:0:0:0:
0,282,55166,6,0,B|4:265|4:265|-2:260|-2:260|2:244,1,41.2499982118607
56,151,55440,6,0,B|-40:111|-30:-57|156:-76|208:54|153:124|153:124|153:124|153:124|91:207|184:347|353:271|334:132|251:97|251:97|244:146|280:190|328:192,1,962.499958276749,4|0,0:0|0:0,0:0:0:0:
459,118,55987,6,0,L|508:113,1,49.4999963436128,2|0,3:2|0:0,0:0:0:0:
463,130,56193,2,0,L|512:125,1,49.4999963436128,2|0,3:2|0:0,0:0:0:0:
403,256,56398,6,0,L|398:207,1,49.4999963436128,2|0,3:2|0:0,0:0:0:0:
415,252,56604,2,0,L|410:203,1,49.4999963436128,2|0,3:2|0:0,0:0:0:0:
325,154,56809,6,0,L|276:159,1,49.4999963436128,2|0,3:2|0:0,0:0:0:0:
321,142,57015,2,0,L|272:147,1,49.4999963436128,2|0,3:2|0:0,0:0:0:0:
381,16,57219,6,0,L|386:65,1,49.4999963436128,2|0,3:2|0:0,0:0:0:0:
369,20,57425,2,0,L|374:69,1,49.4999963436128,2|0,3:2|0:0,0:0:0:0:
451,175,57630,6,0,B|495:167|495:167|500:169|500:169|434:83|434:83|435:79|435:79|329:93|329:93|325:90|325:90|299:137|299:137|302:140|302:140|196:152|196:152|194:154|194:154|192:151|192:151|175:141|175:141|174:138|174:138|172:140|172:140|15:104|15:104|44:78|44:78|71:173,1,769.999966621399,4|0,1:2|0:0,0:0:0:0:
41,295,58177,6,0,B|66:298|66:298|75:292|75:292|99:294,1,60.4999992237091,2|0,3:2|0:0,0:0:0:0:
46,284,58383,2,0,B|71:287|71:287|80:281|80:281|104:283,1,60.4999992237091,2|0,3:2|0:0,0:0:0:0:
199,148,58588,6,0,B|184:168|184:168|185:179|185:179|171:199,1,60.4999992237091,2|0,3:2|0:0,0:0:0:0:
207,158,58794,2,0,B|192:178|192:178|193:189|193:189|179:209,1,60.4999992237091,2|0,3:2|0:0,0:0:0:0:
235,360,58998,6,0,B|225:337|225:337|215:332|215:332|205:310,1,60.4999992237091,2|0,3:2|0:0,0:0:0:0:
271,232,59204,1,2,3:2:0:0:
267,240,59272,5,2,0:0:0:0:
335,272,59409,5,2,3:2:0:0:
435,241,59546,5,2,3:2:0:0:
488,111,59683,5,2,3:2:0:0:
337,281,59820,6,0,B|296:257|297:146|376:80|452:86|452:86|460:82|460:82|442:174|345:228|248:194|211:116|211:116|256:87|256:87|243:104|237:120|237:120|184:135,1,769.999966621399,4|0,1:2|0:0,0:0:0:0:
0,58,60367,6,0,P|33:70|68:65,1,71.4999936275486,2|0,3:2|0:0,0:0:0:0:
4,37,60572,2,0,P|39:32|72:44,1,71.4999936275486,2|0,3:2|0:0,0:0:0:0:
62,231,60778,6,0,P|89:208|102:175,1,71.4999936275486,2|0,3:2|0:0,0:0:0:0:
46,218,60983,2,0,P|59:185|86:162,1,71.4999936275486,2|0,3:2|0:0,0:0:0:0:
244,265,61188,6,0,P|238:230|216:202,1,71.4999936275486,2|0,3:2|0:0,0:0:0:0:
223,272,61393,2,0,P|201:244|195:209,1,71.4999936275486,2|0,3:2|0:0,0:0:0:0:
361,124,61599,6,0,P|328:112|293:117,1,71.4999936275486,2|0,3:2|0:0,0:0:0:0:
359,145,61804,2,0,P|324:150|291:138,1,71.4999936275486,2|0,3:2|0:0,0:0:0:0:
443,88,62009,6,0,B|455:74|457:55|457:55|513:96|508:160|508:160|511:165|511:165|477:196|435:192,1,247.49999871254,4|0,1:2|0:0,0:0:0:0:
339,247,62283,5,2,0:0:0:0:
339,254,62351,1,0,0:0:0:0:
340,261,62419,1,0,0:0:0:0:
341,270,62488,1,0,0:0:0:0:
365,342,62557,6,0,B|314:357|275:310|275:310|273:313|273:313|223:321|192:359|192:359|204:337|203:314,1,247.49999871254,0|0,1:0|0:0,0:0:0:0:
76,262,62831,6,0,L|110:305,1,54.9999976158142,2|0,0:0|0:0,0:0:0:0:
62,266,62967,2,0,L|42:215,1,54.9999976158142,2|0,0:0|0:0,0:0:0:0:
80,99,63104,6,0,B|67:68|31:53|31:53|111:73|111:73|117:86|117:86|196:107,1,247.49999871254,0|0,1:0|0:0,0:0:0:0:
417,61,63378,6,0,B|445:27|443:-39|335:-78|277:36|324:113,1,288.749990236759,2|0,0:0|0:0,0:0:0:0:
430,321,63652,5,2,0:0:0:0:
317,276,63743,5,2,0:0:0:0:
414,201,63834,5,2,0:0:0:0:
383,274,63926,5,2,0:0:0:0:
381,258,64017,5,2,0:0:0:0:
396,265,64108,5,2,0:0:0:0:
256,360,64199,5,0,1:0:0:0:
105,326,64473,1,0,1:0:0:0:
139,175,64747,1,0,1:0:0:0:
290,209,65020,1,0,1:0:0:0:
130,177,65294,6,0,P|104:151|54:145,1,82.4999995708466,0|0,1:0|0:0,0:0:0:0:
206,208,65568,2,0,P|215:172|195:126,1,82.4999995708466,0|0,1:0|0:0,0:0:0:0:
197,29,65841,6,0,P|172:53|126:58,1,76.9999943122866,0|0,1:0|0:0,0:0:0:0:
267,0,66115,2,0,P|275:33|257:76,1,76.9999943122866,0|0,1:0|0:0,0:0:0:0:
438,106,66389,6,0,B|343:82|377:173|274:134,1,153.999988624573,0|0,1:0|1:0,0:0:0:0:
93,6,66936,6,0,B|134:55|134:55|91:150,1,153.999988624573,0|0,1:0|1:0,0:0:0:0:
250,356,67484,5,0,1:0:0:0:
199,130,67758,1,0,1:0:0:0:
373,282,68031,1,0,1:0:0:0:
143,262,68305,1,0,1:0:0:0:
341,143,68579,1,0,1:0:0:0:
366,363,68852,6,0,P|381:317|402:291,1,76.9999943122866,0|0,1:0|0:0,0:0:0:0:
489,256,69126,2,0,P|474:210|453:184,1,76.9999943122866,0|0,1:0|0:0,0:0:0:0:
332,140,69400,6,0,P|347:94|368:68,1,76.9999943122866,0|0,1:0|0:0,0:0:0:0:
511,14,69674,1,0,1:0:0:0:
505,8,69947,6,0,P|455:34|351:45,1,148.499989030838,0|0,1:0|0:0,0:0:0:0:
361,41,70221,1,0,1:0:0:0:
251,103,70358,5,0,1:0:0:0:
226,98,70426,1,0,1:0:0:0:
201,93,70495,1,0,1:0:0:0:
54,30,70632,6,0,L|60:64,1,27.4999988079071,0|0,1:0|3:0,0:0:0:0:
79,25,70700,6,0,L|85:59,1,27.4999988079071,0|0,3:0|3:0,0:0:0:0:
104,20,70768,6,0,L|118:101,1,82.4999995708466,4|0,3:2|0:0,0:0:0:0:
260,119,71042,2,0,L|187:157,1,82.4999995708466,0|0,1:0|0:0,0:0:0:0:
125,287,71316,1,0,1:0:0:0:
102,187,71453,1,0,0:0:0:0:
226,297,71590,2,0,P|279:264|340:259,1,123.74999935627,0|0,1:0|0:0,0:0:0:0:
389,244,71863,6,0,P|415:275|449:298,1,82.4999995708466,0|0,1:0|0:0,0:0:0:0:
327,169,72137,2,0,P|289:185|248:192,1,82.4999995708466,0|0,1:0|0:0,0:0:0:0:
404,101,72411,2,0,P|418:139|442:173,1,82.4999995708466,0|0,1:0|0:0,0:0:0:0:
364,18,72685,2,0,P|339:51|308:77,1,82.4999995708466,0|0,1:0|0:0,0:0:0:0:
98,63,72958,6,0,B|76:61|54:37|78:-12|137:6|147:49,1,140.249996595383,0|0,1:0|0:0,0:0:0:0:
264,144,73232,6,0,B|245:129|233:109|228:85|228:85|219:105|202:121|178:130,1,140.249996595383,0|0,1:0|0:0,0:0:0:0:
44,179,73506,6,0,P|23:220|32:265,1,93.4999977302551,0|0,1:0|0:0,0:0:0:0:
120,188,73779,2,0,P|128:233|108:274,1,93.4999977302551,0|0,1:0|0:0,0:0:0:0:
11,104,74053,6,0,L|197:93,1,186.99999546051,0|0,1:0|1:0,0:0:0:0:
355,32,74464,2,0,L|310:22,1,46.7499988651276
367,40,74601,2,0,P|352:84|362:129,1,93.4999977302551,0|0,1:0|0:0,0:0:0:0:
494,233,74874,2,0,P|463:198|419:184,1,93.4999977302551,0|0,1:0|0:0,0:0:0:0:
257,244,75148,5,4,1:2:0:0:
338,287,75285,1,0,1:0:0:0:
187,345,75422,2,0,P|149:313|130:268,1,98.9999926872256,0|0,1:0|0:0,0:0:0:0:
191,127,75695,2,0,L|298:137,1,98.9999926872256,0|0,1:0|0:0,0:0:0:0:
441,27,75969,1,0,1:0:0:0:
383,107,76105,1,0,0:0:0:0:
408,291,76243,6,0,B|447:226|447:226|326:245,1,197.999985374451,0|0,1:0|1:0,0:0:0:0:
147,294,76654,1,0,0:0:0:0:
42,228,76790,6,0,P|77:204|111:204,1,65.9999951248171,0|0,1:0|0:0,0:0:0:0:
215,116,76973,5,0,0:0:0:0:
206,108,77064,2,0,P|182:152|170:162,2,65.9999951248171,0|0|0,1:0|1:0|1:0,0:0:0:0:
71,71,77338,6,0,B|209:62|209:62|218:64|218:64|320:57,1,250.24997769642,4|0,1:2|0:0,0:0:0:0:
416,74,77885,5,0,3:0:0:0:
417,80,77953,1,0,3:0:0:0:
418,87,78021,1,0,3:0:0:0:
419,94,78090,1,0,3:0:0:0:
420,100,78158,1,0,3:0:0:0:
421,107,78227,1,0,3:0:0:0:
423,114,78295,1,0,3:0:0:0:
424,120,78364,1,0,3:0:0:0:
434,186,78433,6,0,B|476:179|476:179|467:184|467:184|424:232|424:232|415:228|415:228|375:220|375:220|369:223|369:223|296:228,1,241.999996894836,4|0,1:0|0:0,0:0:0:0:
136,194,78798,5,2,1:2:0:0:
224,165,78889,5,2,1:2:0:0:
205,255,78980,6,0,L|225:325,1,73.333330154419,2|0,1:2|0:0,0:0:0:0:
224,165,79163,6,0,B|246:138|246:138|262:128|262:128|287:99,1,91.6666626930237,2|0,1:2|0:0,0:0:0:0:
136,194,79345,6,0,B|110:184|110:184|87:182|87:182|67:173|67:173|48:172|48:172|29:167,1,109.999999427795,2|0,1:2|0:0,0:0:0:0:
316,344,79528,6,0,B|355:353|355:353|382:367|382:367|412:367|412:367|480:383|480:383|451:249|451:249|401:297,1,371.24999806881,4|0,1:0|0:0,0:0:0:0:
334,267,79801,5,0,3:0:0:0:
334,254,79870,1,0,3:0:0:0:
335,241,79938,1,0,3:0:0:0:
336,228,80007,1,0,3:0:0:0:
377,165,80075,6,0,P|390:123|377:88,1,82.4999995708466,8|0,0:0|0:0,0:0:0:0:
298,87,80212,2,0,P|285:125|298:164,1,82.4999995708466,2|0,0:0|0:0,0:0:0:0:
446,215,80349,6,0,P|489:205|513:177,1,82.4999995708466,2|0,0:0|0:0,0:0:0:0:
244,23,80486,2,0,P|204:31|178:62,1,82.4999995708466,2|0,0:0|0:0,0:0:0:0:
49,187,80623,6,0,B|101:185|138:224|138:224|123:159|123:159|124:121|124:121|108:87|108:87|91:3,1,313.499978038789,0|0,1:0|0:0,0:0:0:0:
94,3,80896,6,0,B|46:9|46:9|40:15|40:15|-26:23,1,109.999995231628,2|0,0:0|0:0,0:0:0:0:
199,153,81033,2,0,B|247:159|247:159|253:165|253:165|319:173,1,109.999995231628,2|0,0:0|0:0,0:0:0:0:
0,355,81170,6,0,P|76:362|12:267,1,247.49999871254,8|0,0:0|0:0,0:0:0:0:
18,270,81444,6,0,B|89:283|162:280|162:280|207:315|207:315|271:311|351:325,1,329.999985694885,2|0,0:0|0:0,0:0:0:0:
452,301,81717,6,0,B|551:301|531:157|431:160|323:200|340:328,1,371.24999806881,4|0,1:2|0:0,0:0:0:0:
471,169,81991,5,0,3:0:0:0:
469,156,82060,1,0,3:0:0:0:
467,143,82128,1,0,3:0:0:0:
465,130,82196,1,0,3:0:0:0:
498,64,82265,6,0,P|463:41|410:57,1,82.4999995708466,8|0,0:0|0:0,0:0:0:0:
354,2,82402,2,0,P|316:20|304:74,1,82.4999995708466,2|0,0:0|0:0,0:0:0:0:
179,247,82539,6,0,P|204:214|257:206,1,82.4999995708466,2|0,0:0|0:0,0:0:0:0:
296,139,82676,2,0,P|338:143|370:186,1,82.4999995708466,2|0,0:0|0:0,0:0:0:0:
481,384,82812,6,0,B|511:323|463:276|463:276|407:285|407:285|395:290|395:290|331:300|331:300|318:300|318:300|233:314,1,329.999985694885,0|0,1:0|0:0,0:0:0:0:
247,320,83086,6,0,B|195:313|195:313|187:316|187:316|134:309,1,109.999995231628,2|0,0:0|0:0,0:0:0:0:
12,195,83223,2,0,B|64:188|64:188|72:191|72:191|125:184,1,109.999995231628,2|0,0:0|0:0,0:0:0:0:
273,85,83360,6,0,B|317:21|317:21|250:16|250:16|237:11|237:11|168:5|168:5|156:7|156:7|97:2|97:2|130:100|130:100|166:104|166:104|177:103|177:103|208:106|208:106|217:110|217:110|241:112|241:112|268:123|268:123|298:120|298:120|332:123|332:123|348:122|348:122|400:127|400:127|413:131|413:131|462:136,1,731.499948757174,8|0,0:0|0:0,0:0:0:0:
512,86,83907,6,0,B|461:73|436:25|436:25|433:92|433:92|421:128|421:128|427:165|427:165|420:251,1,313.499978038789,2|0,1:2|0:0,0:0:0:0:
495,384,84181,5,0,0:0:0:0:
503,374,84272,5,2,1:2:0:0:
428,353,84363,5,2,1:2:0:0:
353,332,84455,6,0,B|302:315|302:315|276:318|276:318|204:295,1,128.333328994115,2|0,1:2|0:0,0:0:0:0:
56,370,84637,6,0,B|96:334|96:334|106:310|106:310|162:259,1,128.333328994115,2|0,1:2|0:0,0:0:0:0:
171,93,84820,6,0,B|181:145|181:145|197:166|197:166|213:240,1,128.333328994115,2|0,1:2|0:0,0:0:0:0:
207,213,85002,6,0,L|198:255,1,27.4999988079071,2|0,0:2|0:0,0:0:0:0:
164,367,85139,1,2,1:2:0:0:
415,233,85276,1,2,1:2:0:0:
247,88,85413,6,0,L|243:107,2,18.3333325386047,2|0|0,0:0|1:0|1:0,0:0:0:0:
249,78,85550,6,0,B|289:104|289:104|374:89,1,128.333328994115,2|0,1:2|0:0,0:0:0:0:
512,0,85732,6,0,B|469:21|469:21|439:102,1,128.333328994115,2|0,1:2|0:0,0:0:0:0:
448,266,85914,6,0,B|450:218|450:218|395:152,1,128.333328994115,2|0,1:2|0:0,0:0:0:0:
171,87,86097,6,0,B|172:136|225:158|225:158|166:152|155:88|155:88|100:70|72:108|72:108|37:152|-8:133,1,384.999986982346,2|2,1:2|0:2,0:0:0:0:
0,129,86462,5,2,1:2:0:0:
22,202,86553,5,2,1:2:0:0:
44,275,86644,6,0,B|81:279|81:279|106:290|106:290|137:285|137:285|175:288,1,128.333328994115,2|0,1:2|0:0,0:0:0:0:
218,368,86827,6,0,B|255:364|255:364|280:353|280:353|311:358|311:358|349:355,1,128.333328994115,2|0,1:2|0:0,0:0:0:0:
387,230,87009,6,0,B|424:234|424:234|449:245|449:245|480:240|480:240|518:243,1,128.333328994115,2|0,1:2|0:0,0:0:0:0:
511,235,87192,6,0,L|508:200,1,27.4999988079071,2|0,0:2|0:0,0:0:0:0:
496,109,87329,1,2,1:2:0:0:
344,343,87466,1,2,1:2:0:0:
243,183,87602,6,0,L|225:182,2,18.3333325386047,2|0|0,0:0|1:0|1:0,0:0:0:0:
254,184,87739,6,0,B|265:242|265:242|262:248|262:248|274:321,1,128.333328994115,2|0,1:2|0:0,0:0:0:0:
175,251,87922,6,0,B|118:231|118:231|115:225|115:225|45:200,1,128.333328994115,2|0,1:2|0:0,0:0:0:0:
157,148,88104,6,0,B|202:108|202:108|208:108|208:108|265:61,1,128.333328994115,2|0,1:2|0:0,0:0:0:0:
399,62,88287,6,0,B|388:2|489:-16|510:77|466:131|404:147|404:147|332:171|329:254|329:254|313:158|383:141|383:141|465:168|487:258|402:301|402:301|350:321|345:379|345:379|324:325|267:315|267:315|204:304|143:220|234:130|303:190,1,1209.99998447418,2|0,1:2|0:0,0:0:0:0:
108,345,92666,6,0,P|73:328|36:326,2,75.8999941619113,0|0|0,3:0|0:0|0:0,0:0:0:0:
254,219,93761,2,0,P|209:241|159:244,2,101.199992215882,0|0|0,0:0|0:0|3:0,0:0:0:0:
432,384,95404,2,0,P|369:337|291:323,2,158.399997000732
499,279,96772,1,0,0:0:0:0:
396,160,97046,6,0,P|388:94|454:92,2,148.499989030838,0|0|0,3:0|3:0|3:0,0:0:0:0:
512,229,98141,2,0,B|476:210|432:235|448:239|411:262|371:248,1,148.499989030838,0|0,3:0|3:0,0:0:0:0:
293,302,98688,2,0,B|257:321|213:296|229:292|192:269|152:283,1,148.499989030838,2|0,3:2|0:0,0:0:0:0:
65,331,99236,2,0,B|46:348|15:345|15:345|51:384|116:373|143:321|130:274|98:250|98:250|55:220|57:155|105:120|154:127|181:156|181:156|153:153|131:170,1,527.999960998537,0|2,3:0|3:2,0:0:0:0:
511,65,101425,6,0,B|441:74|441:74|425:90|425:90|349:100,1,164.999999141693,2|0,3:2|0:0,0:0:0:0:
227,153,101836,2,0,B|297:162|297:162|313:178|313:178|389:188,1,164.999999141693,2|0,3:2|0:0,0:0:0:0:
390,179,102247,1,0,3:2:0:0:
115,2,102520,5,0,0:0:0:0:
122,13,102657,1,0,3:2:0:0:
8,203,103068,6,0,P|43:245|82:255,1,82.4999995708466,2|0,3:2|0:0,0:0:0:0:
107,320,103341,2,0,P|160:310|189:281,1,82.4999995708466,2|0,3:2|0:0,0:0:0:0:
162,210,103615,6,0,B|203:193|237:223|237:223|274:262|334:230,1,164.999999141693,2|0,3:2|0:0,0:0:0:0:
414,222,104026,2,0,B|373:205|339:235|339:235|302:274|242:242,1,164.999999141693,2|0,3:2|0:0,0:0:0:0:
362,381,104436,6,0,P|369:330|399:295,1,87.9999961853028,0|0,3:2|0:0,0:0:0:0:
509,231,104847,2,0,P|505:187|480:151,1,87.9999961853028,0|0,3:2|0:0,0:0:0:0:
491,21,105258,6,0,P|456:63|417:73,1,82.4999995708466,2|0,3:2|0:0,0:0:0:0:
392,138,105531,2,0,P|338:128|309:99,1,82.4999995708466,2|0,3:2|0:0,0:0:0:0:
281,31,105805,5,0,1:0:0:0:
305,109,105942,1,0,1:0:0:0:
199,29,106079,5,0,1:0:0:0:
218,153,106216,1,0,1:0:0:0:
121,20,106352,5,0,1:0:0:0:
115,178,106489,1,0,1:0:0:0:
43,0,106626,5,0,1:0:0:0:
6,192,106763,1,0,1:0:0:0:
216,147,106900,5,0,1:0:0:0:
256,153,106968,1,0,1:0:0:0:
296,160,107037,1,0,1:0:0:0:
336,167,107105,1,0,1:0:0:0:
376,174,107174,6,0,L|374:196,6,20.6249998927116,0|0|0|0|0|0|0,1:0|3:0|3:0|3:0|3:0|3:0|3:0,0:0:0:0:
512,276,107447,5,0,1:0:0:0:
476,255,107515,1,0,1:0:0:0:
436,260,107583,1,0,1:0:0:0:
406,287,107652,1,0,1:0:0:0:
399,327,107721,6,0,L|415:362,6,27.4999988079071,0|0|0|0|0|0|0,1:0|1:0|3:0|3:0|3:0|3:0|3:0,0:0:0:0:
285,378,108132,5,0,1:0:0:0:
36,333,108268,1,0,1:0:0:0:
328,296,108542,5,0,1:0:0:0:
24,240,108678,1,0,1:0:0:0:
377,214,108953,5,0,1:0:0:0:
12,147,109089,1,0,1:0:0:0:
421,124,109363,5,0,1:0:0:0:
2,47,109499,1,0,1:0:0:0:
164,384,109774,6,0,P|166:360|173:339,1,41.2499997854233,2|0,0:0|0:0,0:0:0:0:
250,266,109911,6,0,P|249:243|236:212,1,54.9999976158142,2|0,0:0|0:0,0:0:0:0:
119,144,110048,6,0,P|127:103|144:73,1,68.7499970197678,2|0,0:0|0:0,0:0:0:0:
279,0,110185,5,2,1:2:0:0:
267,9,110732,6,0,P|289:43|286:3,2,109.999995231628
381,106,111964,5,0,1:2:0:0:
380,113,112032,1,0,1:2:0:0:
437,61,112101,6,0,B|447:46|436:25|440:14|440:14|415:39|381:25|370:131|436:168|442:147|475:202|445:267,1,329.999985694885,4|0,1:2|0:0,0:0:0:0:
478,344,112374,6,0,B|488:334|488:334|451:309|451:309|451:305|451:305|408:311|408:311|403:314|403:314|285:332,1,230.99998293686,0|0,1:0|0:0,0:0:0:0:
145,372,112648,2,0,B|149:376|149:376|188:366|188:366|192:368|192:368|208:327|208:327|208:322|208:322|229:266,1,153.999988624573,8|0,0:0|0:0,0:0:0:0:
154,160,112853,5,2,0:0:0:0:
154,160,112922,2,0,B|104:121|104:121|82:181,1,126.499996929169,0|0,1:0|0:0,0:0:0:0:
395,205,113195,6,0,L|387:134,1,54.9999976158142,8|0,0:0|0:0,0:0:0:0:
381,82,113332,1,0,0:0:0:0:
189,43,113469,6,0,B|216:11|261:15|261:15|263:12|263:12|287:76|360:87,1,214.499980882646,0|0,1:0|0:0,0:0:0:0:
493,209,113743,6,0,B|524:191|540:140|469:81|394:152|409:222,1,230.99998293686,8|0,0:0|0:0,0:0:0:0:
324,344,114017,6,0,B|387:341|387:341|407:350|407:350|482:360,1,153.999988624573,0|0,1:0|0:0,0:0:0:0:
314,249,114222,5,0,0:0:0:0:
314,249,114290,2,0,B|248:231|248:231|240:241|240:241|156:265,1,153.999988624573,8|0,0:0|0:0,0:0:0:0:
5,137,114564,5,0,1:0:0:0:
201,160,114701,1,0,0:0:0:0:
201,160,114769,1,0,0:0:0:0:
201,160,114838,1,8,0:0:0:0:
33,273,114975,1,0,0:0:0:0:
143,61,115112,5,0,1:0:0:0:
152,59,115180,1,0,0:0:0:0:
161,57,115248,2,0,L|243:82,1,65.9999951248171
341,201,115385,5,8,0:0:0:0:
343,192,115453,1,0,0:0:0:0:
345,183,115522,2,0,L|320:101,1,65.9999951248171
309,6,115659,5,0,1:0:0:0:
475,75,115796,1,0,0:0:0:0:
475,75,115864,1,0,0:0:0:0:
475,75,115933,2,0,B|481:45|481:45|419:67|419:67|425:113,1,142.999987255097,8|0,0:0|0:0,0:0:0:0:
433,224,116138,5,0,0:0:0:0:
442,232,116206,2,0,B|476:221|476:221|507:238,1,71.4999936275486,0|0,1:0|0:0,0:0:0:0:
440,324,116343,2,0,B|474:335|474:335|505:317,1,71.4999936275486
331,270,116480,5,8,0:0:0:0:
284,247,116549,1,0,0:0:0:0:
253,284,116617,1,0,0:0:0:0:
234,272,116685,1,0,0:0:0:0:
186,305,116754,6,0,B|154:286|147:243|147:243|127:209|83:203,1,153.999988624573,0|0,1:0|0:0,0:0:0:0:
0,118,116959,5,0,0:0:0:0:
0,118,117028,2,0,B|16:100|16:100|68:92,1,76.9999943122866,8|0,0:0|0:0,0:0:0:0:
187,74,117164,1,0,0:0:0:0:
366,207,117301,6,0,B|370:173|411:146|411:146|371:130|357:97,1,153.999988624573,0|0,1:0|0:0,0:0:0:0:
292,212,117507,5,0,0:0:0:0:
292,212,117575,2,0,B|278:179|238:163|238:163|279:136|283:102,1,153.999988624573,8|0,0:0|0:0,0:0:0:0:
316,15,117780,5,0,0:0:0:0:
316,15,117849,1,0,1:0:0:0:
454,223,117986,1,0,0:0:0:0:
315,9,118123,5,8,0:0:0:0:
334,274,118259,1,0,0:0:0:0:
314,3,118396,5,0,1:0:0:0:
207,241,118533,1,0,0:0:0:0:
314,2,118670,5,8,0:0:0:0:
335,295,118806,1,0,0:0:0:0:
492,45,118944,6,0,L|483:59,1,13.7499994039536,0|0,1:0|0:0,0:0:0:0:
512,161,119081,6,0,L|356:128,1,109.999995231628,2|0,0:0|0:0,0:0:0:0:
186,137,119217,5,8,0:0:0:0:
168,71,119286,1,2,3:2:0:0:
233,54,119354,1,2,3:2:0:0:
251,119,119423,1,2,3:2:0:0:
192,142,119491,5,0,1:2:0:0:
192,87,119560,1,2,3:2:0:0:
246,88,119628,1,2,3:2:0:0:
246,142,119697,1,2,3:2:0:0:
201,147,119765,5,8,0:0:0:0:
212,105,119834,1,2,3:2:0:0:
254,116,119902,1,2,3:2:0:0:
243,158,119970,1,2,3:2:0:0:
174,176,120039,6,0,B|116:179|84:150|84:150|79:162|79:162|5:152|-8:247|65:257|65:257|79:253,1,288.749990236759,0|0,1:0|0:0,0:0:0:0:
184,294,120312,5,8,0:0:0:0:
200,311,120380,1,2,3:2:0:0:
209,333,120448,1,2,3:2:0:0:
209,357,120517,1,2,3:2:0:0:
318,355,120586,5,0,1:2:0:0:
314,366,120654,1,2,3:2:0:0:
307,375,120722,1,2,3:2:0:0:
296,382,120791,1,2,3:2:0:0:
408,378,120860,6,0,B|409:375|409:375|448:368|448:368|446:370|446:370|470:383|475:389|475:389|478:383|457:331|457:331|454:331|454:331|436:286|438:282|438:282|444:272|444:272|448:269|448:269|445:265|445:265|457:195,1,288.749990236759,8|2,0:0|3:2,0:0:0:0:
457,18,121133,6,0,B|519:72|519:72|455:76|455:76|423:84|423:84|396:80|396:80|315:87,1,288.749990236759,4|0,1:0|0:0,0:0:0:0:
61,85,121407,6,0,B|16:121|16:121|44:123|44:123|52:121|52:121|97:125|97:125|103:127|103:127|163:132,1,192.499993491173,8|0,0:0|0:0,0:0:0:0:
310,94,121612,1,0,0:0:0:0:
310,94,121681,6,0,B|317:50|317:50|321:44|321:44|328:-3,1,96.2499967455864,0|0,1:0|0:0,0:0:0:0:
147,138,121818,2,0,B|153:182|153:182|157:188|157:188|164:232,1,96.2499967455864
373,287,121955,6,0,B|300:246|239:305|239:305|173:369|80:301,1,288.749990236759,8|0,0:0|0:0,0:0:0:0:
31,360,122228,2,0,B|81:324|81:324|67:198,1,181.499993863106,0|0,1:0|0:0,0:0:0:0:
22,31,122434,5,0,0:0:0:0:
22,31,122502,2,0,P|47:65|102:81,1,96.2499967455864,8|0,0:0|0:0,0:0:0:0:
152,147,122639,2,0,P|193:142|235:102,1,96.2499967455864
341,33,122776,6,0,B|298:9|298:9|249:23,1,96.2499967455864,0|0,1:0|0:0,0:0:0:0:
244,104,122913,2,0,B|287:128|287:128|335:113,1,96.2499967455864
456,50,123050,6,0,P|425:87|411:140,1,96.2499967455864,8|0,0:0|0:0,0:0:0:0:
252,202,123186,2,0,P|283:239|297:292,1,96.2499967455864
464,351,123323,6,0,B|540:351|525:239|447:241|364:272|377:371,1,288.749990236759,0|0,1:0|0:0,0:0:0:0:
381,378,123597,6,0,L|317:374,3,36.6666650772095,8|0|0|0,0:0|0:0|0:0|0:0,0:0:0:0:
320,303,123802,1,0,0:0:0:0:
325,297,123871,6,0,B|246:250|177:317|177:317|99:390|17:321,1,329.999985694885,0|0,1:0|0:0,0:0:0:0:
1,73,124144,2,0,B|62:35|116:81|116:81|110:134|110:134|101:159|101:159|103:186|103:186|93:266,1,288.749990236759,8|0,0:0|0:0,0:0:0:0:
90,250,124418,6,0,B|163:256|163:256|180:266|180:266|253:273,1,164.999999141693,0|0,1:0|0:0,0:0:0:0:
263,282,124623,1,0,0:0:0:0:
263,282,124692,6,0,P|302:259|316:198,1,96.2499967455864,8|0,0:0|0:0,0:0:0:0:
400,181,124829,2,0,P|399:135|353:93,1,96.2499967455864
194,22,124966,6,0,P|175:63|200:121,1,96.2499967455864,0|0,1:0|0:0,0:0:0:0:
275,114,125103,2,0,P|293:72|268:14,1,96.2499967455864
107,98,125239,6,0,P|151:92|200:131,1,96.2499967455864,8|0,0:0|0:0,0:0:0:0:
206,223,125376,5,0,0:0:0:0:
194,290,125445,6,0,L|228:288,1,27.4999988079071
183,356,125513,6,0,B|309:347|309:347|342:360|342:360|468:351,1,288.749990236759,0|0,1:0|0:0,0:0:0:0:
477,358,125787,2,0,P|409:298|410:187,1,192.499993491173,8|0,0:0|0:0,0:0:0:0:
509,73,125992,5,0,0:0:0:0:
470,127,126060,1,0,1:0:0:0:
424,136,126129,1,0,0:0:0:0:
396,120,126197,1,0,0:0:0:0:
389,101,126266,1,0,0:0:0:0:
422,41,126334,6,0,B|349:0|288:59|288:59|219:125|129:55,1,288.749990236759,8|0,0:0|0:0,0:0:0:0:
154,66,126608,6,0,P|181:105|179:159,1,96.2499967455864,0|0,1:0|0:0,0:0:0:0:
45,209,126745,6,0,B|132:217|132:217|153:229|153:229|240:237,1,192.499993491173,0|0,1:0|0:0,0:0:0:0:
350,280,126950,6,0,P|243:273|230:327,1,164.999999141693,0|0,1:0|0:0,0:0:0:0:
407,361,127155,6,0,B|425:276|425:276|421:264|421:264|439:163,1,192.499993491173,0|0,1:0|0:0,0:0:0:0:
499,117,127361,6,0,B|453:94|421:125|421:125|382:158|333:123,1,164.999999141693,0|0,1:0|0:0,0:0:0:0:
344,124,127566,1,8,0:0:0:0:
403,11,127703,6,0,L|398:38,1,27.4999988079071
447,174,127840,5,2,1:2:0:0:
224,66,127977,1,0,1:0:0:0:
452,182,128250,5,2,1:2:0:0:
183,171,128387,1,0,1:0:0:0:
455,190,128661,5,2,1:2:0:0:
142,276,128798,1,0,1:0:0:0:
460,195,129071,5,2,1:2:0:0:
101,381,129208,1,0,1:0:0:0:
502,346,129482,5,2,0:0:0:0:
459,309,129550,1,2,0:0:0:0:
426,332,129619,1,0,3:0:0:0:
393,312,129687,1,0,3:0:0:0:
368,319,129756,1,0,3:0:0:0:
359,308,129824,1,0,3:0:0:0:
352,312,129893,1,0,3:0:0:0:
346,310,129961,1,2,0:0:0:0:
294,359,130029,5,2,1:2:0:0:
409,147,130166,1,0,1:0:0:0:
300,360,130440,5,2,1:2:0:0:
299,98,130577,1,0,1:0:0:0:
306,361,130851,5,2,1:2:0:0:
189,49,130987,1,0,1:0:0:0:
313,362,131261,5,2,1:2:0:0:
79,0,131398,1,0,1:0:0:0:
0,127,131535,5,2,0:0:0:0:
11,142,131603,1,2,0:0:0:0:
33,153,131671,1,0,1:0:0:0:
68,145,131740,1,0,1:0:0:0:
93,108,131808,1,0,3:0:0:0:
145,99,131876,1,0,3:0:0:0:
186,139,131945,1,0,3:0:0:0:
169,203,132013,1,0,3:0:0:0:
96,206,132082,1,0,3:0:0:0:
148,30,132219,6,0,P|151:59|151:88,1,57.7499957342149,2|0,1:2|0:0,0:0:0:0:
68,273,132356,2,0,P|45:290|20:305,1,57.7499957342149,0|0,1:0|0:0,0:0:0:0:
157,30,132630,6,0,P|176:56|191:83,1,63.2499984645844,2|0,1:2|0:0,0:0:0:0:
218,312,132767,2,0,P|205:341|189:368,1,63.2499984645844,0|0,1:0|0:0,0:0:0:0:
164,25,133040,6,0,P|195:39|225:57,1,68.7499970197678,2|0,1:2|0:0,0:0:0:0:
369,271,133177,2,0,P|372:306|371:340,1,68.7499970197678,0|0,1:0|0:0,0:0:0:0:
168,15,133451,6,0,P|202:12|242:14,1,74.2499970645905,2|0,1:2|0:0,0:0:0:0:
471,141,133588,2,0,P|495:172|512:202,1,74.2499970645905,0|0,1:0|0:0,0:0:0:0:
360,253,133725,5,2,0:0:0:0:
353,252,133793,1,2,0:0:0:0:
346,252,133861,1,2,0:0:0:0:
339,251,133930,1,2,0:0:0:0:
307,249,133998,5,2,0:0:0:0:
300,248,134066,1,2,0:0:0:0:
293,248,134134,1,2,0:0:0:0:
286,247,134203,1,2,0:0:0:0:
254,245,134272,5,2,0:0:0:0:
18,256,134409,6,0,L|70:282,1,57.7499957342149,2|0,1:2|0:0,0:0:0:0:
283,359,134546,2,0,L|231:333,1,57.7499957342149,0|0,1:0|0:0,0:0:0:0:
92,101,134820,6,0,L|128:155,1,63.2499984645844,2|0,1:2|0:0,0:0:0:0:
293,353,134957,2,0,L|258:301,1,63.2499984645844,0|0,1:0|0:0,0:0:0:0:
254,29,135230,6,0,L|259:101,1,68.7499970197678,2|0,1:2|0:0,0:0:0:0:
304,353,135367,2,0,L|299:273,1,68.7499970197678,0|0,1:0|0:0,0:0:0:0:
444,13,135641,6,0,L|411:80,1,74.2499970645905,2|0,1:2|0:0,0:0:0:0:
315,358,135778,2,0,L|351:285,1,74.2499970645905,0|0,1:0|0:0,0:0:0:0:
141,197,135914,5,2,0:0:0:0:
150,195,135982,1,2,0:0:0:0:
160,195,136050,1,2,0:0:0:0:
170,194,136119,1,2,0:0:0:0:
216,191,136187,5,2,0:0:0:0:
226,189,136257,1,2,0:0:0:0:
235,189,136325,1,2,0:0:0:0:
245,188,136393,1,2,0:0:0:0:
291,185,136462,5,2,0:0:0:0:
392,56,136599,6,0,P|406:81|413:108,1,57.7499957342149,2|0,1:2|0:0,0:0:0:0:
470,297,136736,2,0,P|478:268|477:240,1,57.7499957342149,0|0,1:0|0:0,0:0:0:0:
404,51,137009,6,0,P|404:82|395:113,1,63.2499984645844,2|0,1:2|0:0,0:0:0:0:
332,314,137146,2,0,P|352:294|369:264,1,63.2499984645844,0|0,1:0|0:0,0:0:0:0:
419,53,137420,6,0,P|404:78|375:103,1,68.7499970197678,2|0,1:2|0:0,0:0:0:0:
151,281,137557,2,0,P|178:273|212:254,1,68.7499970197678,0|0,1:0|0:0,0:0:0:0:
427,61,137831,6,0,P|401:75|358:85,1,74.2499970645905,2|0,1:2|0:0,0:0:0:0:
34,135,137967,2,0,P|62:143|106:140,1,74.2499970645905,0|0,1:0|0:0,0:0:0:0:
379,349,138104,5,2,0:0:0:0:
380,342,138173,1,2,0:0:0:0:
380,335,138241,1,2,0:0:0:0:
381,328,138310,1,2,0:0:0:0:
383,296,138378,5,2,0:0:0:0:
384,289,138446,1,2,0:0:0:0:
384,282,138515,1,2,0:0:0:0:
385,275,138583,1,2,0:0:0:0:
387,243,138652,5,2,0:0:0:0:
285,129,138789,6,0,L|228:121,1,57.7499957342149,2|0,1:2|0:0,0:0:0:0:
64,248,138925,2,0,L|121:240,1,57.7499957342149,0|0,1:0|0:0,0:0:0:0:
224,104,139199,6,0,L|287:95,1,63.2499984645844,2|0,1:2|0:0,0:0:0:0:
446,271,139336,2,0,L|383:262,1,63.2499984645844,0|0,1:0|0:0,0:0:0:0:
285,79,139610,6,0,L|217:70,1,68.7499970197678,2|0,1:2|0:0,0:0:0:0:
75,318,139747,2,0,L|143:309,1,68.7499970197678,0|0,1:0|0:0,0:0:0:0:
221,44,140020,6,0,L|294:34,1,74.2499970645905,2|0,1:2|0:0,0:0:0:0:
440,344,140157,2,0,L|290:323,1,148.499994129181,0|2,1:0|0:0,0:0:0:0:
41,76,140431,5,2,0:0:0:0:
43,146,140499,1,2,0:0:0:0:
108,170,140568,1,2,0:0:0:0:
155,118,140636,1,2,0:0:0:0:
201,66,140705,1,2,0:0:0:0:
266,90,140773,1,2,0:0:0:0:
267,158,140841,6,0,B|220:129|226:54|293:28|341:57|351:98|351:98|363:152|436:170|482:115|470:60|434:38|434:38|430:47|430:47|396:73|392:131|421:170|421:170|452:212|445:269|411:296|411:296|409:302|409:302|388:254|335:232|288:247|288:247|238:263|187:237|177:199|177:199|173:195|173:195|215:197|238:230,1,1088.99994946976,0|2,1:0|3:2,0:0:0:0:
35,384,145221,6,0,P|71:350|91:279,1,109.999995231628,0|0,1:0|0:0,0:0:0:0:
101,288,145495,2,0,P|89:239|38:187,1,109.999995231628,0|0,1:0|0:0,0:0:0:0:
253,342,145768,6,0,P|267:294|248:223,1,109.999995231628,0|0,1:0|0:0,0:0:0:0:
274,212,146042,2,0,P|240:176|169:156,1,109.999995231628,0|0,1:0|0:0,0:0:0:0:
420,196,146316,6,0,P|408:147|357:95,1,109.999995231628,0|0,1:0|0:0,0:0:0:0:
361,36,146590,2,0,P|313:21|242:40,1,109.999995231628,0|0,1:0|0:0,0:0:0:0:
0,87,146863,6,0,P|83:74|106:142,1,164.999992847443,0|0,1:0|0:0,0:0:0:0:
98,141,147137,1,0,1:0:0:0:
380,18,147411,6,0,B|345:47|345:47|339:143,1,126.499996929169,0|0,1:0|0:0,0:0:0:0:
234,8,147685,2,0,B|263:42|263:42|256:137,1,126.499996929169,0|0,1:0|0:0,0:0:0:0:
402,220,147958,6,0,P|455:189|512:211,1,126.499996929169,0|0,1:0|0:0,0:0:0:0:
184,205,148232,2,0,P|135:167|76:181,1,126.499996929169,0|0,1:0|0:0,0:0:0:0:
456,363,148506,6,0,P|394:363|356:315,1,126.499996929169,0|0,1:0|0:0,0:0:0:0:
110,339,148779,2,0,P|170:347|215:306,1,126.499996929169,0|0,1:0|0:0,0:0:0:0:
287,239,149053,6,0,P|294:215|293:240,1,68.7499970197678,0|0,1:0|1:0,0:0:0:0:
453,169,149190,1,0,1:0:0:0:
451,155,149258,1,0,1:0:0:0:
449,141,149327,1,0,1:0:0:0:
447,127,149395,1,0,1:0:0:0:
445,113,149464,1,0,1:0:0:0:
443,99,149532,1,0,1:0:0:0:
429,77,149601,6,0,P|395:84|358:108,1,68.7499970197678,2|0,1:2|0:0,0:0:0:0:
206,214,149737,5,0,1:0:0:0:
185,209,149806,1,0,1:0:0:0:
164,204,149874,1,0,1:0:0:0:
143,199,149943,1,0,1:0:0:0:
123,168,150011,6,0,P|134:143|171:113,1,68.7499970197678,2|0,1:2|0:0,0:0:0:0:
295,238,150148,5,0,1:0:0:0:
301,259,150217,1,0,1:0:0:0:
307,281,150285,1,0,1:0:0:0:
314,304,150354,1,0,1:0:0:0:
296,338,150422,6,0,P|266:341|219:322,1,74.2499970645905,2|0,1:2|0:0,0:0:0:0:
269,155,150558,5,0,1:0:0:0:
285,137,150627,1,0,1:0:0:0:
303,119,150695,1,0,1:0:0:0:
322,99,150764,1,0,1:0:0:0:
364,98,150832,6,0,P|383:124|391:179,1,82.4999995708466,2|0,1:2|0:0,0:0:0:0:
206,214,150969,5,0,1:0:0:0:
174,206,151038,1,0,1:0:0:0:
142,198,151106,1,0,1:0:0:0:
110,191,151175,1,0,1:0:0:0:
84,152,151243,5,2,1:2:0:0:
91,104,151311,1,0,1:0:0:0:
130,76,151380,1,0,1:0:0:0:
177,76,151448,1,0,1:0:0:0:
217,129,151517,5,2,1:2:0:0:
270,149,151585,1,0,1:0:0:0:
326,134,151654,1,0,1:2:0:0:
357,85,151722,1,0,1:0:0:0:
317,30,151790,5,0,1:2:0:0:
243,3,152064,6,0,L|246:37,2,32.9999975624085
127,69,152612,5,0,0:0:0:0:
127,69,152748,2,0,P|183:80|213:111,1,98.9999926872256
288,93,153022,2,0,P|307:134|300:173,1,65.9999951248171
268,219,153227,1,0,0:0:0:0:
344,218,153387,6,0,L|431:230,1,87.9999934997561
497,234,153638,6,0,L|415:246,1,65.9999951248171
257,62,153980,5,0,1:0:0:0:
248,59,154049,1,0,3:0:0:0:
240,56,154117,2,0,P|265:11|296:-1,1,82.4999995708466,0|0,3:0|3:0,0:0:0:0:
188,144,154254,5,0,1:0:0:0:
180,151,154323,1,0,3:0:0:0:
174,156,154391,2,0,P|148:111|152:77,1,82.4999995708466,0|0,3:0|3:0,0:0:0:0:
189,258,154528,5,0,1:0:0:0:
191,269,154597,1,0,3:0:0:0:
192,277,154665,2,0,P|140:277|113:256,1,82.4999995708466,0|0,3:0|3:0,0:0:0:0:
285,321,154801,5,0,1:0:0:0:
295,325,154870,1,0,3:0:0:0:
302,328,154938,2,0,P|276:372|245:385,1,82.4999995708466,0|0,3:0|3:0,0:0:0:0:
497,234,155075,5,0,1:0:0:0:
448,229,155143,1,0,1:0:0:0:
398,224,155212,1,0,1:0:0:0:
349,219,155280,1,0,1:0:0:0:
307,246,155349,5,0,1:0:0:0:
249,250,155417,1,0,1:0:0:0:
190,254,155486,1,0,1:0:0:0:
132,258,155554,1,0,1:0:0:0:
61,224,155623,5,0,1:0:0:0:
60,149,155691,1,0,1:0:0:0:
132,127,155759,1,0,1:0:0:0:
176,186,155828,1,0,1:0:0:0:
132,246,155896,6,0,L|145:301,1,56.0999979105377,4|0,1:2|0:0,0:0:0:0:
70,384,156170,6,0,B|40:361|0:367|0:367|9:358|9:358|36:295|122:303|98:334|163:337|200:284|200:284|209:293|209:293|237:272|286:280,1,404.249986331463,2|0,1:2|0:0,0:0:0:0:
452,201,156444,6,0,B|538:208|532:79|443:74|346:101|344:211,1,329.999985694885,8|0,0:0|0:0,0:0:0:0:
399,324,156717,2,0,B|349:302|329:252|329:252|297:240|297:240|285:192|235:165,1,236.499993356705,0|0,1:0|0:0,0:0:0:0:
96,174,156923,5,0,0:0:0:0:
91,184,156991,2,0,P|83:125|121:80,1,120.999998447418,8|0,0:0|0:0,0:0:0:0:
269,23,157128,6,0,P|300:51|310:90,1,82.4999995708466
223,322,157265,6,0,B|200:307|200:307|105:333|105:333|43:318|18:240|65:182|126:177|164:205,1,379.499990787506,0|0,1:0|0:0,0:0:0:0:
191,384,157539,6,0,B|241:332|314:340|314:340|332:319|332:319|402:331|457:284,1,296.999978061677,8|0,0:0|0:0,0:0:0:0:
339,102,157812,5,0,1:0:0:0:
377,203,157949,2,0,B|366:195|359:181|359:181|360:196|355:208,1,54.9999976158142
195,42,158086,5,8,0:0:0:0:
112,262,158223,2,0,B|135:245|149:215|149:215|148:248|160:273,1,120.999998447418
302,0,158360,6,0,B|321:19|321:19|323:24|323:24|376:21|408:62|408:62|416:51|416:51|419:53|419:53|439:57|439:57|441:53|441:53|445:52|445:52|467:38|467:38|470:35|470:35|464:44|464:44|454:110|454:110|460:111|460:111|456:113|456:113|463:157|463:157|460:160|460:160|465:161|465:161|453:207,1,395.999970748903,2|0,1:2|0:0,0:0:0:0:
314,353,158633,6,0,B|321:315|321:315|322:311|322:311|324:314|324:314|366:301|366:301|369:306|369:306|381:310|381:310|384:315|384:315|429:302|429:302|434:303|434:303|438:301|438:301|474:293|474:293|479:289|479:289|474:294|474:294|466:330|466:330|467:337|467:337|464:329|464:329|440:310|440:310|438:305|438:305|433:305|433:305|405:280|405:280|400:280|400:280|398:274,1,362.999995342255,8|0,0:0|0:0,0:0:0:0:
290,147,158907,6,0,P|229:140|178:173,1,123.74999935627,0|0,1:0|0:0,0:0:0:0:
98,301,159044,2,0,P|82:264|84:223,1,82.4999995708466
0,94,159181,6,0,B|61:80|61:80|99:132,1,126.499996929169,8|0,0:0|0:0,0:0:0:0:
208,251,159318,2,0,B|259:270|259:270|298:231,1,109.999995231628
456,125,159455,6,0,B|468:110|468:110|422:99|422:99|376:117|376:117|311:53|311:53|329:31|329:31|336:60|336:60|272:69,1,329.999985694885,0|0,1:0|0:0,0:0:0:0:
161,43,159728,5,8,0:0:0:0:
306,326,159865,6,0,L|251:322,1,54.9999976158142,0|0,1:0|0:0,0:0:0:0:
236,331,159934,6,0,L|181:327,1,54.9999976158142,0|0,1:0|0:0,0:0:0:0:
165,334,160002,6,0,B|70:327|70:327|48:336|48:336|66:321|66:321|111:232,1,241.999996894836,0|0,1:0|0:0,0:0:0:0:
290,147,160207,6,0,B|385:154|385:154|407:145|407:145|389:160|389:160|344:249,1,241.999996894836,0|0,1:0|0:0,0:0:0:0:
165,115,160413,6,0,B|144:107|144:107|137:61|137:61|173:90|173:90|169:113,1,137.499994039536,2|0,1:2|0:0,0:0:0:0:
395,329,160550,6,0,B|410:331|410:331|483:313|483:313|490:315|490:315|498:261|498:261|500:259|500:259|505:202|505:202|501:201|501:201|486:180|486:180|490:178|490:178|482:127|482:127|481:126|481:126|475:79|475:79|495:52|495:52|494:60|494:60|442:73|442:73|401:64,1,483.999993789673,2|8,1:2|0:0,0:0:0:0:
210,204,160960,2,0,L|221:258,1,54.9999976158142,2|0,0:0|0:0,0:0:0:0:
307,70,161097,5,0,1:0:0:0:
256,26,161165,5,2,0:0:0:0:
241,28,161234,1,0,3:0:0:0:
226,30,161302,1,0,3:0:0:0:
187,86,161371,5,8,0:0:0:0:
136,42,161439,5,2,0:0:0:0:
121,44,161508,1,0,3:0:0:0:
106,46,161576,1,0,3:0:0:0:
67,102,161645,5,0,1:0:0:0:
71,106,161713,1,2,0:0:0:0:
75,110,161781,2,0,P|112:175|107:207,1,82.4999995708466,0|0,3:0|3:0,0:0:0:0:
2,333,161918,5,8,0:0:0:0:
3,328,161986,1,2,0:0:0:0:
5,322,162054,2,0,P|42:257|73:245,1,82.4999995708466,0|0,3:0|3:0,0:0:0:0:
258,337,162192,6,0,B|350:344|350:344|362:357|362:357|453:363|453:363|428:348|428:348|402:282|402:282|407:267|407:267|385:206,1,379.499990787506,4|0,1:2|0:0,0:0:0:0:
240,101,162466,6,0,B|187:90|187:90|228:153|228:153|319:133,1,219.999990463257,12|0,0:2|0:0,0:0:0:0:
484,59,162671,5,0,0:0:0:0:
484,59,162739,2,0,B|491:34|518:19|518:19|425:33|408:121|408:121|401:74|360:51|360:51|350:36|350:36|332:27|311:25,1,362.999995342255,2|0,1:2|0:0,0:0:0:0:
130,175,163013,5,8,0:0:0:0:
143,187,163150,2,0,P|122:152|125:192,1,109.999995231628,2|0,0:0|0:0,0:0:0:0:
304,258,163287,5,0,1:0:0:0:
287,263,163424,2,0,P|327:262|290:245,1,109.999995231628,2|0,0:0|0:0,0:0:0:0:
145,367,163560,5,8,0:0:0:0:
149,349,163697,2,0,P|129:384|162:360,1,109.999995231628,2|0,0:0|0:0,0:0:0:0:
284,139,163834,6,0,B|366:151|366:151|396:176|396:176|475:189,1,203.499990402222,2|0,1:2|0:0,0:0:0:0:
440,271,164039,6,0,B|360:258|360:258|330:233|330:233|248:220,1,203.499990402222,2|0,1:2|0:0,0:0:0:0:
320,57,164245,6,0,B|402:69|402:69|432:94|432:94|511:107,1,203.499990402222,2|0,1:2|0:0,0:0:0:0:
404,353,164450,6,0,B|324:340|324:340|294:315|294:315|212:302,1,203.499990402222,2|0,1:2|0:0,0:0:0:0:
53,177,164655,6,0,B|115:174|168:218|168:218|151:175|163:138,1,203.499990402222,2|0,1:2|0:0,0:0:0:0:
95,86,164861,1,0,0:0:0:0:
69,69,164929,6,0,P|82:81|91:98,1,36.2999983156586,0|0,1:2|1:2,0:0:0:0:
71,334,165203,6,0,L|191:322,1,120.999998447418,8|0,0:0|0:0,0:0:0:0:
301,168,165340,6,0,L|266:243,1,82.4999995708466
358,332,165477,6,0,B|374:360|396:381|396:381|489:304|460:210|460:210|471:215|471:215|489:195|499:165|499:165|504:162|504:162|478:140|448:132,1,395.999970748903,2|0,1:2|0:0,0:0:0:0:
232,72,165750,6,0,B|263:91|263:91|335:80,1,109.999995231628,8|0,0:0|0:0,0:0:0:0:
442,13,165887,1,0,0:0:0:0:
327,246,166024,6,0,B|279:258|245:229|245:229|231:237|231:237|142:208|57:244|57:244|49:242|49:242|91:253|111:293|111:293|108:287|108:287|111:260,1,404.249986331463,0|0,1:0|0:0,0:0:0:0:
116,109,166298,5,8,0:0:0:0:
25,334,166435,1,0,0:0:0:0:
198,60,166571,6,0,B|272:78|272:78|303:148|303:148|377:171,1,230.99998293686,0|0,1:0|0:0,0:0:0:0:
496,10,166845,6,0,P|453:68|441:115,1,109.999995231628,8|0,0:0|0:0,0:0:0:0:
471,240,167050,5,0,0:0:0:0:
467,253,167119,6,0,L|510:248,2,43.9999967498781,0|0|0,1:0|1:0|1:0,0:0:0:0:
380,316,167393,6,0,L|262:294,1,120.999998447418,8|0,0:0|0:0,0:0:0:0:
126,369,167529,6,0,L|8:391,1,82.4999995708466
105,99,167666,6,0,B|61:253|61:253|180:236|180:236|130:170,1,362.999995342255,2|0,1:2|0:0,0:0:0:0:
223,37,167940,6,0,B|286:52|286:52|291:57|291:57|318:53|318:53|324:56|324:56|401:20|401:20|407:19|407:19|369:24|369:24|365:21|365:21|339:101|339:101|336:102|336:102|320:151,1,379.499990787506,8|0,0:0|0:0,0:0:0:0:
248,243,168214,6,0,P|261:237|272:229,1,27.4999988079071,0|0,1:0|0:0,0:0:0:0:
173,269,168419,6,0,P|161:261|149:257,1,27.4999988079071,0|0,1:0|0:0,0:0:0:0:
233,321,168624,6,0,P|233:335|235:349,1,27.4999988079071,0|0,1:0|0:0,0:0:0:0:
188,139,168761,6,0,P|191:167|190:194,1,54.9999976158142,0|0,1:0|0:0,0:0:0:0:
355,319,168966,6,0,P|330:308|307:295,1,54.9999976158142,0|0,1:0|0:0,0:0:0:0:
113,376,169172,6,0,P|135:360|159:347,1,54.9999976158142,0|0,1:0|0:0,0:0:0:0:
504,281,169309,6,0,L|518:194,1,54.9999976158142,2|0,1:2|0:0,0:0:0:0:
498,91,169446,5,0,1:0:0:0:
480,89,169514,1,0,1:0:0:0:
462,85,169583,1,0,1:0:0:0:
445,83,169651,1,0,1:0:0:0:
428,97,169720,6,0,L|441:177,1,82.4999995708466,2|0,1:2|0:0,0:0:0:0:
394,303,169856,5,0,1:0:0:0:
372,305,169924,1,0,1:0:0:0:
349,310,169993,1,0,1:0:0:0:
328,313,170061,1,0,1:0:0:0:
307,295,170130,6,0,L|321:208,1,87.9999961853028,2|0,1:2|0:0,0:0:0:0:
295,44,170267,5,0,1:0:0:0:
268,41,170335,1,0,1:0:0:0:
239,35,170404,1,0,1:0:0:0:
213,31,170472,1,0,1:0:0:0:
187,54,170541,6,0,L|201:146,1,93.4999977302551,2|0,1:2|0:0,0:0:0:0:
144,348,170677,5,0,1:0:0:0:
111,350,170745,1,0,1:0:0:0:
74,358,170814,1,0,1:0:0:0:
42,363,170882,1,0,1:0:0:0:
9,335,170951,6,0,B|-3:289|-3:289|20:243,1,98.9999926872256,2|0,1:2|0:0,0:0:0:0:
32,108,171088,5,0,1:0:0:0:
32,108,171156,1,0,1:0:0:0:
32,108,171225,6,0,B|77:120|77:120|105:163,1,98.9999926872256,2|0,1:2|1:0,0:0:0:0:
230,271,171362,5,0,1:0:0:0:
230,271,171430,1,0,1:0:0:0:
230,271,171498,6,0,L|135:258,2,97.5333250871281,2|2|2,1:2|1:2|1:2,0:0:0:0:
404,123,171772,6,0,L|499:109,2,97.5333250871281,2|2|2,1:2|1:2|1:2,0:0:0:0:
203,31,172046,5,2,1:2:0:0:
164,97,172137,1,2,1:2:0:0:
183,171,172228,1,2,1:2:0:0:
294,185,172320,5,2,1:2:0:0:
333,118,172411,1,2,1:2:0:0:
314,45,172502,1,2,1:2:0:0:
194,15,172593,5,0,1:2:0:0:
478,384,173688,6,0,B|518:346|515:280|482:244|482:244|416:249|416:249|380:258|380:258|344:254|344:254|254:261,1,371.24999806881,0|0,1:0|0:0,0:0:0:0:
167,303,173962,5,0,3:0:0:0:
169,315,174030,1,0,3:0:0:0:
181,313,174099,1,0,3:0:0:0:
179,301,174167,1,0,3:0:0:0:
132,232,174236,6,0,P|95:245|67:287,1,82.4999995708466,8|0,0:0|0:0,0:0:0:0:
221,382,174373,2,0,P|258:369|286:327,1,82.4999995708466,2|0,0:0|0:0,0:0:0:0:
0,296,174509,6,0,P|-7:336|16:384,1,96.2499967455864,2|0,0:0|0:0,0:0:0:0:
353,318,174646,2,0,P|360:277|336:229,1,96.2499967455864,2|0,0:0|0:0,0:0:0:0:
10,26,174783,5,0,1:0:0:0:
17,31,174920,2,0,L|14:64,1,27.4999988079071,2|0,0:0|0:0,0:0:0:0:
0,133,175057,6,0,L|100:121,1,96.2499967455864,2|0,0:0|0:0,0:0:0:0:
193,110,175194,2,0,L|293:98,1,96.2499967455864,2|0,0:0|0:0,0:0:0:0:
440,18,175331,6,0,B|352:-13|352:-13|363:51|363:51|377:79|377:79|376:113|376:113|396:200,1,288.749990236759,8|0,0:0|0:0,0:0:0:0:
512,297,175604,6,0,B|526:218|526:218|456:166|393:233|393:233|326:295|261:253,1,371.24999806881,2|0,0:0|0:0,0:0:0:0:
48,384,175878,6,0,B|8:346|11:280|44:244|44:244|110:249|110:249|146:258|146:258|182:254|182:254|272:261,1,371.24999806881,0|0,1:0|0:0,0:0:0:0:
383,314,176152,5,0,3:0:0:0:
381,326,176220,1,0,3:0:0:0:
369,324,176289,1,0,3:0:0:0:
371,312,176357,1,0,3:0:0:0:
418,243,176426,6,0,P|456:233|502:253,1,82.4999995708466,8|0,0:0|0:0,0:0:0:0:
336,188,176562,2,0,P|347:150|387:120,1,82.4999995708466,2|0,0:0|0:0,0:0:0:0:
512,10,176699,6,0,P|468:33|407:40,1,96.2499967455864,2|0,0:0|0:0,0:0:0:0:
261,250,176836,2,0,P|218:227|171:219,1,96.2499967455864,2|0,0:0|0:0,0:0:0:0:
41,9,176973,5,0,1:0:0:0:
33,17,177110,2,0,L|39:54,1,27.4999988079071,2|0,0:0|0:0,0:0:0:0:
130,145,177247,6,0,P|137:97|161:56,1,96.2499967455864,2|0,0:0|0:0,0:0:0:0:
31,283,177383,2,0,P|23:235|0:194,1,96.2499967455864,2|0,0:0|0:0,0:0:0:0:
178,365,177520,6,0,L|185:322,6,41.2499997854233,8|0|0|0|0|0|0,0:0|0:0|0:0|0:0|0:0|0:0|0:0,0:0:0:0:
97,384,177794,6,0,L|90:341,6,27.4999988079071
46,161,178068,6,0,B|-24:251|-24:251|58:243|58:243|91:232|91:232|135:245|135:245|169:233|169:233|266:225,1,384.999986982346,4|2,1:2|0:0,0:0:0:0:
349,143,178433,5,2,1:2:0:0:
305,206,178524,5,2,1:2:0:0:
340,274,178615,6,0,B|402:262|402:262|410:265|410:265|480:252,1,128.333328994115,2|0,1:2|0:0,0:0:0:0:
272,136,178798,6,0,B|230:88|230:88|229:79|229:79|182:25,1,128.333328994115,2|0,1:2|0:0,0:0:0:0:
187,264,178980,6,0,B|166:323|166:323|159:329|159:329|136:396,1,128.333328994115,2|0,1:2|0:0,0:0:0:0:
305,206,179163,6,0,L|267:221,1,27.4999988079071,2|0,0:0|0:0,0:0:0:0:
180,259,179300,1,2,1:2:0:0:
391,384,179436,1,2,1:2:0:0:
479,140,179573,6,0,L|483:163,2,18.3333325386047,2|0|0,0:0|1:0|1:0,0:0:0:0:
484,129,179710,6,0,P|441:82|372:65,1,128.333328994115,2|0,1:2|0:0,0:0:0:0:
325,0,179893,6,0,P|262:13|213:64,1,128.333328994115,2|0,1:2|0:0,0:0:0:0:
133,73,180075,6,0,P|113:133|133:201,1,128.333328994115,2|0,1:2|0:0,0:0:0:0:
2,257,180258,6,0,B|97:190|181:278|181:278|262:360|363:288,1,384.999986982346,2|2,1:2|0:0,0:0:0:0:
435,351,180623,5,2,1:2:0:0:
427,274,180714,5,2,1:2:0:0:
420,197,180805,6,0,P|354:203|288:245,1,128.333328994115,2|0,1:2|0:0,0:0:0:0:
287,135,180987,6,0,P|221:129|155:87,1,128.333328994115,2|0,1:2|0:0,0:0:0:0:
128,229,181170,6,0,P|62:235|-4:277,1,128.333328994115,2|0,1:2|0:0,0:0:0:0:
5,256,181352,6,0,L|11:217,1,27.4999988079071,2|0,0:0|0:0,0:0:0:0:
21,127,181489,1,2,1:2:0:0:
304,241,181626,1,2,1:2:0:0:
116,314,181763,6,0,L|120:341,2,18.3333325386047,2|0|0,0:0|1:0|1:0,0:0:0:0:
119,304,181900,6,0,P|173:337|244:334,1,128.333328994115,2|0,1:2|0:0,0:0:0:0:
312,384,182083,6,0,P|368:354|402:291,1,128.333328994115,2|0,1:2|0:0,0:0:0:0:
492,246,182265,6,0,P|494:182|456:122,1,128.333328994115,2|0,1:2|0:0,0:0:0:0:
511,19,182447,5,2,1:2:0:0:
102,131,184637,6,0,L|95:94,1,27.4999988079071,2|0,0:0|0:0,0:0:0:0:
82,35,184774,5,2,1:2:0:0:
144,327,184911,1,0,1:0:0:0:
169,87,185185,5,2,1:2:0:0:
68,268,185322,1,0,1:0:0:0:
284,6,185595,5,2,1:2:0:0:
349,347,185732,1,0,1:0:0:0:
371,58,186006,5,2,1:2:0:0:
273,288,186143,1,0,1:0:0:0:
502,249,186553,5,0,3:0:0:0:
442,192,186690,1,0,3:0:0:0:
260,384,186827,1,0,1:0:0:0:
208,144,189017,6,0,L|171:137,1,27.4999988079071,2|0,0:0|0:0,0:0:0:0:
112,124,189154,5,2,1:2:0:0:
392,264,189291,1,0,1:0:0:0:
355,129,189564,5,2,1:2:0:0:
162,249,189701,1,0,1:0:0:0:
100,48,189975,5,2,1:2:0:0:
420,337,190112,1,0,1:0:0:0:
362,56,190385,5,2,1:2:0:0:
151,322,190522,1,0,1:0:0:0:
250,145,190659,6,0,L|247:114,3,27.4999988079071,0|0|0|0,3:0|3:0|3:0|3:0,0:0:0:0:
223,218,190933,6,0,L|197:236,3,27.4999988079071,2|2|2|2,0:0|0:0|0:0|0:0,0:0:0:0:
300,204,191206,5,0,0:0:0:0:
256,192,199966,12,0,202018,0:0:0:0:
342,88,202155,6,0,B|340:55|317:32|317:32|315:40|315:40|265:114|324:196,1,239.249996930122,0|0,1:0|0:0,0:0:0:0:
423,326,202429,5,2,0:0:0:0:
492,303,202498,1,0,0:0:0:0:
492,232,202566,1,2,0:0:0:0:
423,209,202634,1,0,0:0:0:0:
394,267,202703,5,2,3:2:0:0:
427,314,202771,1,2,3:2:0:0:
482,295,202840,1,2,3:2:0:0:
482,239,202908,1,2,3:2:0:0:
430,230,202976,5,2,3:2:0:0:
403,267,203045,1,0,0:0:0:0:
430,305,203113,1,2,0:0:0:0:
474,290,203182,1,0,0:0:0:0:
468,249,203250,6,0,B|374:259|374:259|374:262|374:262|336:293|336:293|336:296|336:296|245:308,1,239.249996930122,2|0,1:2|0:0,0:0:0:0:
64,301,203524,6,0,B|42:261|42:261|71:225,1,91.2999973657227,2|0,0:0|0:0,0:0:0:0:
134,308,203661,2,0,B|162:272|162:272|141:232,1,91.2999973657227,2|0,0:0|0:0,0:0:0:0:
122,107,203798,5,2,0:0:0:0:
117,89,203867,1,2,0:0:0:0:
136,79,203935,1,2,0:0:0:0:
156,98,204004,1,2,0:0:0:0:
139,132,204072,5,2,0:0:0:0:
88,127,204140,1,2,0:0:0:0:
76,64,204209,1,2,0:0:0:0:
147,22,204277,1,2,0:0:0:0:
224,89,204345,6,0,B|435:108|435:108|362:100|344:32,1,329.999985694885,2|0,1:2|0:0,0:0:0:0:
435,14,204619,6,0,B|451:46|451:46|435:78|435:78|451:110|451:110|435:142|435:142|451:174|451:174|435:206|435:206|451:238,1,247.49999871254
387,284,204893,6,0,P|446:280|495:316,1,109.999995231628,2|0,3:2|0:0,0:0:0:0:
488,306,205098,2,0,P|428:309|379:273,1,109.999995231628,2|0,3:2|0:0,0:0:0:0:
290,308,205303,6,0,P|243:334|220:384,1,109.999995231628,2|0,3:2|0:0,0:0:0:0:
221,383,205508,2,0,P|268:357|291:307,1,109.999995231628,2|0,3:2|0:0,0:0:0:0:
317,210,205714,6,0,P|286:166|287:112,1,109.999995231628,2|0,3:2|0:0,0:0:0:0:
286,112,205919,2,0,P|317:156|317:211,1,109.999995231628,2|0,3:2|0:0,0:0:0:0:
387,283,206124,6,0,P|434:310|488:306,1,109.999995231628,2|0,3:2|0:0,0:0:0:0:
487,306,206330,2,0,P|440:279|387:284,1,109.999995231628,2|0,3:2|0:0,0:0:0:0:
286,112,206535,6,0,B|145:118|145:118|115:114|115:114|86:121|86:121|64:122|64:122|62:120|62:120|64:123|64:123|31:158|35:202|35:202|32:203|32:203|35:203|35:203|42:247|74:260|74:260|73:263|73:263|75:261|75:261|117:277|139:242|139:242|142:242|142:242|140:240|140:240|150:205|114:188,1,538.999960186006,4|0,1:2|0:0,0:0:0:0:
112,195,207082,6,0,P|135:235|198:252,1,109.999995231628,2|0,3:2|0:0,0:0:0:0:
197,260,207288,2,0,P|240:243|268:185,1,109.999995231628,2|0,3:2|0:0,0:0:0:0:
270,9,207493,6,0,P|223:9|177:55,1,109.999995231628,2|0,3:2|0:0,0:0:0:0:
171,50,207699,2,0,P|163:95|200:149,1,109.999995231628,2|0,3:2|0:0,0:0:0:0:
351,238,207904,6,0,P|374:197|357:134,1,109.999995231628,2|0,3:2|0:0,0:0:0:0:
365,132,208110,2,0,P|329:102|264:107,1,109.999995231628,2|0,3:2|0:0,0:0:0:0:
198,153,208314,5,2,3:2:0:0:
363,30,208451,1,2,3:2:0:0:
33,2,208588,1,2,3:2:0:0:
35,12,208656,1,0,0:0:0:0:
37,27,208725,6,0,B|26:84|26:84|24:84|24:84|26:86|26:86|11:164|11:164|8:165|8:165|13:164|13:164|60:202|116:191|116:191|115:188|115:188|117:191|117:191|155:180|188:148|188:148|190:151|190:151|189:148|189:148|230:101|277:93|277:93|277:90|277:90|279:92|279:92|327:84|385:120,1,538.999960186006,4|0,1:2|0:0,0:0:0:0:
355,98,209272,6,0,P|326:147|332:208,1,109.999995231628,2|0,3:2|0:0,0:0:0:0:
401,270,209477,2,0,P|458:270|507:234,1,109.999995231628,2|0,3:2|0:0,0:0:0:0:
501,244,209683,6,0,P|473:194|417:169,1,109.999995231628,2|0,3:2|0:0,0:0:0:0:
328,197,209888,2,0,P|298:246|305:307,1,109.999995231628,2|0,3:2|0:0,0:0:0:0:
301,296,210094,6,0,P|357:296|407:260,1,109.999995231628,2|0,3:2|0:0,0:0:0:0:
428,171,210299,2,0,P|400:121|344:96,1,109.999995231628,2|0,3:2|0:0,0:0:0:0:
355,98,210504,6,0,P|326:147|332:208,1,109.999995231628,2|0,3:2|0:0,0:0:0:0:
401,270,210709,2,0,P|458:270|507:234,1,109.999995231628,2|0,3:2|0:0,0:0:0:0:
408,0,210914,6,0,B|472:59|472:59|256:72,1,288.749990236759,4|0,1:2|0:0,0:0:0:0:
149,85,211188,5,2,3:2:0:0:
153,66,211257,1,2,3:2:0:0:
172,69,211325,1,2,3:2:0:0:
168,88,211393,1,2,3:2:0:0:
78,109,211462,6,0,B|14:168|14:168|92:173|92:173|125:182|125:182|163:177|163:177|230:181,1,288.749990236759,2|0,1:2|3:0,0:0:0:0:
407,169,211735,5,0,0:0:0:0:
403,150,211804,1,0,0:0:0:0:
384,153,211872,1,2,3:2:0:0:
388,172,211940,1,0,0:0:0:0:
478,193,212009,6,0,B|542:252|542:252|480:256|480:256|470:254|470:254|415:257|415:257|406:260|406:260|326:265,1,288.749990236759,2|0,1:2|3:0,0:0:0:0:
106,384,212283,6,0,P|84:354|85:286,1,96.2499967455864,2|0,0:0|0:0,0:0:0:0:
0,235,212420,2,0,P|14:200|74:167,1,96.2499967455864,2|0,3:2|0:0,0:0:0:0:
254,94,212557,5,2,0:0:0:0:
209,207,212648,5,2,0:0:0:0:
134,110,212739,5,2,0:0:0:0:
208,141,212831,5,2,0:0:0:0:
191,143,212922,5,2,0:0:0:0:
198,127,213013,5,2,0:0:0:0:
345,25,213104,6,0,L|339:93,1,68.7499970197678,2|0,1:2|0:0,0:0:0:0:
323,292,213241,1,0,0:0:0:0:
461,181,213378,6,0,B|510:173|510:173|517:167|517:167|501:211|501:211|495:216|495:216|474:259|474:259|467:252|467:252|394:235,1,247.49999871254,8|0,0:0|3:0,0:0:0:0:
259,322,213652,6,0,L|330:305,1,73.1499938153461,0|0,3:0|0:0,0:0:0:0:
171,49,213789,1,0,0:0:0:0:
171,49,213925,6,0,B|179:123|179:123|123:167,1,146.299987630692,8|0,0:0|0:0,0:0:0:0:
55,134,214131,2,0,B|47:60|47:60|103:16,1,146.299987630692
179,53,214336,6,0,B|187:127|187:127|131:171,1,146.299987630692,2|8,0:0|0:0,0:0:0:0:
48,130,214541,2,0,B|40:56|40:56|96:12,1,146.299987630692
54,222,214747,5,0,1:0:0:0:
256,192,214883,1,0,1:0:0:0:
471,218,215020,2,0,B|501:203|501:203|491:116|491:116|497:89|497:89|478:111|478:111|440:127,1,219.449981446038,8|0,0:0|0:0,0:0:0:0:
298,326,215294,6,0,B|302:321|302:321|308:325|308:325|312:320|312:320|317:324|317:324|322:319|322:319|327:323|327:323|332:318|332:318|337:323|337:323|341:317|341:317|347:322|347:322|351:316|351:316|356:321,1,82.4999964237214,0|0,1:0|0:0,0:0:0:0:
450,323,215568,6,0,B|432:302|432:302|411:320|411:320|394:299|394:299|373:316|373:316|355:295|355:295|334:313|334:313|316:292|316:292|295:309|295:309|278:288|278:288|257:306|257:306|239:285|239:285|218:303,1,329.999985694885,8|0,0:0|0:0,0:0:0:0:
93,312,215841,6,0,L|107:384,1,73.1499938153461,0|0,3:0|0:0,0:0:0:0:
310,90,215978,1,0,0:0:0:0:
310,90,216115,6,0,B|310:79|310:79|372:80|428:114|428:114|424:123,1,146.299987630692,8|0,0:0|0:0,0:0:0:0:
395,210,216320,2,0,B|395:221|395:221|333:220|277:186|277:186|281:177,1,146.299987630692
313,79,216526,6,0,B|313:68|313:68|375:69|431:103|431:103|427:112,1,146.299987630692,2|8,0:0|0:0,0:0:0:0:
392,221,216731,2,0,B|392:232|392:232|330:231|274:197|274:197|278:188,1,146.299987630692
253,3,216936,5,0,3:0:0:0:
143,128,217073,1,0,1:0:0:0:
252,377,217210,2,0,L|254:352,6,13.7499994039536,8|0|0|0|0|0|0,0:0|0:0|0:0|0:0|0:0|0:0|0:0,0:0:0:0:
184,268,217484,6,0,B|105:257|47:300|47:300|31:303|31:303|45:305|77:321|115:295,1,247.49999871254,0|0,1:0|0:0,0:0:0:0:
171,364,217758,6,0,B|183:343|183:343|148:358|148:358|159:263|159:263|167:254|167:254|150:182|150:182|176:160|176:160|169:152,1,288.749990236759
82,41,218031,6,0,L|89:114,1,73.1499938153461,8|0,0:0|0:0,0:0:0:0:
342,303,218168,1,0,0:0:0:0:
342,303,218305,6,0,B|348:295|348:295|408:290|408:290|461:257|461:257|475:258,1,146.299987630692,8|0,0:0|0:0,0:0:0:0:
440,161,218510,2,0,B|434:169|434:169|374:174|374:174|321:207|321:207|307:206,1,146.299987630692
348,319,218716,6,0,B|354:311|354:311|414:306|414:306|467:273|467:273|481:274,1,146.299987630692,0|8,0:0|0:0,0:0:0:0:
434,145,218921,2,0,B|428:153|428:153|368:158|368:158|315:191|315:191|301:190,1,146.299987630692
512,188,219126,5,0,3:0:0:0:
238,251,219263,1,0,1:0:0:0:
9,179,219400,2,0,P|42:184|50:225,1,73.1499938153461,8|0,0:0|0:0,0:0:0:0:
0,285,219537,2,0,P|-12:254|19:226,1,73.1499938153461
189,355,219674,6,0,B|242:325|242:325|78:293|78:293|116:341,1,288.749990236759,0|0,1:0|0:0,0:0:0:0:
187,188,219947,5,2,0:0:0:0:
184,199,220016,1,2,0:0:0:0:
182,211,220084,1,2,0:0:0:0:
180,223,220152,1,2,0:0:0:0:
326,250,220221,6,0,B|273:220|273:220|437:188|437:188|399:236,1,288.749990236759,0|0,1:0|0:0,0:0:0:0:
328,83,220494,5,2,0:0:0:0:
331,94,220563,1,2,0:0:0:0:
333,106,220631,1,2,0:0:0:0:
335,118,220699,1,2,0:0:0:0:
245,11,220768,6,0,B|169:46|94:30|94:30|79:39|79:39|70:39|70:39|124:57|147:108,1,288.749990236759,0|0,1:0|0:0,0:0:0:0:
28,244,221042,6,0,B|12:208|12:208|2:204|2:204|23:206|23:206|61:189|101:201|101:201|114:202|114:202|119:200|119:200|128:213|128:213|131:211|131:211|140:213|140:213|189:213|222:181,1,288.749990236759
398,114,221316,5,2,0:0:0:0:
386,130,221407,5,2,0:0:0:0:
380,112,221498,5,2,0:0:0:0:
448,173,221590,5,2,0:0:0:0:
309,141,221681,5,2,0:0:0:0:
407,39,221772,5,2,0:0:0:0:
351,279,221863,5,0,1:0:0:0:
351,279,222274,6,0,P|319:313|265:317,1,82.4999995708466,0|0,1:0|0:0,0:0:0:0:
108,232,222411,1,8,0:0:0:0:
108,232,222958,1,0,0:0:0:0:
249,165,223095,5,0,1:0:0:0:
256,161,223164,1,0,1:0:0:0:
263,158,223232,2,0,P|254:115|221:89,1,82.4999995708466,0|0,1:0|0:0,0:0:0:0:
218,13,223369,2,0,P|176:0|137:14,1,82.4999995708466,0|0,1:0|0:0,0:0:0:0:
44,151,223506,5,8,0:0:0:0:
44,151,224053,6,0,B|187:156|187:156|184:267,1,247.49999871254,0|0,1:0|0:0,0:0:0:0:
0,373,224327,2,0,B|5:229|5:229|116:232,1,247.49999871254,0|0,1:0|0:0,0:0:0:0:
260,289,224601,1,8,0:0:0:0:
260,289,224874,6,0,L|256:338,1,41.2499997854233,2|0,0:0|0:0,0:0:0:0:
330,297,225011,2,0,L|326:346,1,41.2499997854233,2|0,0:0|0:0,0:0:0:0:
400,305,225148,2,0,L|396:354,1,41.2499997854233,2|0,0:0|0:0,0:0:0:0:
487,254,225285,5,0,1:0:0:0:
478,255,225353,1,0,1:0:0:0:
469,256,225422,2,0,P|437:217|434:169,1,82.4999995708466,0|0,1:0|0:0,0:0:0:0:
511,57,225559,1,0,1:0:0:0:
503,59,225627,1,0,1:0:0:0:
486,46,225695,5,8,0:0:0:0:
330,126,225832,2,0,P|292:122|254:88,1,82.4999995708466,0|0,1:0|0:0,0:0:0:0:
254,85,226106,6,0,P|216:89|178:123,1,82.4999995708466,0|0,1:0|0:0,0:0:0:0:
105,281,226243,2,0,B|50:193|50:193|136:202|136:202|172:215|172:215|213:210|213:210|313:221,1,357.499968137743,0|0,1:0|0:0,0:0:0:0:
306,217,226654,6,0,P|324:253|322:298,1,82.4999995708466,0|0,1:0|0:0,0:0:0:0:
197,383,226790,1,8,0:0:0:0:
197,383,227064,6,0,L|203:330,1,41.2499997854233,2|0,0:0|0:0,0:0:0:0:
129,372,227201,2,0,L|135:319,1,41.2499997854233,2|0,0:0|0:0,0:0:0:0:
61,361,227338,2,0,L|67:308,1,41.2499997854233,2|0,0:0|0:0,0:0:0:0:
2,217,227475,5,0,1:0:0:0:
6,223,227543,1,0,1:0:0:0:
10,229,227612,2,0,P|57:222|83:194,1,82.4999995708466,0|0,1:0|0:0,0:0:0:0:
167,198,227748,2,0,P|184:153|173:117,1,82.4999995708466,0|0,1:0|0:0,0:0:0:0:
86,0,227885,5,8,0:0:0:0:
86,0,228433,6,0,B|194:13|194:13|218:38|218:38|336:54,1,247.49999871254,0|0,1:0|0:0,0:0:0:0:
500,95,228706,2,0,B|391:108|391:108|367:133|367:133|249:149,1,247.49999871254,0|0,1:0|0:0,0:0:0:0:
106,166,228980,1,8,0:0:0:0:
106,166,229528,5,0,0:0:0:0:
138,172,229596,1,0,0:0:0:0:
170,178,229664,5,0,1:0:0:0:
171,186,229733,1,0,1:0:0:0:
172,193,229801,2,0,P|162:229|126:257,1,82.4999995708466,0|0,1:0|0:0,0:0:0:0:
1,294,229938,1,0,1:0:0:0:
9,295,230007,1,0,1:0:0:0:
20,311,230075,5,8,0:0:0:0:
205,365,230212,2,0,P|244:356|276:323,1,82.4999995708466,0|0,1:0|0:0,0:0:0:0:
270,318,230486,6,0,P|306:296|350:300,1,82.4999995708466,0|0,1:0|0:0,0:0:0:0:
494,384,230623,2,0,B|441:350|441:350|458:198,1,206.249991059303,4|0,1:2|0:0,0:0:0:0:
469,204,230896,6,0,L|463:153,1,41.2499997854233
512,77,231033,6,0,P|494:40|443:21,1,82.4999995708466,0|0,1:0|0:0,0:0:0:0:
292,89,231170,1,8,0:0:0:0:
292,89,231444,6,0,L|298:45,1,41.2499997854233,2|0,0:0|0:0,0:0:0:0:
223,79,231581,2,0,L|229:35,1,41.2499997854233,2|0,0:0|0:0,0:0:0:0:
154,69,231717,2,0,L|160:25,1,41.2499997854233,2|0,0:0|0:0,0:0:0:0:
17,127,231854,5,0,1:0:0:0:
21,119,231923,1,0,1:0:0:0:
25,111,231991,2,0,P|70:115|99:143,1,82.4999995708466,0|0,1:0|0:0,0:0:0:0:
180,141,232128,2,0,P|199:181|189:221,1,82.4999995708466,0|0,1:0|0:0,0:0:0:0:
86,327,232265,1,8,0:0:0:0:
86,327,232539,6,0,B|116:313|144:335|144:335|174:358|216:335,1,123.74999935627
320,284,232812,6,0,B|371:353|371:353|201:335,1,247.49999871254,0|0,1:0|0:0,0:0:0:0:
41,220,233086,2,0,B|-10:289|-10:289|160:271,1,247.49999871254,0|0,1:0|0:0,0:0:0:0:
239,171,233360,1,8,0:0:0:0:
239,171,233633,6,0,L|235:222,1,41.2499997854233,2|0,0:0|0:0,0:0:0:0:
308,178,233770,2,0,L|304:229,1,41.2499997854233,2|0,0:0|0:0,0:0:0:0:
377,185,233907,2,0,L|373:236,1,41.2499997854233,2|0,0:0|0:0,0:0:0:0:
473,245,234044,5,0,1:0:0:0:
480,248,234112,1,0,1:0:0:0:
487,251,234181,2,0,P|474:293|441:309,1,82.4999995708466,0|0,1:0|0:0,0:0:0:0:
256,303,234318,1,0,1:0:0:0:
263,305,234386,1,0,1:0:0:0:
274,322,234455,5,8,0:0:0:0:
451,173,234591,2,0,P|452:132|423:104,1,82.4999995708466,0|0,1:0|0:0,0:0:0:0:
420,95,234865,6,0,P|383:125|345:124,1,82.4999995708466,0|0,1:0|0:0,0:0:0:0:
288,22,235002,5,0,1:0:0:0:
274,91,235139,1,0,1:0:0:0:
171,3,235276,5,0,1:0:0:0:
179,82,235413,1,0,1:0:0:0:
1,109,235550,5,8,0:0:0:0:
18,213,235686,1,0,1:0:0:0:
168,87,235823,5,0,1:0:0:0:
146,210,235960,1,0,1:0:0:0:
352,140,236097,5,0,1:0:0:0:
397,122,236165,1,0,1:0:0:0:
444,138,236234,1,0,1:0:0:0:
457,185,236302,1,0,1:0:0:0:
440,232,236371,6,0,L|448:281,6,41.2499997854233,0|0|0|0|0|0|0,1:0|3:0|3:0|3:0|3:0|3:0|3:0,0:0:0:0:
313,234,236644,5,0,1:0:0:0:
268,216,236712,1,0,1:0:0:0:
221,232,236781,1,0,1:0:0:0:
208,279,236849,1,0,1:0:0:0:
225,326,236918,6,0,L|217:375,6,41.2499997854233,0|0|0|0|0|0|0,1:0|3:0|3:0|3:0|3:0|3:0|3:0,0:0:0:0:
108,379,237192,6,0,B|103:339|103:339|100:335|100:335|94:290,1,82.4999995708466
35,241,237329,5,2,1:2:0:0:
306,322,237466,1,0,1:0:0:0:
356,179,237739,5,2,1:2:0:0:
38,233,237876,1,0,1:0:0:0:
18,94,238150,5,2,1:2:0:0:
353,171,238287,1,0,1:0:0:0:
381,0,238560,5,2,1:2:0:0:
21,85,238697,1,0,1:0:0:0:
21,85,238971,6,0,L|28:22,1,54.9999976158142,2|0,0:0|0:0,0:0:0:0:
93,94,239108,6,0,L|100:31,1,41.2499997854233,2|0,0:0|0:0,0:0:0:0:
165,103,239245,6,0,L|168:71,1,27.4999988079071,2|0,0:0|0:0,0:0:0:0:
237,112,239382,5,2,0:0:0:0:
147,1,239518,5,2,1:2:0:0:
47,362,239655,1,0,1:0:0:0:
284,46,239929,5,2,1:2:0:0:
42,355,240066,1,0,1:0:0:0:
404,157,240340,5,2,1:2:0:0:
37,348,240477,1,0,1:0:0:0:
469,293,240750,5,2,1:2:0:0:
32,341,240887,1,0,1:0:0:0:
32,341,241161,6,0,L|37:281,1,41.2499997854233,2|0,0:0|0:0,0:0:0:0:
170,232,241298,6,0,L|174:286,1,54.9999976158142,2|0,0:0|0:0,0:0:0:0:
317,383,241435,6,0,L|322:314,1,68.7499970197678,2|0,0:0|0:0,0:0:0:0:
479,191,241571,5,0,1:0:0:0:
479,191,242119,6,0,B|424:159|380:201|380:201|329:253|264:206,2,219.999990463257
321,149,243351,5,0,1:0:0:0:
328,83,243419,5,0,1:0:0:0:
334,16,243487,6,0,B|342:10|345:1|345:1|370:65|431:104|431:104|435:98|435:98|361:84|306:115|306:115|298:104|298:104|244:98,1,362.999995342255,8|0,0:0|0:0,0:0:0:0:
67,34,243761,6,0,B|57:20|57:20|120:52|120:52|112:57|112:57|105:103|105:103|98:110|98:110|96:149|96:149|104:144|104:144|93:210,1,268.949988136139,4|0,1:0|0:0,0:0:0:0:
16,329,244035,2,0,B|10:305|18:285|18:285|22:292|22:292|54:309|54:309|56:306|56:306|71:307|86:301|86:301|89:303|89:303|115:296|141:304,1,179.299992090759,8|0,0:0|0:0,0:0:0:0:
293,352,244240,5,2,0:0:0:0:
293,352,244309,2,0,B|325:312|319:270|319:270|326:266|326:266|319:270|319:270|286:244|235:255,1,192.499993491173,0|0,1:0|0:0,0:0:0:0:
22,129,244582,6,0,B|105:133,1,83.5999953555299,8|0,0:0|0:0,0:0:0:0:
188,137,244719,1,0,0:0:0:0:
451,60,244856,6,0,B|424:13|368:22|368:22|435:84|413:179,1,268.949988136139,0|0,1:0|0:0,0:0:0:0:
325,290,245130,6,0,B|286:290|243:250|278:156|387:182|411:256,1,252.450000420227,8|0,0:0|0:0,0:0:0:0:
490,362,245404,6,0,B|481:335|461:315|461:315|458:323|458:323|407:334|378:369,1,157.299995341415,0|0,1:0|0:0,0:0:0:0:
197,205,245609,5,0,0:0:0:0:
197,205,245677,2,0,B|183:260|183:260|193:272|193:272|210:355,1,157.299995341415,8|0,0:0|0:0,0:0:0:0:
48,349,245951,5,0,1:0:0:0:
316,240,246088,1,0,0:0:0:0:
316,240,246156,1,0,0:0:0:0:
316,240,246225,1,8,0:0:0:0:
101,98,246362,2,0,L|83:174,1,78.6499976707077
182,325,246498,5,0,1:0:0:0:
191,327,246566,1,0,0:0:0:0:
200,329,246635,2,0,L|282:304,1,84.1500001400757
466,368,246771,5,8,0:0:0:0:
468,359,246841,1,0,0:0:0:0:
470,350,246909,2,0,L|445:268,1,84.1500001400757
322,85,247046,6,0,B|349:140|349:140|344:160|344:160|417:142,1,157.299995341415,0|0,1:0|0:0,0:0:0:0:
447,51,247251,1,0,0:0:0:0:
447,51,247320,2,0,B|419:23|419:23|381:16,1,78.6499976707077,8|0,0:0|0:0,0:0:0:0:
27,72,247456,6,0,P|13:32|9:-9,1,84.1500001400757
208,136,247593,6,0,P|219:101|223:65,1,73.1499938153461,0|0,1:0|0:0,0:0:0:0:
85,226,247730,6,0,P|64:199|49:168,1,67.6499980997086
190,294,247867,6,0,P|208:269|221:241,1,62.1499974955368,8|0,0:0|0:0,0:0:0:0:
142,377,248004,6,0,P|118:361|97:342,1,56.649997068863
360,140,248141,6,0,B|380:110|380:110|372:115|372:115|319:132|319:132|313:128|313:128|326:239,1,219.999990463257,0|0,1:0|0:0,0:0:0:0:
461,346,248346,5,0,0:0:0:0:
461,346,248414,2,0,L|371:334,1,89.6499960453797,8|0,0:0|0:0,0:0:0:0:
205,307,248551,1,0,0:0:0:0:
91,97,248688,6,0,B|81:91|81:91|127:67|138:25|138:25|155:64|204:81|204:81|196:86,1,201.299987664757,0|0,1:0|0:0,0:0:0:0:
97,185,248893,5,0,0:0:0:0:
97,185,248962,2,0,B|88:190|88:190|136:206|155:247|155:247|166:203|211:179|211:179|202:174,1,201.299987664757,8|0,0:0|0:0,0:0:0:0:
18,146,249167,5,0,0:0:0:0:
18,146,249236,1,0,1:0:0:0:
259,0,249373,1,0,0:0:0:0:
12,147,249509,5,8,0:0:0:0:
321,121,249646,1,0,0:0:0:0:
6,147,249783,5,0,1:0:0:0:
276,258,249920,1,0,0:0:0:0:
0,148,250057,5,8,0:0:0:0:
342,119,250194,1,0,0:0:0:0:
119,351,250331,6,0,L|142:353,1,13.7499994039536,0|0,1:0|0:0,0:0:0:0:
46,291,250467,6,0,L|157:259,1,115.49999146843
321,205,250604,5,8,0:0:0:0:
389,194,250673,1,2,3:2:0:0:
432,247,250741,1,2,3:2:0:0:
364,258,250810,1,2,3:2:0:0:
317,222,250878,5,0,1:2:0:0:
373,223,250947,1,2,3:2:0:0:
400,270,251015,1,2,3:2:0:0:
344,269,251084,1,2,3:2:0:0:
309,238,251152,5,8,0:0:0:0:
352,247,251221,1,2,3:2:0:0:
366,288,251289,1,2,3:2:0:0:
322,279,251358,1,2,3:2:0:0:
300,251,251425,6,0,B|283:167|283:167|281:162|281:162|283:163|283:163|325:130|325:130|324:127|324:127|349:31|349:31|348:27|348:27|348:68|348:68|350:73|350:73|322:81,1,329.999985694885,0|0,1:0|0:0,0:0:0:0:
177,50,251699,5,8,0:0:0:0:
201,58,251767,1,2,3:2:0:0:
221,75,251835,1,2,3:2:0:0:
234,98,251904,1,2,3:2:0:0:
125,177,251973,5,0,1:2:0:0:
137,165,252041,1,2,3:2:0:0:
153,159,252109,1,2,3:2:0:0:
171,159,252178,1,2,3:2:0:0:
84,264,252247,6,0,B|48:251|34:202|34:202|43:225|24:287|102:322|102:322|106:329|106:329|115:307|129:294|129:294|133:296|133:296|151:283|174:279,1,329.999985694885,8|2,0:0|3:2,0:0:0:0:
338,346,252520,6,0,B|409:353|409:353|398:376|398:376|393:299|393:299|415:276|415:276|421:212,1,268.949988136139,4|0,1:0|0:0,0:0:0:0:
290,139,252794,6,0,B|279:118|277:94|277:94|308:137|348:152|348:152|361:140|361:140|381:142,1,179.299992090759,8|0,0:0|0:0,0:0:0:0:
476,89,252999,5,2,0:0:0:0:
484,96,253068,2,0,B|495:17,1,79.7499989767075,0|0,1:0|0:0,0:0:0:0:
232,7,253205,1,0,0:0:0:0:
295,258,253341,6,0,B|304:238|304:238|244:257|244:257|228:285|228:285|179:297,1,167.19999071106,8|0,0:0|0:0,0:0:0:0:
60,344,253547,5,0,0:0:0:0:
60,344,253615,2,0,B|48:299|4:279|4:279|106:260|122:161,1,268.949988136139,0|0,1:0|0:0,0:0:0:0:
57,64,253889,6,0,B|23:44|-34:58|-51:157|57:189|114:136,1,252.450000420227,8|0,0:0|0:0,0:0:0:0:
276,91,254163,6,0,B|251:77|234:57|224:33|224:33|224:61|215:87|200:107,1,157.299995341415,0|0,1:0|0:0,0:0:0:0:
354,174,254368,5,0,0:0:0:0:
354,174,254436,2,0,B|424:132|496:158|496:158|489:167|489:167|491:216|449:250,1,255.749990864754,8|0,0:0|0:0,0:0:0:0:
268,304,254710,5,0,1:0:0:0:
389,373,254847,1,0,0:0:0:0:
389,373,254915,1,0,0:0:0:0:
389,373,254984,1,8,0:0:0:0:
290,100,255121,2,0,L|261:184,1,89.6499960453797
157,358,255258,5,0,1:0:0:0:
100,353,255326,1,0,0:0:0:0:
76,302,255394,1,0,0:0:0:0:
52,251,255463,1,0,0:0:0:0:
84,204,255531,5,8,0:0:0:0:
110,167,255600,1,0,0:0:0:0:
91,126,255668,1,0,0:0:0:0:
72,86,255737,1,0,0:0:0:0:
27,82,255805,6,0,B|2:114|11:150|11:150|10:160|10:160|34:127|34:127|38:132|38:132|96:129|96:129|97:126|97:126|115:135|115:135|116:132|116:132|190:127,1,288.749990236759,0|0,1:0|0:0,0:0:0:0:
288,35,256079,6,0,B|327:63|327:63|324:110,1,96.2499967455864,8|0,0:0|0:0,0:0:0:0:
226,255,256216,2,0,B|223:211|223:211|260:184,1,89.6499960453797
468,69,256352,6,0,B|495:43|495:43|509:42|509:42|461:31|461:31|454:18|454:18|430:69|430:69|417:76|417:76|422:136,1,247.49999871254,0|0,1:0|0:0,0:0:0:0:
512,229,256626,2,0,L|378:211,1,82.4999995708466,8|0,0:0|0:0,0:0:0:0:
186,81,256763,5,0,0:0:0:0:
198,148,256832,6,0,L|158:154,1,41.2499997854233
209,215,256900,6,0,B|192:253|192:253|198:257|198:257|221:290|221:290|218:295|218:295|210:349|210:349|206:349|206:349|224:380|224:380|220:388|220:388|269:382,1,247.49999871254,0|0,1:0|0:0,0:0:0:0:
404,348,257174,5,8,0:0:0:0:
441,356,257242,5,0,0:0:0:0:
470,314,257310,5,0,0:0:0:0:
430,264,257379,5,0,0:0:0:0:
351,291,257447,6,0,P|312:269|289:231,1,89.6499960453797,0|0,1:0|0:0,0:0:0:0:
198,211,257584,6,0,P|197:175|214:143,1,73.1499938153461
188,59,257721,6,0,L|232:64,6,44.8249980226898,8|0|0|0|0|0|0,0:0|3:0|3:0|3:0|3:0|3:0|3:0,0:0:0:0:
123,25,257995,6,0,B|77:41|77:41|83:88,1,96.2499967455864,0|0,1:0|0:0,0:0:0:0:
12,153,258132,6,0,B|68:144|102:188|80:202|116:246|170:237,1,192.499993491173,0|0,1:0|0:0,0:0:0:0:
281,178,258337,6,0,B|323:164|323:164|277:275,1,164.999999141693,0|0,1:0|0:0,0:0:0:0:
201,360,258542,6,0,P|286:307|373:353,1,192.499993491173,0|0,1:0|0:0,0:0:0:0:
475,283,258748,6,0,B|447:287|447:287|443:294|443:294|427:229|427:229|439:214|439:214|445:171,1,164.999999141693,0|0,1:0|0:0,0:0:0:0:
464,64,258953,5,0,1:0:0:0:
319,45,259090,6,0,L|323:6,1,27.4999988079071
433,164,259227,5,2,1:2:0:0:
179,39,259363,1,0,1:0:0:0:
444,171,259637,5,2,1:2:0:0:
129,126,259774,1,0,1:0:0:0:
456,179,260048,5,2,1:2:0:0:
80,214,260185,1,0,1:0:0:0:
468,187,260458,5,2,1:2:0:0:
30,302,260595,1,0,1:0:0:0:
360,56,260869,5,2,0:0:0:0:
299,86,260937,1,2,0:0:0:0:
339,129,261006,1,0,3:0:0:0:
302,163,261074,1,0,3:0:0:0:
308,198,261143,1,0,3:0:0:0:
296,210,261211,1,0,3:0:0:0:
300,221,261280,1,0,3:0:0:0:
296,227,261348,1,0,0:0:0:0:
278,303,261416,5,2,1:2:0:0:
73,53,261553,1,0,1:0:0:0:
274,325,261827,5,2,1:2:0:0:
216,39,261963,1,0,1:0:0:0:
270,348,262237,5,2,1:2:0:0:
357,31,262374,1,0,1:0:0:0:
266,373,262648,5,2,1:2:0:0:
502,19,262785,1,0,1:0:0:0:
486,289,262922,5,2,0:0:0:0:
467,223,262990,1,2,0:0:0:0:
414,181,263058,1,0,1:0:0:0:
347,177,263127,1,0,1:0:0:0:
285,223,263195,5,0,3:0:0:0:
271,216,263264,1,0,3:0:0:0:
258,224,263332,1,0,3:0:0:0:
248,216,263401,1,0,3:0:0:0:
174,246,263469,6,0,P|117:222|96:174,1,109.999995231628,2|0,1:2|0:0,0:0:0:0:
109,31,263606,5,0,3:0:0:0:
158,5,263675,1,0,3:0:0:0:
211,14,263743,1,10,0:2:0:0:
246,55,263811,1,0,3:0:0:0:
244,110,263880,5,0,3:0:0:0:
268,158,263948,2,0,B|310:176|310:176|386:146,1,109.999995231628,0|2,3:0|1:2,0:0:0:0:
480,8,264085,2,0,B|443:35|443:35|431:116,1,109.999995231628,0|0,3:0|0:0,0:0:0:0:
512,271,264222,1,0,3:0:0:0:
510,259,264290,5,10,0:2:0:0:
460,235,264359,1,0,3:0:0:0:
407,249,264427,1,0,3:0:0:0:
389,301,264496,1,0,3:0:0:0:
418,353,264564,6,0,B|318:354|318:354|279:375|279:375|180:376,1,241.999996894836,2|0,1:2|0:0,0:0:0:0:
115,222,264769,1,0,0:0:0:0:
112,209,264838,6,0,P|234:200|253:302,1,241.999996894836,10|0,0:2|0:0,0:0:0:0:
69,384,265043,1,0,0:0:0:0:
80,383,265112,6,0,P|81:324|52:264,1,109.999995231628,2|0,1:2|0:0,0:0:0:0:
0,208,265248,2,0,P|-1:149|28:89,1,109.999995231628,2|0,0:0|0:0,0:0:0:0:
142,0,265385,6,0,B|200:-19|200:-19|246:20,1,123.74999935627,10|0,0:2|0:0,0:0:0:0:
217,218,265522,2,0,B|158:237|158:237|112:197,1,123.74999935627,2|0,0:0|0:0,0:0:0:0:
180,109,265659,1,2,1:2:0:0:
369,40,265795,5,0,3:0:0:0:
420,20,265864,1,0,3:0:0:0:
467,49,265932,1,10,0:2:0:0:
475,103,266001,1,0,3:0:0:0:
436,143,266069,1,0,3:0:0:0:
382,138,266138,6,0,P|339:171|324:232,1,109.999995231628,0|2,3:0|1:2,0:0:0:0:
217,218,266275,2,0,P|224:271|269:315,1,109.999995231628,0|0,3:0|0:0,0:0:0:0:
446,369,266412,5,0,3:0:0:0:
462,367,266480,1,10,0:2:0:0:
474,349,266549,1,0,3:0:0:0:
463,318,266617,1,0,3:0:0:0:
421,307,266685,1,0,3:0:0:0:
364,346,266754,6,0,B|301:312|250:358|250:358|196:410|122:363,1,241.999996894836,2|0,1:2|0:0,0:0:0:0:
62,178,266959,1,0,0:0:0:0:
60,165,267028,6,0,B|145:145|145:145|187:302,1,241.999996894836,10|0,0:2|0:0,0:0:0:0:
53,383,267233,1,0,0:0:0:0:
42,379,267301,6,0,B|27:347|27:347|65:271,1,109.999995231628,2|0,1:2|0:0,0:0:0:0:
263,263,267438,2,0,B|278:231|278:231|240:155,1,109.999995231628,2|0,0:0|0:0,0:0:0:0:
0,19,267575,6,0,P|28:60|100:73,1,123.74999935627,10|0,0:2|0:0,0:0:0:0:
168,148,267712,2,0,P|217:144|264:88,1,123.74999935627,2|0,0:0|0:0,0:0:0:0:
358,11,267849,1,2,1:2:0:0:
512,256,267986,5,0,3:0:0:0:
466,296,268054,1,0,3:0:0:0:
406,285,268123,1,10,0:2:0:0:
377,232,268191,1,0,3:0:0:0:
350,178,268259,1,0,3:0:0:0:
291,166,268328,1,0,3:0:0:0:
244,204,268396,6,0,P|196:239|126:231,1,109.999995231628,2|0,1:2|3:0,0:0:0:0:
51,111,268533,2,0,B|79:139|79:139|66:220,1,109.999995231628,0|0,0:0|3:0,0:0:0:0:
6,373,268670,5,10,0:2:0:0:
34,326,268738,1,0,3:0:0:0:
89,319,268807,1,0,3:0:0:0:
143,313,268875,1,0,3:0:0:0:
184,350,268944,6,0,P|233:376|290:357,1,109.999995231628,2|0,1:2|0:0,0:0:0:0:
374,360,269081,5,0,3:0:0:0:
383,368,269150,1,0,3:0:0:0:
392,376,269218,2,0,P|431:339|434:285,1,109.999995231628,10|0,0:2|0:0,0:0:0:0:
460,198,269354,5,0,3:0:0:0:
470,192,269423,1,0,3:0:0:0:
481,186,269491,2,0,P|458:137|408:117,1,109.999995231628,2|0,1:2|0:0,0:0:0:0:
333,66,269629,5,0,3:0:0:0:
330,54,269696,1,0,3:0:0:0:
328,43,269766,2,0,P|274:49|240:91,1,109.999995231628,10|0,0:2|0:0,0:0:0:0:
168,146,269902,5,0,3:0:0:0:
156,145,269971,1,0,3:0:0:0:
144,144,270039,2,0,P|134:196|270:218,1,219.999990463257,2|0,1:2|0:0,0:0:0:0:
158,22,270244,5,2,1:2:0:0:
165,33,270312,2,0,B|112:36|112:36|99:46|99:46|33:51,1,126.499996929169,2|2,0:0|0:0,0:0:0:0:
269,159,270449,2,0,B|321:162|321:162|334:172|334:172|400:177,1,126.499996929169,2|2,1:2|0:0,0:0:0:0:
60,228,270586,6,0,P|71:256|96:275,1,54.9999976158142,2|0,3:0|0:0,0:0:0:0:
35,276,270654,6,0,P|63:287|94:284,1,54.9999976158142,2|0,1:2|0:0,0:0:0:0:
52,327,270723,6,0,P|80:315|99:290,1,54.9999976158142,2|0,3:0|0:0,0:0:0:0:
101,351,270791,6,0,P|112:322|109:291,1,54.9999976158142,2|0,3:0|0:0,0:0:0:0:
172,316,270860,6,0,B|154:273|154:273|193:184,1,126.499996929169,2|2,1:2|3:0,0:0:0:0:
388,268,270997,2,0,B|406:311|406:311|367:400,1,126.499996929169,2|0,3:0|0:0,0:0:0:0:
250,88,271133,6,0,B|322:93|322:93|344:89|344:89|364:97|364:97|382:105|382:105|408:100|408:100|473:103|473:103|464:231,1,329.999998283386,2|0,1:2|0:0,0:0:0:0:
281,292,271339,1,2,1:2:0:0:
283,281,271407,6,0,B|284:257|284:257|291:251|291:251|293:222,1,54.9999976158142,2|0,3:0|0:0,0:0:0:0:
191,28,271544,5,2,1:2:0:0:
118,5,271612,1,0,3:0:0:0:
54,37,271681,1,0,3:0:0:0:
51,102,271749,1,2,1:2:0:0:
87,150,271818,1,0,3:0:0:0:
139,164,271886,1,0,3:0:0:0:
166,205,271955,1,2,1:2:0:0:
157,247,272023,1,0,3:0:0:0:
123,265,272091,1,0,3:0:0:0:
90,258,272160,1,0,3:0:0:0:
75,228,272228,6,0,B|86:203|91:177|91:177|108:169|108:169|112:146|124:118,1,123.74999935627,6|0,1:2|0:0,0:0:0:0:
191,28,272365,1,0,3:2:0:0:
248,4,272434,1,0,3:2:0:0:
305,28,272502,1,10,0:2:0:0:
329,85,272570,1,0,3:2:0:0:
305,142,272639,1,0,3:2:0:0:
329,199,272707,6,0,B|373:215|373:215|455:185,1,123.74999935627,0|2,3:2|1:2,0:0:0:0:
167,85,272844,2,0,B|123:69|123:69|41:99,1,123.74999935627,0|0,3:2|0:0,0:0:0:0:
0,295,272981,5,0,3:2:0:0:
17,355,273050,1,10,0:2:0:0:
72,384,273118,1,0,3:2:0:0:
131,367,273186,1,0,3:2:0:0:
160,312,273255,1,0,3:2:0:0:
143,253,273323,6,0,B|117:218|124:163|156:137|156:137|218:143|218:143|239:138|239:138|256:146|256:146|272:154|272:154|295:149|295:149|371:156,1,329.999985694885,6|0,1:2|0:0,0:0:0:0:
512,76,273597,2,0,B|410:38|410:38|423:101|423:101|442:137|442:137|439:176|439:176|457:259,1,329.999985694885,10|0,0:2|0:0,0:0:0:0:
512,384,273871,6,0,P|479:337|424:324,1,109.999995231628,2|0,1:2|0:0,0:0:0:0:
372,234,274008,2,0,P|314:239|276:280,1,109.999995231628,2|0,0:2|0:0,0:0:0:0:
76,359,274144,6,0,B|42:315|42:315|60:264,1,109.999995231628,10|0,0:2|0:0,0:0:0:0:
203,237,274281,2,0,B|237:280|237:280|218:332,1,109.999995231628,2|0,0:2|0:0,0:0:0:0:
139,298,274418,1,6,1:2:0:0:
0,153,274555,5,0,3:0:0:0:
49,110,274623,1,0,3:0:0:0:
114,122,274692,1,10,0:2:0:0:
179,134,274760,1,0,3:0:0:0:
244,146,274829,1,0,3:0:0:0:
293,103,274897,6,0,B|349:78|392:129|392:129|436:180|507:146,1,219.999990463257,0|0,3:0|3:0,0:0:0:0:
206,3,275102,1,0,0:0:0:0:
195,3,275171,5,0,3:0:0:0:
187,68,275239,1,10,0:2:0:0:
179,134,275308,1,0,3:0:0:0:
172,199,275376,1,0,3:0:0:0:
165,265,275445,1,0,3:0:0:0:
117,310,275513,6,0,B|220:316|220:316|248:337|248:337|339:341,1,219.999990463257,6|0,1:2|0:0,0:0:0:0:
505,234,275718,1,0,0:0:0:0:
503,223,275787,6,0,B|400:229|400:229|372:250|372:250|290:253,1,219.999990463257,10|2,0:2|0:0,0:0:0:0:
0,382,275992,1,0,0:0:0:0:
10,384,276060,5,2,1:2:0:0:
64,376,276129,1,0,3:0:0:0:
98,333,276197,1,0,1:0:0:0:
88,278,276266,1,0,1:0:0:0:
40,250,276334,5,10,0:2:0:0:
13,188,276403,1,0,1:0:0:0:
44,130,276471,1,0,1:0:0:0:
108,118,276539,1,0,1:0:0:0:
158,161,276608,6,0,P|198:173|260:144,1,109.999995231628,4|0,1:0|0:0,0:0:0:0:
300,6,276745,5,2,1:2:0:0:
332,17,276813,1,2,1:2:0:0:
332,50,276882,1,2,1:2:0:0:
300,60,276950,1,2,1:2:0:0:
281,33,277018,6,0,P|320:11|362:28,1,82.4999995708466,14|0,0:0|0:0,0:0:0:0:
447,95,277155,5,2,1:2:0:0:
454,133,277223,1,2,1:2:0:0:
419,153,277292,1,2,1:2:0:0:
390,126,277360,1,2,1:2:0:0:
407,90,277429,6,0,P|453:117|460:171,1,96.2499967455864,14|0,0:0|0:0,0:0:0:0:
512,278,277566,5,2,1:2:0:0:
477,306,277634,1,2,1:2:0:0:
437,282,277703,1,2,1:2:0:0:
447,238,277771,1,2,1:2:0:0:
493,234,277839,6,0,P|492:295|443:334,1,109.999995231628,14|0,0:0|0:0,0:0:0:0:
333,384,277977,5,2,1:2:0:0:
280,367,278045,1,2,1:2:0:0:
280,312,278113,1,2,1:2:0:0:
333,295,278182,1,2,1:2:0:0:
365,339,278250,5,14,0:0:0:0:
298,334,278319,1,2,1:2:0:0:
232,329,278387,1,2,1:2:0:0:
165,324,278456,1,2,1:2:0:0:
99,319,278524,6,0,P|78:281|83:248,1,73.333330154419,2|0,1:2|0:0,0:0:0:0:
0,162,278615,6,0,P|43:162|69:183,1,73.333330154419,2|0,0:0|0:0,0:0:0:0:
185,155,278706,6,0,P|162:192|131:204,1,73.333330154419,2|0,0:0|0:0,0:0:0:0:
0,360,278798,5,2,1:2:0:0:
256,192,278866,12,0,279482,0:0:0:0:
28,41,279619,5,2,0:0:0:0:
43,44,279687,1,2,0:0:0:0:
59,47,279756,1,2,0:0:0:0:
74,50,279824,1,2,0:0:0:0:
90,53,279893,5,0,1:0:0:0:
91,85,279961,1,0,3:0:0:0:
110,111,280029,1,0,1:0:0:0:
142,117,280098,1,0,1:0:0:0:
172,105,280166,5,0,1:0:0:0:
186,69,280235,1,0,3:0:0:0:
221,53,280303,1,0,1:0:0:0:
259,59,280372,1,0,1:0:0:0:
281,89,280440,6,0,P|284:130|267:176,1,82.4999995708466,0|0,1:0|0:0,0:0:0:0:
291,251,280577,2,0,P|256:274|208:282,1,82.4999995708466,0|0,1:0|1:0,0:0:0:0:
0,324,280714,6,0,B|142:334|142:334|175:361|175:361|319:370,1,329.999985694885,0|0,1:0|0:0,0:0:0:0:
512,384,280987,6,0,B|450:375|450:375|453:369|453:369|412:196|412:196|415:190|415:190|356:183,1,313.499978038789,2|0,1:2|0:0,0:0:0:0:
152,168,281261,1,10,0:2:0:0:
396,27,281398,1,0,0:0:0:0:
394,38,281466,1,0,0:0:0:0:
418,75,281535,6,0,P|445:43|491:30,1,89.6499960453797,2|0,1:2|0:0,0:0:0:0:
272,126,281672,6,0,B|255:130|255:130|233:104|233:104|266:100|266:100|276:114,1,102.299998765411
512,269,281809,6,0,B|513:278|513:278|485:253|485:253|485:244|485:244|480:252|480:252|434:265|434:265|431:270|431:270|379:257|379:257|376:253|376:253|372:254|372:254|342:238|342:238|338:240|338:240|316:236|316:236|310:224|310:224|281:231|281:231|274:238|274:238|260:237,1,306.899996296234,10|0,0:2|0:0,0:0:0:0:
53,331,282082,6,0,L|145:328,1,91.2999973657227,2|0,1:2|0:0,0:0:0:0:
303,321,282219,1,0,0:0:0:0:
50,348,282356,6,0,L|141:344,1,91.2999973657227,10|0,0:2|0:0,0:0:0:0:
299,337,282493,1,0,0:0:0:0:
46,363,282630,6,0,B|92:361|92:361|168:146,1,273.899992097168,2|0,1:2|0:0,0:0:0:0:
168,237,282904,6,0,B|133:137|133:137|116:115|116:115|92:23|92:23|46:21,1,273.899992097168,10|0,0:2|0:0,0:0:0:0:
54,186,283177,6,0,L|0:178,1,54.9999976158142,2|0,1:2|0:0,0:0:0:0:
56,199,283314,1,2,0:0:0:0:
400,163,283451,6,0,B|438:134|438:134|423:88,1,96.2499967455864,14|0,0:2|0:0,0:0:0:0:
283,129,283588,2,0,B|267:83|267:83|306:54,1,96.2499967455864
283,308,283725,5,2,1:2:0:0:
510,263,283862,2,0,B|474:265|474:265|466:269|466:269|427:267,1,82.4999995708466,0|0,1:0|1:0,0:0:0:0:
183,225,283998,1,10,0:2:0:0:
183,225,284067,1,0,1:0:0:0:
183,225,284135,1,0,1:0:0:0:
339,181,284272,5,2,1:2:0:0:
360,56,284363,1,2,1:2:0:0:
457,137,284455,1,2,1:2:0:0:
314,112,284546,5,2,1:2:0:0:
432,69,284637,1,2,1:2:0:0:
410,193,284729,1,2,1:2:0:0:
347,31,284820,5,2,1:2:0:0:
420,219,284956,1,2,1:2:0:0:
421,219,285230,6,0,B|443:220|462:204|482:206|482:206|422:171|365:197|369:228|300:233|300:233|302:245|302:245|254:253|218:229|218:229|211:240|211:240|195:202|151:186,1,450.999987331391,6|0,1:2|1:0,0:0:0:0:
30,216,285572,1,0,1:0:0:0:
30,216,285641,6,0,B|60:130|60:130|17:49,1,182.599994731445,10|0,0:0|0:0,0:0:0:0:
32,228,285846,6,0,B|109:207|109:207|121:210|121:210|170:133,1,182.599994731445,2|0,1:2|0:0,0:0:0:0:
24,245,286051,6,0,B|44:279|44:279|80:301|80:301|83:313|83:313|130:303|130:303|174:317,1,182.599994731445,2|0,1:2|0:0,0:0:0:0:
384,180,286257,6,0,B|346:189|346:189|346:191|346:191|328:184|328:184|328:180|328:180|314:202|314:202|315:205|315:205|301:222|301:222|301:225|301:225|272:228|272:228|269:226|269:226|246:244,1,182.599994731445,2|0,1:2|0:0,0:0:0:0:
262,352,286462,5,2,1:2:0:0:
208,65,286599,1,2,0:0:0:0:
173,72,286667,1,2,0:0:0:0:
167,114,286736,1,0,3:0:0:0:
214,136,286804,1,0,3:0:0:0:
255,91,286873,1,0,3:0:0:0:
220,27,286941,1,0,3:0:0:0:
133,44,287009,6,0,B|101:40|101:40|94:35|94:35|65:32,12,70.1249960238934,10|0|0|0|0|0|0|0|0|0|0|0|0,0:0|0:0|0:0|0:0|0:0|0:0|0:0|0:0|0:0|0:0|0:0|0:0|0:0,0:0:0:0:
432,179,287557,6,0,B|459:186|459:186|472:194|472:194|501:203,1,73.333330154419,2|0,1:2|0:0,0:0:0:0:
380,114,287648,6,0,B|379:98|379:98|376:88|376:88|373:80|373:80|373:72|373:72|369:56|369:56|366:41,1,73.333330154419,2|0,1:2|0:0,0:0:0:0:
350,192,287739,6,0,B|336:206|336:206|323:212|323:212|316:220|316:220|306:228|306:228|294:239,1,73.333330154419,2|0,1:2|0:0,0:0:0:0:
462,101,287831,5,2,1:2:0:0:
435,382,287967,1,2,1:2:0:0:
227,79,288104,1,2,1:2:0:0:
393,271,288241,6,0,L|492:279,1,73.333330154419,2|0,1:2|0:0,0:0:0:0:
303,286,288332,6,0,L|402:294,1,73.333330154419,2|0,1:2|0:0,0:0:0:0:
213,301,288424,6,0,L|312:309,1,73.333330154419,2|0,1:2|0:0,0:0:0:0:
123,316,288515,5,2,1:2:0:0:
237,58,288652,5,2,1:2:0:0:
266,384,288789,1,2,1:2:0:0:
36,120,288925,6,0,B|1:106|1:106|34:93,1,73.333330154419,2|0,1:2|0:0,0:0:0:0:
129,131,289017,6,0,B|135:167|135:167|106:145,1,73.333330154419,2|0,1:2|0:0,0:0:0:0:
94,41,289108,6,0,B|122:17|122:17|117:53,1,73.333330154419,2|0,1:2|0:0,0:0:0:0:
30,239,289199,5,2,1:2:0:0:
256,192,289883,12,0,292347,0:0:0:0:
383,104,292484,6,0,B|316:133|260:20|335:-27|439:-37|521:61|471:155|471:155|409:219|410:301|463:358|463:358|541:336|538:263|538:263|507:239|489:196|508:152|508:152|333:161|279:368|279:368|349:114|208:28|21:30|-30:115|-69:222|-26:330|58:346|58:346|-25:322|-102:163|133:11|252:196|208:309|142:325|142:325|104:305|94:254,1,2587.19986416138,4|0,1:0|0:0,0:0:0:0:
