osu file format v14

[General]
AudioFilename: audio.mp3
AudioLeadIn: 0
PreviewTime: 35132
Countdown: 0
SampleSet: Normal
StackLeniency: 0.7
Mode: 1
LetterboxInBreaks: 0
WidescreenStoryboard: 1

[Editor]
Bookmarks: 186,11480,17127,22774,35480,46774,58069,69363,80657,91951,103245
DistanceSpacing: 1.2
BeatDivisor: 4
GridSize: 32
TimelineZoom: 1.9

[Metadata]
Title:Exit This Earth's Estratosphere
TitleUnicode:Exit This Earth's Estratosphere
Artist:Camellia feat. Carlos Menem
ArtistUnicode:かめりあ feat. Carlos Menem
Creator:gaston_2199
Version:Oni
Source:
Tags:FA Featured Artist ginka*EX _w6 mashup argentinian meme novelty estratosfera planet//shaper drumstep kamelcamellia cametek atmosphere dnb dubstep drumstep drum and bass argentine argentina electronic spanish español _WWWWWW_WWWWWW_ Atomosphere Stratosphere かめるかめりあ CTCD-011 Atreevete
BeatmapID:2136819
BeatmapSetID:949124

[Difficulty]
HPDrainRate:5
CircleSize:2
OverallDifficulty:6
ApproachRate:10
SliderMultiplier:1.4
SliderTickRate:1

[Events]
//Background and Video events
0,0,"BG.jpg",0,0
//Break Periods
//Storyboard Layer 0 (Background)
//Storyboard Layer 1 (Fail)
//Storyboard Layer 2 (Pass)
//Storyboard Layer 3 (Foreground)
//Storyboard Layer 4 (Overlay)
//Storyboard Sound Samples

[TimingPoints]
191,352.941176470588,4,1,0,65,1,0
191,-125,4,1,0,65,0,0
2661,-123.456790123457,4,1,0,65,0,0
2749,-121.951219512195,4,1,0,65,0,0
2838,-120.481927710843,4,1,0,65,0,0
3014,-117.647058823529,4,1,0,65,0,0
5485,-116.279069767442,4,1,0,65,0,0
5573,-114.942528735632,4,1,0,65,0,0
5661,-113.636363636364,4,1,0,65,0,0
5838,-111.111111111111,4,1,0,65,0,0
8308,-109.89010989011,4,1,0,65,0,0
8396,-108.695652173913,4,1,0,65,0,0
8485,-107.52688172043,4,1,0,65,0,0
8661,-105.263157894737,4,1,0,65,0,0
11485,-100,4,1,0,80,0,0
35132,-133.333333333333,4,1,0,80,0,0
35485,-133.333333333333,4,1,0,80,0,0
37598,-133.333333333333,4,1,0,65,0,0
46426,-133.333333333333,4,1,0,80,0,0
46779,-125,4,1,0,80,0,0
47132,-125,4,1,0,75,0,0
52073,-120.481927710843,4,1,0,75,0,0
52426,-117.647058823529,4,1,0,75,0,0
55073,-114.942528735632,4,1,0,75,0,0
55249,-111.111111111111,4,1,0,75,0,0
57190,-109.89010989011,4,1,0,80,0,0
57279,-108.695652173913,4,1,0,80,0,0
57367,-107.52688172043,4,1,0,80,0,0
57455,-106.382978723404,4,1,0,80,0,0
57543,-105.263157894737,4,1,0,80,0,0
57720,-103.092783505155,4,1,0,80,0,0
57808,-102.040816326531,4,1,0,80,0,0
57896,-101.010101010101,4,1,0,80,0,0
58073,-100,4,1,0,80,0,0
58426,-111.111111111111,4,1,0,80,0,0
60896,-105.263157894737,4,1,0,80,0,0
63720,-100,4,1,0,80,0,0
69367,-100,4,1,0,90,0,1
91955,-100,4,1,0,80,0,0
103249,-100,4,1,0,65,0,0
103602,-105.263157894737,4,1,0,65,0,0
105720,-106.382978723404,4,1,0,65,0,0
105808,-107.52688172043,4,1,0,65,0,0
105896,-108.695652173913,4,1,0,65,0,0
106073,-111.111111111111,4,1,0,65,0,0
108543,-112.359550561798,4,1,0,65,0,0
108632,-113.636363636364,4,1,0,65,0,0
108720,-114.942528735632,4,1,0,65,0,0
108896,-117.647058823529,4,1,0,65,0,0
111367,-119.047619047619,4,1,0,65,0,0
111455,-120.481927710843,4,1,0,65,0,0
111543,-121.951219512195,4,1,0,65,0,0
111720,-125,4,1,0,65,0,0
113304,-125,4,1,0,50,0,0

[HitObjects]
256,192,191,5,0,0:0:0:0:
256,192,543,1,0,0:0:0:0:
256,192,896,1,0,0:0:0:0:
256,192,1249,1,0,0:0:0:0:
256,192,1602,1,0,0:0:0:0:
256,192,1955,1,0,0:0:0:0:
255,172,2132,1,8,0:0:0:0:
256,192,2308,1,8,0:0:0:0:
256,192,2485,1,0,0:0:0:0:
256,192,2661,1,8,0:0:0:0:
256,192,2749,1,8,0:0:0:0:
256,192,2838,1,8,0:0:0:0:
256,192,3014,1,0,0:0:0:0:
256,192,3367,1,0,0:0:0:0:
256,192,3720,1,0,0:0:0:0:
256,192,4073,1,0,0:0:0:0:
256,192,4426,1,0,0:0:0:0:
256,192,4779,1,0,0:0:0:0:
256,192,4955,1,8,0:0:0:0:
256,192,5132,1,0,0:0:0:0:
256,192,5308,1,8,0:0:0:0:
256,192,5485,1,0,0:0:0:0:
256,192,5573,1,0,0:0:0:0:
256,192,5661,1,8,0:0:0:0:
256,192,5838,1,0,0:0:0:0:
256,192,6190,1,0,0:0:0:0:
256,192,6367,1,0,0:0:0:0:
256,192,6543,1,0,0:0:0:0:
256,192,6896,1,0,0:0:0:0:
256,192,7073,1,0,0:0:0:0:
256,192,7249,1,0,0:0:0:0:
256,192,7602,1,0,0:0:0:0:
256,192,7779,1,8,0:0:0:0:
256,192,7955,1,8,0:0:0:0:
256,192,8132,1,0,0:0:0:0:
256,192,8308,1,8,0:0:0:0:
256,192,8396,1,8,0:0:0:0:
256,192,8485,1,8,0:0:0:0:
256,192,8661,1,0,0:0:0:0:
256,192,9014,1,0,0:0:0:0:
256,192,9190,1,0,0:0:0:0:
256,192,9367,1,0,0:0:0:0:
256,192,9720,1,0,0:0:0:0:
256,192,9896,1,0,0:0:0:0:
281,159,10073,1,0,0:0:0:0:
386,52,10426,1,8,0:0:0:0:
281,159,10602,1,0,0:0:0:0:
281,159,10779,1,8,0:0:0:0:
269,106,11132,1,0,0:0:0:0:
269,106,11308,1,8,0:0:0:0:
256,192,11485,5,4,0:0:0:0:
256,192,11661,1,0,0:0:0:0:
256,192,11838,1,8,0:0:0:0:
256,160,12014,1,0,0:0:0:0:
256,160,12279,1,0,0:0:0:0:
256,192,12367,1,8,0:0:0:0:
256,160,12455,1,8,0:0:0:0:
256,192,12632,1,0,0:0:0:0:
256,192,12720,1,8,0:0:0:0:
256,192,12896,1,0,0:0:0:0:
256,160,13073,1,8,0:0:0:0:
256,160,13249,1,8,0:0:0:0:
256,160,13426,1,0,0:0:0:0:
256,160,13690,1,8,0:0:0:0:
256,160,13779,1,0,0:0:0:0:
256,160,13867,1,8,0:0:0:0:
256,160,14043,1,8,0:0:0:0:
256,160,14132,1,0,0:0:0:0:
256,160,14308,1,0,0:0:0:0:
256,192,14485,1,0,0:0:0:0:
256,192,14661,1,8,0:0:0:0:
256,192,14838,1,0,0:0:0:0:
256,160,15102,1,0,0:0:0:0:
256,192,15190,1,8,0:0:0:0:
256,192,15279,1,0,0:0:0:0:
256,192,15455,1,0,0:0:0:0:
256,192,15543,1,8,0:0:0:0:
256,192,15720,1,0,0:0:0:0:
256,160,15896,1,8,0:0:0:0:
256,160,16073,1,8,0:0:0:0:
256,160,16249,1,0,0:0:0:0:
256,160,16602,1,0,0:0:0:0:
256,160,16690,1,8,0:0:0:0:
256,128,16867,1,8,0:0:0:0:
245,117,17043,1,0,0:0:0:0:
256,192,17132,1,0,0:0:0:0:
256,192,17308,1,0,0:0:0:0:
256,192,17485,1,8,0:0:0:0:
256,160,17661,1,0,0:0:0:0:
256,160,17926,1,0,0:0:0:0:
256,192,18014,1,8,0:0:0:0:
256,160,18102,1,8,0:0:0:0:
256,192,18279,1,0,0:0:0:0:
256,192,18367,1,8,0:0:0:0:
256,192,18543,1,0,0:0:0:0:
256,160,18720,1,8,0:0:0:0:
256,160,18896,1,8,0:0:0:0:
256,160,19073,1,0,0:0:0:0:
256,160,19338,1,8,0:0:0:0:
256,160,19426,1,0,0:0:0:0:
256,160,19514,1,8,0:0:0:0:
256,160,19690,1,8,0:0:0:0:
256,160,19779,1,0,0:0:0:0:
256,160,19955,1,0,0:0:0:0:
256,192,20132,1,0,0:0:0:0:
256,192,20308,1,8,0:0:0:0:
256,192,20485,1,0,0:0:0:0:
256,160,20749,1,0,0:0:0:0:
256,192,20838,1,8,0:0:0:0:
256,192,20926,1,0,0:0:0:0:
256,192,21102,1,0,0:0:0:0:
256,192,21190,1,8,0:0:0:0:
256,192,21367,1,0,0:0:0:0:
256,160,21543,1,0,0:0:0:0:
214,49,21632,1,0,0:0:0:0:
256,160,21720,1,8,0:0:0:0:
256,160,21896,1,0,0:0:0:0:
214,49,22073,1,0,0:0:0:0:
236,98,22161,1,8,0:0:0:0:
256,160,22249,1,0,0:0:0:0:
256,160,22338,1,0,0:0:0:0:
249,153,22426,1,8,0:0:0:0:
256,160,22602,1,0,0:0:0:0:
256,160,22779,1,12,0:0:0:0:
256,160,23132,1,8,0:0:0:0:
256,160,23485,1,8,0:0:0:0:
256,160,23838,1,8,0:0:0:0:
256,160,24190,1,8,0:0:0:0:
256,160,24543,1,8,0:0:0:0:
256,160,24896,1,8,0:0:0:0:
256,160,25249,1,8,0:0:0:0:
256,160,25602,1,8,0:0:0:0:
256,160,25779,1,8,0:0:0:0:
256,160,25955,1,8,0:0:0:0:
261,135,26132,1,8,0:0:0:0:
256,160,26308,1,8,0:0:0:0:
256,160,26485,1,8,0:0:0:0:
256,160,26661,1,8,0:0:0:0:
261,135,26838,1,8,0:0:0:0:
256,160,27014,1,8,0:0:0:0:
256,160,27190,1,8,0:0:0:0:
256,160,27367,1,8,0:0:0:0:
261,135,27543,1,8,0:0:0:0:
256,160,27720,1,8,0:0:0:0:
256,160,27896,1,8,0:0:0:0:
256,160,28073,1,8,0:0:0:0:
261,135,28249,1,8,0:0:0:0:
256,160,28426,1,8,0:0:0:0:
256,160,28602,1,8,0:0:0:0:
256,160,28690,1,0,0:0:0:0:
256,160,28779,1,8,0:0:0:0:
256,160,28955,1,0,0:0:0:0:
256,160,29132,1,8,0:0:0:0:
256,160,29308,1,0,0:0:0:0:
256,160,29396,1,0,0:0:0:0:
256,160,29485,1,8,0:0:0:0:
256,160,29661,1,0,0:0:0:0:
256,160,29838,1,8,0:0:0:0:
256,160,30014,1,8,0:0:0:0:
256,160,30102,1,0,0:0:0:0:
256,160,30190,1,8,0:0:0:0:
256,160,30367,1,0,0:0:0:0:
256,160,30543,1,8,0:0:0:0:
256,160,30720,1,0,0:0:0:0:
256,160,30808,1,0,0:0:0:0:
256,160,30896,1,8,0:0:0:0:
256,160,31073,1,0,0:0:0:0:
256,160,31249,1,8,0:0:0:0:
253,131,31338,1,0,0:0:0:0:
256,160,31426,1,0,0:0:0:0:
256,160,31514,1,0,0:0:0:0:
256,160,31602,1,8,0:0:0:0:
256,160,31779,1,0,0:0:0:0:
256,160,31955,1,8,0:0:0:0:
256,160,32043,1,0,0:0:0:0:
256,160,32132,1,0,0:0:0:0:
256,160,32220,1,0,0:0:0:0:
256,160,32308,1,8,0:0:0:0:
256,160,32396,1,0,0:0:0:0:
256,160,32485,1,8,0:0:0:0:
256,192,32661,12,0,33896,0:0:0:0:
256,160,34073,5,4,0:0:0:0:
256,160,35132,1,0,0:0:0:0:
256,160,35485,1,12,0:0:0:0:
256,160,37602,1,8,0:0:0:0:
256,160,37779,1,0,0:0:0:0:
256,160,37955,1,8,0:0:0:0:
256,160,38132,1,0,0:0:0:0:
256,160,38485,1,0,0:0:0:0:
256,160,38661,1,8,0:0:0:0:
256,160,40426,1,0,0:0:0:0:
256,160,40779,1,8,0:0:0:0:
256,160,41132,1,0,0:0:0:0:
256,160,42190,1,8,0:0:0:0:
256,160,42367,1,0,0:0:0:0:
256,160,43426,1,8,0:0:0:0:
256,160,43602,1,8,0:0:0:0:
256,160,43779,1,0,0:0:0:0:
256,160,46426,1,0,0:0:0:0:
256,160,46779,1,12,0:0:0:0:
256,160,47132,1,0,0:0:0:0:
256,160,47485,1,0,0:0:0:0:
256,160,47838,1,0,0:0:0:0:
256,160,48190,1,0,0:0:0:0:
256,160,48543,1,0,0:0:0:0:
256,160,48896,1,8,0:0:0:0:
256,160,49073,1,0,0:0:0:0:
256,160,49249,1,8,0:0:0:0:
256,160,49426,1,0,0:0:0:0:
256,160,49779,1,0,0:0:0:0:
256,160,49955,1,8,0:0:0:0:
256,160,50308,1,0,0:0:0:0:
256,160,50661,1,0,0:0:0:0:
256,160,51014,1,0,0:0:0:0:
256,160,51367,1,0,0:0:0:0:
256,160,51720,1,0,0:0:0:0:
256,160,52073,1,8,0:0:0:0:
256,160,52426,1,0,0:0:0:0:
256,160,52779,1,0,0:0:0:0:
256,160,52955,1,8,0:0:0:0:
256,160,53132,1,0,0:0:0:0:
256,160,53485,1,8,0:0:0:0:
256,160,53661,1,0,0:0:0:0:
256,160,53838,1,0,0:0:0:0:
256,160,54190,1,0,0:0:0:0:
256,160,54367,1,8,0:0:0:0:
256,160,54543,1,0,0:0:0:0:
256,160,54896,1,8,0:0:0:0:
256,160,55073,1,8,0:0:0:0:
256,160,55249,1,0,0:0:0:0:
224,160,55602,1,0,0:0:0:0:
224,160,55779,1,8,0:0:0:0:
224,160,55867,1,0,0:0:0:0:
224,160,56043,1,8,0:0:0:0:
256,160,56308,1,8,0:0:0:0:
256,160,56485,1,0,0:0:0:0:
223,73,56573,1,0,0:0:0:0:
256,32,56661,1,8,0:0:0:0:
256,160,56838,1,0,0:0:0:0:
256,160,57014,1,8,0:0:0:0:
256,160,57190,1,0,0:0:0:0:
256,160,57279,1,8,0:0:0:0:
256,160,57367,1,0,0:0:0:0:
236,112,57455,1,0,0:0:0:0:
256,160,57543,1,8,0:0:0:0:
256,160,57720,1,8,0:0:0:0:
256,160,57808,1,8,0:0:0:0:
256,160,57896,1,8,0:0:0:0:
256,160,58073,1,4,0:0:0:0:
256,128,58426,1,0,0:0:0:0:
256,128,58779,1,8,0:0:0:0:
256,128,58955,1,0,0:0:0:0:
256,128,59132,1,8,0:0:0:0:
256,128,59308,1,8,0:0:0:0:
256,128,59485,1,0,0:0:0:0:
256,128,59838,1,0,0:0:0:0:
256,128,60190,1,8,0:0:0:0:
256,128,60367,1,8,0:0:0:0:
256,128,60543,1,8,0:0:0:0:
256,128,60896,1,0,0:0:0:0:
256,128,61073,1,8,0:0:0:0:
256,128,61249,1,0,0:0:0:0:
256,128,61602,1,8,0:0:0:0:
256,128,61779,1,0,0:0:0:0:
256,128,61955,1,8,0:0:0:0:
256,128,62132,1,8,0:0:0:0:
256,128,62308,1,0,0:0:0:0:
249,112,62485,1,8,0:0:0:0:
256,128,62661,1,0,0:0:0:0:
256,128,63014,1,8,0:0:0:0:
256,128,63190,1,8,0:0:0:0:
256,128,63367,1,8,0:0:0:0:
256,128,63720,1,0,0:0:0:0:
256,128,63896,1,8,0:0:0:0:
256,128,64073,1,0,0:0:0:0:
288,128,64161,1,0,0:0:0:0:
288,128,64249,1,8,0:0:0:0:
256,128,64426,1,0,0:0:0:0:
256,128,64602,1,8,0:0:0:0:
256,128,64779,1,0,0:0:0:0:
256,128,64867,1,0,0:0:0:0:
256,128,64955,1,8,0:0:0:0:
256,128,65132,1,0,0:0:0:0:
256,128,65308,1,8,0:0:0:0:
256,128,65396,1,0,0:0:0:0:
256,128,65485,1,8,0:0:0:0:
256,128,65573,1,0,0:0:0:0:
256,128,65661,1,8,0:0:0:0:
256,128,65838,1,0,0:0:0:0:
256,128,66014,1,8,0:0:0:0:
256,128,66102,1,0,0:0:0:0:
256,128,66190,1,8,0:0:0:0:
256,128,66279,1,8,0:0:0:0:
256,128,66367,1,8,0:0:0:0:
96,64,66543,2,0,L|352:96,2,245
224,96,67955,1,0,0:0:0:0:
224,96,68485,1,8,0:0:0:0:
221,57,68573,1,0,0:0:0:0:
224,96,68661,1,8,0:0:0:0:
224,96,68838,1,0,0:0:0:0:
224,96,69014,1,8,0:0:0:0:
224,96,69102,1,8,0:0:0:0:
224,96,69190,1,8,0:0:0:0:
256,192,69367,5,4,0:0:0:0:
256,192,69720,1,8,0:0:0:0:
256,192,69896,1,0,0:0:0:0:
256,192,69985,1,8,0:0:0:0:
256,192,70161,1,8,0:0:0:0:
256,192,70249,1,0,0:0:0:0:
256,192,70426,1,8,0:0:0:0:
256,192,70514,1,0,0:0:0:0:
256,192,70602,1,0,0:0:0:0:
256,192,70779,1,0,0:0:0:0:
256,192,71132,1,8,0:0:0:0:
256,192,71308,1,0,0:0:0:0:
256,192,71396,1,8,0:0:0:0:
256,192,71573,1,8,0:0:0:0:
256,192,71661,1,0,0:0:0:0:
256,192,71838,1,8,0:0:0:0:
256,192,71926,1,8,0:0:0:0:
256,192,72014,1,0,0:0:0:0:
256,192,72190,1,8,0:0:0:0:
256,192,72543,1,8,0:0:0:0:
256,192,72720,1,8,0:0:0:0:
256,192,72808,1,0,0:0:0:0:
256,192,72985,1,0,0:0:0:0:
256,192,73073,1,8,0:0:0:0:
256,192,73249,1,8,0:0:0:0:
256,192,73338,1,0,0:0:0:0:
256,192,73426,1,0,0:0:0:0:
256,192,73602,1,0,0:0:0:0:
256,192,73955,1,8,0:0:0:0:
256,192,74132,1,0,0:0:0:0:
256,192,74220,1,8,0:0:0:0:
256,192,74396,1,0,0:0:0:0:
246,150,74485,1,8,0:0:0:0:
256,192,74661,1,8,0:0:0:0:
256,192,74749,1,0,0:0:0:0:
256,192,74838,1,8,0:0:0:0:
256,192,75014,5,0,0:0:0:0:
256,192,75367,1,8,0:0:0:0:
256,192,75543,1,0,0:0:0:0:
256,192,75632,1,8,0:0:0:0:
256,192,75808,1,8,0:0:0:0:
256,192,75896,1,0,0:0:0:0:
256,192,76073,1,8,0:0:0:0:
256,192,76161,1,0,0:0:0:0:
256,192,76249,1,0,0:0:0:0:
256,192,76426,1,0,0:0:0:0:
256,192,76779,1,8,0:0:0:0:
256,192,76955,1,0,0:0:0:0:
256,192,77043,1,8,0:0:0:0:
256,192,77220,1,8,0:0:0:0:
256,192,77308,1,0,0:0:0:0:
256,192,77485,1,8,0:0:0:0:
256,192,77573,1,0,0:0:0:0:
256,192,77661,1,0,0:0:0:0:
256,192,77838,1,0,0:0:0:0:
256,192,78190,1,8,0:0:0:0:
256,192,78367,1,0,0:0:0:0:
256,192,78455,1,8,0:0:0:0:
256,192,78632,1,0,0:0:0:0:
256,192,78720,1,8,0:0:0:0:
256,192,78896,1,8,0:0:0:0:
256,192,79073,1,0,0:0:0:0:
256,192,79161,1,0,0:0:0:0:
256,192,79249,1,8,0:0:0:0:
256,192,79602,1,8,0:0:0:0:
256,192,79779,1,0,0:0:0:0:
256,192,79867,1,8,0:0:0:0:
256,192,80043,1,8,0:0:0:0:
256,192,80132,1,8,0:0:0:0:
256,192,80308,1,8,0:0:0:0:
256,192,80485,1,0,0:0:0:0:
256,192,80661,5,12,0:0:0:0:
256,192,81014,1,8,0:0:0:0:
256,192,81190,1,0,0:0:0:0:
256,192,81279,1,8,0:0:0:0:
256,192,81455,1,8,0:0:0:0:
256,192,81543,1,0,0:0:0:0:
256,192,81720,1,8,0:0:0:0:
256,192,81808,1,0,0:0:0:0:
256,192,81896,1,0,0:0:0:0:
262,162,81985,1,0,0:0:0:0:
256,192,82073,1,8,0:0:0:0:
256,160,82249,1,0,0:0:0:0:
256,192,82426,1,8,0:0:0:0:
256,192,82602,1,0,0:0:0:0:
256,192,82690,1,8,0:0:0:0:
256,192,82867,1,8,0:0:0:0:
256,192,82955,1,0,0:0:0:0:
256,192,83132,1,8,0:0:0:0:
256,192,83220,1,8,0:0:0:0:
256,192,83308,1,0,0:0:0:0:
256,192,83485,1,8,0:0:0:0:
256,192,83838,1,8,0:0:0:0:
256,192,84014,1,8,0:0:0:0:
256,192,84102,1,0,0:0:0:0:
256,192,84279,1,0,0:0:0:0:
256,192,84367,1,8,0:0:0:0:
256,192,84543,1,8,0:0:0:0:
250,165,84632,1,0,0:0:0:0:
256,192,84720,1,0,0:0:0:0:
272,162,84808,1,0,0:0:0:0:
256,192,84896,1,8,0:0:0:0:
256,160,85073,1,0,0:0:0:0:
256,192,85249,1,8,0:0:0:0:
256,192,85426,1,0,0:0:0:0:
256,192,85514,1,8,0:0:0:0:
256,192,85690,1,0,0:0:0:0:
256,192,85779,1,8,0:0:0:0:
256,192,85955,1,8,0:0:0:0:
256,192,86043,1,0,0:0:0:0:
256,192,86132,1,8,0:0:0:0:
256,192,86308,5,0,0:0:0:0:
256,192,86661,1,8,0:0:0:0:
256,192,86838,1,0,0:0:0:0:
256,192,86926,1,8,0:0:0:0:
256,192,87102,1,8,0:0:0:0:
256,192,87190,1,0,0:0:0:0:
256,192,87367,1,8,0:0:0:0:
256,192,87455,1,0,0:0:0:0:
256,192,87543,1,0,0:0:0:0:
269,132,87632,1,0,0:0:0:0:
256,192,87720,1,8,0:0:0:0:
256,160,87896,1,0,0:0:0:0:
256,192,88073,1,8,0:0:0:0:
256,192,88249,1,0,0:0:0:0:
256,192,88338,1,8,0:0:0:0:
256,192,88514,1,8,0:0:0:0:
256,192,88602,1,0,0:0:0:0:
256,192,88779,1,8,0:0:0:0:
254,109,88867,1,0,0:0:0:0:
256,192,88955,1,0,0:0:0:0:
256,160,89043,1,0,0:0:0:0:
256,192,89132,1,8,0:0:0:0:
256,160,89308,1,0,0:0:0:0:
256,192,89485,1,8,0:0:0:0:
256,192,89661,1,0,0:0:0:0:
256,192,89749,1,8,0:0:0:0:
256,160,89838,1,0,0:0:0:0:
256,192,89926,1,0,0:0:0:0:
256,192,90014,1,8,0:0:0:0:
256,192,90190,1,8,0:0:0:0:
256,192,90367,1,0,0:0:0:0:
256,192,90455,1,0,0:0:0:0:
256,192,90543,1,8,0:0:0:0:
256,160,90632,1,8,0:0:0:0:
256,160,90720,1,0,0:0:0:0:
256,192,90896,1,8,0:0:0:0:
256,192,91073,1,0,0:0:0:0:
256,192,91161,1,8,0:0:0:0:
243,82,91249,1,0,0:0:0:0:
256,192,91338,1,8,0:0:0:0:
256,192,91426,1,8,0:0:0:0:
266,122,91514,1,0,0:0:0:0:
256,192,91602,1,8,0:0:0:0:
256,192,91779,1,0,0:0:0:0:
256,192,91955,5,12,0:0:0:0:
256,192,92132,1,0,0:0:0:0:
256,192,92308,1,8,0:0:0:0:
256,192,92485,1,0,0:0:0:0:
256,192,92573,1,0,0:0:0:0:
256,192,92661,1,0,0:0:0:0:
256,192,92838,1,0,0:0:0:0:
256,192,93014,1,8,0:0:0:0:
256,192,93367,1,0,0:0:0:0:
256,192,93720,1,8,0:0:0:0:
256,192,94073,1,0,0:0:0:0:
256,192,94426,1,8,0:0:0:0:
256,192,94779,5,0,0:0:0:0:
256,192,94955,1,0,0:0:0:0:
256,192,95132,1,8,0:0:0:0:
256,192,95308,1,0,0:0:0:0:
256,192,95396,1,0,0:0:0:0:
256,192,95485,1,0,0:0:0:0:
256,192,95661,1,0,0:0:0:0:
256,192,95838,1,8,0:0:0:0:
256,192,96190,1,0,0:0:0:0:
256,192,96543,1,8,0:0:0:0:
256,192,96896,1,0,0:0:0:0:
256,192,97249,1,8,0:0:0:0:
256,192,97602,1,0,0:0:0:0:
256,192,97779,1,0,0:0:0:0:
256,192,97955,1,8,0:0:0:0:
256,192,98132,1,0,0:0:0:0:
256,192,98220,1,0,0:0:0:0:
256,192,98308,1,0,0:0:0:0:
256,192,98485,1,0,0:0:0:0:
256,192,98661,1,8,0:0:0:0:
256,192,99014,1,0,0:0:0:0:
256,192,99367,1,8,0:0:0:0:
256,192,99720,1,0,0:0:0:0:
256,192,100073,1,8,0:0:0:0:
256,192,100426,5,0,0:0:0:0:
256,192,100602,1,0,0:0:0:0:
256,192,100779,1,8,0:0:0:0:
256,192,100955,1,0,0:0:0:0:
256,192,101043,1,0,0:0:0:0:
256,192,101132,1,0,0:0:0:0:
256,192,101308,1,0,0:0:0:0:
256,192,101485,1,8,0:0:0:0:
256,192,101838,1,8,0:0:0:0:
256,160,102014,1,0,0:0:0:0:
256,192,102102,1,0,0:0:0:0:
256,192,102190,1,8,0:0:0:0:
256,192,102367,1,0,0:0:0:0:
256,192,102543,1,8,0:0:0:0:
256,192,102632,1,8,0:0:0:0:
256,192,102720,1,0,0:0:0:0:
256,192,102808,1,0,0:0:0:0:
256,192,102896,1,8,0:0:0:0:
256,192,103073,1,8,0:0:0:0:
256,192,103249,1,0,0:0:0:0:
256,192,103602,1,0,0:0:0:0:
256,192,103779,1,0,0:0:0:0:
256,192,103955,1,0,0:0:0:0:
256,192,104308,1,0,0:0:0:0:
256,192,104485,1,0,0:0:0:0:
256,192,104661,1,0,0:0:0:0:
256,192,105014,1,0,0:0:0:0:
256,192,105190,1,8,0:0:0:0:
256,192,105367,1,8,0:0:0:0:
256,160,105543,1,0,0:0:0:0:
256,192,105720,1,8,0:0:0:0:
256,192,105808,1,8,0:0:0:0:
256,192,105896,1,8,0:0:0:0:
256,192,106073,1,0,0:0:0:0:
256,160,106426,1,0,0:0:0:0:
256,160,106602,1,0,0:0:0:0:
256,160,106779,1,0,0:0:0:0:
256,160,107132,1,0,0:0:0:0:
256,160,107308,1,0,0:0:0:0:
256,160,107485,1,0,0:0:0:0:
256,160,107838,1,0,0:0:0:0:
256,160,108014,1,8,0:0:0:0:
256,160,108190,1,0,0:0:0:0:
256,160,108367,1,8,0:0:0:0:
256,160,108543,1,0,0:0:0:0:
256,160,108632,1,0,0:0:0:0:
256,160,108720,1,8,0:0:0:0:
256,160,108896,1,0,0:0:0:0:
256,160,109249,1,0,0:0:0:0:
256,160,109602,1,0,0:0:0:0:
256,160,109955,1,0,0:0:0:0:
256,160,110308,1,0,0:0:0:0:
256,160,110661,1,0,0:0:0:0:
256,160,111014,1,0,0:0:0:0:
256,160,111367,1,8,0:0:0:0:
256,160,111455,1,8,0:0:0:0:
256,160,111543,1,8,0:0:0:0:
256,160,111720,1,0,0:0:0:0:
256,160,112073,1,0,0:0:0:0:
256,160,112426,1,0,0:0:0:0:
256,160,112779,1,0,0:0:0:0:
256,160,113132,1,0,0:0:0:0:
256,192,113308,12,0,114543,0:0:0:0:
