osu file format v14

[General]
AudioFilename: audio.mp3
AudioLeadIn: 0
PreviewTime: 35132
Countdown: 0
SampleSet: Normal
StackLeniency: 0.7
Mode: 1
LetterboxInBreaks: 0
WidescreenStoryboard: 0

[Editor]
Bookmarks: 186,11480,17127,22774,35480,46774,58069,69363,80657,91951,103245
DistanceSpacing: 1.2
BeatDivisor: 2
GridSize: 32
TimelineZoom: 1.9

[Metadata]
Title:Exit This Earth's Estratosphere
TitleUnicode:Exit This Earth's Estratosphere
Artist:Camellia feat. Carlos Menem
ArtistUnicode:かめりあ feat. Carlos Menem
Creator:gaston_2199
Version:Kantan
Source:
Tags:FA Featured Artist ginka*EX _w6 mashup argentinian meme novelty estratosfera planet//shaper drumstep kamelcamellia cametek atmosphere dnb dubstep drumstep drum and bass argentine argentina electronic spanish español _WWWWWW_WWWWWW_ Atomosphere Stratosphere かめるかめりあ CTCD-011 Atreevete
BeatmapID:2136817
BeatmapSetID:949124

[Difficulty]
HPDrainRate:8
CircleSize:2
OverallDifficulty:3
ApproachRate:10
SliderMultiplier:1.4
SliderTickRate:1

[Events]
//Background and Video events
0,0,"BG.jpg",0,0
//Break Periods
//Storyboard Layer 0 (Background)
//Storyboard Layer 1 (Fail)
//Storyboard Layer 2 (Pass)
//Storyboard Layer 3 (Foreground)
//Storyboard Layer 4 (Overlay)
//Storyboard Sound Samples

[TimingPoints]
191,352.941176470588,4,1,0,65,1,0
11485,-100,4,1,0,80,0,0
35485,-133.333333333333,4,1,0,80,0,0
37598,-133.333333333333,4,1,0,65,0,0
46779,-100,4,1,0,80,0,0
48190,-100,4,1,0,75,0,0
69367,-100,4,1,0,90,0,1
91955,-100,4,1,0,80,0,0
103249,-100,4,1,0,65,0,0
113304,-125,4,1,0,50,0,0

[HitObjects]
256,192,191,5,0,0:0:0:0:
256,192,2661,1,8,0:0:0:0:
256,192,3014,1,0,0:0:0:0:
256,192,5132,1,8,0:0:0:0:
256,192,5838,1,0,0:0:0:0:
256,192,7249,1,0,0:0:0:0:
256,192,8308,1,8,0:0:0:0:
256,192,8661,1,0,0:0:0:0:
256,192,10073,1,0,0:0:0:0:
256,192,11485,1,4,0:0:0:0:
252,141,11838,1,0,0:0:0:0:
256,192,12543,1,8,0:0:0:0:
256,192,12896,1,0,0:0:0:0:
256,160,13955,1,0,0:0:0:0:
256,160,14308,1,0,0:0:0:0:
266,134,14661,1,0,0:0:0:0:
256,192,15367,1,8,0:0:0:0:
256,192,15720,1,0,0:0:0:0:
256,160,16779,1,8,0:0:0:0:
256,192,17132,1,0,0:0:0:0:
285,143,17485,1,0,0:0:0:0:
256,192,18190,1,8,0:0:0:0:
256,192,18543,1,0,0:0:0:0:
256,160,19602,1,0,0:0:0:0:
256,160,19955,1,0,0:0:0:0:
256,192,21014,1,8,0:0:0:0:
256,192,21367,1,0,0:0:0:0:
266,164,22073,1,0,0:0:0:0:
256,160,22426,1,8,0:0:0:0:
256,192,22779,5,12,0:0:0:0:
256,160,24190,1,8,0:0:0:0:
256,160,25602,1,8,0:0:0:0:
256,160,26308,1,8,0:0:0:0:
256,160,27014,1,8,0:0:0:0:
256,160,27720,1,8,0:0:0:0:
256,160,28426,1,8,0:0:0:0:
256,160,28779,1,8,0:0:0:0:
256,160,29132,1,8,0:0:0:0:
256,160,29838,1,8,0:0:0:0:
256,160,30190,1,8,0:0:0:0:
256,160,30543,1,8,0:0:0:0:
160,128,31249,2,0,L|224:128,14,35
256,192,32661,12,0,33896,0:0:0:0:
256,160,34073,5,4,0:0:0:0:
256,160,35485,1,12,0:0:0:0:
256,160,37602,1,8,0:0:0:0:
256,160,38661,1,0,0:0:0:0:
256,160,41132,1,0,0:0:0:0:
256,128,42543,1,0,0:0:0:0:
256,160,43955,1,8,0:0:0:0:
256,160,46779,1,12,0:0:0:0:
256,160,48896,1,8,0:0:0:0:
256,160,49955,1,8,0:0:0:0:
256,160,51720,1,0,0:0:0:0:
256,160,52426,1,0,0:0:0:0:
256,160,53838,1,0,0:0:0:0:
256,160,55249,1,8,0:0:0:0:
256,160,56308,1,8,0:0:0:0:
256,32,56661,1,0,0:0:0:0:
256,160,57367,1,0,0:0:0:0:
256,160,57720,1,8,0:0:0:0:
256,160,58073,1,4,0:0:0:0:
256,128,59485,1,0,0:0:0:0:
256,128,60896,1,0,0:0:0:0:
256,128,61602,1,8,0:0:0:0:
256,128,62308,1,0,0:0:0:0:
256,128,63720,1,0,0:0:0:0:
256,128,64426,1,8,0:0:0:0:
256,128,65132,1,8,0:0:0:0:
256,128,65485,1,8,0:0:0:0:
256,128,65838,1,8,0:0:0:0:
256,128,66190,1,8,0:0:0:0:
96,64,66543,2,0,L|352:96,2,245
224,96,67955,1,0,0:0:0:0:
256,192,69367,5,4,0:0:0:0:
256,192,70426,1,8,0:0:0:0:
256,192,70779,1,0,0:0:0:0:
278,126,71485,1,0,0:0:0:0:
256,192,71838,1,8,0:0:0:0:
256,192,72190,1,8,0:0:0:0:
256,192,73249,1,8,0:0:0:0:
256,192,73602,1,0,0:0:0:0:
256,192,74308,1,0,0:0:0:0:
256,192,74661,1,8,0:0:0:0:
256,192,75014,5,0,0:0:0:0:
256,192,75720,1,8,0:0:0:0:
256,192,76426,1,0,0:0:0:0:
256,192,77838,1,0,0:0:0:0:
256,192,78543,1,8,0:0:0:0:
313,51,78896,1,0,0:0:0:0:
256,192,79249,1,8,0:0:0:0:
256,160,79955,1,8,0:0:0:0:
256,192,80661,5,4,0:0:0:0:
256,192,81720,1,8,0:0:0:0:
256,192,82073,1,0,0:0:0:0:
256,192,82779,1,0,0:0:0:0:
256,192,83132,1,8,0:0:0:0:
256,192,83485,1,8,0:0:0:0:
256,192,84543,1,8,0:0:0:0:
256,192,84896,1,0,0:0:0:0:
256,192,85602,1,0,0:0:0:0:
256,192,85955,1,8,0:0:0:0:
256,192,86308,5,0,0:0:0:0:
256,192,87014,1,8,0:0:0:0:
256,192,87720,1,0,0:0:0:0:
256,192,88073,1,0,0:0:0:0:
256,160,88426,1,8,0:0:0:0:
256,192,89132,1,0,0:0:0:0:
256,192,89838,1,8,0:0:0:0:
256,192,90190,1,0,0:0:0:0:
256,192,90543,1,8,0:0:0:0:
256,160,91249,1,8,0:0:0:0:
264,182,91602,1,8,0:0:0:0:
256,192,91955,5,4,0:0:0:0:
256,192,93014,1,8,0:0:0:0:
256,192,93720,1,8,0:0:0:0:
256,192,94779,5,0,0:0:0:0:
256,192,95838,1,8,0:0:0:0:
256,192,96543,1,8,0:0:0:0:
256,192,97602,1,0,0:0:0:0:
256,192,98661,1,8,0:0:0:0:
256,192,99367,1,8,0:0:0:0:
256,192,100426,5,0,0:0:0:0:
256,192,101485,1,8,0:0:0:0:
256,192,101838,1,0,0:0:0:0:
256,192,102190,1,8,0:0:0:0:
256,192,102896,1,8,0:0:0:0:
256,192,103249,1,0,0:0:0:0:
256,192,104661,1,0,0:0:0:0:
256,192,105720,1,8,0:0:0:0:
256,192,106073,1,0,0:0:0:0:
256,160,107485,1,0,0:0:0:0:
256,160,108190,1,8,0:0:0:0:
256,160,108896,1,0,0:0:0:0:
256,160,111367,1,8,0:0:0:0:
256,160,111720,1,0,0:0:0:0:
256,192,113132,12,0,114543,0:0:0:0:
