osu file format v14

[General]
AudioFilename: audio.mp3
AudioLeadIn: 0
PreviewTime: 35132
Countdown: 0
SampleSet: Normal
StackLeniency: 0.7
Mode: 1
LetterboxInBreaks: 0
WidescreenStoryboard: 0

[Editor]
Bookmarks: 186,11480,17127,22774,35480,46774,58069,69363,80657,91951,103245
DistanceSpacing: 1.2
BeatDivisor: 4
GridSize: 32
TimelineZoom: 1.9

[Metadata]
Title:Exit This Earth's Estratosphere
TitleUnicode:Exit This Earth's Estratosphere
Artist:Camellia feat. Carlos Menem
ArtistUnicode:かめりあ feat. Carlos Menem
Creator:gaston_2199
Version:Futsuu
Source:
Tags:FA Featured Artist ginka*EX _w6 mashup argentinian meme novelty estratosfera planet//shaper drumstep kamelcamellia cametek atmosphere dnb dubstep drumstep drum and bass argentine argentina electronic spanish español _WWWWWW_WWWWWW_ Atomosphere Stratosphere かめるかめりあ CTCD-011 Atreevete
BeatmapID:2136816
BeatmapSetID:949124

[Difficulty]
HPDrainRate:7
CircleSize:2
OverallDifficulty:4
ApproachRate:10
SliderMultiplier:1.4
SliderTickRate:1

[Events]
//Background and Video events
0,0,"BG.jpg",0,0
//Break Periods
//Storyboard Layer 0 (Background)
//Storyboard Layer 1 (Fail)
//Storyboard Layer 2 (Pass)
//Storyboard Layer 3 (Foreground)
//Storyboard Layer 4 (Overlay)
//Storyboard Sound Samples

[TimingPoints]
191,352.941176470588,4,1,0,65,1,0
11485,-100,4,1,0,80,0,0
35485,-133.333333333333,4,1,0,80,0,0
37598,-133.333333333333,4,1,0,65,0,0
46779,-100,4,1,0,80,0,0
48190,-100,4,1,0,75,0,0
69367,-100,4,1,0,90,0,1
91955,-100,4,1,0,80,0,0
103249,-100,4,1,0,65,0,0
113304,-125,4,1,0,50,0,0

[HitObjects]
256,192,191,5,0,0:0:0:0:
256,192,1602,1,0,0:0:0:0:
244,184,2308,1,0,0:0:0:0:
256,192,2661,1,8,0:0:0:0:
256,192,3014,1,0,0:0:0:0:
256,192,4426,1,0,0:0:0:0:
229,113,5132,1,8,0:0:0:0:
256,192,5485,1,8,0:0:0:0:
256,192,5838,1,0,0:0:0:0:
256,192,6543,1,0,0:0:0:0:
256,192,7249,1,0,0:0:0:0:
256,192,7955,1,0,0:0:0:0:
256,192,8308,1,8,0:0:0:0:
256,192,8661,1,0,0:0:0:0:
256,192,9367,1,0,0:0:0:0:
255,72,10073,1,0,0:0:0:0:
256,192,11485,5,4,0:0:0:0:
256,192,11838,1,8,0:0:0:0:
241,102,12367,1,0,0:0:0:0:
256,192,12543,1,0,0:0:0:0:
256,192,12896,1,0,0:0:0:0:
256,160,13249,1,8,0:0:0:0:
256,160,13955,1,8,0:0:0:0:
256,160,14308,1,0,0:0:0:0:
256,192,14661,1,0,0:0:0:0:
256,192,15190,1,0,0:0:0:0:
256,192,15367,1,8,0:0:0:0:
256,192,15720,1,0,0:0:0:0:
256,160,16073,1,8,0:0:0:0:
256,160,16779,1,8,0:0:0:0:
256,192,17132,1,0,0:0:0:0:
256,192,17485,1,8,0:0:0:0:
256,192,18014,1,0,0:0:0:0:
256,192,18190,1,0,0:0:0:0:
256,192,18543,1,0,0:0:0:0:
256,160,18896,1,8,0:0:0:0:
256,160,19602,1,8,0:0:0:0:
256,160,19955,1,0,0:0:0:0:
256,192,20308,1,0,0:0:0:0:
256,192,20838,1,0,0:0:0:0:
256,192,21014,1,8,0:0:0:0:
256,192,21367,1,0,0:0:0:0:
256,160,21720,1,8,0:0:0:0:
256,160,22073,1,0,0:0:0:0:
256,160,22249,1,0,0:0:0:0:
256,160,22426,1,8,0:0:0:0:
256,192,22779,5,12,0:0:0:0:
256,160,23485,1,8,0:0:0:0:
256,160,24190,1,8,0:0:0:0:
256,160,24896,1,8,0:0:0:0:
256,160,25602,1,8,0:0:0:0:
272,83,25955,1,8,0:0:0:0:
256,160,26308,1,8,0:0:0:0:
256,160,27014,1,8,0:0:0:0:
256,160,27367,1,8,0:0:0:0:
256,160,27720,1,8,0:0:0:0:
256,160,28426,1,8,0:0:0:0:
256,160,28602,1,0,0:0:0:0:
256,160,28779,1,8,0:0:0:0:
256,160,29132,1,8,0:0:0:0:
256,160,29485,1,8,0:0:0:0:
256,160,29838,1,8,0:0:0:0:
256,160,30014,1,0,0:0:0:0:
256,160,30190,1,8,0:0:0:0:
256,160,30543,1,8,0:0:0:0:
256,160,30896,1,8,0:0:0:0:
160,128,31249,2,0,L|224:128,14,35
256,192,32661,12,0,33896,0:0:0:0:
256,160,34073,5,4,0:0:0:0:
256,160,35485,1,12,0:0:0:0:
256,160,37602,1,8,0:0:0:0:
256,160,38132,1,0,0:0:0:0:
256,160,38661,1,8,0:0:0:0:
256,160,40426,1,0,0:0:0:0:
256,160,41132,1,0,0:0:0:0:
256,160,42543,1,8,0:0:0:0:
256,160,43955,1,0,0:0:0:0:
256,160,46779,1,12,0:0:0:0:
256,160,48190,1,0,0:0:0:0:
256,160,48896,1,8,0:0:0:0:
256,160,49426,1,0,0:0:0:0:
256,160,49955,1,8,0:0:0:0:
256,160,51014,1,0,0:0:0:0:
256,160,51720,1,0,0:0:0:0:
256,160,52426,1,0,0:0:0:0:
219,42,53132,1,0,0:0:0:0:
256,160,53485,1,8,0:0:0:0:
256,160,53838,1,0,0:0:0:0:
256,160,54543,1,8,0:0:0:0:
256,160,54896,1,8,0:0:0:0:
256,160,55249,1,0,0:0:0:0:
224,160,55955,1,0,0:0:0:0:
256,160,56308,1,8,0:0:0:0:
256,32,56661,1,0,0:0:0:0:
256,160,57014,1,0,0:0:0:0:
256,160,57367,1,0,0:0:0:0:
256,160,57543,1,0,0:0:0:0:
256,160,57720,1,8,0:0:0:0:
256,160,58073,1,4,0:0:0:0:
256,88,58779,1,8,0:0:0:0:
256,128,59485,1,0,0:0:0:0:
256,128,60190,1,8,0:0:0:0:
256,128,60896,1,0,0:0:0:0:
268,101,61249,1,0,0:0:0:0:
256,128,61602,1,8,0:0:0:0:
255,105,61955,1,8,0:0:0:0:
256,128,62308,1,0,0:0:0:0:
256,128,63014,1,8,0:0:0:0:
256,128,63720,1,0,0:0:0:0:
256,128,64073,1,0,0:0:0:0:
256,128,64426,1,8,0:0:0:0:
256,128,64779,1,8,0:0:0:0:
256,128,65132,1,8,0:0:0:0:
256,128,65308,1,0,0:0:0:0:
256,128,65485,1,8,0:0:0:0:
256,128,65838,1,8,0:0:0:0:
256,128,66014,1,8,0:0:0:0:
256,128,66190,1,8,0:0:0:0:
96,64,66543,2,0,L|352:96,2,245
224,96,67955,1,0,0:0:0:0:
224,96,69014,1,8,0:0:0:0:
256,192,69367,5,4,0:0:0:0:
256,128,69720,1,8,0:0:0:0:
286,217,69985,1,0,0:0:0:0:
256,192,70426,1,8,0:0:0:0:
256,192,70779,1,0,0:0:0:0:
256,192,71132,1,8,0:0:0:0:
256,192,71838,1,8,0:0:0:0:
256,192,72190,1,8,0:0:0:0:
256,192,72543,1,8,0:0:0:0:
256,192,72808,1,0,0:0:0:0:
256,192,73249,1,8,0:0:0:0:
256,192,73602,1,0,0:0:0:0:
256,192,73955,1,8,0:0:0:0:
256,192,74661,1,8,0:0:0:0:
256,192,75014,5,0,0:0:0:0:
256,192,75367,1,0,0:0:0:0:
256,192,75632,1,0,0:0:0:0:
259,96,76073,1,8,0:0:0:0:
256,192,76426,1,0,0:0:0:0:
256,192,76779,1,8,0:0:0:0:
248,91,77485,1,8,0:0:0:0:
256,192,77838,1,0,0:0:0:0:
256,192,78190,1,0,0:0:0:0:
256,192,78455,1,0,0:0:0:0:
256,192,78896,1,8,0:0:0:0:
256,136,79073,1,0,0:0:0:0:
256,192,79249,1,8,0:0:0:0:
256,192,79602,1,8,0:0:0:0:
321,60,79955,1,8,0:0:0:0:
256,192,80661,5,4,0:0:0:0:
256,128,81014,1,8,0:0:0:0:
267,238,81279,1,0,0:0:0:0:
256,192,81720,1,8,0:0:0:0:
256,192,82073,1,0,0:0:0:0:
256,192,82426,1,8,0:0:0:0:
256,160,82779,1,0,0:0:0:0:
256,192,83132,1,8,0:0:0:0:
275,148,83308,1,0,0:0:0:0:
256,192,83485,1,8,0:0:0:0:
256,192,83838,1,8,0:0:0:0:
256,192,84102,1,0,0:0:0:0:
256,192,84543,1,8,0:0:0:0:
256,192,84896,1,0,0:0:0:0:
256,192,85249,1,8,0:0:0:0:
256,192,85955,1,8,0:0:0:0:
256,192,86132,1,8,0:0:0:0:
256,192,86308,5,0,0:0:0:0:
256,192,86661,1,0,0:0:0:0:
256,63,86926,1,0,0:0:0:0:
259,96,87367,1,8,0:0:0:0:
253,170,87543,1,0,0:0:0:0:
256,192,87720,1,0,0:0:0:0:
256,192,88073,1,8,0:0:0:0:
391,182,88426,1,0,0:0:0:0:
248,91,88779,1,8,0:0:0:0:
256,192,89132,1,0,0:0:0:0:
256,192,89485,1,0,0:0:0:0:
356,55,89749,1,0,0:0:0:0:
256,192,90190,1,8,0:0:0:0:
256,136,90367,1,0,0:0:0:0:
256,192,90543,1,8,0:0:0:0:
256,192,90896,1,8,0:0:0:0:
321,60,91249,1,8,0:0:0:0:
393,93,91426,1,8,0:0:0:0:
325,65,91602,1,8,0:0:0:0:
256,192,91955,5,4,0:0:0:0:
256,192,92308,5,8,0:0:0:0:
283,109,92661,1,0,0:0:0:0:
256,192,92838,1,0,0:0:0:0:
256,192,93014,1,8,0:0:0:0:
256,192,93720,1,8,0:0:0:0:
256,192,94426,1,8,0:0:0:0:
256,192,94779,5,0,0:0:0:0:
256,192,95132,1,8,0:0:0:0:
260,157,95485,1,0,0:0:0:0:
256,192,95661,1,0,0:0:0:0:
256,192,95838,1,8,0:0:0:0:
256,192,96543,1,8,0:0:0:0:
256,192,97249,1,8,0:0:0:0:
256,192,97602,1,0,0:0:0:0:
256,192,97955,1,8,0:0:0:0:
256,192,98308,1,0,0:0:0:0:
256,192,98485,1,0,0:0:0:0:
256,192,98661,1,8,0:0:0:0:
256,192,99367,1,8,0:0:0:0:
256,192,100073,1,8,0:0:0:0:
256,192,100426,5,0,0:0:0:0:
256,192,100779,1,8,0:0:0:0:
268,177,101132,1,0,0:0:0:0:
256,192,101308,1,0,0:0:0:0:
256,192,101485,1,8,0:0:0:0:
256,192,101838,1,8,0:0:0:0:
256,192,102190,1,0,0:0:0:0:
256,192,102543,1,8,0:0:0:0:
256,192,102720,1,0,0:0:0:0:
256,192,102896,1,0,0:0:0:0:
256,192,103249,1,0,0:0:0:0:
256,192,103955,1,0,0:0:0:0:
256,192,104661,1,0,0:0:0:0:
256,192,105367,1,0,0:0:0:0:
256,192,105720,1,8,0:0:0:0:
256,192,106073,1,0,0:0:0:0:
256,160,106779,1,0,0:0:0:0:
256,160,107485,1,0,0:0:0:0:
256,160,108190,1,8,0:0:0:0:
256,160,108543,1,8,0:0:0:0:
256,160,108896,1,0,0:0:0:0:
256,160,110308,1,0,0:0:0:0:
256,160,111367,1,8,0:0:0:0:
256,160,111720,1,0,0:0:0:0:
256,160,113132,1,0,0:0:0:0:
256,192,113485,12,0,114543,0:0:0:0:
