osu file format v14

[General]
AudioFilename: audio.mp3
AudioLeadIn: 0
PreviewTime: 35132
Countdown: 0
SampleSet: Normal
StackLeniency: 0.7
Mode: 1
LetterboxInBreaks: 0
WidescreenStoryboard: 1

[Editor]
Bookmarks: 191,11485,17132,22779,35485,46779,58073,69367,80661,91955,103249
DistanceSpacing: 1.2
BeatDivisor: 4
GridSize: 32
TimelineZoom: 2.699999

[Metadata]
Title:Exit This Earth's Estratosphere
TitleUnicode:Exit This Earth's Estratosphere
Artist:Camellia feat. Carlos Menem
ArtistUnicode:かめりあ feat. Carlos Menem
Creator:gaston_2199
Version:En Una Hora y Media
Source:
Tags:FA Featured Artist ginka*EX _w6 mashup argentinian meme novelty estratosfera planet//shaper drumstep kamelcamellia cametek atmosphere dnb dubstep drumstep drum and bass argentine argentina electronic spanish español _WWWWWW_WWWWWW_ Atomosphere Stratosphere かめるかめりあ CTCD-011 Atreevete
BeatmapID:1983969
BeatmapSetID:949124

[Difficulty]
HPDrainRate:6
CircleSize:2
OverallDifficulty:6.5
ApproachRate:10
SliderMultiplier:1.4
SliderTickRate:1

[Events]
//Background and Video events
0,0,"BG.jpg",0,0
//Break Periods
//Storyboard Layer 0 (Background)
//Storyboard Layer 1 (Fail)
//Storyboard Layer 2 (Pass)
//Storyboard Layer 3 (Foreground)
//Storyboard Layer 4 (Overlay)
//Storyboard Sound Samples

[TimingPoints]
191,352.941176470588,4,1,0,65,1,0
191,-125,4,1,0,65,0,0
2661,-123.456790123457,4,1,0,65,0,0
2749,-121.951219512195,4,1,0,65,0,0
2838,-120.481927710843,4,1,0,65,0,0
2926,-119.047619047619,4,1,0,65,0,0
3014,-117.647058823529,4,1,0,65,0,0
5485,-116.279069767442,4,1,0,65,0,0
5573,-114.942528735632,4,1,0,65,0,0
5661,-113.636363636364,4,1,0,65,0,0
5749,-112.359550561798,4,1,0,65,0,0
5838,-111.111111111111,4,1,0,65,0,0
8308,-109.89010989011,4,1,0,65,0,0
8396,-108.695652173913,4,1,0,65,0,0
8485,-107.52688172043,4,1,0,65,0,0
8573,-106.382978723404,4,1,0,65,0,0
8661,-105.263157894737,4,1,0,65,0,0
10073,-106.382978723404,4,1,0,75,0,0
10161,-107.52688172043,4,1,0,75,0,0
10249,-108.695652173913,4,1,0,75,0,0
10338,-109.89010989011,4,1,0,75,0,0
10426,-111.111111111111,4,1,0,75,0,0
10514,-112.359550561798,4,1,0,75,0,0
10602,-113.636363636364,4,1,0,75,0,0
10690,-114.942528735632,4,1,0,75,0,0
10779,-116.279069767442,4,1,0,75,0,0
10867,-117.647058823529,4,1,0,75,0,0
10955,-119.047619047619,4,1,0,75,0,0
11043,-120.481927710843,4,1,0,75,0,0
11132,-121.951219512195,4,1,0,75,0,0
11220,-123.456790123457,4,1,0,75,0,0
11308,-125,4,1,0,75,0,0
11485,-100,4,1,0,80,0,0
35132,-133.333333333333,4,1,0,80,0,0
35485,-133.333333333333,4,1,0,80,0,0
37598,-133.333333333333,4,1,0,65,0,0
46426,-133.333333333333,4,1,0,80,0,0
46779,-125,4,1,0,80,0,0
47132,-125,4,1,0,75,0,0
52073,-123.456790123457,4,1,0,75,0,0
52249,-120.481927710843,4,1,0,75,0,0
52426,-117.647058823529,4,1,0,75,0,0
54896,-116.279069767442,4,1,0,75,0,0
55073,-114.942528735632,4,1,0,75,0,0
55249,-111.111111111111,4,1,0,75,0,0
57279,-108.695652173913,4,1,0,80,0,0
57367,-107.52688172043,4,1,0,80,0,0
57455,-106.382978723404,4,1,0,80,0,0
57543,-105.263157894737,4,1,0,80,0,0
57632,-104.166666666667,4,1,0,80,0,0
57720,-103.092783505155,4,1,0,80,0,0
57808,-102.040816326531,4,1,0,80,0,0
57896,-101.010101010101,4,1,0,80,0,0
58073,-100,4,1,0,80,0,0
58249,-102.040816326531,4,1,0,80,0,0
58426,-103.092783505155,4,1,0,80,0,0
58602,-104.166666666667,4,1,0,80,0,0
58779,-105.263157894737,4,1,0,80,0,0
63720,-100,4,1,0,80,0,0
68132,-101.010101010101,4,1,0,80,0,0
68308,-103.092783505155,4,1,0,80,0,0
68396,-104.166666666667,4,1,0,80,0,0
68485,-105.263157894737,4,1,0,80,0,0
68661,-107.52688172043,4,1,0,80,0,0
68749,-108.695652173913,4,1,0,80,0,0
68838,-109.89010989011,4,1,0,80,0,0
68926,-111.111111111111,4,1,0,80,0,0
69014,-112.359550561798,4,1,0,80,0,0
69190,-116.279069767442,4,1,0,80,0,0
69367,-100,4,1,0,90,0,1
80485,-97.0873786407767,4,1,0,90,0,1
80661,-95.2380952380952,4,1,0,90,0,1
85955,-94.3396226415094,4,1,0,90,0,1
86043,-93.4579439252336,4,1,0,90,0,1
86132,-92.5925925925926,4,1,0,90,0,1
86220,-91.743119266055,4,1,0,90,0,1
86308,-90.9090909090909,4,1,0,90,0,1
91955,-90.9090909090909,4,1,0,80,0,0
92132,-93.4579439252336,4,1,0,80,0,0
92308,-95.2380952380952,4,1,0,80,0,0
92485,-97.0873786407767,4,1,0,80,0,0
92661,-100,4,1,0,80,0,0
103249,-100,4,1,0,65,0,0
103426,-102.040816326531,4,1,0,65,0,0
103602,-103.092783505155,4,1,0,65,0,0
103779,-105.263157894737,4,1,0,65,0,0
105720,-106.382978723404,4,1,0,65,0,0
105808,-107.52688172043,4,1,0,65,0,0
105896,-108.695652173913,4,1,0,65,0,0
105985,-109.89010989011,4,1,0,65,0,0
106073,-111.111111111111,4,1,0,65,0,0
108543,-112.359550561798,4,1,0,65,0,0
108632,-113.636363636364,4,1,0,65,0,0
108720,-114.942528735632,4,1,0,65,0,0
108808,-116.279069767442,4,1,0,65,0,0
108896,-117.647058823529,4,1,0,65,0,0
111367,-119.047619047619,4,1,0,65,0,0
111455,-120.481927710843,4,1,0,65,0,0
111543,-121.951219512195,4,1,0,65,0,0
111720,-125,4,1,0,65,0,0
113304,-125,4,1,0,50,0,0

[HitObjects]
256,192,191,5,0,0:0:0:0:
256,192,543,1,0,0:0:0:0:
256,192,896,1,0,0:0:0:0:
256,192,1249,1,0,0:0:0:0:
256,192,1602,1,0,0:0:0:0:
256,192,1955,1,0,0:0:0:0:
214,246,2132,1,0,0:0:0:0:
96,192,2308,1,8,0:0:0:0:
256,192,2485,1,0,0:0:0:0:
256,192,2661,1,0,0:0:0:0:
214,246,2749,1,8,0:0:0:0:
214,246,2838,1,0,0:0:0:0:
256,192,3014,1,0,0:0:0:0:
256,192,3367,1,0,0:0:0:0:
256,192,3720,1,0,0:0:0:0:
256,192,4073,1,0,0:0:0:0:
256,192,4426,1,0,0:0:0:0:
256,192,4779,1,0,0:0:0:0:
256,192,4955,1,0,0:0:0:0:
96,192,5132,1,8,0:0:0:0:
256,192,5308,1,0,0:0:0:0:
256,192,5485,1,0,0:0:0:0:
199,238,5573,1,8,0:0:0:0:
199,238,5661,1,0,0:0:0:0:
199,238,5749,1,0,0:0:0:0:
199,238,5838,1,8,0:0:0:0:
256,192,6190,1,0,0:0:0:0:
256,192,6543,1,0,0:0:0:0:
256,192,6896,1,0,0:0:0:0:
256,192,7249,1,0,0:0:0:0:
256,192,7602,1,0,0:0:0:0:
256,192,7779,1,0,0:0:0:0:
96,192,7955,1,8,0:0:0:0:
256,192,8132,1,0,0:0:0:0:
256,192,8308,1,0,0:0:0:0:
96,192,8396,1,8,0:0:0:0:
256,192,8485,1,0,0:0:0:0:
256,192,8661,1,0,0:0:0:0:
256,192,9014,1,0,0:0:0:0:
256,192,9367,1,0,0:0:0:0:
256,192,9720,1,0,0:0:0:0:
96,192,10073,1,0,0:0:0:0:
256,192,10249,1,8,0:0:0:0:
256,192,10338,1,0,0:0:0:0:
96,192,10426,1,8,0:0:0:0:
184,226,10602,1,0,0:0:0:0:
195,232,10690,1,8,0:0:0:0:
96,192,10779,1,8,0:0:0:0:
256,192,10867,1,0,0:0:0:0:
256,192,10955,1,8,0:0:0:0:
256,192,11132,1,0,0:0:0:0:
96,192,11308,1,8,0:0:0:0:
256,192,11485,1,12,0:0:0:0:
256,192,11661,1,0,0:0:0:0:
96,192,11749,1,8,0:0:0:0:
256,192,11926,1,8,0:0:0:0:
256,192,12014,1,0,0:0:0:0:
156,242,12190,1,8,0:0:0:0:
256,192,12279,1,0,0:0:0:0:
168,245,12367,1,0,0:0:0:0:
256,192,12455,1,8,0:0:0:0:
96,192,12543,1,0,0:0:0:0:
256,192,12720,1,0,0:0:0:0:
96,192,12896,1,8,0:0:0:0:
256,192,13073,1,8,0:0:0:0:
256,192,13161,1,0,0:0:0:0:
256,192,13338,1,0,0:0:0:0:
256,192,13426,1,8,0:0:0:0:
256,192,13602,1,0,0:0:0:0:
96,192,13690,1,8,0:0:0:0:
256,192,13779,1,0,0:0:0:0:
96,192,13867,1,0,0:0:0:0:
96,192,13955,1,8,0:0:0:0:
256,192,14132,1,8,0:0:0:0:
96,192,14308,1,0,0:0:0:0:
256,192,14485,1,0,0:0:0:0:
96,192,14573,1,8,0:0:0:0:
256,192,14749,1,8,0:0:0:0:
256,192,14838,1,0,0:0:0:0:
256,192,15014,1,8,0:0:0:0:
96,192,15102,1,0,0:0:0:0:
256,192,15190,1,0,0:0:0:0:
256,192,15279,1,8,0:0:0:0:
96,192,15367,1,0,0:0:0:0:
256,192,15543,1,0,0:0:0:0:
96,192,15720,1,8,0:0:0:0:
96,192,15896,1,0,0:0:0:0:
256,192,15985,1,8,0:0:0:0:
256,192,16161,1,8,0:0:0:0:
256,192,16249,1,0,0:0:0:0:
256,192,16426,1,0,0:0:0:0:
96,192,16514,1,8,0:0:0:0:
256,192,16602,1,0,0:0:0:0:
256,192,16690,1,0,0:0:0:0:
96,192,16779,1,8,0:0:0:0:
96,192,16955,1,8,0:0:0:0:
256,192,17132,1,0,0:0:0:0:
256,192,17308,1,0,0:0:0:0:
96,192,17396,1,8,0:0:0:0:
96,192,17573,1,8,0:0:0:0:
256,192,17661,1,0,0:0:0:0:
256,192,17838,1,8,0:0:0:0:
96,192,17926,1,0,0:0:0:0:
256,192,18014,1,0,0:0:0:0:
256,192,18102,1,8,0:0:0:0:
96,192,18190,1,0,0:0:0:0:
256,192,18367,1,0,0:0:0:0:
96,192,18543,1,8,0:0:0:0:
256,192,18720,1,8,0:0:0:0:
256,192,18808,1,0,0:0:0:0:
96,192,18985,1,0,0:0:0:0:
256,192,19073,1,8,0:0:0:0:
256,192,19249,1,0,0:0:0:0:
96,192,19338,1,8,0:0:0:0:
256,192,19426,1,0,0:0:0:0:
256,192,19514,1,0,0:0:0:0:
96,192,19602,1,8,0:0:0:0:
96,192,19779,1,8,0:0:0:0:
256,192,19955,1,0,0:0:0:0:
256,192,20132,1,0,0:0:0:0:
96,192,20220,1,8,0:0:0:0:
256,192,20396,1,8,0:0:0:0:
256,192,20485,1,0,0:0:0:0:
256,192,20661,1,8,0:0:0:0:
96,192,20749,1,0,0:0:0:0:
96,192,20838,1,0,0:0:0:0:
256,192,20926,1,8,0:0:0:0:
96,192,21014,1,0,0:0:0:0:
256,192,21190,1,0,0:0:0:0:
256,192,21367,1,0,0:0:0:0:
96,192,21455,1,8,0:0:0:0:
96,192,21543,1,8,0:0:0:0:
96,192,21632,1,0,0:0:0:0:
256,192,21720,1,8,0:0:0:0:
256,192,21808,1,0,0:0:0:0:
96,192,21896,1,0,0:0:0:0:
96,192,21985,1,8,0:0:0:0:
256,192,22073,1,8,0:0:0:0:
256,192,22161,1,0,0:0:0:0:
96,192,22249,1,8,0:0:0:0:
96,192,22338,1,0,0:0:0:0:
96,192,22426,1,8,0:0:0:0:
256,192,22514,1,8,0:0:0:0:
96,192,22602,1,0,0:0:0:0:
256,192,22779,1,12,0:0:0:0:
96,192,22955,1,0,0:0:0:0:
192,243,23132,1,8,0:0:0:0:
192,243,23220,1,0,0:0:0:0:
199,287,23396,1,0,0:0:0:0:
96,192,23485,1,8,0:0:0:0:
256,192,23661,1,0,0:0:0:0:
96,192,23838,1,8,0:0:0:0:
256,192,24014,1,0,0:0:0:0:
96,192,24190,1,8,0:0:0:0:
256,192,24367,1,0,0:0:0:0:
96,192,24543,1,8,0:0:0:0:
256,192,24632,1,0,0:0:0:0:
256,192,24808,1,0,0:0:0:0:
96,192,24896,1,8,0:0:0:0:
96,192,25073,1,0,0:0:0:0:
256,192,25249,1,8,0:0:0:0:
146,207,25426,1,0,0:0:0:0:
96,192,25602,1,8,0:0:0:0:
96,192,25779,1,8,0:0:0:0:
256,192,25867,1,0,0:0:0:0:
96,192,25955,1,8,0:0:0:0:
96,192,26132,1,0,0:0:0:0:
96,192,26308,1,8,0:0:0:0:
96,192,26485,1,0,0:0:0:0:
96,192,26661,1,8,0:0:0:0:
96,192,26838,1,0,0:0:0:0:
96,192,27014,1,8,0:0:0:0:
96,192,27190,1,8,0:0:0:0:
170,125,27279,1,0,0:0:0:0:
96,192,27367,1,8,0:0:0:0:
96,192,27543,1,0,0:0:0:0:
96,192,27720,1,8,0:0:0:0:
96,192,27896,1,8,0:0:0:0:
170,125,27985,1,0,0:0:0:0:
96,192,28073,1,8,0:0:0:0:
96,192,28249,1,0,0:0:0:0:
256,192,28426,1,0,0:0:0:0:
96,192,28514,1,0,0:0:0:0:
96,192,28602,1,8,0:0:0:0:
96,192,28690,1,0,0:0:0:0:
256,192,28779,1,0,0:0:0:0:
96,192,28867,1,0,0:0:0:0:
96,192,28955,1,8,0:0:0:0:
96,192,29043,1,8,0:0:0:0:
256,192,29132,1,0,0:0:0:0:
96,192,29220,1,0,0:0:0:0:
96,192,29308,1,8,0:0:0:0:
96,192,29396,1,0,0:0:0:0:
256,192,29485,1,0,0:0:0:0:
96,192,29573,1,0,0:0:0:0:
96,192,29661,1,8,0:0:0:0:
96,192,29749,1,8,0:0:0:0:
256,192,29838,1,0,0:0:0:0:
256,192,29926,1,0,0:0:0:0:
96,192,30014,1,8,0:0:0:0:
96,192,30102,1,0,0:0:0:0:
256,192,30190,1,0,0:0:0:0:
256,192,30279,1,0,0:0:0:0:
96,192,30367,1,8,0:0:0:0:
96,192,30455,1,8,0:0:0:0:
256,192,30543,1,0,0:0:0:0:
96,192,30632,1,0,0:0:0:0:
256,192,30720,1,8,0:0:0:0:
96,192,30808,1,0,0:0:0:0:
256,192,30896,1,0,0:0:0:0:
96,192,30985,1,0,0:0:0:0:
256,192,31073,1,8,0:0:0:0:
256,192,31249,1,0,0:0:0:0:
42,157,31308,1,0,0:0:0:0:
42,157,31367,1,0,0:0:0:0:
96,192,31426,1,8,0:0:0:0:
256,192,31514,1,0,0:0:0:0:
256,192,31602,1,8,0:0:0:0:
96,192,31690,1,0,0:0:0:0:
96,192,31779,1,8,0:0:0:0:
96,192,31867,1,8,0:0:0:0:
256,192,31955,1,0,0:0:0:0:
96,192,32043,1,8,0:0:0:0:
96,192,32132,1,0,0:0:0:0:
96,192,32220,1,0,0:0:0:0:
256,192,32308,1,8,0:0:0:0:
96,192,32396,1,0,0:0:0:0:
96,192,32485,1,8,0:0:0:0:
96,192,32573,1,8,0:0:0:0:
256,192,32661,1,0,0:0:0:0:
256,192,32720,1,0,0:0:0:0:
256,192,32779,1,0,0:0:0:0:
96,192,32838,1,8,0:0:0:0:
256,192,32926,1,0,0:0:0:0:
96,192,33014,1,8,0:0:0:0:
96,192,33102,1,0,0:0:0:0:
96,192,33190,1,8,0:0:0:0:
96,192,33279,1,8,0:0:0:0:
256,192,33367,1,0,0:0:0:0:
256,192,33426,1,0,0:0:0:0:
256,192,33485,1,0,0:0:0:0:
96,192,33543,1,8,0:0:0:0:
96,192,33632,1,0,0:0:0:0:
96,192,33720,1,8,0:0:0:0:
96,192,33808,1,8,0:0:0:0:
96,192,33896,1,0,0:0:0:0:
96,192,33985,1,8,0:0:0:0:
96,192,34073,1,4,0:0:0:0:
256,192,35132,1,0,0:0:0:0:
96,192,35485,1,12,0:0:0:0:
96,192,37602,1,8,0:0:0:0:
96,192,37779,1,8,0:0:0:0:
96,192,37955,1,0,0:0:0:0:
96,192,38132,1,8,0:0:0:0:
96,192,38485,1,8,0:0:0:0:
96,192,38661,1,0,0:0:0:0:
96,192,40426,1,0,0:0:0:0:
96,192,40779,1,8,0:0:0:0:
96,192,41132,1,8,0:0:0:0:
96,192,42190,1,8,0:0:0:0:
96,192,42367,1,8,0:0:0:0:
96,192,43426,1,0,0:0:0:0:
256,192,43602,1,8,0:0:0:0:
96,192,43779,1,0,0:0:0:0:
256,192,46426,1,0,0:0:0:0:
96,192,46779,1,12,0:0:0:0:
256,192,47132,1,0,0:0:0:0:
96,192,47485,1,0,0:0:0:0:
256,192,47838,1,0,0:0:0:0:
96,192,48190,1,0,0:0:0:0:
256,192,48543,1,0,0:0:0:0:
96,192,48896,1,8,0:0:0:0:
96,192,49073,1,8,0:0:0:0:
256,192,49249,1,0,0:0:0:0:
96,192,49426,1,8,0:0:0:0:
96,192,49779,1,8,0:0:0:0:
256,192,49955,1,0,0:0:0:0:
96,192,50308,1,0,0:0:0:0:
256,192,50661,1,0,0:0:0:0:
96,192,51014,1,0,0:0:0:0:
256,192,51367,1,0,0:0:0:0:
96,192,51720,1,0,0:0:0:0:
96,192,52073,1,8,0:0:0:0:
256,192,52249,1,0,0:0:0:0:
96,192,52426,1,8,0:0:0:0:
256,192,52779,1,0,0:0:0:0:
256,192,53132,1,0,0:0:0:0:
96,192,53485,1,8,0:0:0:0:
96,192,53661,1,8,0:0:0:0:
256,192,53838,1,0,0:0:0:0:
256,192,54190,1,0,0:0:0:0:
256,192,54543,1,0,0:0:0:0:
96,192,54720,1,8,0:0:0:0:
96,192,54896,1,8,0:0:0:0:
96,192,55073,1,0,0:0:0:0:
256,192,55249,1,8,0:0:0:0:
256,192,55426,1,0,0:0:0:0:
256,192,55514,1,0,0:0:0:0:
96,192,55602,1,8,0:0:0:0:
256,192,55690,1,0,0:0:0:0:
96,192,55867,1,8,0:0:0:0:
256,192,55955,1,8,0:0:0:0:
106,243,56043,1,0,0:0:0:0:
256,192,56132,1,8,0:0:0:0:
96,192,56308,1,8,0:0:0:0:
96,192,56485,1,8,0:0:0:0:
96,192,56573,1,0,0:0:0:0:
256,192,56661,1,8,0:0:0:0:
256,192,56838,1,0,0:0:0:0:
96,192,57014,1,8,0:0:0:0:
256,192,57102,1,0,0:0:0:0:
96,192,57279,1,8,0:0:0:0:
256,192,57367,1,0,0:0:0:0:
96,192,57455,1,8,0:0:0:0:
96,192,57543,1,8,0:0:0:0:
96,192,57632,1,0,0:0:0:0:
256,192,57720,1,8,0:0:0:0:
96,192,57808,1,0,0:0:0:0:
96,192,57896,1,8,0:0:0:0:
96,192,58073,1,4,0:0:0:0:
256,192,58249,1,0,0:0:0:0:
117,172,58338,1,0,0:0:0:0:
96,192,58426,1,8,0:0:0:0:
256,192,58602,1,0,0:0:0:0:
96,192,58779,1,8,0:0:0:0:
168,262,58867,1,0,0:0:0:0:
227,257,59043,1,0,0:0:0:0:
96,192,59132,1,8,0:0:0:0:
256,192,59308,1,0,0:0:0:0:
96,192,59485,1,8,0:0:0:0:
256,192,59661,1,0,0:0:0:0:
96,192,59749,1,0,0:0:0:0:
227,257,59838,1,8,0:0:0:0:
256,192,60014,1,0,0:0:0:0:
96,192,60190,1,8,0:0:0:0:
132,245,60279,1,8,0:0:0:0:
132,245,60367,1,0,0:0:0:0:
132,245,60455,1,0,0:0:0:0:
96,192,60543,1,8,0:0:0:0:
256,192,60720,1,0,0:0:0:0:
96,192,60896,1,8,0:0:0:0:
256,192,61073,1,0,0:0:0:0:
256,192,61161,1,0,0:0:0:0:
96,192,61249,1,8,0:0:0:0:
256,192,61426,1,0,0:0:0:0:
96,192,61602,1,8,0:0:0:0:
96,192,61690,1,0,0:0:0:0:
96,192,61867,1,0,0:0:0:0:
256,192,61955,1,8,0:0:0:0:
187,121,62132,1,0,0:0:0:0:
96,192,62308,1,8,0:0:0:0:
96,192,62396,1,8,0:0:0:0:
256,192,62485,1,0,0:0:0:0:
256,192,62573,1,0,0:0:0:0:
96,192,62661,1,8,0:0:0:0:
256,192,62838,1,0,0:0:0:0:
96,192,63014,1,8,0:0:0:0:
96,192,63190,1,8,0:0:0:0:
217,109,63279,1,0,0:0:0:0:
96,192,63367,1,8,0:0:0:0:
256,192,63543,1,0,0:0:0:0:
96,192,63720,1,8,0:0:0:0:
96,192,63808,1,8,0:0:0:0:
256,192,63896,1,0,0:0:0:0:
256,192,63985,1,0,0:0:0:0:
96,192,64073,1,8,0:0:0:0:
96,192,64161,1,8,0:0:0:0:
224,192,64249,1,0,0:0:0:0:
224,192,64338,1,0,0:0:0:0:
96,192,64426,1,8,0:0:0:0:
224,192,64514,1,0,0:0:0:0:
224,192,64602,1,8,0:0:0:0:
224,192,64690,1,0,0:0:0:0:
224,192,64779,1,8,0:0:0:0:
224,192,64867,1,8,0:0:0:0:
224,192,64955,1,0,0:0:0:0:
96,192,65132,1,8,0:0:0:0:
224,192,65220,1,0,0:0:0:0:
96,192,65308,1,8,0:0:0:0:
224,192,65396,1,0,0:0:0:0:
96,192,65485,1,8,0:0:0:0:
224,192,65573,1,8,0:0:0:0:
96,192,65661,1,8,0:0:0:0:
224,192,65749,1,0,0:0:0:0:
96,192,65838,1,8,0:0:0:0:
224,192,65926,1,0,0:0:0:0:
96,192,66014,1,8,0:0:0:0:
224,192,66102,1,0,0:0:0:0:
96,192,66190,1,8,0:0:0:0:
224,192,66279,1,8,0:0:0:0:
96,192,66367,1,8,0:0:0:0:
96,192,66543,1,8,0:0:0:0:
56,179,66632,1,8,0:0:0:0:
143,126,66720,1,0,0:0:0:0:
192,160,66808,1,0,0:0:0:0:
160,192,66896,1,8,0:0:0:0:
160,224,66985,1,8,0:0:0:0:
160,224,67073,1,0,0:0:0:0:
31,158,67161,1,0,0:0:0:0:
160,224,67249,1,8,0:0:0:0:
160,224,67338,1,0,0:0:0:0:
160,224,67426,1,8,0:0:0:0:
160,224,67514,1,0,0:0:0:0:
160,224,67602,1,8,0:0:0:0:
160,224,67690,1,8,0:0:0:0:
160,224,67779,1,0,0:0:0:0:
245,130,67838,1,0,0:0:0:0:
160,224,67896,1,0,0:0:0:0:
160,224,67955,1,0,0:0:0:0:
192,256,68132,1,0,0:0:0:0:
96,192,68308,1,8,0:0:0:0:
192,256,68396,1,0,0:0:0:0:
96,192,68485,1,8,0:0:0:0:
192,256,68661,1,8,0:0:0:0:
192,256,68749,1,0,0:0:0:0:
192,256,68838,1,8,0:0:0:0:
192,256,68926,1,8,0:0:0:0:
192,256,69014,1,0,0:0:0:0:
192,256,69190,1,0,0:0:0:0:
96,192,69367,1,12,0:0:0:0:
128,256,69543,1,0,0:0:0:0:
160,256,69632,1,0,0:0:0:0:
96,192,69720,1,8,0:0:0:0:
160,256,69896,1,0,0:0:0:0:
160,256,69985,1,8,0:0:0:0:
160,256,70073,1,0,0:0:0:0:
160,256,70161,1,0,0:0:0:0:
160,256,70249,1,8,0:0:0:0:
96,192,70426,1,8,0:0:0:0:
160,256,70514,1,8,0:0:0:0:
160,256,70602,1,0,0:0:0:0:
160,256,70690,1,8,0:0:0:0:
96,192,70779,1,0,0:0:0:0:
160,256,70955,1,0,0:0:0:0:
96,192,71132,1,8,0:0:0:0:
128,192,71308,1,8,0:0:0:0:
128,192,71396,1,0,0:0:0:0:
128,192,71485,1,0,0:0:0:0:
188,186,71573,1,8,0:0:0:0:
160,256,71661,1,0,0:0:0:0:
231,274,71838,1,8,0:0:0:0:
231,274,71926,1,8,0:0:0:0:
160,256,72014,1,0,0:0:0:0:
231,274,72102,1,0,0:0:0:0:
96,192,72190,1,8,0:0:0:0:
96,224,72367,1,0,0:0:0:0:
96,224,72455,1,0,0:0:0:0:
128,192,72543,1,8,0:0:0:0:
128,192,72720,1,0,0:0:0:0:
160,192,72808,1,8,0:0:0:0:
96,192,72896,1,0,0:0:0:0:
160,192,72985,1,0,0:0:0:0:
96,192,73073,1,8,0:0:0:0:
160,192,73249,1,8,0:0:0:0:
64,192,73426,1,0,0:0:0:0:
64,192,73514,1,0,0:0:0:0:
96,192,73602,1,8,0:0:0:0:
96,192,73779,1,0,0:0:0:0:
96,192,73955,1,8,0:0:0:0:
96,192,74043,1,8,0:0:0:0:
154,243,74132,1,0,0:0:0:0:
96,192,74220,1,8,0:0:0:0:
96,192,74308,1,0,0:0:0:0:
126,245,74396,1,0,0:0:0:0:
160,224,74485,1,8,0:0:0:0:
96,192,74661,1,8,0:0:0:0:
160,224,74749,1,0,0:0:0:0:
96,192,74838,1,8,0:0:0:0:
96,192,74926,1,0,0:0:0:0:
96,192,75014,1,8,0:0:0:0:
128,192,75190,1,0,0:0:0:0:
64,192,75279,1,0,0:0:0:0:
96,192,75367,1,8,0:0:0:0:
128,192,75543,1,8,0:0:0:0:
160,192,75632,1,8,0:0:0:0:
140,257,75720,1,0,0:0:0:0:
128,192,75808,1,0,0:0:0:0:
140,257,75896,1,8,0:0:0:0:
160,192,76073,1,8,0:0:0:0:
160,192,76249,1,0,0:0:0:0:
160,192,76338,1,0,0:0:0:0:
96,192,76426,1,8,0:0:0:0:
160,192,76602,1,0,0:0:0:0:
96,192,76779,1,8,0:0:0:0:
128,192,76867,1,8,0:0:0:0:
189,271,76955,1,0,0:0:0:0:
189,271,77043,1,8,0:0:0:0:
189,271,77132,1,0,0:0:0:0:
189,271,77220,1,0,0:0:0:0:
189,271,77308,1,8,0:0:0:0:
96,192,77485,1,8,0:0:0:0:
160,192,77573,1,8,0:0:0:0:
160,192,77661,1,0,0:0:0:0:
160,192,77749,1,0,0:0:0:0:
160,192,77838,1,8,0:0:0:0:
160,192,78014,1,0,0:0:0:0:
160,192,78190,1,8,0:0:0:0:
128,192,78367,1,0,0:0:0:0:
184,268,78455,1,0,0:0:0:0:
96,192,78543,1,8,0:0:0:0:
128,192,78720,1,8,0:0:0:0:
96,192,78896,1,0,0:0:0:0:
128,192,79073,1,0,0:0:0:0:
128,192,79161,1,0,0:0:0:0:
96,192,79249,1,8,0:0:0:0:
128,192,79426,1,0,0:0:0:0:
96,192,79602,1,8,0:0:0:0:
128,192,79690,1,0,0:0:0:0:
205,254,79779,1,0,0:0:0:0:
128,192,79867,1,0,0:0:0:0:
96,192,79955,1,8,0:0:0:0:
205,254,80043,1,8,0:0:0:0:
160,192,80132,1,0,0:0:0:0:
205,254,80220,1,0,0:0:0:0:
96,192,80308,1,8,0:0:0:0:
128,192,80485,1,0,0:0:0:0:
96,192,80661,1,12,0:0:0:0:
128,256,80838,1,0,0:0:0:0:
160,256,80926,1,0,0:0:0:0:
96,192,81014,1,8,0:0:0:0:
160,256,81190,1,0,0:0:0:0:
160,256,81279,1,8,0:0:0:0:
160,256,81367,1,0,0:0:0:0:
160,256,81455,1,0,0:0:0:0:
160,256,81543,1,8,0:0:0:0:
96,192,81720,1,8,0:0:0:0:
160,256,81808,1,8,0:0:0:0:
160,256,81896,1,0,0:0:0:0:
160,256,81985,1,8,0:0:0:0:
96,192,82073,1,0,0:0:0:0:
160,256,82249,1,0,0:0:0:0:
96,192,82426,1,8,0:0:0:0:
128,192,82602,1,8,0:0:0:0:
174,237,82690,1,0,0:0:0:0:
128,192,82779,1,0,0:0:0:0:
188,186,82867,1,8,0:0:0:0:
160,256,82955,1,0,0:0:0:0:
67,153,83043,1,0,0:0:0:0:
231,274,83132,1,8,0:0:0:0:
231,274,83220,1,8,0:0:0:0:
160,256,83308,1,0,0:0:0:0:
231,274,83396,1,0,0:0:0:0:
96,192,83485,1,8,0:0:0:0:
96,224,83661,1,0,0:0:0:0:
96,224,83749,1,0,0:0:0:0:
128,192,83838,1,8,0:0:0:0:
128,192,84014,1,0,0:0:0:0:
160,192,84102,1,8,0:0:0:0:
96,192,84190,1,0,0:0:0:0:
160,192,84279,1,0,0:0:0:0:
96,192,84367,1,8,0:0:0:0:
160,192,84543,1,8,0:0:0:0:
64,192,84720,1,0,0:0:0:0:
64,192,84808,1,0,0:0:0:0:
96,192,84896,1,8,0:0:0:0:
96,192,85073,1,0,0:0:0:0:
96,192,85249,1,8,0:0:0:0:
96,192,85338,1,8,0:0:0:0:
154,243,85426,1,0,0:0:0:0:
96,192,85514,1,8,0:0:0:0:
96,192,85602,1,0,0:0:0:0:
126,245,85690,1,0,0:0:0:0:
160,224,85779,1,8,0:0:0:0:
96,192,85955,1,8,0:0:0:0:
160,224,86043,1,0,0:0:0:0:
96,192,86132,1,8,0:0:0:0:
96,192,86220,1,0,0:0:0:0:
96,192,86308,1,8,0:0:0:0:
128,192,86485,1,0,0:0:0:0:
64,192,86573,1,0,0:0:0:0:
96,192,86661,1,8,0:0:0:0:
128,192,86838,1,8,0:0:0:0:
160,192,86926,1,8,0:0:0:0:
140,257,87014,1,0,0:0:0:0:
128,192,87102,1,0,0:0:0:0:
140,257,87190,1,8,0:0:0:0:
160,192,87367,1,8,0:0:0:0:
160,192,87543,1,8,0:0:0:0:
154,247,87632,1,0,0:0:0:0:
96,192,87720,1,8,0:0:0:0:
160,192,87896,1,0,0:0:0:0:
96,192,88073,1,8,0:0:0:0:
128,192,88161,1,8,0:0:0:0:
189,271,88249,1,0,0:0:0:0:
189,271,88338,1,8,0:0:0:0:
189,271,88426,1,0,0:0:0:0:
189,271,88514,1,0,0:0:0:0:
189,271,88602,1,8,0:0:0:0:
96,192,88779,1,8,0:0:0:0:
154,247,88867,1,0,0:0:0:0:
160,192,88955,1,8,0:0:0:0:
160,192,89132,1,8,0:0:0:0:
160,192,89220,1,8,0:0:0:0:
160,192,89308,1,0,0:0:0:0:
160,192,89396,1,0,0:0:0:0:
160,192,89485,1,8,0:0:0:0:
160,192,89573,1,0,0:0:0:0:
160,192,89661,1,8,0:0:0:0:
160,192,89749,1,0,0:0:0:0:
160,192,89838,1,8,0:0:0:0:
160,192,89926,1,8,0:0:0:0:
160,160,90014,1,0,0:0:0:0:
160,192,90102,1,0,0:0:0:0:
160,192,90190,1,8,0:0:0:0:
160,192,90279,1,0,0:0:0:0:
160,192,90367,1,8,0:0:0:0:
160,192,90455,1,0,0:0:0:0:
160,192,90543,1,8,0:0:0:0:
160,192,90632,1,8,0:0:0:0:
160,192,90720,1,0,0:0:0:0:
160,192,90808,1,0,0:0:0:0:
160,192,90896,1,8,0:0:0:0:
160,192,90985,1,8,0:0:0:0:
160,192,91073,1,0,0:0:0:0:
160,192,91161,1,8,0:0:0:0:
160,192,91249,1,0,0:0:0:0:
160,192,91338,1,0,0:0:0:0:
160,192,91426,1,8,0:0:0:0:
160,192,91514,1,0,0:0:0:0:
160,192,91602,1,8,0:0:0:0:
160,192,91690,1,8,0:0:0:0:
160,192,91779,1,8,0:0:0:0:
160,192,91955,1,4,0:0:0:0:
160,192,92132,1,0,0:0:0:0:
160,192,92308,1,0,0:0:0:0:
160,192,92485,1,8,0:0:0:0:
185,239,92661,1,0,0:0:0:0:
160,192,92838,1,0,0:0:0:0:
160,192,93014,1,8,0:0:0:0:
160,192,93367,1,0,0:0:0:0:
160,192,93720,1,8,0:0:0:0:
160,192,94073,1,0,0:0:0:0:
160,192,94426,1,8,0:0:0:0:
160,192,94779,1,0,0:0:0:0:
160,192,94955,1,0,0:0:0:0:
160,192,95132,1,8,0:0:0:0:
160,192,95308,1,0,0:0:0:0:
160,192,95485,1,0,0:0:0:0:
160,192,95661,1,8,0:0:0:0:
160,192,95838,1,0,0:0:0:0:
160,192,96190,1,0,0:0:0:0:
160,192,96543,1,8,0:0:0:0:
160,192,96896,1,0,0:0:0:0:
160,192,97249,1,8,0:0:0:0:
160,192,97602,1,0,0:0:0:0:
160,192,97779,1,0,0:0:0:0:
160,192,97955,1,0,0:0:0:0:
160,192,98132,1,8,0:0:0:0:
160,192,98308,1,0,0:0:0:0:
160,192,98485,1,0,0:0:0:0:
160,192,98661,1,8,0:0:0:0:
160,192,99014,1,0,0:0:0:0:
160,192,99367,1,8,0:0:0:0:
160,192,99720,1,0,0:0:0:0:
160,192,100073,1,8,0:0:0:0:
160,192,100426,1,0,0:0:0:0:
160,192,100602,1,0,0:0:0:0:
160,192,100779,1,8,0:0:0:0:
160,192,100955,1,0,0:0:0:0:
160,192,101132,1,0,0:0:0:0:
160,192,101308,1,8,0:0:0:0:
160,192,101485,1,0,0:0:0:0:
177,213,101838,1,0,0:0:0:0:
160,192,102014,1,0,0:0:0:0:
160,192,102102,1,0,0:0:0:0:
160,192,102190,1,8,0:0:0:0:
160,192,102367,1,0,0:0:0:0:
192,192,102455,1,8,0:0:0:0:
160,192,102632,1,8,0:0:0:0:
160,192,102720,1,0,0:0:0:0:
160,192,102896,1,0,0:0:0:0:
160,192,102985,1,8,0:0:0:0:
160,192,103073,1,0,0:0:0:0:
160,192,103249,1,0,0:0:0:0:
160,192,103426,1,0,0:0:0:0:
128,224,103602,1,8,0:0:0:0:
128,192,103779,1,8,0:0:0:0:
192,192,104132,1,0,0:0:0:0:
128,224,104308,1,8,0:0:0:0:
224,192,104485,1,8,0:0:0:0:
192,192,104838,1,0,0:0:0:0:
128,224,105014,1,8,0:0:0:0:
224,192,105190,1,8,0:0:0:0:
192,192,105367,1,0,0:0:0:0:
224,192,105543,1,8,0:0:0:0:
192,192,105720,1,8,0:0:0:0:
192,192,105808,1,8,0:0:0:0:
224,192,105896,1,8,0:0:0:0:
167,212,105985,1,8,0:0:0:0:
192,192,106073,1,0,0:0:0:0:
192,192,106249,1,0,0:0:0:0:
160,192,106426,1,8,0:0:0:0:
192,192,106602,1,8,0:0:0:0:
192,192,106955,1,0,0:0:0:0:
160,192,107132,1,8,0:0:0:0:
160,192,107308,1,8,0:0:0:0:
192,192,107661,1,0,0:0:0:0:
192,192,108014,1,0,0:0:0:0:
192,192,108190,1,8,0:0:0:0:
192,192,108367,1,8,0:0:0:0:
192,192,108543,1,0,0:0:0:0:
192,192,108632,1,0,0:0:0:0:
192,192,108720,1,8,0:0:0:0:
167,212,108808,1,8,0:0:0:0:
192,192,108896,1,0,0:0:0:0:
192,192,109073,1,0,0:0:0:0:
160,224,109249,1,8,0:0:0:0:
160,192,109426,1,8,0:0:0:0:
160,224,109779,1,0,0:0:0:0:
0,160,109955,1,8,0:0:0:0:
32,160,110132,1,8,0:0:0:0:
192,192,110308,1,0,0:0:0:0:
146,195,110838,1,0,0:0:0:0:
192,192,111190,1,0,0:0:0:0:
160,192,111367,1,0,0:0:0:0:
160,160,111455,1,8,0:0:0:0:
192,192,111543,1,0,0:0:0:0:
192,192,111720,1,8,0:0:0:0:
128,192,112073,1,8,0:0:0:0:
192,192,112426,1,8,0:0:0:0:
192,192,112779,1,8,0:0:0:0:
192,192,113132,1,8,0:0:0:0:
256,192,113308,12,8,114543,0:0:0:0:
