osu file format v14

[General]
AudioFilename: audio.mp3
AudioLeadIn: 0
PreviewTime: 35132
Countdown: 0
SampleSet: Normal
StackLeniency: 0.7
Mode: 1
LetterboxInBreaks: 0
WidescreenStoryboard: 0

[Editor]
Bookmarks: 190,11484,17131,22778,35484,46778,58073,69367,80661,91955,103249
DistanceSpacing: 1.2
BeatDivisor: 2
GridSize: 32
TimelineZoom: 1.9

[Metadata]
Title:Exit This Earth's Estratosphere
TitleUnicode:Exit This Earth's Estratosphere
Artist:Camellia feat. Carlos Menem
ArtistUnicode:かめりあ feat. Carlos Menem
Creator:gaston_2199
Version:Desde Argentina en Japon
Source:
Tags:FA Featured Artist ginka*EX _w6 mashup argentinian meme novelty estratosfera planet//shaper drumstep kamelcamellia cametek atmosphere dnb dubstep drumstep drum and bass argentine argentina electronic spanish español _WWWWWW_WWWWWW_ Atomosphere Stratosphere かめるかめりあ CTCD-011 Atreevete
BeatmapID:1981961
BeatmapSetID:949124

[Difficulty]
HPDrainRate:6
CircleSize:2
OverallDifficulty:7
ApproachRate:10
SliderMultiplier:1.4
SliderTickRate:1

[Events]
//Background and Video events
0,0,"BG.jpg",0,0
//Break Periods
//Storyboard Layer 0 (Background)
//Storyboard Layer 1 (Fail)
//Storyboard Layer 2 (Pass)
//Storyboard Layer 3 (Foreground)
//Storyboard Layer 4 (Overlay)
//Storyboard Sound Samples

[TimingPoints]
191,352.941176470588,4,1,0,65,1,0
191,-125,4,1,0,65,0,0
2661,-123.456790123457,4,1,0,65,0,0
2749,-121.951219512195,4,1,0,65,0,0
2838,-120.481927710843,4,1,0,65,0,0
2926,-119.047619047619,4,1,0,65,0,0
3014,-117.647058823529,4,1,0,65,0,0
5485,-116.279069767442,4,1,0,65,0,0
5573,-114.942528735632,4,1,0,65,0,0
5661,-113.636363636364,4,1,0,65,0,0
5749,-112.359550561798,4,1,0,65,0,0
5838,-111.111111111111,4,1,0,65,0,0
8308,-109.89010989011,4,1,0,65,0,0
8396,-108.695652173913,4,1,0,65,0,0
8485,-107.52688172043,4,1,0,65,0,0
8573,-106.382978723404,4,1,0,65,0,0
8661,-105.263157894737,4,1,0,65,0,0
10073,-106.382978723404,4,1,0,75,0,0
10161,-107.52688172043,4,1,0,75,0,0
10249,-108.695652173913,4,1,0,75,0,0
10338,-109.89010989011,4,1,0,75,0,0
10426,-111.111111111111,4,1,0,75,0,0
10514,-112.359550561798,4,1,0,75,0,0
10602,-113.636363636364,4,1,0,75,0,0
10690,-114.942528735632,4,1,0,75,0,0
10779,-116.279069767442,4,1,0,75,0,0
10867,-117.647058823529,4,1,0,75,0,0
10955,-119.047619047619,4,1,0,75,0,0
11043,-120.481927710843,4,1,0,75,0,0
11132,-121.951219512195,4,1,0,75,0,0
11220,-123.456790123457,4,1,0,75,0,0
11308,-125,4,1,0,75,0,0
11485,-100,4,1,0,80,0,0
23485,-99.0099009900991,4,1,0,80,0,0
23838,-98.0392156862744,4,1,0,80,0,0
24190,-97.0873786407764,4,1,0,80,0,0
24543,-96.1538461538461,4,1,0,80,0,0
24896,-95.238095238095,4,1,0,80,0,0
25249,-94.3396226415095,4,1,0,80,0,0
25602,-93.4579439252336,4,1,0,80,0,0
25955,-92.5925925925929,4,1,0,80,0,0
26308,-91.7431192660552,4,1,0,80,0,0
26661,-90.9090909090908,4,1,0,80,0,0
27014,-90.0900900900902,4,1,0,80,0,0
27367,-89.2857142857143,4,1,0,80,0,0
27720,-88.4955752212389,4,1,0,80,0,0
28073,-87.7192982456139,4,1,0,80,0,0
28426,-86.9565217391306,4,1,0,80,0,0
30896,-86.2068965517241,4,1,0,80,0,0
30985,-85.4700854700855,4,1,0,80,0,0
31073,-84.7457627118644,4,1,0,80,0,0
31161,-84.0336134453781,4,1,0,80,0,0
31249,-83.3333333333333,4,1,0,80,0,0
35132,-133.333333333333,4,1,0,80,0,0
35485,-133.333333333333,4,1,0,80,0,0
37598,-133.333333333333,4,1,0,65,0,0
46426,-133.333333333333,4,1,0,80,0,0
46779,-125,4,1,0,80,0,0
47132,-125,4,1,0,75,0,0
52073,-120.481927710843,4,1,0,75,0,0
52426,-117.647058823529,4,1,0,75,0,0
54896,-116.279069767442,4,1,0,75,0,0
55073,-114.942528735632,4,1,0,75,0,0
55249,-111.111111111111,4,1,0,75,0,0
57190,-109.89010989011,4,1,0,80,0,0
57279,-108.695652173913,4,1,0,80,0,0
57367,-107.52688172043,4,1,0,80,0,0
57455,-106.382978723404,4,1,0,80,0,0
57543,-105.263157894737,4,1,0,80,0,0
57632,-104.166666666667,4,1,0,80,0,0
57720,-103.092783505155,4,1,0,80,0,0
57808,-102.040816326531,4,1,0,80,0,0
57896,-101.010101010101,4,1,0,80,0,0
58073,-100,4,1,0,80,0,0
58426,-111.111111111111,4,1,0,80,0,0
60896,-105.263157894737,4,1,0,80,0,0
63720,-100,4,1,0,80,0,0
66543,-99.009900990099,4,1,0,80,0,0
66602,-98.0392156862745,4,1,0,80,0,0
66661,-97.0873786407767,4,1,0,80,0,0
66720,-96.1538461538461,4,1,0,80,0,0
66808,-95.2380952380952,4,1,0,80,0,0
67249,-94.3396226415094,4,1,0,80,0,0
67308,-93.4579439252336,4,1,0,80,0,0
67367,-92.5925925925926,4,1,0,80,0,0
67426,-91.743119266055,4,1,0,80,0,0
67514,-90.9090909090909,4,1,0,80,0,0
68132,-91.743119266055,4,1,0,80,0,0
68220,-92.5925925925926,4,1,0,80,0,0
68308,-93.4579439252336,4,1,0,80,0,0
68396,-94.3396226415094,4,1,0,80,0,0
68485,-95.2380952380952,4,1,0,80,0,0
68573,-96.1538461538461,4,1,0,80,0,0
68661,-97.0873786407767,4,1,0,80,0,0
68749,-98.0392156862745,4,1,0,80,0,0
68838,-99.009900990099,4,1,0,80,0,0
68926,-100,4,1,0,80,0,0
69014,-101.010101010101,4,1,0,80,0,0
69073,-102.040816326531,4,1,0,80,0,0
69132,-103.092783505155,4,1,0,80,0,0
69190,-104.166666666667,4,1,0,80,0,0
69367,-83.3333333333333,4,1,0,90,0,1
80308,-81.9672131147541,4,1,0,90,0,1
80396,-81.3008130081301,4,1,0,90,0,1
80485,-80.6451612903226,4,1,0,90,0,1
80661,-80,4,1,0,90,0,1
85955,-79.3650793650794,4,1,0,90,0,1
86043,-78.7401574803149,4,1,0,90,0,1
86132,-78.125,4,1,0,90,0,1
86220,-77.5193798449612,4,1,0,90,0,1
86308,-76.9230769230769,4,1,0,90,0,1
91955,-76.9230769230769,4,1,0,80,0,0
92132,-79.3650793650794,4,1,0,80,0,0
92220,-80.6451612903226,4,1,0,80,0,0
92308,-81.9672131147541,4,1,0,80,0,0
92485,-83.3333333333333,4,1,0,80,0,0
92573,-84.7457627118644,4,1,0,80,0,0
92661,-86.2068965517241,4,1,0,80,0,0
92749,-87.719298245614,4,1,0,80,0,0
92838,-89.2857142857143,4,1,0,80,0,0
92926,-90.9090909090909,4,1,0,80,0,0
93014,-92.5925925925926,4,1,0,80,0,0
93190,-96.1538461538461,4,1,0,80,0,0
93279,-98.0392156862745,4,1,0,80,0,0
93367,-100,4,1,0,80,0,0
102455,-99.009900990099,4,1,0,80,0,0
102543,-98.0392156862745,4,1,0,80,0,0
102632,-97.0873786407767,4,1,0,80,0,0
102720,-96.1538461538461,4,1,0,80,0,0
102808,-95.2380952380952,4,1,0,80,0,0
102896,-94.3396226415094,4,1,0,80,0,0
102985,-93.4579439252336,4,1,0,80,0,0
103073,-92.5925925925926,4,1,0,80,0,0
103161,-91.743119266055,4,1,0,80,0,0
103245,-90.9090909090909,4,1,0,80,0,0
103602,-92.5925925925926,4,1,0,65,0,0
103779,-94.3396226415094,4,1,0,65,0,0
103955,-96.1538461538461,4,1,0,65,0,0
104308,-100,4,1,0,65,0,0
104485,-103.092783505155,4,1,0,65,0,0
104661,-105.263157894737,4,1,0,65,0,0
105720,-106.382978723404,4,1,0,65,0,0
105808,-107.52688172043,4,1,0,65,0,0
105896,-108.695652173913,4,1,0,65,0,0
105985,-109.89010989011,4,1,0,65,0,0
106073,-111.111111111111,4,1,0,65,0,0
108543,-112.359550561798,4,1,0,65,0,0
108632,-113.636363636364,4,1,0,65,0,0
108720,-114.942528735632,4,1,0,65,0,0
108808,-116.279069767442,4,1,0,65,0,0
108896,-117.647058823529,4,1,0,65,0,0
111367,-119.047619047619,4,1,0,65,0,0
111455,-120.481927710843,4,1,0,65,0,0
111543,-121.951219512195,4,1,0,65,0,0
111632,-123.456790123457,4,1,0,65,0,0
111720,-125,4,1,0,65,0,0
113304,-125,4,1,0,50,0,0

[HitObjects]
258,174,191,5,0,0:0:0:0:
258,174,543,1,0,0:0:0:0:
258,174,896,1,0,0:0:0:0:
258,174,1249,1,0,0:0:0:0:
258,174,1602,1,0,0:0:0:0:
258,174,1955,1,0,0:0:0:0:
258,174,2132,1,8,0:0:0:0:
258,174,2308,1,8,0:0:0:0:
258,174,2485,1,0,0:0:0:0:
258,174,2661,1,8,0:0:0:0:
258,174,2749,1,8,0:0:0:0:
258,174,2838,1,8,0:0:0:0:
256,144,2926,1,8,0:0:0:0:
258,174,3014,1,0,0:0:0:0:
265,151,3367,5,0,0:0:0:0:
276,151,3543,1,0,0:0:0:0:
276,151,3720,1,0,0:0:0:0:
265,151,4073,1,0,0:0:0:0:
276,151,4249,1,0,0:0:0:0:
265,151,4426,1,0,0:0:0:0:
265,151,4779,1,0,0:0:0:0:
276,151,4955,1,8,0:0:0:0:
276,151,5132,1,0,0:0:0:0:
276,151,5308,1,8,0:0:0:0:
265,151,5485,1,0,0:0:0:0:
265,151,5573,1,0,0:0:0:0:
265,151,5661,1,8,0:0:0:0:
256,144,5749,1,8,0:0:0:0:
265,151,5838,1,0,0:0:0:0:
276,151,6190,5,0,0:0:0:0:
276,151,6367,1,8,0:0:0:0:
276,151,6543,1,0,0:0:0:0:
276,151,6896,1,0,0:0:0:0:
276,151,7073,1,8,0:0:0:0:
276,151,7249,1,0,0:0:0:0:
276,151,7602,1,0,0:0:0:0:
276,151,7779,1,8,0:0:0:0:
276,151,7955,1,8,0:0:0:0:
276,151,8132,1,0,0:0:0:0:
276,151,8308,1,8,0:0:0:0:
276,151,8396,1,8,0:0:0:0:
276,151,8485,1,8,0:0:0:0:
269,140,8573,1,8,0:0:0:0:
276,151,8661,1,0,0:0:0:0:
264,141,9014,5,0,0:0:0:0:
264,141,9190,1,8,0:0:0:0:
264,141,9367,1,0,0:0:0:0:
264,141,9720,1,0,0:0:0:0:
264,141,9896,1,8,0:0:0:0:
264,141,10073,1,0,0:0:0:0:
264,141,10161,1,8,0:0:0:0:
264,141,10249,1,8,0:0:0:0:
264,141,10338,1,0,0:0:0:0:
264,141,10426,1,0,0:0:0:0:
264,141,10514,1,8,0:0:0:0:
264,141,10602,1,0,0:0:0:0:
264,141,10690,1,8,0:0:0:0:
264,141,10779,1,0,0:0:0:0:
264,141,10867,1,8,0:0:0:0:
264,141,10955,1,8,0:0:0:0:
264,141,11043,1,8,0:0:0:0:
264,141,11132,1,0,0:0:0:0:
264,141,11220,1,0,0:0:0:0:
264,141,11308,1,8,0:0:0:0:
264,141,11485,5,4,0:0:0:0:
271,143,11661,1,8,0:0:0:0:
271,143,11749,1,8,0:0:0:0:
271,143,11838,1,0,0:0:0:0:
271,143,11926,1,0,0:0:0:0:
271,143,12014,1,8,0:0:0:0:
271,143,12102,1,0,0:0:0:0:
271,143,12279,1,0,0:0:0:0:
271,143,12367,1,8,0:0:0:0:
271,143,12455,1,8,0:0:0:0:
284,149,12543,1,0,0:0:0:0:
271,143,12632,1,8,0:0:0:0:
271,143,12720,1,0,0:0:0:0:
281,148,12896,1,0,0:0:0:0:
271,143,12985,1,0,0:0:0:0:
271,143,13073,1,8,0:0:0:0:
271,143,13161,1,8,0:0:0:0:
271,143,13249,1,0,0:0:0:0:
271,143,13338,1,8,0:0:0:0:
271,143,13426,1,0,0:0:0:0:
271,143,13514,1,0,0:0:0:0:
299,169,13690,1,8,0:0:0:0:
299,169,13779,1,0,0:0:0:0:
299,169,13867,1,8,0:0:0:0:
301,159,13955,1,0,0:0:0:0:
299,169,14043,1,0,0:0:0:0:
299,169,14132,1,8,0:0:0:0:
299,169,14220,1,8,0:0:0:0:
299,169,14308,1,0,0:0:0:0:
299,169,14485,5,8,0:0:0:0:
299,169,14573,1,8,0:0:0:0:
299,169,14661,1,0,0:0:0:0:
293,178,14749,1,0,0:0:0:0:
299,169,14838,1,8,0:0:0:0:
299,169,14926,1,0,0:0:0:0:
299,169,15102,1,0,0:0:0:0:
299,169,15190,1,8,0:0:0:0:
299,169,15279,1,0,0:0:0:0:
299,169,15367,1,8,0:0:0:0:
299,169,15455,1,8,0:0:0:0:
293,151,15543,1,0,0:0:0:0:
299,169,15720,1,0,0:0:0:0:
293,151,15808,1,0,0:0:0:0:
293,151,15896,1,8,0:0:0:0:
293,151,15985,1,8,0:0:0:0:
293,151,16073,1,0,0:0:0:0:
293,151,16161,1,8,0:0:0:0:
293,151,16249,1,8,0:0:0:0:
293,151,16338,1,0,0:0:0:0:
293,151,16514,1,0,0:0:0:0:
293,151,16602,1,0,0:0:0:0:
268,139,16690,1,8,0:0:0:0:
286,156,16779,1,0,0:0:0:0:
283,152,16867,1,8,0:0:0:0:
293,151,16955,1,0,0:0:0:0:
293,151,17043,1,0,0:0:0:0:
270,142,17132,1,8,0:0:0:0:
271,143,17308,5,8,0:0:0:0:
271,143,17396,1,8,0:0:0:0:
271,143,17485,1,0,0:0:0:0:
271,143,17573,1,0,0:0:0:0:
271,143,17661,1,8,0:0:0:0:
271,143,17749,1,0,0:0:0:0:
271,143,17926,1,0,0:0:0:0:
271,143,18014,1,8,0:0:0:0:
271,143,18102,1,8,0:0:0:0:
284,149,18190,1,0,0:0:0:0:
271,143,18279,1,8,0:0:0:0:
271,143,18367,1,0,0:0:0:0:
281,148,18543,1,0,0:0:0:0:
271,143,18632,1,0,0:0:0:0:
271,143,18720,1,8,0:0:0:0:
271,143,18808,1,8,0:0:0:0:
271,143,18896,1,0,0:0:0:0:
271,143,18985,1,8,0:0:0:0:
271,143,19073,1,0,0:0:0:0:
271,143,19161,1,0,0:0:0:0:
299,169,19338,1,8,0:0:0:0:
299,169,19426,1,0,0:0:0:0:
299,169,19514,1,8,0:0:0:0:
301,159,19602,1,0,0:0:0:0:
299,169,19690,1,0,0:0:0:0:
299,169,19779,1,8,0:0:0:0:
299,169,19867,1,8,0:0:0:0:
299,169,19955,1,0,0:0:0:0:
299,169,20132,5,8,0:0:0:0:
299,169,20220,1,8,0:0:0:0:
299,169,20308,1,0,0:0:0:0:
293,178,20396,1,0,0:0:0:0:
299,169,20485,1,8,0:0:0:0:
299,169,20573,1,0,0:0:0:0:
299,169,20749,1,0,0:0:0:0:
299,169,20838,1,8,0:0:0:0:
299,169,20926,1,0,0:0:0:0:
299,169,21014,1,8,0:0:0:0:
299,169,21102,1,8,0:0:0:0:
293,151,21190,1,0,0:0:0:0:
299,169,21367,1,0,0:0:0:0:
293,151,21455,1,0,0:0:0:0:
293,151,21543,1,8,0:0:0:0:
293,151,21632,1,0,0:0:0:0:
293,151,21720,1,8,0:0:0:0:
293,151,21808,1,8,0:0:0:0:
293,151,21896,1,8,0:0:0:0:
293,151,21985,1,0,0:0:0:0:
299,169,22073,1,8,0:0:0:0:
293,151,22161,1,8,0:0:0:0:
293,151,22249,1,0,0:0:0:0:
268,139,22338,1,0,0:0:0:0:
286,156,22426,1,8,0:0:0:0:
283,152,22514,1,0,0:0:0:0:
293,151,22602,1,8,0:0:0:0:
264,141,22779,5,4,0:0:0:0:
271,143,22955,1,8,0:0:0:0:
271,143,23132,1,0,0:0:0:0:
300,163,23220,1,8,0:0:0:0:
271,143,23308,1,0,0:0:0:0:
261,144,23485,1,0,0:0:0:0:
286,143,23573,1,0,0:0:0:0:
271,143,23661,1,8,0:0:0:0:
271,143,23838,1,0,0:0:0:0:
271,143,23926,1,8,0:0:0:0:
271,143,24014,1,0,0:0:0:0:
281,148,24190,1,0,0:0:0:0:
281,146,24279,1,0,0:0:0:0:
271,143,24367,1,8,0:0:0:0:
271,143,24543,1,0,0:0:0:0:
271,143,24632,1,8,0:0:0:0:
271,143,24720,1,0,0:0:0:0:
282,162,24896,1,0,0:0:0:0:
277,140,24985,1,0,0:0:0:0:
299,169,25073,1,8,0:0:0:0:
299,169,25249,1,0,0:0:0:0:
299,169,25338,1,8,0:0:0:0:
290,178,25426,1,0,0:0:0:0:
299,169,25602,5,0,0:0:0:0:
292,159,25690,1,0,0:0:0:0:
299,169,25779,1,8,0:0:0:0:
277,138,25955,1,8,0:0:0:0:
277,138,26043,1,0,0:0:0:0:
299,169,26132,1,8,0:0:0:0:
295,159,26308,1,0,0:0:0:0:
306,170,26396,1,0,0:0:0:0:
299,169,26485,1,8,0:0:0:0:
299,169,26661,1,8,0:0:0:0:
299,169,26749,1,0,0:0:0:0:
293,151,26838,1,8,0:0:0:0:
299,169,27014,1,0,0:0:0:0:
299,169,27102,1,0,0:0:0:0:
293,151,27190,1,8,0:0:0:0:
293,151,27367,1,8,0:0:0:0:
293,151,27455,1,0,0:0:0:0:
293,151,27543,1,8,0:0:0:0:
299,169,27720,1,0,0:0:0:0:
292,164,27808,1,0,0:0:0:0:
293,151,27896,1,8,0:0:0:0:
293,151,28073,1,8,0:0:0:0:
293,151,28161,1,0,0:0:0:0:
293,151,28249,1,8,0:0:0:0:
293,151,28426,5,0,0:0:0:0:
303,143,28514,1,0,0:0:0:0:
303,143,28602,1,8,0:0:0:0:
303,143,28690,1,8,0:0:0:0:
303,143,28779,1,8,0:0:0:0:
303,143,28867,1,0,0:0:0:0:
303,143,28955,1,8,0:0:0:0:
303,143,29043,1,8,0:0:0:0:
303,143,29132,1,0,0:0:0:0:
303,143,29220,1,0,0:0:0:0:
303,143,29308,1,8,0:0:0:0:
303,143,29396,1,0,0:0:0:0:
303,143,29485,1,8,0:0:0:0:
303,143,29573,1,0,0:0:0:0:
303,143,29661,1,8,0:0:0:0:
303,143,29749,1,8,0:0:0:0:
303,143,29838,1,0,0:0:0:0:
285,149,29926,1,0,0:0:0:0:
285,149,30014,1,8,0:0:0:0:
285,149,30102,1,8,0:0:0:0:
285,149,30190,1,8,0:0:0:0:
285,149,30279,1,0,0:0:0:0:
285,149,30367,1,8,0:0:0:0:
303,143,30455,1,8,0:0:0:0:
285,149,30543,1,0,0:0:0:0:
285,149,30632,1,0,0:0:0:0:
285,149,30720,1,8,0:0:0:0:
285,149,30808,1,0,0:0:0:0:
285,149,30896,1,8,0:0:0:0:
285,149,30985,1,0,0:0:0:0:
285,149,31073,1,8,0:0:0:0:
285,149,31161,1,8,0:0:0:0:
285,149,31249,1,0,0:0:0:0:
289,166,31308,1,0,0:0:0:0:
285,149,31367,1,0,0:0:0:0:
285,149,31426,1,8,0:0:0:0:
285,149,31514,1,8,0:0:0:0:
285,149,31602,1,0,0:0:0:0:
299,172,31661,1,0,0:0:0:0:
285,149,31720,1,0,0:0:0:0:
285,149,31779,1,8,0:0:0:0:
285,149,31867,1,8,0:0:0:0:
285,149,31955,1,0,0:0:0:0:
290,169,32014,1,0,0:0:0:0:
285,149,32073,1,0,0:0:0:0:
285,149,32132,1,8,0:0:0:0:
285,149,32220,1,0,0:0:0:0:
285,149,32308,1,8,0:0:0:0:
304,175,32367,1,8,0:0:0:0:
285,149,32426,1,8,0:0:0:0:
285,149,32485,1,0,0:0:0:0:
285,149,32573,1,0,0:0:0:0:
285,149,32661,1,8,0:0:0:0:
297,170,32720,1,0,0:0:0:0:
285,149,32779,1,0,0:0:0:0:
285,149,32838,1,8,0:0:0:0:
285,149,32926,1,0,0:0:0:0:
285,149,33014,1,8,0:0:0:0:
290,169,33073,1,8,0:0:0:0:
285,149,33132,1,8,0:0:0:0:
285,149,33190,1,0,0:0:0:0:
290,158,33279,1,8,0:0:0:0:
294,173,33367,1,0,0:0:0:0:
297,168,33426,1,0,0:0:0:0:
285,149,33485,1,0,0:0:0:0:
285,149,33543,1,0,0:0:0:0:
286,172,33602,1,0,0:0:0:0:
285,149,33661,1,0,0:0:0:0:
285,149,33720,1,8,0:0:0:0:
292,183,33779,1,8,0:0:0:0:
285,149,33838,1,8,0:0:0:0:
285,149,33896,1,8,0:0:0:0:
289,182,33955,1,8,0:0:0:0:
285,149,34014,1,8,0:0:0:0:
285,149,34073,1,4,0:0:0:0:
258,187,35132,1,0,0:0:0:0:
258,187,35485,1,12,0:0:0:0:
262,189,37602,5,8,0:0:0:0:
262,189,37779,1,0,0:0:0:0:
262,189,37955,1,8,0:0:0:0:
262,189,38132,1,8,0:0:0:0:
262,189,38485,1,8,0:0:0:0:
262,189,38661,1,0,0:0:0:0:
262,189,40426,1,0,0:0:0:0:
262,189,40779,1,8,0:0:0:0:
262,189,41132,1,0,0:0:0:0:
262,189,42190,5,8,0:0:0:0:
262,189,42367,1,0,0:0:0:0:
295,146,42543,1,0,0:0:0:0:
262,189,43426,1,8,0:0:0:0:
262,189,43602,1,8,0:0:0:0:
262,189,43779,1,0,0:0:0:0:
274,149,43955,1,0,0:0:0:0:
258,187,46426,1,0,0:0:0:0:
258,187,46779,1,12,0:0:0:0:
258,187,47132,5,0,0:0:0:0:
258,187,47485,1,0,0:0:0:0:
258,187,47838,1,0,0:0:0:0:
258,187,48190,1,0,0:0:0:0:
258,187,48543,1,0,0:0:0:0:
258,187,48896,1,8,0:0:0:0:
258,187,49073,1,0,0:0:0:0:
258,187,49249,1,8,0:0:0:0:
258,187,49426,1,8,0:0:0:0:
258,187,49779,1,8,0:0:0:0:
258,187,49955,1,0,0:0:0:0:
258,187,50308,5,0,0:0:0:0:
258,187,50661,1,0,0:0:0:0:
258,187,51014,1,0,0:0:0:0:
258,187,51367,1,0,0:0:0:0:
274,186,51720,1,0,0:0:0:0:
274,186,52073,1,8,0:0:0:0:
274,186,52426,1,0,0:0:0:0:
274,186,52779,5,0,0:0:0:0:
274,186,52955,1,8,0:0:0:0:
274,186,53132,1,0,0:0:0:0:
259,171,53220,1,8,0:0:0:0:
254,134,53308,1,0,0:0:0:0:
274,186,53485,1,0,0:0:0:0:
274,186,53661,1,8,0:0:0:0:
274,186,53838,1,0,0:0:0:0:
274,186,54190,5,0,0:0:0:0:
274,186,54367,1,8,0:0:0:0:
274,186,54543,1,0,0:0:0:0:
274,186,54632,1,8,0:0:0:0:
282,223,54720,1,0,0:0:0:0:
295,173,54808,1,0,0:0:0:0:
274,186,54896,1,8,0:0:0:0:
259,171,55073,1,8,0:0:0:0:
274,186,55249,1,0,0:0:0:0:
259,171,55602,5,0,0:0:0:0:
316,139,55779,1,8,0:0:0:0:
259,120,55867,1,8,0:0:0:0:
259,171,55955,1,0,0:0:0:0:
259,171,56043,1,8,0:0:0:0:
265,179,56132,1,8,0:0:0:0:
259,171,56308,1,0,0:0:0:0:
255,163,56485,1,8,0:0:0:0:
259,171,56573,1,8,0:0:0:0:
259,171,56661,1,0,0:0:0:0:
259,171,56749,1,8,0:0:0:0:
259,171,56838,1,0,0:0:0:0:
259,171,57014,1,8,0:0:0:0:
259,171,57190,1,0,0:0:0:0:
259,171,57279,1,0,0:0:0:0:
259,171,57367,1,8,0:0:0:0:
259,171,57455,1,0,0:0:0:0:
259,171,57543,1,8,0:0:0:0:
259,171,57632,1,8,0:0:0:0:
259,171,57720,1,0,0:0:0:0:
259,171,57808,1,0,0:0:0:0:
259,171,57896,1,8,0:0:0:0:
259,171,58073,1,4,0:0:0:0:
259,171,58426,5,8,0:0:0:0:
259,171,58779,1,8,0:0:0:0:
259,171,58955,1,0,0:0:0:0:
259,171,59132,1,8,0:0:0:0:
259,171,59308,1,8,0:0:0:0:
259,171,59485,1,0,0:0:0:0:
259,171,59838,1,8,0:0:0:0:
259,171,60190,1,8,0:0:0:0:
259,171,60367,1,8,0:0:0:0:
259,171,60543,1,8,0:0:0:0:
259,171,60896,5,0,0:0:0:0:
259,171,61073,1,0,0:0:0:0:
259,171,61249,1,8,0:0:0:0:
259,171,61426,1,0,0:0:0:0:
259,171,61514,1,0,0:0:0:0:
259,171,61602,1,8,0:0:0:0:
259,171,61779,1,0,0:0:0:0:
259,171,61955,1,8,0:0:0:0:
259,171,62132,1,8,0:0:0:0:
259,171,62308,1,0,0:0:0:0:
262,136,62485,1,0,0:0:0:0:
259,171,62661,1,8,0:0:0:0:
259,171,62838,1,0,0:0:0:0:
259,171,63014,1,8,0:0:0:0:
259,171,63102,1,0,0:0:0:0:
259,171,63190,1,8,0:0:0:0:
259,171,63367,1,8,0:0:0:0:
259,171,63543,1,0,0:0:0:0:
293,151,63720,5,8,0:0:0:0:
293,151,63808,1,8,0:0:0:0:
293,151,63896,1,8,0:0:0:0:
293,151,63985,1,0,0:0:0:0:
293,151,64073,1,8,0:0:0:0:
303,143,64161,1,8,0:0:0:0:
303,143,64249,1,0,0:0:0:0:
303,143,64338,1,0,0:0:0:0:
303,143,64426,1,8,0:0:0:0:
303,143,64514,1,0,0:0:0:0:
303,143,64602,1,8,0:0:0:0:
303,143,64690,1,8,0:0:0:0:
303,143,64779,1,0,0:0:0:0:
303,143,64867,1,8,0:0:0:0:
303,143,64955,1,0,0:0:0:0:
303,143,65043,1,0,0:0:0:0:
303,143,65132,1,8,0:0:0:0:
303,143,65220,1,0,0:0:0:0:
303,143,65308,1,8,0:0:0:0:
303,143,65396,1,0,0:0:0:0:
303,143,65485,1,8,0:0:0:0:
285,149,65573,1,8,0:0:0:0:
285,149,65661,1,0,0:0:0:0:
285,149,65749,1,0,0:0:0:0:
285,149,65838,1,8,0:0:0:0:
285,149,65926,1,0,0:0:0:0:
285,149,66014,1,8,0:0:0:0:
303,143,66102,1,0,0:0:0:0:
285,149,66190,1,8,0:0:0:0:
285,149,66279,1,8,0:0:0:0:
285,149,66367,1,0,0:0:0:0:
285,149,66455,1,0,0:0:0:0:
299,144,66543,1,8,0:0:0:0:
295,142,66602,1,8,0:0:0:0:
299,144,66661,1,0,0:0:0:0:
299,144,66720,1,0,0:0:0:0:
299,144,66808,1,0,0:0:0:0:
299,144,66896,1,8,0:0:0:0:
285,149,66955,1,8,0:0:0:0:
299,144,67014,1,8,0:0:0:0:
303,143,67073,1,0,0:0:0:0:
303,143,67161,1,0,0:0:0:0:
299,144,67249,1,8,0:0:0:0:
299,144,67308,1,0,0:0:0:0:
299,144,67367,1,0,0:0:0:0:
299,144,67426,1,8,0:0:0:0:
279,136,67514,1,0,0:0:0:0:
299,144,67602,1,8,0:0:0:0:
299,144,67661,1,8,0:0:0:0:
299,144,67720,1,8,0:0:0:0:
299,144,67779,1,8,0:0:0:0:
306,148,67838,1,8,0:0:0:0:
287,138,67896,1,8,0:0:0:0:
299,144,67955,1,0,0:0:0:0:
294,148,68132,5,0,0:0:0:0:
299,144,68220,1,0,0:0:0:0:
299,144,68308,1,8,0:0:0:0:
299,144,68396,1,0,0:0:0:0:
294,148,68485,1,8,0:0:0:0:
299,144,68573,1,8,0:0:0:0:
299,144,68661,1,0,0:0:0:0:
299,144,68749,1,8,0:0:0:0:
294,148,68838,1,0,0:0:0:0:
294,148,68926,1,0,0:0:0:0:
299,144,69014,1,8,0:0:0:0:
272,137,69073,1,8,0:0:0:0:
299,121,69132,1,8,0:0:0:0:
299,144,69190,1,8,0:0:0:0:
299,144,69367,5,4,0:0:0:0:
294,148,69543,1,0,0:0:0:0:
299,144,69632,1,0,0:0:0:0:
299,144,69720,1,8,0:0:0:0:
294,148,69808,1,0,0:0:0:0:
301,149,69896,1,0,0:0:0:0:
301,149,69985,1,8,0:0:0:0:
299,144,70161,1,0,0:0:0:0:
299,144,70249,1,8,0:0:0:0:
299,144,70426,1,0,0:0:0:0:
299,144,70514,1,8,0:0:0:0:
298,126,70602,1,0,0:0:0:0:
299,144,70690,1,0,0:0:0:0:
301,149,70779,1,8,0:0:0:0:
293,141,70867,1,8,0:0:0:0:
301,149,70955,1,0,0:0:0:0:
299,144,71132,1,8,0:0:0:0:
299,144,71220,1,0,0:0:0:0:
309,159,71308,1,0,0:0:0:0:
299,144,71396,1,8,0:0:0:0:
309,159,71573,1,8,0:0:0:0:
309,159,71661,1,8,0:0:0:0:
309,159,71838,1,0,0:0:0:0:
309,159,71926,1,8,0:0:0:0:
304,160,72014,1,8,0:0:0:0:
304,160,72102,1,0,0:0:0:0:
304,160,72190,1,8,0:0:0:0:
298,126,72279,1,8,0:0:0:0:
298,126,72367,1,0,0:0:0:0:
298,126,72543,1,8,0:0:0:0:
302,148,72632,1,8,0:0:0:0:
296,135,72720,1,0,0:0:0:0:
298,126,72808,1,8,0:0:0:0:
298,126,72985,1,0,0:0:0:0:
298,126,73073,1,8,0:0:0:0:
298,141,73249,1,8,0:0:0:0:
298,141,73338,1,8,0:0:0:0:
298,141,73426,1,0,0:0:0:0:
298,141,73514,1,0,0:0:0:0:
298,141,73602,1,8,0:0:0:0:
302,148,73690,1,0,0:0:0:0:
298,141,73779,1,0,0:0:0:0:
298,141,73955,1,8,0:0:0:0:
302,148,74043,1,0,0:0:0:0:
302,148,74132,1,0,0:0:0:0:
302,148,74220,1,8,0:0:0:0:
298,141,74396,1,0,0:0:0:0:
302,148,74485,1,8,0:0:0:0:
298,141,74661,1,8,0:0:0:0:
298,141,74749,1,0,0:0:0:0:
298,141,74838,1,8,0:0:0:0:
298,141,74926,1,8,0:0:0:0:
319,151,75014,1,0,0:0:0:0:
308,137,75190,1,0,0:0:0:0:
308,137,75279,1,0,0:0:0:0:
308,137,75367,1,8,0:0:0:0:
308,137,75455,1,0,0:0:0:0:
309,160,75543,1,8,0:0:0:0:
308,137,75632,1,8,0:0:0:0:
308,137,75808,1,0,0:0:0:0:
308,137,75896,1,8,0:0:0:0:
308,137,76073,1,8,0:0:0:0:
308,137,76161,1,0,0:0:0:0:
308,137,76249,1,0,0:0:0:0:
319,151,76426,1,8,0:0:0:0:
308,137,76602,1,0,0:0:0:0:
308,137,76690,1,0,0:0:0:0:
326,157,76779,1,8,0:0:0:0:
304,153,76867,1,0,0:0:0:0:
303,143,76955,1,8,0:0:0:0:
308,137,77043,1,8,0:0:0:0:
306,156,77220,1,0,0:0:0:0:
308,137,77308,1,8,0:0:0:0:
308,137,77485,1,8,0:0:0:0:
308,137,77573,1,0,0:0:0:0:
308,137,77661,1,0,0:0:0:0:
283,151,77838,1,8,0:0:0:0:
308,137,78014,1,0,0:0:0:0:
308,137,78102,1,0,0:0:0:0:
308,137,78190,1,8,0:0:0:0:
312,115,78279,1,0,0:0:0:0:
309,160,78367,1,0,0:0:0:0:
308,137,78455,1,8,0:0:0:0:
308,137,78632,1,0,0:0:0:0:
285,149,78720,1,8,0:0:0:0:
308,137,78896,1,8,0:0:0:0:
319,141,78985,1,0,0:0:0:0:
308,137,79073,1,8,0:0:0:0:
295,109,79161,1,8,0:0:0:0:
319,151,79249,1,0,0:0:0:0:
325,135,79426,1,0,0:0:0:0:
325,135,79514,1,0,0:0:0:0:
308,137,79602,1,8,0:0:0:0:
308,137,79690,1,8,0:0:0:0:
309,160,79779,1,0,0:0:0:0:
308,137,79867,1,8,0:0:0:0:
308,137,80043,1,8,0:0:0:0:
308,137,80132,1,8,0:0:0:0:
308,137,80308,1,0,0:0:0:0:
308,137,80396,1,0,0:0:0:0:
308,137,80485,1,8,0:0:0:0:
283,151,80661,1,4,0:0:0:0:
294,148,80838,1,0,0:0:0:0:
299,144,80926,1,0,0:0:0:0:
299,144,81014,1,8,0:0:0:0:
294,148,81102,1,0,0:0:0:0:
301,149,81190,1,0,0:0:0:0:
301,149,81279,1,8,0:0:0:0:
297,142,81367,1,8,0:0:0:0:
299,144,81455,1,0,0:0:0:0:
299,144,81543,1,8,0:0:0:0:
299,144,81720,1,0,0:0:0:0:
299,144,81808,1,8,0:0:0:0:
298,126,81896,1,0,0:0:0:0:
299,144,81985,1,0,0:0:0:0:
301,149,82073,1,8,0:0:0:0:
293,141,82161,1,8,0:0:0:0:
301,149,82249,1,0,0:0:0:0:
299,144,82426,1,8,0:0:0:0:
299,144,82514,1,0,0:0:0:0:
304,137,82602,1,0,0:0:0:0:
299,144,82690,1,8,0:0:0:0:
309,159,82779,1,0,0:0:0:0:
309,159,82867,1,8,0:0:0:0:
309,159,82955,1,8,0:0:0:0:
309,159,83132,1,0,0:0:0:0:
309,159,83220,1,8,0:0:0:0:
304,160,83308,1,8,0:0:0:0:
304,160,83396,1,0,0:0:0:0:
304,160,83485,1,8,0:0:0:0:
298,126,83573,1,8,0:0:0:0:
298,126,83661,1,0,0:0:0:0:
298,126,83838,1,8,0:0:0:0:
302,148,83926,1,8,0:0:0:0:
309,159,84014,1,0,0:0:0:0:
298,126,84102,1,8,0:0:0:0:
296,135,84190,1,8,0:0:0:0:
298,126,84279,1,0,0:0:0:0:
294,138,84367,1,8,0:0:0:0:
298,141,84543,1,8,0:0:0:0:
298,141,84632,1,8,0:0:0:0:
298,141,84720,1,0,0:0:0:0:
298,141,84808,1,0,0:0:0:0:
298,141,84896,1,8,0:0:0:0:
292,157,84985,1,0,0:0:0:0:
298,141,85073,1,0,0:0:0:0:
298,141,85249,1,8,0:0:0:0:
302,148,85338,1,0,0:0:0:0:
302,148,85426,1,0,0:0:0:0:
302,148,85514,1,8,0:0:0:0:
304,137,85602,1,0,0:0:0:0:
298,141,85690,1,0,0:0:0:0:
302,148,85779,1,8,0:0:0:0:
298,141,85955,1,8,0:0:0:0:
298,141,86043,1,0,0:0:0:0:
298,141,86132,1,8,0:0:0:0:
298,141,86220,1,8,0:0:0:0:
319,151,86308,1,0,0:0:0:0:
304,137,86396,1,8,0:0:0:0:
308,137,86485,1,0,0:0:0:0:
308,137,86573,1,0,0:0:0:0:
308,137,86661,1,8,0:0:0:0:
308,137,86749,1,0,0:0:0:0:
309,160,86838,1,8,0:0:0:0:
308,137,86926,1,8,0:0:0:0:
304,137,87014,1,0,0:0:0:0:
308,137,87102,1,8,0:0:0:0:
308,137,87190,1,8,0:0:0:0:
304,137,87279,1,0,0:0:0:0:
304,137,87367,1,8,0:0:0:0:
308,137,87455,1,8,0:0:0:0:
308,137,87543,1,8,0:0:0:0:
308,137,87632,1,0,0:0:0:0:
308,137,87720,1,8,0:0:0:0:
308,137,87808,1,8,0:0:0:0:
308,137,87896,1,0,0:0:0:0:
292,138,87985,1,0,0:0:0:0:
308,137,88073,1,8,0:0:0:0:
292,138,88161,1,0,0:0:0:0:
309,160,88249,1,8,0:0:0:0:
308,137,88338,1,8,0:0:0:0:
308,137,88426,1,0,0:0:0:0:
308,137,88514,1,8,0:0:0:0:
308,137,88602,1,8,0:0:0:0:
292,138,88690,1,0,0:0:0:0:
292,138,88779,1,8,0:0:0:0:
308,137,88867,1,8,0:0:0:0:
308,137,88955,1,8,0:0:0:0:
297,146,89043,1,0,0:0:0:0:
299,144,89132,1,8,0:0:0:0:
295,142,89190,1,8,0:0:0:0:
299,144,89249,1,0,0:0:0:0:
299,144,89308,1,0,0:0:0:0:
299,144,89396,1,0,0:0:0:0:
299,144,89485,1,8,0:0:0:0:
285,149,89543,1,0,0:0:0:0:
299,144,89602,1,0,0:0:0:0:
303,143,89661,1,8,0:0:0:0:
303,143,89749,1,8,0:0:0:0:
299,144,89838,1,0,0:0:0:0:
299,144,89896,1,0,0:0:0:0:
299,144,89955,1,0,0:0:0:0:
299,144,90014,1,8,0:0:0:0:
279,136,90102,1,0,0:0:0:0:
288,137,90190,1,8,0:0:0:0:
257,144,90249,1,0,0:0:0:0:
288,137,90308,1,0,0:0:0:0:
288,137,90367,1,8,0:0:0:0:
288,137,90455,1,0,0:0:0:0:
299,144,90543,1,8,0:0:0:0:
295,142,90602,1,8,0:0:0:0:
299,144,90661,1,8,0:0:0:0:
299,144,90720,1,0,0:0:0:0:
299,144,90808,1,0,0:0:0:0:
299,144,90896,1,8,0:0:0:0:
285,149,90955,1,0,0:0:0:0:
299,144,91014,1,0,0:0:0:0:
303,143,91073,1,8,0:0:0:0:
303,143,91161,1,8,0:0:0:0:
299,144,91249,1,0,0:0:0:0:
299,144,91308,1,0,0:0:0:0:
299,144,91367,1,8,0:0:0:0:
299,144,91426,1,8,0:0:0:0:
279,136,91514,1,0,0:0:0:0:
299,144,91602,1,8,0:0:0:0:
299,144,91661,1,8,0:0:0:0:
299,144,91720,1,8,0:0:0:0:
299,144,91779,1,8,0:0:0:0:
306,148,91838,1,8,0:0:0:0:
287,138,91896,1,8,0:0:0:0:
299,144,91955,1,0,0:0:0:0:
271,160,92132,1,0,0:0:0:0:
271,160,92220,1,0,0:0:0:0:
271,160,92308,1,8,0:0:0:0:
271,160,92485,1,0,0:0:0:0:
271,160,92573,1,0,0:0:0:0:
271,160,92661,1,8,0:0:0:0:
271,160,92749,1,0,0:0:0:0:
271,160,92838,1,0,0:0:0:0:
271,160,92926,1,0,0:0:0:0:
271,160,93014,1,8,0:0:0:0:
271,160,93190,1,0,0:0:0:0:
271,160,93279,1,0,0:0:0:0:
271,160,93367,1,0,0:0:0:0:
271,160,93543,1,0,0:0:0:0:
271,160,93632,1,0,0:0:0:0:
271,160,93720,1,8,0:0:0:0:
271,160,93896,1,0,0:0:0:0:
271,160,93985,1,0,0:0:0:0:
271,160,94073,1,0,0:0:0:0:
271,160,94161,1,0,0:0:0:0:
271,160,94249,1,0,0:0:0:0:
271,160,94338,1,0,0:0:0:0:
271,160,94426,1,8,0:0:0:0:
271,160,94602,1,0,0:0:0:0:
271,160,94690,1,0,0:0:0:0:
271,160,94779,1,0,0:0:0:0:
271,160,94955,1,0,0:0:0:0:
271,160,95043,1,0,0:0:0:0:
271,160,95132,1,8,0:0:0:0:
271,160,95308,1,8,0:0:0:0:
271,160,95396,1,0,0:0:0:0:
271,160,95485,1,8,0:0:0:0:
271,160,95573,1,8,0:0:0:0:
271,160,95661,1,0,0:0:0:0:
271,160,95749,1,0,0:0:0:0:
271,160,95838,1,8,0:0:0:0:
271,160,96014,1,0,0:0:0:0:
271,160,96102,1,0,0:0:0:0:
271,160,96190,1,0,0:0:0:0:
271,160,96367,1,0,0:0:0:0:
271,160,96455,1,0,0:0:0:0:
271,160,96543,1,8,0:0:0:0:
271,160,96720,1,8,0:0:0:0:
271,160,96808,1,8,0:0:0:0:
271,160,96896,1,0,0:0:0:0:
271,160,96985,1,8,0:0:0:0:
271,160,97073,1,0,0:0:0:0:
271,160,97161,1,0,0:0:0:0:
271,160,97249,1,8,0:0:0:0:
271,160,97426,1,0,0:0:0:0:
271,160,97514,1,0,0:0:0:0:
271,160,97602,1,0,0:0:0:0:
271,160,97779,1,0,0:0:0:0:
271,160,97867,1,0,0:0:0:0:
271,160,97955,1,8,0:0:0:0:
271,160,98132,1,0,0:0:0:0:
271,160,98220,1,0,0:0:0:0:
271,160,98308,1,8,0:0:0:0:
271,160,98396,1,0,0:0:0:0:
271,160,98485,1,0,0:0:0:0:
271,160,98573,1,0,0:0:0:0:
271,160,98661,1,8,0:0:0:0:
271,160,98838,1,0,0:0:0:0:
271,160,98926,1,0,0:0:0:0:
271,160,99014,1,0,0:0:0:0:
271,160,99190,1,0,0:0:0:0:
271,160,99279,1,0,0:0:0:0:
271,160,99367,1,8,0:0:0:0:
271,160,99543,1,0,0:0:0:0:
271,160,99632,1,0,0:0:0:0:
271,160,99720,1,0,0:0:0:0:
271,160,99808,1,0,0:0:0:0:
271,160,99896,1,0,0:0:0:0:
271,160,99985,1,0,0:0:0:0:
271,160,100073,1,8,0:0:0:0:
271,160,100249,1,0,0:0:0:0:
271,160,100338,1,0,0:0:0:0:
271,160,100426,1,0,0:0:0:0:
271,160,100602,1,0,0:0:0:0:
271,160,100690,1,0,0:0:0:0:
271,160,100779,1,8,0:0:0:0:
271,160,100955,1,8,0:0:0:0:
271,160,101043,1,0,0:0:0:0:
271,160,101132,1,8,0:0:0:0:
271,160,101220,1,8,0:0:0:0:
271,160,101308,1,0,0:0:0:0:
271,160,101396,1,0,0:0:0:0:
271,160,101485,1,8,0:0:0:0:
271,160,101661,1,0,0:0:0:0:
271,160,101749,1,0,0:0:0:0:
271,160,101838,1,0,0:0:0:0:
271,160,102014,1,0,0:0:0:0:
271,160,102102,1,0,0:0:0:0:
271,160,102190,1,8,0:0:0:0:
271,160,102367,1,8,0:0:0:0:
271,160,102455,1,8,0:0:0:0:
271,160,102543,1,0,0:0:0:0:
271,160,102632,1,8,0:0:0:0:
271,160,102720,1,0,0:0:0:0:
271,160,102808,1,0,0:0:0:0:
271,160,102896,1,8,0:0:0:0:
273,139,102985,1,0,0:0:0:0:
271,160,103073,1,8,0:0:0:0:
271,160,103161,1,8,0:0:0:0:
271,160,103249,1,0,0:0:0:0:
255,171,103602,1,0,0:0:0:0:
255,171,103779,1,8,0:0:0:0:
255,171,103955,1,0,0:0:0:0:
255,171,104308,1,0,0:0:0:0:
255,171,104485,1,8,0:0:0:0:
255,171,104661,1,0,0:0:0:0:
255,171,105014,1,0,0:0:0:0:
255,171,105190,1,8,0:0:0:0:
255,171,105367,1,8,0:0:0:0:
255,171,105543,1,0,0:0:0:0:
255,171,105720,1,8,0:0:0:0:
255,171,105808,1,8,0:0:0:0:
255,171,105896,1,8,0:0:0:0:
255,171,105985,1,8,0:0:0:0:
255,171,106073,1,0,0:0:0:0:
255,171,106426,1,0,0:0:0:0:
255,171,106602,1,0,0:0:0:0:
255,171,106779,1,0,0:0:0:0:
255,171,107132,1,0,0:0:0:0:
255,171,107308,1,0,0:0:0:0:
255,171,107485,1,0,0:0:0:0:
255,171,107838,1,0,0:0:0:0:
255,171,108014,1,8,0:0:0:0:
255,171,108190,1,0,0:0:0:0:
255,171,108367,1,8,0:0:0:0:
255,171,108543,1,0,0:0:0:0:
255,171,108632,1,0,0:0:0:0:
255,171,108720,1,8,0:0:0:0:
255,171,108808,1,8,0:0:0:0:
255,171,108896,1,0,0:0:0:0:
255,171,109249,1,0,0:0:0:0:
255,171,109602,1,0,0:0:0:0:
255,171,109955,1,0,0:0:0:0:
255,171,110308,1,0,0:0:0:0:
255,171,110661,1,0,0:0:0:0:
255,171,111014,1,0,0:0:0:0:
255,171,111367,1,8,0:0:0:0:
255,171,111455,1,8,0:0:0:0:
255,171,111543,1,8,0:0:0:0:
255,171,111632,1,8,0:0:0:0:
255,171,111720,1,0,0:0:0:0:
255,171,112073,1,0,0:0:0:0:
255,171,112426,1,0,0:0:0:0:
255,171,112779,1,0,0:0:0:0:
255,171,113132,1,0,0:0:0:0:
256,192,113308,8,0,114543,0:0:0:0:
