osu file format v14

[General]
AudioFilename: audio.mp3
AudioLeadIn: 0
PreviewTime: 188662
Countdown: 0
SampleSet: Normal
StackLeniency: 0.7
Mode: 3
LetterboxInBreaks: 0
SpecialStyle: 0
WidescreenStoryboard: 0

[Editor]
Bookmarks: 6337,12784,16365,39290,62215,67947,73678,82275,98753,101618,113081,121678,125976,150335,164304,174334,175767,184364,201558,216602,231647,243110,248841,266035
DistanceSpacing: 0.8
BeatDivisor: 4
GridSize: 4
TimelineZoom: 3.500005

[Metadata]
Title:Xronial Xero
TitleUnicode:Xroniàl Xéro
Artist:Camellia as "menaXe inXonnu"
ArtistUnicode:かめりあ as "menaXe inXonnu"
Creator:riunosk
Version:ABXOLUTE ANNIHILAXION
Source:SOUND VOLTEX VIVID WAVE
Tags:alexdunk famoss cametek かめるかめりあ kamelcamellia masaya oya 大箭将也 drumstep electronic instrumental speedcore pcca-04883 Pony Canyon edp bemani konami xronièr xronier xéroa xeroa menace inconnu pcca-04883 sdvx v 5
BeatmapID:3773354
BeatmapSetID:1837666

[Difficulty]
HPDrainRate:9
CircleSize:4
OverallDifficulty:9
ApproachRate:5
SliderMultiplier:1.4
SliderTickRate:1

[Events]
//Background and Video events
0,0,"Xronial_Xero_riunosk.jpg",0,0
//Break Periods
2,158773,163104
//Storyboard Layer 0 (Background)
//Storyboard Layer 1 (Fail)
//Storyboard Layer 2 (Pass)
//Storyboard Layer 3 (Foreground)
//Storyboard Layer 4 (Overlay)
//Storyboard Sound Samples
Sample,16365,0,"LR4_DrumRevBassImpact.wav",70
Sample,230483,0,"LR_Drum Rpd x2.wav",70

[TimingPoints]
1323,179.10447761194,7,1,1,50,1,0
6337,179.10447761194,6,1,1,50,1,0
8486,179.10447761194,4,1,1,50,1,0
12784,179.10447761194,7,1,1,50,1,0
15291,179.10447761194,6,1,1,50,1,0
16365,179.10447761194,4,1,1,50,1,0
27827,-100,4,1,1,50,0,1
49320,-100,4,1,1,50,0,0
50753,-100,4,1,1,50,0,1
90156,-100,4,1,1,50,0,0
128842,-100,4,1,1,50,0,1
150335,179.10447761194,7,1,1,50,1,1
155349,179.10447761194,6,1,1,50,1,1
158573,179.10447761194,4,1,1,50,1,0
190095,-100,4,1,1,50,0,1
237378,-100,4,1,1,50,0,0
254572,-100,4,1,1,50,0,1
266035,179.10447761194,7,1,1,50,1,1
274811,179.10447761194,6,1,1,50,1,1
278034,179.10447761194,4,1,1,50,1,1
282332,-100,4,1,1,50,0,0

[HitObjects]
64,192,1323,5,2,0:0:0:0:
192,192,1323,1,0,0:0:0:30:LR_CymbalG_short.wav
320,192,1323,1,0,0:0:0:0:
64,192,1412,1,2,0:0:0:0:
192,192,1412,1,0,0:0:0:30:LR_CymbalG_short.wav
448,192,1412,1,0,0:0:0:0:
64,192,1591,1,2,0:0:0:0:
192,192,1591,1,0,0:0:0:30:LR_CymbalG_short.wav
320,192,1591,1,0,0:0:0:0:
64,192,1681,1,2,0:0:0:0:
192,192,1681,1,0,0:0:0:30:LR_CymbalG_short.wav
448,192,1681,1,0,0:0:0:0:
64,192,1860,1,2,0:0:0:0:
192,192,1860,1,0,0:0:0:30:LR_CymbalG_short.wav
320,192,1860,1,0,0:0:0:0:
64,192,1949,1,2,0:0:0:0:
192,192,1949,1,0,0:0:0:30:LR_CymbalG_short.wav
448,192,1949,1,0,0:0:0:0:
64,192,2128,1,2,0:0:0:0:
192,192,2128,1,0,0:0:0:30:LR_CymbalG_short.wav
320,192,2128,1,0,0:0:0:0:
64,192,2218,1,2,0:0:0:0:
192,192,2218,1,0,0:0:0:30:LR_CymbalG_short.wav
448,192,2218,1,0,0:0:0:0:
192,192,2576,1,2,0:0:0:0:
320,192,2576,1,0,0:0:0:30:LR_CymbalG_short.wav
448,192,2576,1,0,0:0:0:0:
64,192,2666,1,2,0:0:0:0:
320,192,2666,1,0,0:0:0:30:LR_CymbalG_short.wav
448,192,2666,1,0,0:0:0:0:
192,192,2845,1,2,0:0:0:0:
320,192,2845,1,0,0:0:0:30:LR_CymbalG_short.wav
448,192,2845,1,0,0:0:0:0:
64,192,2934,1,2,0:0:0:0:
320,192,2934,1,0,0:0:0:30:LR_CymbalG_short.wav
448,192,2934,1,0,0:0:0:0:
192,192,3114,1,2,0:0:0:0:
320,192,3114,1,0,0:0:0:30:LR_CymbalG_short.wav
448,192,3114,1,0,0:0:0:0:
64,192,3203,1,2,0:0:0:0:
320,192,3203,1,0,0:0:0:30:LR_CymbalG_short.wav
448,192,3203,1,0,0:0:0:0:
192,192,3382,1,2,0:0:0:0:
320,192,3382,1,0,0:0:0:30:LR_CymbalG_short.wav
448,192,3382,1,0,0:0:0:0:
64,192,3472,1,2,0:0:0:0:
320,192,3472,1,0,0:0:0:30:LR_CymbalG_short.wav
448,192,3472,1,0,0:0:0:0:
64,192,3830,1,2,0:0:0:0:
192,192,3830,1,0,0:0:0:30:LR_CymbalG_short.wav
320,192,3830,1,0,0:0:0:0:
64,192,3920,1,2,0:0:0:0:
192,192,3920,1,0,0:0:0:30:LR_CymbalG_short.wav
448,192,3920,1,0,0:0:0:0:
64,192,4099,1,2,0:0:0:0:
192,192,4099,1,0,0:0:0:30:LR_CymbalG_short.wav
320,192,4099,1,0,0:0:0:0:
64,192,4188,1,2,0:0:0:0:
192,192,4188,1,0,0:0:0:30:LR_CymbalG_short.wav
448,192,4188,1,0,0:0:0:0:
64,192,4367,1,2,0:0:0:0:
192,192,4367,1,0,0:0:0:30:LR_CymbalG_short.wav
320,192,4367,1,0,0:0:0:0:
64,192,4457,1,2,0:0:0:0:
192,192,4457,1,0,0:0:0:30:LR_CymbalG_short.wav
448,192,4457,1,0,0:0:0:0:
64,192,4636,1,2,0:0:0:0:
192,192,4636,1,0,0:0:0:30:LR_CymbalG_short.wav
320,192,4636,1,0,0:0:0:0:
64,192,4725,1,2,0:0:0:0:
192,192,4725,1,0,0:0:0:30:LR_CymbalG_short.wav
448,192,4725,1,0,0:0:0:0:
192,192,5084,1,2,0:0:0:0:
320,192,5084,1,0,0:0:0:30:LR_CymbalG_short.wav
448,192,5084,1,0,0:0:0:0:
64,192,5173,1,2,0:0:0:0:
320,192,5173,1,0,0:0:0:30:LR_CymbalG_short.wav
448,192,5173,1,0,0:0:0:0:
192,192,5352,1,2,0:0:0:0:
320,192,5352,1,0,0:0:0:30:LR_CymbalG_short.wav
448,192,5352,1,0,0:0:0:0:
64,192,5442,1,2,0:0:0:0:
320,192,5442,1,0,0:0:0:30:LR_CymbalG_short.wav
448,192,5442,1,0,0:0:0:0:
192,192,5621,1,2,0:0:0:0:
320,192,5621,1,0,0:0:0:30:LR_CymbalG_short.wav
448,192,5621,1,0,0:0:0:0:
64,192,5711,1,2,0:0:0:0:
320,192,5711,1,0,0:0:0:30:LR_CymbalG_short.wav
448,192,5711,1,0,0:0:0:0:
192,192,5890,1,2,0:0:0:0:
320,192,5890,1,0,0:0:0:30:LR_CymbalG_short.wav
448,192,5890,1,0,0:0:0:0:
64,192,5979,1,2,0:0:0:0:
320,192,5979,1,0,0:0:0:30:LR_CymbalG_short.wav
448,192,5979,1,0,0:0:0:0:
64,192,6337,1,2,0:0:0:0:
192,192,6337,1,0,0:0:0:70:LR_CymbalLGLH_S.wav
448,192,6337,1,0,0:0:0:0:
320,192,6516,1,0,0:0:0:0:
448,192,6575,1,0,0:0:0:0:
192,192,6635,1,0,0:0:0:0:
64,192,6695,1,0,0:0:0:0:
320,192,6754,1,0,0:0:0:0:
192,192,6814,1,0,0:0:0:0:
448,192,6874,1,0,0:0:0:0:
320,192,6934,1,0,0:0:0:0:
192,192,6993,1,0,0:0:0:0:
64,192,7053,1,0,0:0:0:0:
448,192,7098,1,0,0:0:0:0:
320,192,7142,1,0,0:0:0:0:
192,192,7187,1,0,0:0:0:0:
64,192,7232,1,0,0:0:0:0:
448,192,7277,1,0,0:0:0:0:
320,192,7322,1,0,0:0:0:0:
192,192,7366,1,0,0:0:0:0:
64,192,7411,1,0,0:0:0:0:
64,192,8486,1,0,0:0:0:70:LR_CymbalLGLH_S.wav
192,192,8486,1,0,0:0:0:70:LR4_DrumRevBassImpact.wav
448,192,8486,1,0,0:0:0:0:
64,192,8844,1,0,0:0:0:70:LR4_DrumRevBassImpact.wav
192,192,8844,1,0,0:0:0:0:
64,192,11351,1,0,0:0:0:70:LR4_DrumRevBassImpact.wav
320,192,11351,1,0,0:0:0:0:
448,192,11351,1,0,0:0:0:0:
320,192,11709,1,0,0:0:0:70:LR4_DrumRevBassImpact.wav
448,192,11709,1,0,0:0:0:0:
64,192,12784,1,2,0:0:0:0:
192,192,12784,1,0,0:0:0:30:LR_CymbalG_short.wav
448,192,12784,1,0,0:0:0:0:
64,192,12873,1,2,0:0:0:0:
192,192,12873,1,0,0:0:0:30:LR_CymbalG_short.wav
320,192,12873,1,0,0:0:0:0:
64,192,13052,1,2,0:0:0:0:
192,192,13052,1,0,0:0:0:30:LR_CymbalG_short.wav
448,192,13052,1,0,0:0:0:0:
64,192,13142,1,2,0:0:0:0:
192,192,13142,1,0,0:0:0:30:LR_CymbalG_short.wav
320,192,13142,1,0,0:0:0:0:
64,192,13321,1,2,0:0:0:0:
192,192,13321,1,0,0:0:0:30:LR_CymbalG_short.wav
448,192,13321,1,0,0:0:0:0:
64,192,13410,1,2,0:0:0:0:
192,192,13410,1,0,0:0:0:30:LR_CymbalG_short.wav
320,192,13410,1,0,0:0:0:0:
64,192,13589,1,2,0:0:0:0:
192,192,13589,1,0,0:0:0:30:LR_CymbalG_short.wav
448,192,13589,1,0,0:0:0:0:
64,192,13679,1,2,0:0:0:0:
192,192,13679,1,0,0:0:0:30:LR_CymbalG_short.wav
320,192,13679,1,0,0:0:0:0:
64,192,14037,1,2,0:0:0:0:
320,192,14037,1,0,0:0:0:30:LR_CymbalG_short.wav
448,192,14037,1,0,0:0:0:0:
192,192,14127,1,2,0:0:0:0:
320,192,14127,1,0,0:0:0:30:LR_CymbalG_short.wav
448,192,14127,1,0,0:0:0:0:
64,192,14306,1,2,0:0:0:0:
320,192,14306,1,0,0:0:0:30:LR_CymbalG_short.wav
448,192,14306,1,0,0:0:0:0:
192,192,14395,1,2,0:0:0:0:
320,192,14395,1,0,0:0:0:30:LR_CymbalG_short.wav
448,192,14395,1,0,0:0:0:0:
64,192,14575,1,2,0:0:0:0:
320,192,14575,1,0,0:0:0:30:LR_CymbalG_short.wav
448,192,14575,1,0,0:0:0:0:
192,192,14664,1,2,0:0:0:0:
320,192,14664,1,0,0:0:0:30:LR_CymbalG_short.wav
448,192,14664,1,0,0:0:0:0:
64,192,14843,1,2,0:0:0:0:
320,192,14843,1,0,0:0:0:30:LR_CymbalG_short.wav
448,192,14843,1,0,0:0:0:0:
192,192,14933,1,2,0:0:0:0:
320,192,14933,1,0,0:0:0:30:LR_CymbalG_short.wav
448,192,14933,1,0,0:0:0:0:
64,192,15291,1,0,0:0:0:70:LR4_BassLineLDRN.wav
448,192,15291,1,0,0:0:0:0:
320,192,15350,1,0,0:0:0:0:
192,192,15410,1,0,0:0:0:0:
448,192,15470,1,0,0:0:0:0:
320,192,15529,1,0,0:0:0:0:
192,192,15589,1,0,0:0:0:0:
64,192,15649,1,0,0:0:0:0:
320,192,15708,1,0,0:0:0:0:
192,192,15768,1,0,0:0:0:0:
448,192,15828,1,0,0:0:0:0:
320,192,15888,1,0,0:0:0:0:
64,192,15947,1,0,0:0:0:0:
448,192,16007,1,0,0:0:0:0:
192,192,16067,1,0,0:0:0:0:
64,192,16126,1,0,0:0:0:0:
448,192,16186,1,0,0:0:0:0:
320,192,16246,1,0,0:0:0:0:
192,192,16305,1,0,0:0:0:0:
64,192,16365,1,2,0:0:0:0:
448,192,16365,1,0,0:0:0:50:LR_CymbalLGLH_S.wav
64,192,16454,1,0,0:0:0:0:
320,192,16544,1,2,0:0:0:0:
448,192,16544,1,0,0:0:0:0:
320,192,16633,1,0,0:0:0:0:
192,192,16723,1,0,0:0:0:0:
192,192,16812,1,0,0:0:0:0:
64,192,16902,1,2,0:0:0:0:
448,192,16902,1,0,0:0:0:0:
192,192,16947,1,2,0:0:0:0:
320,192,16991,1,2,0:0:0:0:
64,192,17081,1,0,0:0:0:50:S.wav
192,192,17081,1,0,0:0:0:0:
448,192,17081,1,0,0:0:0:0:
64,192,17170,1,0,0:0:0:0:
320,192,17260,1,2,0:0:0:0:
448,192,17260,1,0,0:0:0:0:
448,192,17350,1,0,0:0:0:0:
64,192,17439,1,0,0:0:0:0:
64,192,17529,1,0,0:0:0:0:
192,192,17618,1,0,0:0:0:50:S.wav
320,192,17618,1,0,0:0:0:0:
448,192,17618,1,0,0:0:0:0:
448,192,17708,1,0,0:0:0:0:
64,192,17797,1,2,0:0:0:0:
192,192,17797,1,0,0:0:0:0:
192,192,17887,1,2,0:0:0:0:
320,192,17887,1,0,0:0:0:0:
64,192,17976,1,0,0:0:0:50:S.wav
320,192,17976,1,0,0:0:0:0:
448,192,17976,1,0,0:0:0:0:
448,192,18066,1,0,0:0:0:0:
192,192,18156,1,2,0:0:0:0:
320,192,18156,1,0,0:0:0:0:
64,192,18245,1,2,0:0:0:0:
192,192,18245,1,0,0:0:0:0:
320,192,18335,1,2,0:0:0:0:
448,192,18335,1,0,0:0:0:0:
64,192,18424,1,2,0:0:0:0:
192,192,18424,1,0,0:0:0:0:
64,192,18514,1,0,0:0:0:50:S.wav
192,192,18514,1,0,0:0:0:0:
448,192,18514,1,0,0:0:0:0:
448,192,18603,1,0,0:0:0:0:
64,192,18693,1,2,0:0:0:0:
192,192,18693,1,0,0:0:0:0:
320,192,18738,1,2,0:0:0:0:
64,192,18782,1,2,0:0:0:0:
448,192,18782,1,0,0:0:0:0:
192,192,18872,1,2,0:0:0:0:
320,192,18872,1,0,0:0:0:0:
192,192,18962,1,0,0:0:0:0:
320,192,19051,1,2,0:0:0:0:
448,192,19051,1,0,0:0:0:0:
320,192,19141,1,0,0:0:0:0:
64,192,19230,1,2,0:0:0:0:
192,192,19230,1,0,0:0:0:0:
64,192,19320,1,0,0:0:0:0:
320,192,19409,1,2,0:0:0:0:
448,192,19409,1,0,0:0:0:0:
448,192,19499,1,0,0:0:0:0:
192,192,19588,1,0,0:0:0:0:
192,192,19678,1,0,0:0:0:0:
320,192,19767,1,2,0:0:0:0:
448,192,19767,1,0,0:0:0:0:
192,192,19812,1,0,0:0:0:0:
64,192,19857,1,2,0:0:0:0:
448,192,19857,1,0,0:0:0:0:
64,192,19947,1,0,0:0:0:50:S.wav
192,192,19947,1,0,0:0:0:0:
320,192,19947,1,0,0:0:0:0:
320,192,20036,1,0,0:0:0:0:
64,192,20126,1,2,0:0:0:0:
192,192,20126,1,0,0:0:0:0:
64,192,20215,1,0,0:0:0:0:
448,192,20305,1,0,0:0:0:0:
448,192,20394,1,0,0:0:0:0:
64,192,20484,1,0,0:0:0:50:S.wav
192,192,20484,1,0,0:0:0:0:
320,192,20484,1,0,0:0:0:0:
192,192,20573,1,0,0:0:0:0:
64,192,20663,1,2,0:0:0:0:
448,192,20663,1,0,0:0:0:0:
192,192,20753,1,2,0:0:0:0:
320,192,20753,1,0,0:0:0:0:
64,192,20842,1,0,0:0:0:50:S.wav
320,192,20842,1,0,0:0:0:0:
448,192,20842,1,0,0:0:0:0:
64,192,20932,1,0,0:0:0:0:
320,192,21021,1,2,0:0:0:0:
448,192,21021,1,0,0:0:0:0:
64,192,21111,1,2,0:0:0:0:
192,192,21111,1,0,0:0:0:0:
320,192,21200,1,2,0:0:0:0:
448,192,21200,1,0,0:0:0:0:
192,192,21290,1,2,0:0:0:0:
320,192,21290,1,0,0:0:0:0:
64,192,21379,1,0,0:0:0:50:S.wav
192,192,21379,1,0,0:0:0:0:
448,192,21379,1,0,0:0:0:0:
320,192,21469,1,2,0:0:0:0:
448,192,21469,1,0,0:0:0:0:
64,192,21559,1,2,0:0:0:0:
192,192,21559,1,0,0:0:0:0:
64,192,21648,1,0,0:0:0:50:S.wav
320,192,21648,1,0,0:0:0:0:
448,192,21648,1,0,0:0:0:0:
320,192,21738,1,0,0:0:0:0:
64,192,21827,1,2,0:0:0:0:
192,192,21827,1,0,0:0:0:0:
64,192,21917,1,0,0:0:0:50:S.wav
320,192,21917,1,0,0:0:0:0:
448,192,21917,1,0,0:0:0:0:
320,192,22006,1,0,0:0:0:50:S.wav
448,192,22006,1,0,0:0:0:0:
64,192,22096,1,0,0:0:0:50:S.wav
192,192,22096,1,0,0:0:0:50:LR_CymbalLGLH_S.wav
448,192,22096,1,0,0:0:0:0:
64,192,22185,1,2,0:0:0:0:
320,192,22185,1,0,0:0:0:0:
192,192,22275,1,2,0:0:0:0:
448,192,22275,1,0,0:0:0:0:
64,192,22364,1,2,0:0:0:0:
320,192,22364,1,0,0:0:0:0:
64,192,22454,1,0,0:0:0:50:S.wav
192,192,22454,1,0,0:0:0:0:
448,192,22454,1,0,0:0:0:0:
320,192,22544,1,2,0:0:0:0:
448,192,22544,1,0,0:0:0:0:
64,192,22633,1,2,0:0:0:0:
192,192,22633,1,0,0:0:0:0:
320,192,22723,1,2,0:0:0:0:
448,192,22723,1,0,0:0:0:0:
64,192,22812,1,0,0:0:0:50:S.wav
192,192,22812,1,0,0:0:0:0:
448,192,22812,1,0,0:0:0:0:
64,192,22902,1,2,0:0:0:0:
320,192,22902,1,0,0:0:0:0:
192,192,22991,1,2,0:0:0:0:
448,192,22991,1,0,0:0:0:0:
64,192,23081,1,2,0:0:0:0:
320,192,23081,1,0,0:0:0:0:
64,192,23170,1,0,0:0:0:50:S.wav
192,192,23170,1,0,0:0:0:0:
448,192,23170,1,0,0:0:0:0:
192,192,23260,1,2,0:0:0:0:
320,192,23260,1,0,0:0:0:0:
64,192,23350,1,2,0:0:0:0:
448,192,23350,1,0,0:0:0:0:
192,192,23439,1,2,0:0:0:0:
320,192,23439,1,0,0:0:0:0:
64,192,23529,1,0,0:0:0:50:S.wav
320,192,23529,1,0,0:0:0:50:LR_CymbalLGLH_S.wav
448,192,23529,1,0,0:0:0:0:
192,192,23618,1,2,0:0:0:0:
448,192,23618,1,0,0:0:0:0:
64,192,23708,1,2,0:0:0:0:
320,192,23708,1,0,0:0:0:0:
192,192,23797,1,2,0:0:0:0:
448,192,23797,1,0,0:0:0:0:
64,192,23887,1,0,0:0:0:50:S.wav
320,192,23887,1,0,0:0:0:0:
448,192,23887,1,0,0:0:0:0:
64,192,23976,1,2,0:0:0:0:
192,192,23976,1,0,0:0:0:0:
320,192,24066,1,2,0:0:0:0:
448,192,24066,1,0,0:0:0:0:
64,192,24156,1,2,0:0:0:0:
192,192,24156,1,0,0:0:0:0:
64,192,24245,1,0,0:0:0:50:S.wav
320,192,24245,1,0,0:0:0:0:
448,192,24245,1,0,0:0:0:0:
192,192,24335,1,2,0:0:0:0:
448,192,24335,1,0,0:0:0:0:
64,192,24424,1,2,0:0:0:0:
320,192,24424,1,0,0:0:0:0:
192,192,24514,1,2,0:0:0:0:
448,192,24514,1,0,0:0:0:0:
64,192,24603,1,0,0:0:0:50:S.wav
320,192,24603,1,0,0:0:0:0:
448,192,24603,1,0,0:0:0:0:
192,192,24693,1,2,0:0:0:0:
320,192,24693,1,0,0:0:0:0:
64,192,24782,1,2,0:0:0:0:
448,192,24782,1,0,0:0:0:0:
192,192,24872,1,2,0:0:0:0:
320,192,24872,1,0,0:0:0:0:
64,192,24962,1,0,0:0:0:50:S.wav
192,192,24962,1,0,0:0:0:50:LR_CymbalLGLH_S.wav
320,192,25006,1,0,0:0:0:0:
448,192,25051,1,2,0:0:0:0:
192,192,25096,1,0,0:0:0:0:
64,192,25141,1,0,0:0:0:50:S.wav
320,192,25141,1,0,0:0:0:0:
448,192,25185,1,0,0:0:0:0:
192,192,25230,1,2,0:0:0:0:
320,192,25275,1,0,0:0:0:0:
64,192,25320,1,0,0:0:0:50:S.wav
448,192,25320,1,0,0:0:0:0:
192,192,25364,1,0,0:0:0:0:
320,192,25409,1,2,0:0:0:0:
64,192,25454,1,0,0:0:0:0:
192,192,25499,1,0,0:0:0:50:S.wav
448,192,25499,1,0,0:0:0:0:
320,192,25544,1,0,0:0:0:0:
64,192,25588,1,2,0:0:0:0:
192,192,25633,1,0,0:0:0:0:
320,192,25678,1,0,0:0:0:50:S.wav
448,192,25678,1,0,0:0:0:0:
64,192,25723,1,0,0:0:0:0:
192,192,25767,1,2,0:0:0:0:
320,192,25812,1,0,0:0:0:0:
64,192,25857,1,0,0:0:0:50:S.wav
448,192,25857,1,0,0:0:0:0:
192,192,25902,1,0,0:0:0:0:
320,192,25947,1,2,0:0:0:0:
448,192,25991,1,0,0:0:0:0:
64,192,26036,1,0,0:0:0:50:S.wav
192,192,26036,1,0,0:0:0:0:
320,192,26081,1,0,0:0:0:0:
448,192,26126,1,2,0:0:0:0:
192,192,26170,1,0,0:0:0:0:
64,192,26215,1,0,0:0:0:50:S.wav
320,192,26215,1,0,0:0:0:0:
448,192,26260,1,0,0:0:0:0:
192,192,26305,1,2,0:0:0:0:
320,192,26350,1,0,0:0:0:0:
64,192,26394,128,0,26573:0:0:0:50:LR4_BassLineLDRN.wav
448,192,26394,128,0,26573:0:0:0:0:
192,192,26573,128,0,26753:0:0:0:0:
320,192,26573,128,0,26753:0:0:0:0:
64,192,26753,128,0,26887:0:0:0:0:
448,192,26753,128,0,27424:0:0:0:0:
64,192,26932,1,0,0:0:0:0:
192,192,26976,1,0,0:0:0:0:
320,192,27021,1,0,0:0:0:0:
64,192,27066,1,0,0:0:0:0:
192,192,27111,1,0,0:0:0:0:
320,192,27156,1,0,0:0:0:0:
64,192,27200,1,0,0:0:0:0:
192,192,27245,1,0,0:0:0:0:
320,192,27290,1,0,0:0:0:0:
64,192,27335,1,0,0:0:0:0:
192,192,27379,1,0,0:0:0:0:
320,192,27424,1,0,0:0:0:0:
64,192,27469,1,0,0:0:0:100:VEC3 Snares 042.wav
448,192,27469,128,0,27648:0:0:0:0:
192,192,27514,1,0,0:0:0:0:
320,192,27559,1,0,0:0:0:0:
192,192,27603,1,0,0:0:0:0:
64,192,27648,1,0,0:0:0:0:
64,192,27827,1,2,0:0:0:0:
320,192,27827,1,0,0:0:0:70:LR_CymbalLGLH_S.wav
448,192,27827,1,0,0:0:0:0:
64,192,27917,1,2,0:0:0:0:
192,192,27917,1,0,0:0:0:0:
64,192,28006,1,2,0:0:0:0:
192,192,28006,1,0,0:0:0:0:
64,192,28096,1,2,0:0:0:0:
192,192,28096,1,0,0:0:0:0:
64,192,28185,1,2,0:0:0:0:
192,192,28185,1,0,0:0:0:0:
64,192,28275,1,2,0:0:0:0:
192,192,28275,1,0,0:0:0:0:
320,192,28364,1,2,0:0:0:0:
448,192,28364,1,0,0:0:0:0:
64,192,28454,1,2,0:0:0:0:
192,192,28454,1,0,0:0:0:0:
64,192,28544,1,2,0:0:0:0:
448,192,28544,1,0,0:0:0:0:
192,192,28633,1,2,0:0:0:0:
320,192,28633,1,0,0:0:0:0:
320,192,28723,1,2,0:0:0:0:
448,192,28723,1,0,0:0:0:0:
64,192,28812,1,2,0:0:0:0:
192,192,28812,1,0,0:0:0:0:
320,192,28902,1,2,0:0:0:0:
448,192,28902,1,0,0:0:0:0:
64,192,28991,1,2,0:0:0:0:
192,192,28991,1,0,0:0:0:0:
64,192,29081,1,2,0:0:0:0:
320,192,29081,1,0,0:0:0:0:
192,192,29170,1,2,0:0:0:0:
448,192,29170,1,0,0:0:0:0:
64,192,29215,1,2,0:0:0:0:
320,192,29260,1,2,0:0:0:0:
448,192,29260,1,0,0:0:0:0:
64,192,29350,1,2,0:0:0:0:
192,192,29350,1,0,0:0:0:0:
64,192,29439,1,2,0:0:0:0:
192,192,29439,1,0,0:0:0:0:
64,192,29529,1,2,0:0:0:0:
192,192,29529,1,0,0:0:0:0:
64,192,29618,1,2,0:0:0:0:
192,192,29618,1,0,0:0:0:0:
64,192,29708,1,2,0:0:0:0:
192,192,29708,1,0,0:0:0:0:
320,192,29797,1,2,0:0:0:0:
448,192,29797,1,0,0:0:0:0:
64,192,29887,1,2,0:0:0:0:
192,192,29887,1,0,0:0:0:0:
320,192,29932,1,2,0:0:0:0:
64,192,29976,1,2,0:0:0:0:
192,192,29976,1,0,0:0:0:0:
320,192,30066,1,2,0:0:0:0:
448,192,30066,1,0,0:0:0:0:
192,192,30111,1,2,0:0:0:0:
320,192,30156,1,2,0:0:0:0:
448,192,30156,1,0,0:0:0:0:
64,192,30245,1,2,0:0:0:0:
192,192,30245,1,0,0:0:0:0:
320,192,30290,1,2,0:0:0:0:
64,192,30335,1,2,0:0:0:0:
192,192,30335,1,0,0:0:0:0:
448,192,30394,1,2,0:0:0:0:
192,192,30454,1,2,0:0:0:0:
320,192,30454,1,0,0:0:0:0:
64,192,30514,1,2,0:0:0:0:
320,192,30573,1,2,0:0:0:0:
448,192,30573,1,0,0:0:0:0:
192,192,30633,1,2,0:0:0:0:
64,192,30693,1,2,0:0:0:0:
448,192,30693,1,0,0:0:0:0:
320,192,30738,1,2,0:0:0:0:
192,192,30760,1,0,0:0:0:0:
64,192,30782,1,2,0:0:0:0:
64,192,30872,1,2,0:0:0:0:
192,192,30872,1,0,0:0:0:0:
64,192,30962,1,2,0:0:0:0:
192,192,30962,1,0,0:0:0:0:
64,192,31051,1,2,0:0:0:0:
192,192,31051,1,0,0:0:0:0:
320,192,31096,1,2,0:0:0:0:
64,192,31141,1,2,0:0:0:0:
192,192,31141,1,0,0:0:0:0:
320,192,31230,1,2,0:0:0:0:
448,192,31230,1,0,0:0:0:0:
64,192,31320,1,2,0:0:0:0:
192,192,31320,1,0,0:0:0:0:
64,192,31409,1,2,0:0:0:0:
448,192,31409,1,0,0:0:0:0:
192,192,31499,1,2,0:0:0:0:
320,192,31499,1,0,0:0:0:0:
320,192,31588,1,2,0:0:0:0:
448,192,31588,1,0,0:0:0:0:
64,192,31678,1,2,0:0:0:0:
192,192,31678,1,0,0:0:0:0:
320,192,31767,1,2,0:0:0:0:
448,192,31767,1,0,0:0:0:0:
192,192,31812,1,2,0:0:0:0:
320,192,31857,1,2,0:0:0:0:
448,192,31857,1,0,0:0:0:0:
192,192,31947,128,0,32036:0:0:0:0:
320,192,32036,128,0,32126:0:0:0:0:
64,192,32126,1,2,0:0:0:0:
192,192,32126,1,0,0:0:0:0:
64,192,32215,1,2,0:0:0:0:
192,192,32215,1,0,0:0:0:0:
320,192,32260,1,2,0:0:0:0:
64,192,32305,1,2,0:0:0:0:
192,192,32305,1,0,0:0:0:0:
64,192,32394,1,2,0:0:0:0:
192,192,32394,1,0,0:0:0:0:
320,192,32484,1,2,0:0:0:0:
448,192,32484,1,0,0:0:0:0:
64,192,32573,1,2,0:0:0:0:
320,192,32573,1,0,0:0:0:0:
192,192,32663,1,2,0:0:0:0:
448,192,32663,1,0,0:0:0:0:
64,192,32753,1,2,0:0:0:0:
320,192,32753,1,0,0:0:0:0:
192,192,32797,1,2,0:0:0:0:
320,192,32842,1,2,0:0:0:0:
448,192,32842,1,0,0:0:0:0:
64,192,32932,1,2,0:0:0:0:
192,192,32932,1,0,0:0:0:0:
320,192,32976,1,2,0:0:0:0:
64,192,33021,1,2,0:0:0:0:
448,192,33021,1,0,0:0:0:0:
192,192,33066,1,2,0:0:0:0:
320,192,33111,1,2,0:0:0:0:
448,192,33111,1,0,0:0:0:0:
320,192,33200,1,2,0:0:0:0:
448,192,33200,1,0,0:0:0:0:
192,192,33245,1,2,0:0:0:0:
64,192,33290,1,2,0:0:0:0:
448,192,33290,1,0,0:0:0:0:
320,192,33335,1,2,0:0:0:0:
64,192,33379,1,2,0:0:0:0:
192,192,33379,1,0,0:0:0:0:
64,192,33469,1,2,0:0:0:0:
192,192,33469,1,0,0:0:0:0:
64,192,33559,1,2,0:0:0:0:
192,192,33559,1,0,0:0:0:70:LR_CymbalLGLH_S.wav
448,192,33559,1,0,0:0:0:0:
320,192,33648,1,2,0:0:0:0:
448,192,33648,1,0,0:0:0:0:
320,192,33738,1,2,0:0:0:0:
448,192,33738,1,0,0:0:0:0:
320,192,33827,1,2,0:0:0:0:
448,192,33827,1,0,0:0:0:0:
320,192,33917,1,2,0:0:0:0:
448,192,33917,1,0,0:0:0:0:
320,192,34006,1,2,0:0:0:0:
448,192,34006,1,0,0:0:0:0:
64,192,34096,1,2,0:0:0:0:
192,192,34096,1,0,0:0:0:0:
64,192,34185,1,2,0:0:0:0:
448,192,34185,1,0,0:0:0:0:
192,192,34275,1,2,0:0:0:0:
320,192,34275,1,0,0:0:0:0:
320,192,34364,1,2,0:0:0:0:
448,192,34364,1,0,0:0:0:0:
64,192,34454,1,2,0:0:0:0:
192,192,34454,1,0,0:0:0:0:
64,192,34544,1,2,0:0:0:0:
448,192,34544,1,0,0:0:0:0:
192,192,34633,1,2,0:0:0:0:
448,192,34633,1,0,0:0:0:0:
64,192,34723,1,2,0:0:0:0:
320,192,34723,1,0,0:0:0:0:
192,192,34812,1,2,0:0:0:0:
448,192,34812,1,0,0:0:0:0:
64,192,34902,1,2,0:0:0:0:
448,192,34902,1,0,0:0:0:0:
320,192,34947,1,2,0:0:0:0:
64,192,34991,1,2,0:0:0:0:
192,192,34991,1,0,0:0:0:0:
320,192,35081,1,2,0:0:0:0:
448,192,35081,1,0,0:0:0:0:
320,192,35170,1,2,0:0:0:0:
448,192,35170,1,0,0:0:0:0:
320,192,35260,1,2,0:0:0:0:
448,192,35260,1,0,0:0:0:0:
320,192,35350,1,2,0:0:0:0:
448,192,35350,1,0,0:0:0:0:
320,192,35439,1,2,0:0:0:0:
448,192,35439,1,0,0:0:0:0:
64,192,35529,1,2,0:0:0:0:
192,192,35529,1,0,0:0:0:0:
320,192,35618,1,2,0:0:0:0:
448,192,35618,1,0,0:0:0:0:
192,192,35663,1,2,0:0:0:0:
320,192,35708,1,2,0:0:0:0:
448,192,35708,1,0,0:0:0:0:
64,192,35797,1,2,0:0:0:0:
192,192,35797,1,0,0:0:0:0:
320,192,35842,1,2,0:0:0:0:
64,192,35887,1,2,0:0:0:0:
192,192,35887,1,0,0:0:0:0:
320,192,35976,1,2,0:0:0:0:
448,192,35976,1,0,0:0:0:0:
192,192,36021,1,2,0:0:0:0:
320,192,36066,1,2,0:0:0:0:
448,192,36066,1,0,0:0:0:0:
64,192,36126,1,2,0:0:0:0:
192,192,36185,1,2,0:0:0:0:
448,192,36185,1,0,0:0:0:0:
320,192,36245,1,2,0:0:0:0:
64,192,36305,1,2,0:0:0:0:
192,192,36305,1,0,0:0:0:0:
320,192,36364,1,2,0:0:0:0:
64,192,36424,1,2,0:0:0:0:
192,192,36454,1,2,0:0:0:0:
320,192,36484,1,2,0:0:0:0:
448,192,36514,1,2,0:0:0:0:
64,192,36544,1,2,0:0:0:0:
192,192,36573,1,2,0:0:0:0:
320,192,36603,1,2,0:0:0:0:
448,192,36603,1,0,0:0:0:0:
64,192,36693,1,2,0:0:0:0:
192,192,36693,1,0,0:0:0:0:
320,192,36738,1,2,0:0:0:0:
64,192,36782,1,2,0:0:0:0:
448,192,36782,1,0,0:0:0:0:
192,192,36827,1,2,0:0:0:0:
320,192,36872,1,2,0:0:0:0:
448,192,36872,1,0,0:0:0:0:
192,192,36962,1,2,0:0:0:0:
64,192,36984,1,2,0:0:0:0:
448,192,37006,1,2,0:0:0:0:
320,192,37029,1,2,0:0:0:0:
192,192,37051,1,2,0:0:0:0:
64,192,37073,1,2,0:0:0:0:
448,192,37096,1,2,0:0:0:0:
320,192,37118,1,2,0:0:0:0:
64,192,37141,1,2,0:0:0:0:
192,192,37141,1,0,0:0:0:50:LR_CymbalLGLH_S.wav
192,192,37260,1,2,0:0:0:0:
320,192,37260,1,0,0:0:0:50:LR_CymbalLGLH_S.wav
448,192,37260,1,0,0:0:0:0:
64,192,37379,1,2,0:0:0:0:
320,192,37379,1,0,0:0:0:50:LR_CymbalLGLH_S.wav
448,192,37379,1,0,0:0:0:0:
64,192,37499,1,2,0:0:0:0:
192,192,37499,1,0,0:0:0:50:LR_CymbalLGLH_S.wav
448,192,37499,1,0,0:0:0:0:
64,192,37618,1,2,0:0:0:0:
192,192,37618,1,0,0:0:0:50:LR_CymbalLGLH_S.wav
320,192,37618,1,0,0:0:0:0:
192,192,37738,1,2,0:0:0:0:
320,192,37738,1,0,0:0:0:50:LR_CymbalLGLH_S.wav
448,192,37738,1,0,0:0:0:0:
64,192,37947,128,2,38170:0:0:0:0:
192,192,37947,128,4,38170:0:0:0:50:LR_CymbalLGLH_S.wav
320,192,37947,1,0,0:0:0:0:
64,192,38215,128,2,38439:0:0:0:0:
192,192,38215,128,4,38439:0:0:0:50:LR_CymbalLGLH_S.wav
320,192,38215,1,0,0:0:0:0:
192,192,38484,1,2,0:0:0:0:
320,192,38484,128,4,38708:0:0:0:50:LR_CymbalLGLH_S.wav
448,192,38484,128,0,38708:0:0:0:0:
192,192,38753,1,2,0:0:0:0:
320,192,38753,128,4,38976:0:0:0:50:LR_CymbalLGLH_S.wav
448,192,38753,128,0,38976:0:0:0:0:
192,192,39021,1,2,0:0:0:0:
320,192,39021,128,4,39245:0:0:0:50:LR_CymbalLGLH_S.wav
448,192,39021,128,0,39245:0:0:0:0:
64,192,39290,1,2,0:0:0:0:
320,192,39290,128,0,39379:0:0:0:70:LR_CymbalLGLH_S.wav
448,192,39290,1,0,0:0:0:0:
192,192,39379,1,2,0:0:0:0:
64,192,39469,128,0,39559:0:0:0:50:S.wav
448,192,39469,1,0,0:0:0:0:
192,192,39559,128,2,39648:0:0:0:0:
320,192,39648,128,2,39738:0:0:0:0:
192,192,39738,128,2,39827:0:0:0:0:
64,192,39827,1,0,0:0:0:50:S.wav
320,192,39827,1,0,0:0:0:0:
448,192,39917,128,2,40006:0:0:0:0:
64,192,40006,1,2,0:0:0:0:
192,192,40006,1,0,0:0:0:0:
448,192,40096,128,2,40185:0:0:0:0:
64,192,40185,1,0,0:0:0:50:S.wav
320,192,40185,128,0,40275:0:0:0:0:
192,192,40275,1,2,0:0:0:0:
64,192,40364,128,2,40454:0:0:0:0:
448,192,40364,1,0,0:0:0:0:
320,192,40454,128,2,40544:0:0:0:0:
192,192,40544,128,0,40633:0:0:0:50:S.wav
448,192,40544,1,0,0:0:0:0:
64,192,40633,128,2,40723:0:0:0:0:
192,192,40723,128,2,40812:0:0:0:0:
448,192,40723,1,0,0:0:0:0:
320,192,40812,1,2,0:0:0:0:
192,192,40902,128,0,40991:0:0:0:50:S.wav
448,192,40902,1,0,0:0:0:0:
64,192,40991,128,2,41081:0:0:0:0:
320,192,41081,128,2,41170:0:0:0:0:
448,192,41081,1,0,0:0:0:0:
192,192,41170,128,2,41260:0:0:0:0:
64,192,41260,1,0,0:0:0:50:S.wav
320,192,41260,1,0,0:0:0:0:
448,192,41350,128,2,41439:0:0:0:0:
64,192,41439,1,2,0:0:0:0:
192,192,41439,1,0,0:0:0:0:
448,192,41529,128,2,41618:0:0:0:0:
64,192,41618,1,0,0:0:0:50:S.wav
320,192,41618,128,0,41708:0:0:0:0:
192,192,41708,1,2,0:0:0:0:
64,192,41797,128,2,41887:0:0:0:0:
448,192,41797,1,0,0:0:0:0:
320,192,41887,128,2,41976:0:0:0:0:
192,192,41976,128,0,42066:0:0:0:50:S.wav
448,192,41976,1,0,0:0:0:0:
64,192,42066,128,2,42156:0:0:0:0:
320,192,42156,1,0,0:0:0:0:
192,192,42200,1,0,0:0:0:0:
320,192,42245,1,0,0:0:0:0:
192,192,42290,1,0,0:0:0:0:
64,192,42335,128,0,42424:0:0:0:50:S.wav
448,192,42335,1,0,0:0:0:0:
192,192,42424,128,2,42514:0:0:0:0:
320,192,42514,128,2,42603:0:0:0:0:
448,192,42514,1,0,0:0:0:0:
192,192,42603,128,2,42693:0:0:0:0:
64,192,42693,1,0,0:0:0:50:S.wav
320,192,42693,1,0,0:0:0:0:
448,192,42782,128,2,42872:0:0:0:0:
64,192,42872,1,2,0:0:0:0:
192,192,42872,1,0,0:0:0:0:
448,192,42962,128,2,43051:0:0:0:0:
64,192,43051,1,0,0:0:0:50:S.wav
320,192,43051,128,0,43141:0:0:0:0:
192,192,43141,1,2,0:0:0:0:
64,192,43230,128,2,43320:0:0:0:0:
448,192,43230,1,0,0:0:0:0:
320,192,43320,128,2,43409:0:0:0:0:
192,192,43409,128,0,43499:0:0:0:50:S.wav
448,192,43409,1,0,0:0:0:0:
64,192,43499,128,2,43588:0:0:0:0:
192,192,43588,1,2,0:0:0:0:
448,192,43588,128,0,43678:0:0:0:0:
320,192,43678,1,2,0:0:0:0:
64,192,43767,1,0,0:0:0:50:S.wav
192,192,43767,128,0,43857:0:0:0:0:
320,192,43857,128,2,43947:0:0:0:0:
64,192,43947,128,2,44036:0:0:0:0:
448,192,43947,1,0,0:0:0:0:
192,192,44036,128,2,44126:0:0:0:0:
64,192,44126,1,0,0:0:0:50:S.wav
320,192,44126,1,0,0:0:0:0:
448,192,44215,128,2,44305:0:0:0:0:
64,192,44305,1,0,0:0:0:50:S.wav
192,192,44305,1,0,0:0:0:0:
320,192,44350,1,0,0:0:0:0:
448,192,44394,128,2,44484:0:0:0:0:
64,192,44484,128,0,44573:0:0:0:50:S.wav
192,192,44484,1,0,0:0:0:0:
320,192,44573,1,2,0:0:0:0:
192,192,44663,128,0,45021:0:0:0:0:
320,192,44842,1,0,0:0:0:0:
64,192,45021,1,2,0:0:0:0:
320,192,45021,128,0,45111:0:0:0:70:LR_CymbalLGLH_S.wav
448,192,45021,1,0,0:0:0:0:
192,192,45111,1,2,0:0:0:0:
320,192,45200,128,0,45290:0:0:0:50:S.wav
448,192,45200,1,0,0:0:0:0:
64,192,45290,128,2,45379:0:0:0:0:
192,192,45379,128,2,45469:0:0:0:0:
448,192,45379,1,0,0:0:0:0:
320,192,45469,128,2,45559:0:0:0:0:
64,192,45559,1,0,0:0:0:50:S.wav
192,192,45559,1,0,0:0:0:0:
448,192,45648,128,2,45738:0:0:0:0:
64,192,45738,1,2,0:0:0:0:
192,192,45738,1,0,0:0:0:0:
448,192,45827,128,2,45917:0:0:0:0:
64,192,45917,1,0,0:0:0:50:S.wav
320,192,45917,128,0,46006:0:0:0:0:
192,192,46006,1,2,0:0:0:0:
64,192,46096,128,2,46185:0:0:0:0:
448,192,46096,1,0,0:0:0:0:
320,192,46185,128,2,46275:0:0:0:0:
192,192,46275,128,0,46364:0:0:0:50:S.wav
448,192,46275,1,0,0:0:0:0:
64,192,46364,128,2,46454:0:0:0:0:
192,192,46454,1,2,0:0:0:0:
448,192,46454,128,0,46544:0:0:0:0:
320,192,46544,1,2,0:0:0:0:
64,192,46633,1,0,0:0:0:50:S.wav
192,192,46633,128,0,46723:0:0:0:0:
320,192,46723,128,2,46812:0:0:0:0:
64,192,46812,1,2,0:0:0:0:
448,192,46812,128,0,46902:0:0:0:0:
320,192,46902,128,2,46991:0:0:0:0:
64,192,46991,1,0,0:0:0:50:S.wav
192,192,46991,1,0,0:0:0:0:
448,192,47081,128,2,47170:0:0:0:0:
64,192,47170,1,2,0:0:0:0:
192,192,47170,1,0,0:0:0:0:
448,192,47260,128,2,47350:0:0:0:0:
64,192,47350,1,0,0:0:0:50:S.wav
320,192,47350,128,0,47439:0:0:0:0:
192,192,47439,1,2,0:0:0:0:
64,192,47529,128,2,47618:0:0:0:0:
320,192,47529,1,0,0:0:0:0:
448,192,47618,128,2,47708:0:0:0:0:
64,192,47708,1,0,0:0:0:50:S.wav
320,192,47708,128,0,47797:0:0:0:0:
192,192,47797,128,2,47887:0:0:0:0:
64,192,47887,1,2,0:0:0:0:
448,192,47887,1,0,0:0:0:50:S.wav
320,192,47932,1,0,0:0:0:0:
192,192,47976,1,0,0:0:0:50:S.wav
64,192,48021,1,0,0:0:0:0:
320,192,48066,1,0,0:0:0:50:S.wav
448,192,48066,1,0,0:0:0:0:
192,192,48111,1,0,0:0:0:0:
64,192,48156,1,0,0:0:0:50:S.wav
320,192,48200,1,0,0:0:0:0:
192,192,48245,1,0,0:0:0:50:S.wav
448,192,48245,1,0,0:0:0:0:
64,192,48290,1,0,0:0:0:0:
320,192,48335,1,0,0:0:0:50:S.wav
448,192,48379,1,0,0:0:0:0:
64,192,48424,1,0,0:0:0:50:S.wav
192,192,48424,1,0,0:0:0:0:
320,192,48469,1,0,0:0:0:0:
448,192,48514,1,0,0:0:0:50:S.wav
192,192,48559,1,0,0:0:0:0:
64,192,48603,1,0,0:0:0:50:S.wav
320,192,48603,1,0,0:0:0:0:
448,192,48648,1,0,0:0:0:0:
192,192,48693,1,0,0:0:0:50:S.wav
320,192,48738,1,0,0:0:0:0:
64,192,48782,1,0,0:0:0:50:S.wav
448,192,48782,1,0,0:0:0:0:
192,192,48827,1,0,0:0:0:0:
320,192,48872,1,0,0:0:0:50:S.wav
64,192,48917,1,0,0:0:0:0:
192,192,48962,1,0,0:0:0:50:S.wav
448,192,48962,1,0,0:0:0:0:
320,192,49006,1,0,0:0:0:0:
64,192,49051,1,0,0:0:0:50:S.wav
192,192,49096,1,0,0:0:0:0:
320,192,49141,1,0,0:0:0:50:S.wav
448,192,49141,1,0,0:0:0:0:
64,192,49185,1,0,0:0:0:0:
192,192,49230,1,0,0:0:0:50:S.wav
320,192,49275,1,0,0:0:0:0:
64,192,49320,1,0,0:0:0:70:LR4_BassLineLDRN.wav
448,192,49320,1,0,0:0:0:0:
192,192,49499,1,0,0:0:0:0:
320,192,49544,1,0,0:0:0:0:
448,192,49588,1,0,0:0:0:0:
64,192,49678,128,0,50215:0:0:0:0:
448,192,49767,128,0,50394:0:0:0:0:
320,192,50215,128,0,50394:0:0:0:0:
192,192,50305,128,0,50394:0:0:0:0:
64,192,50394,128,0,50573:0:0:0:0:
192,192,50484,128,0,50573:0:0:0:0:
320,192,50573,128,0,50753:0:0:0:0:
192,192,50663,128,0,50753:0:0:0:0:
64,192,50753,128,2,50842:0:0:0:0:
448,192,50753,1,0,0:0:0:50:LR_CymbalLGLH_S.wav
192,192,50842,1,0,0:0:0:0:
64,192,50932,1,8,0:0:0:0:
320,192,50932,128,0,51021:0:0:0:0:
448,192,50932,1,0,0:0:0:0:
192,192,51021,128,0,51111:0:0:0:0:
64,192,51111,128,2,51200:0:0:0:0:
320,192,51111,1,0,0:0:0:0:
448,192,51111,1,0,0:0:0:0:
320,192,51200,128,0,51290:0:0:0:0:
64,192,51290,1,8,0:0:0:0:
192,192,51290,1,0,0:0:0:0:
448,192,51290,1,0,0:0:0:0:
448,192,51379,128,0,51469:0:0:0:0:
64,192,51469,1,2,0:0:0:0:
192,192,51469,1,0,0:0:0:0:
320,192,51469,1,0,0:0:0:0:
448,192,51559,128,0,51648:0:0:0:0:
64,192,51648,1,8,0:0:0:0:
192,192,51648,1,0,0:0:0:0:
320,192,51648,128,0,51738:0:0:0:0:
192,192,51738,1,0,0:0:0:0:
64,192,51827,128,2,51917:0:0:0:0:
320,192,51827,1,0,0:0:0:0:
448,192,51827,1,0,0:0:0:0:
320,192,51917,128,0,52006:0:0:0:0:
64,192,52006,1,8,0:0:0:0:
192,192,52006,128,0,52096:0:0:0:0:
448,192,52006,1,0,0:0:0:0:
64,192,52096,128,0,52185:0:0:0:0:
192,192,52185,1,2,0:0:0:0:
320,192,52185,1,0,0:0:0:0:
448,192,52185,128,0,52275:0:0:0:0:
64,192,52275,128,0,52364:0:0:0:0:
192,192,52364,128,8,52454:0:0:0:0:
320,192,52364,1,0,0:0:0:0:
448,192,52364,1,0,0:0:0:0:
320,192,52454,128,0,52544:0:0:0:0:
192,192,52544,128,2,52633:0:0:0:0:
448,192,52544,1,0,0:0:0:0:
64,192,52633,128,0,52723:0:0:0:0:
192,192,52723,1,8,0:0:0:0:
320,192,52723,1,0,0:0:0:0:
448,192,52723,1,0,0:0:0:0:
448,192,52812,128,0,52902:0:0:0:0:
64,192,52902,1,2,0:0:0:0:
192,192,52902,1,0,0:0:0:0:
320,192,52902,1,0,0:0:0:0:
448,192,52991,128,0,53081:0:0:0:0:
64,192,53081,1,8,0:0:0:0:
192,192,53081,1,0,0:0:0:0:
320,192,53081,128,0,53170:0:0:0:0:
192,192,53170,1,0,0:0:0:0:
64,192,53260,128,2,53350:0:0:0:0:
320,192,53260,1,0,0:0:0:0:
448,192,53260,1,0,0:0:0:0:
448,192,53350,128,0,53439:0:0:0:0:
64,192,53439,1,8,0:0:0:0:
192,192,53439,1,0,0:0:0:0:
320,192,53439,128,0,53529:0:0:0:0:
192,192,53529,128,0,53618:0:0:0:0:
64,192,53618,128,2,53708:0:0:0:0:
320,192,53618,1,0,0:0:0:0:
448,192,53618,1,0,0:0:0:0:
320,192,53708,1,2,0:0:0:0:
448,192,53708,1,0,0:0:0:0:
64,192,53797,128,8,53887:0:0:0:0:
192,192,53797,1,0,0:0:0:0:
448,192,53797,1,0,0:0:0:0:
320,192,53887,128,0,53976:0:0:0:0:
64,192,53976,1,2,0:0:0:0:
192,192,53976,128,0,54066:0:0:0:0:
448,192,53976,1,0,0:0:0:0:
320,192,54066,128,0,54156:0:0:0:0:
64,192,54156,1,8,0:0:0:0:
192,192,54156,1,0,0:0:0:0:
448,192,54156,1,0,0:0:0:0:
448,192,54245,128,0,54335:0:0:0:0:
64,192,54335,1,2,0:0:0:0:
192,192,54335,1,0,0:0:0:0:
320,192,54335,1,0,0:0:0:0:
448,192,54424,128,0,54514:0:0:0:0:
64,192,54514,128,8,54603:0:0:0:0:
192,192,54514,1,0,0:0:0:0:
320,192,54514,1,0,0:0:0:0:
320,192,54603,1,0,0:0:0:0:
64,192,54693,1,2,0:0:0:0:
192,192,54693,128,0,54782:0:0:0:0:
448,192,54693,1,0,0:0:0:0:
448,192,54782,128,0,54872:0:0:0:0:
64,192,54872,128,8,54962:0:0:0:0:
192,192,54872,1,0,0:0:0:0:
320,192,54872,1,0,0:0:0:0:
192,192,54962,128,0,55051:0:0:0:0:
64,192,55051,1,2,0:0:0:0:
320,192,55051,1,0,0:0:0:0:
448,192,55051,1,0,0:0:0:0:
320,192,55141,1,0,0:0:0:0:
448,192,55141,1,0,0:0:0:0:
64,192,55230,1,8,0:0:0:0:
192,192,55230,1,0,0:0:0:0:
320,192,55320,1,0,0:0:0:0:
448,192,55320,1,0,0:0:0:0:
64,192,55409,1,2,0:0:0:0:
192,192,55409,1,0,0:0:0:0:
448,192,55409,1,0,0:0:0:0:
64,192,55499,1,0,0:0:0:0:
192,192,55499,1,0,0:0:0:0:
320,192,55588,1,8,0:0:0:0:
448,192,55588,1,0,0:0:0:0:
64,192,55678,1,0,0:0:0:0:
192,192,55678,1,0,0:0:0:0:
64,192,55767,1,2,0:0:0:0:
320,192,55767,1,0,0:0:0:0:
448,192,55767,1,0,0:0:0:0:
192,192,55857,1,0,0:0:0:0:
64,192,55947,1,8,0:0:0:0:
192,192,55947,1,0,0:0:0:0:
320,192,55947,1,0,0:0:0:0:
448,192,56036,1,0,0:0:0:0:
64,192,56126,1,2,0:0:0:0:
192,192,56126,1,0,0:0:0:0:
448,192,56126,1,0,0:0:0:0:
64,192,56215,1,2,0:0:0:0:
192,192,56215,1,0,0:0:0:0:
320,192,56305,1,8,0:0:0:0:
448,192,56305,1,0,0:0:0:0:
192,192,56350,1,2,0:0:0:0:
320,192,56394,1,2,0:0:0:0:
448,192,56394,1,0,0:0:0:0:
192,192,56439,1,2,0:0:0:0:
64,192,56484,1,2,0:0:0:0:
320,192,56484,128,0,56573:0:0:0:50:LR_CymbalLGLH_S.wav
448,192,56484,1,0,0:0:0:0:
192,192,56573,1,0,0:0:0:0:
64,192,56663,128,8,56753:0:0:0:0:
320,192,56663,1,0,0:0:0:0:
448,192,56663,1,0,0:0:0:0:
320,192,56753,128,0,56842:0:0:0:0:
64,192,56842,1,2,0:0:0:0:
192,192,56842,128,0,56932:0:0:0:0:
448,192,56842,128,0,56932:0:0:0:0:
64,192,56932,128,0,57021:0:0:0:0:
192,192,57021,1,8,0:0:0:0:
320,192,57021,1,0,0:0:0:0:
448,192,57021,1,0,0:0:0:0:
320,192,57111,128,0,57200:0:0:0:0:
64,192,57200,1,2,0:0:0:0:
192,192,57200,1,0,0:0:0:0:
448,192,57200,1,0,0:0:0:0:
320,192,57290,128,0,57379:0:0:0:0:
64,192,57379,1,8,0:0:0:0:
192,192,57379,128,0,57469:0:0:0:0:
448,192,57379,1,0,0:0:0:0:
320,192,57469,1,0,0:0:0:0:
64,192,57559,128,2,57648:0:0:0:0:
192,192,57559,1,0,0:0:0:0:
448,192,57559,1,0,0:0:0:0:
448,192,57648,128,0,57738:0:0:0:0:
64,192,57738,1,8,0:0:0:0:
192,192,57738,1,0,0:0:0:0:
320,192,57738,128,0,57827:0:0:0:0:
192,192,57827,128,2,57917:0:0:0:0:
448,192,57827,1,0,0:0:0:0:
64,192,57917,128,2,58006:0:0:0:0:
320,192,57917,1,0,0:0:0:0:
448,192,57917,1,0,0:0:0:0:
192,192,58006,1,0,0:0:0:0:
64,192,58096,1,8,0:0:0:0:
320,192,58096,128,0,58185:0:0:0:0:
448,192,58096,1,0,0:0:0:0:
192,192,58185,128,0,58275:0:0:0:0:
64,192,58275,1,2,0:0:0:0:
320,192,58275,128,0,58364:0:0:0:0:
448,192,58275,128,0,58364:0:0:0:0:
64,192,58364,128,0,58454:0:0:0:0:
192,192,58454,1,8,0:0:0:0:
320,192,58454,1,0,0:0:0:0:
448,192,58454,1,0,0:0:0:0:
320,192,58544,128,0,58633:0:0:0:0:
64,192,58633,1,2,0:0:0:0:
192,192,58633,1,0,0:0:0:0:
448,192,58633,1,0,0:0:0:0:
320,192,58723,128,0,58812:0:0:0:0:
64,192,58812,1,8,0:0:0:0:
192,192,58812,128,0,58902:0:0:0:0:
448,192,58812,1,0,0:0:0:0:
320,192,58902,1,0,0:0:0:0:
64,192,58991,128,2,59081:0:0:0:0:
192,192,58991,1,0,0:0:0:0:
448,192,58991,1,0,0:0:0:0:
320,192,59081,1,2,0:0:0:0:
448,192,59081,128,0,59170:0:0:0:0:
64,192,59170,1,8,0:0:0:0:
320,192,59170,128,0,59260:0:0:0:0:
192,192,59260,1,2,0:0:0:0:
448,192,59260,128,0,59350:0:0:0:0:
64,192,59350,1,2,0:0:0:0:
192,192,59350,128,0,59439:0:0:0:0:
320,192,59350,1,0,0:0:0:0:
320,192,59439,1,0,0:0:0:0:
64,192,59529,128,8,59618:0:0:0:0:
192,192,59529,1,0,0:0:0:0:
448,192,59529,1,0,0:0:0:0:
192,192,59618,128,0,59708:0:0:0:0:
64,192,59708,1,2,0:0:0:0:
320,192,59708,128,0,59797:0:0:0:0:
448,192,59708,128,0,59797:0:0:0:0:
64,192,59797,128,0,59887:0:0:0:0:
192,192,59887,1,8,0:0:0:0:
320,192,59887,1,0,0:0:0:0:
448,192,59887,1,0,0:0:0:0:
320,192,59976,128,0,60066:0:0:0:0:
64,192,60066,1,2,0:0:0:0:
192,192,60066,1,0,0:0:0:0:
448,192,60066,1,0,0:0:0:0:
320,192,60156,128,0,60245:0:0:0:0:
64,192,60245,1,8,0:0:0:0:
192,192,60245,1,0,0:0:0:0:
448,192,60245,128,0,60335:0:0:0:0:
192,192,60335,1,0,0:0:0:0:
64,192,60424,128,2,60514:0:0:0:0:
320,192,60424,1,0,0:0:0:0:
448,192,60424,1,0,0:0:0:0:
320,192,60514,1,0,0:0:0:0:
64,192,60603,1,8,0:0:0:0:
192,192,60603,1,0,0:0:0:0:
448,192,60603,128,0,60693:0:0:0:0:
192,192,60693,1,0,0:0:0:0:
64,192,60782,1,2,0:0:0:0:
320,192,60782,1,0,0:0:0:0:
448,192,60782,1,0,0:0:0:0:
320,192,60872,1,0,0:0:0:0:
448,192,60872,1,0,0:0:0:0:
192,192,60962,1,0,0:0:0:0:
64,192,61051,1,2,0:0:0:0:
320,192,61051,1,0,0:0:0:0:
448,192,61051,1,0,0:0:0:0:
320,192,61141,1,0,0:0:0:0:
448,192,61141,1,0,0:0:0:0:
192,192,61230,1,0,0:0:0:0:
64,192,61320,1,2,0:0:0:0:
320,192,61320,1,0,0:0:0:0:
448,192,61320,1,0,0:0:0:0:
320,192,61409,1,0,0:0:0:0:
448,192,61409,1,0,0:0:0:0:
192,192,61499,1,0,0:0:0:0:
64,192,61588,1,2,0:0:0:0:
320,192,61588,1,0,0:0:0:0:
448,192,61588,1,0,0:0:0:0:
320,192,61678,1,0,0:0:0:0:
448,192,61678,1,0,0:0:0:0:
192,192,61767,1,0,0:0:0:0:
64,192,61857,1,2,0:0:0:0:
320,192,61857,1,0,0:0:0:0:
448,192,61857,1,0,0:0:0:0:
320,192,61947,1,0,0:0:0:0:
192,192,62036,1,0,0:0:0:0:
192,192,62126,1,0,0:0:0:0:
64,192,62215,1,2,0:0:0:0:
320,192,62215,1,0,0:0:0:50:LR_CymbalLGLH_S.wav
448,192,62215,1,0,0:0:0:0:
64,192,62305,1,2,0:0:0:0:
192,192,62305,1,0,0:0:0:0:
448,192,62305,1,0,0:0:0:0:
64,192,62394,1,2,0:0:0:0:
192,192,62394,1,0,0:0:0:0:
320,192,62394,1,0,0:0:0:0:
320,192,62484,1,2,0:0:0:0:
448,192,62484,1,0,0:0:0:0:
64,192,62573,1,2,0:0:0:0:
192,192,62573,1,0,0:0:0:0:
192,192,62663,1,2,0:0:0:0:
448,192,62663,1,0,0:0:0:0:
64,192,62753,1,2,0:0:0:0:
320,192,62753,1,0,0:0:0:0:
64,192,62842,1,2,0:0:0:0:
192,192,62842,1,0,0:0:0:0:
448,192,62842,1,0,0:0:0:0:
320,192,62932,1,2,0:0:0:0:
448,192,62932,1,0,0:0:0:0:
64,192,63021,1,2,0:0:0:0:
192,192,63021,1,0,0:0:0:0:
64,192,63111,1,2,0:0:0:0:
320,192,63111,1,0,0:0:0:0:
192,192,63200,1,2,0:0:0:0:
448,192,63200,1,0,0:0:0:0:
320,192,63290,1,2,0:0:0:0:
448,192,63290,1,0,0:0:0:0:
64,192,63379,1,2,0:0:0:0:
192,192,63379,1,0,0:0:0:0:
64,192,63469,1,2,0:0:0:0:
320,192,63469,1,0,0:0:0:0:
448,192,63469,1,0,0:0:0:0:
320,192,63559,1,2,0:0:0:0:
448,192,63559,1,0,0:0:0:0:
192,192,63603,1,2,0:0:0:0:
64,192,63648,1,2,0:0:0:0:
320,192,63648,1,0,0:0:0:0:
448,192,63648,1,0,0:0:0:0:
64,192,63738,1,2,0:0:0:0:
192,192,63738,1,0,0:0:0:0:
192,192,63827,1,2,0:0:0:0:
320,192,63827,1,0,0:0:0:0:
448,192,63827,1,0,0:0:0:0:
64,192,63917,1,2,0:0:0:0:
320,192,63917,1,0,0:0:0:0:
448,192,63917,1,0,0:0:0:0:
64,192,64006,1,2,0:0:0:0:
192,192,64006,1,0,0:0:0:0:
192,192,64096,1,2,0:0:0:0:
320,192,64096,1,0,0:0:0:0:
448,192,64096,1,0,0:0:0:0:
64,192,64185,1,2,0:0:0:0:
320,192,64185,1,0,0:0:0:0:
448,192,64185,1,0,0:0:0:0:
64,192,64275,1,2,0:0:0:0:
192,192,64275,1,0,0:0:0:0:
448,192,64275,1,0,0:0:0:0:
320,192,64320,1,2,0:0:0:0:
64,192,64364,1,2,0:0:0:0:
192,192,64364,1,0,0:0:0:0:
320,192,64454,1,2,0:0:0:0:
448,192,64454,1,0,0:0:0:0:
64,192,64499,1,2,0:0:0:0:
320,192,64544,1,2,0:0:0:0:
448,192,64544,1,0,0:0:0:0:
64,192,64633,1,2,0:0:0:0:
192,192,64633,1,0,0:0:0:0:
320,192,64633,1,0,0:0:0:0:
448,192,64678,1,2,0:0:0:0:
64,192,64723,1,2,0:0:0:0:
192,192,64723,1,0,0:0:0:0:
320,192,64782,1,2,0:0:0:0:
64,192,64842,1,2,0:0:0:0:
448,192,64842,1,0,0:0:0:0:
192,192,64902,1,2,0:0:0:0:
320,192,64962,1,2,0:0:0:0:
448,192,64962,1,0,0:0:0:0:
192,192,65021,1,2,0:0:0:0:
64,192,65081,1,2,0:0:0:0:
320,192,65081,1,0,0:0:0:0:
448,192,65081,1,0,0:0:0:0:
64,192,65170,1,2,0:0:0:0:
192,192,65170,1,0,0:0:0:0:
448,192,65170,1,0,0:0:0:0:
64,192,65260,1,2,0:0:0:0:
192,192,65260,1,0,0:0:0:0:
320,192,65260,1,0,0:0:0:0:
192,192,65350,1,2,0:0:0:0:
320,192,65350,1,0,0:0:0:0:
448,192,65350,1,0,0:0:0:0:
64,192,65439,1,2,0:0:0:0:
320,192,65439,1,0,0:0:0:0:
448,192,65439,1,0,0:0:0:0:
192,192,65484,1,2,0:0:0:0:
320,192,65529,1,2,0:0:0:0:
448,192,65529,1,0,0:0:0:0:
64,192,65618,1,2,0:0:0:0:
192,192,65618,1,0,0:0:0:0:
448,192,65618,1,0,0:0:0:0:
320,192,65663,1,2,0:0:0:0:
64,192,65708,1,2,0:0:0:0:
192,192,65708,1,0,0:0:0:0:
64,192,65797,1,2,0:0:0:0:
192,192,65797,1,0,0:0:0:0:
448,192,65797,1,0,0:0:0:0:
64,192,65887,1,2,0:0:0:0:
320,192,65887,1,0,0:0:0:0:
448,192,65887,1,0,0:0:0:0:
192,192,65976,1,2,0:0:0:0:
320,192,65976,1,0,0:0:0:0:
448,192,65976,1,0,0:0:0:0:
64,192,66066,1,2,0:0:0:0:
192,192,66066,1,0,0:0:0:0:
320,192,66066,1,0,0:0:0:0:
64,192,66156,1,2,0:0:0:0:
192,192,66156,1,0,0:0:0:0:
448,192,66156,1,0,0:0:0:0:
320,192,66200,1,2,0:0:0:0:
64,192,66245,1,2,0:0:0:0:
192,192,66245,1,0,0:0:0:0:
64,192,66335,1,2,0:0:0:0:
320,192,66335,1,0,0:0:0:0:
448,192,66335,1,0,0:0:0:0:
320,192,66424,1,0,0:0:0:0:
448,192,66424,1,0,0:0:0:0:
64,192,66514,1,2,0:0:0:0:
192,192,66514,1,0,0:0:0:0:
320,192,66559,1,2,0:0:0:0:
64,192,66603,1,2,0:0:0:0:
448,192,66603,1,0,0:0:0:0:
192,192,66648,1,2,0:0:0:0:
320,192,66693,1,2,0:0:0:0:
448,192,66693,1,0,0:0:0:0:
320,192,66782,1,2,0:0:0:0:
448,192,66782,1,0,0:0:0:0:
192,192,66827,1,2,0:0:0:0:
64,192,66872,1,2,0:0:0:0:
448,192,66872,1,0,0:0:0:0:
320,192,66917,1,2,0:0:0:0:
64,192,66962,1,2,0:0:0:0:
192,192,66962,1,0,0:0:0:0:
64,192,67051,1,2,0:0:0:0:
192,192,67051,1,0,0:0:0:0:
320,192,67096,1,2,0:0:0:0:
64,192,67141,1,2,0:0:0:0:
448,192,67141,1,0,0:0:0:0:
192,192,67185,1,2,0:0:0:0:
320,192,67230,1,2,0:0:0:0:
448,192,67230,1,0,0:0:0:0:
320,192,67320,1,2,0:0:0:0:
448,192,67320,1,0,0:0:0:0:
192,192,67364,1,2,0:0:0:0:
64,192,67409,1,2,0:0:0:0:
448,192,67409,1,0,0:0:0:0:
320,192,67454,1,2,0:0:0:0:
64,192,67499,1,2,0:0:0:0:
192,192,67499,1,0,0:0:0:0:
64,192,67588,1,2,0:0:0:0:
192,192,67588,1,0,0:0:0:0:
448,192,67588,1,0,0:0:0:0:
320,192,67678,1,0,0:0:0:0:
320,192,67767,1,0,0:0:0:0:
448,192,67857,1,0,0:0:0:0:
64,192,67947,1,2,0:0:0:0:
192,192,67947,1,0,0:0:0:0:
320,192,68006,1,2,0:0:0:0:
448,192,68006,1,0,0:0:0:0:
64,192,68066,1,2,0:0:0:0:
192,192,68066,1,0,0:0:0:0:
320,192,68126,1,2,0:0:0:0:
448,192,68126,1,0,0:0:0:0:
64,192,68185,1,0,0:0:0:0:
192,192,68215,1,2,0:0:0:0:
320,192,68245,1,0,0:0:0:0:
64,192,68305,1,2,0:0:0:0:
192,192,68305,1,0,0:0:0:0:
448,192,68364,1,0,0:0:0:0:
320,192,68394,1,2,0:0:0:0:
192,192,68424,1,0,0:0:0:0:
320,192,68484,1,2,0:0:0:0:
448,192,68484,1,0,0:0:0:0:
64,192,68544,1,0,0:0:0:0:
192,192,68573,1,2,0:0:0:0:
320,192,68603,1,0,0:0:0:0:
64,192,68663,1,2,0:0:0:0:
192,192,68663,1,0,0:0:0:0:
320,192,68723,1,2,0:0:0:0:
448,192,68723,1,0,0:0:0:0:
64,192,68782,1,2,0:0:0:0:
192,192,68782,1,0,0:0:0:0:
320,192,68842,1,2,0:0:0:0:
448,192,68842,1,0,0:0:0:0:
64,192,68902,1,0,0:0:0:0:
192,192,68932,1,2,0:0:0:0:
320,192,68962,1,0,0:0:0:0:
64,192,69021,1,2,0:0:0:0:
192,192,69021,1,0,0:0:0:0:
448,192,69081,1,0,0:0:0:0:
320,192,69111,1,2,0:0:0:0:
192,192,69141,1,0,0:0:0:0:
320,192,69200,1,2,0:0:0:0:
448,192,69200,1,0,0:0:0:0:
64,192,69260,1,0,0:0:0:0:
192,192,69290,1,2,0:0:0:0:
320,192,69320,1,0,0:0:0:0:
64,192,69379,1,2,0:0:0:0:
192,192,69379,1,0,0:0:0:0:
448,192,69439,1,0,0:0:0:0:
320,192,69469,1,2,0:0:0:0:
64,192,69499,1,0,0:0:0:0:
320,192,69559,1,2,0:0:0:0:
448,192,69559,1,0,0:0:0:0:
64,192,69618,1,0,0:0:0:0:
192,192,69648,1,2,0:0:0:0:
448,192,69678,1,0,0:0:0:0:
64,192,69738,1,2,0:0:0:0:
192,192,69738,1,0,0:0:0:0:
448,192,69797,1,0,0:0:0:0:
320,192,69827,1,2,0:0:0:0:
64,192,69857,1,0,0:0:0:0:
192,192,69917,1,2,0:0:0:0:
448,192,69917,1,0,0:0:0:0:
320,192,69962,1,2,0:0:0:0:
64,192,70006,1,2,0:0:0:0:
192,192,70006,1,0,0:0:0:0:
448,192,70051,1,2,0:0:0:0:
64,192,70096,1,2,0:0:0:0:
192,192,70096,1,0,0:0:0:0:
320,192,70185,1,2,0:0:0:0:
448,192,70185,1,0,0:0:0:0:
64,192,70230,1,2,0:0:0:0:
320,192,70275,1,2,0:0:0:0:
448,192,70275,1,0,0:0:0:0:
64,192,70364,1,2,0:0:0:0:
192,192,70364,1,0,0:0:0:0:
320,192,70409,1,2,0:0:0:0:
64,192,70454,1,2,0:0:0:0:
448,192,70454,1,0,0:0:0:0:
192,192,70514,1,2,0:0:0:0:
320,192,70573,1,2,0:0:0:0:
448,192,70573,1,0,0:0:0:0:
64,192,70633,1,2,0:0:0:0:
192,192,70693,1,2,0:0:0:0:
320,192,70693,1,0,0:0:0:0:
448,192,70753,1,2,0:0:0:0:
64,192,70812,1,2,0:0:0:0:
192,192,70812,1,0,0:0:0:0:
320,192,70812,1,0,0:0:0:0:
192,192,70902,1,0,0:0:0:0:
64,192,70991,1,2,0:0:0:0:
320,192,70991,1,0,0:0:0:0:
448,192,70991,1,0,0:0:0:0:
64,192,71081,1,2,0:0:0:0:
192,192,71081,1,0,0:0:0:0:
448,192,71081,1,0,0:0:0:0:
192,192,71170,1,2,0:0:0:0:
320,192,71170,1,0,0:0:0:0:
64,192,71260,1,2,0:0:0:0:
448,192,71260,1,0,0:0:0:0:
320,192,71350,1,2,0:0:0:0:
448,192,71350,1,0,0:0:0:0:
64,192,71439,1,2,0:0:0:0:
192,192,71439,1,0,0:0:0:0:
64,192,71529,1,2,0:0:0:0:
448,192,71529,1,0,0:0:0:0:
192,192,71618,1,2,0:0:0:0:
320,192,71618,1,0,0:0:0:0:
64,192,71708,1,0,0:0:0:0:
192,192,71708,1,0,0:0:0:0:
320,192,71797,1,2,0:0:0:0:
448,192,71797,1,0,0:0:0:0:
64,192,71842,1,2,0:0:0:0:
320,192,71887,1,2,0:0:0:0:
448,192,71887,1,0,0:0:0:0:
192,192,71976,1,2,0:0:0:0:
320,192,72021,1,2,0:0:0:0:
64,192,72066,1,2,0:0:0:0:
192,192,72066,1,0,0:0:0:0:
448,192,72066,1,0,0:0:0:0:
320,192,72156,1,2,0:0:0:0:
448,192,72156,1,0,0:0:0:0:
192,192,72200,1,2,0:0:0:0:
64,192,72245,1,2,0:0:0:0:
320,192,72245,1,0,0:0:0:30:LR_CymbalG_short.wav
448,192,72245,1,0,0:0:0:0:
64,192,72335,1,2,0:0:0:0:
320,192,72335,1,0,0:0:0:30:LR_CymbalG_short.wav
448,192,72335,1,0,0:0:0:0:
192,192,72424,1,0,0:0:0:0:
64,192,72514,1,2,0:0:0:0:
320,192,72514,1,0,0:0:0:30:LR_CymbalG_short.wav
448,192,72514,1,0,0:0:0:0:
64,192,72603,1,2,0:0:0:0:
320,192,72603,1,0,0:0:0:30:LR_CymbalG_short.wav
448,192,72603,1,0,0:0:0:0:
192,192,72693,1,0,0:0:0:0:
64,192,72782,1,2,0:0:0:0:
320,192,72782,1,0,0:0:0:30:LR_CymbalG_short.wav
448,192,72782,1,0,0:0:0:0:
64,192,72872,1,2,0:0:0:0:
320,192,72872,1,0,0:0:0:30:LR_CymbalG_short.wav
448,192,72872,1,0,0:0:0:0:
192,192,72962,1,0,0:0:0:0:
64,192,73051,1,2,0:0:0:0:
320,192,73051,1,0,0:0:0:30:LR_CymbalG_short.wav
448,192,73051,1,0,0:0:0:0:
64,192,73141,1,2,0:0:0:0:
320,192,73141,1,0,0:0:0:30:LR_CymbalG_short.wav
448,192,73141,1,0,0:0:0:0:
192,192,73230,1,0,0:0:0:0:
320,192,73320,1,2,0:0:0:0:
448,192,73320,1,0,0:0:0:0:
64,192,73364,1,0,0:0:0:0:
192,192,73409,1,0,0:0:0:0:
320,192,73454,1,0,0:0:0:0:
448,192,73499,1,0,0:0:0:0:
64,192,73544,1,0,0:0:0:0:
192,192,73588,1,0,0:0:0:0:
320,192,73633,1,0,0:0:0:0:
64,192,73678,128,2,73767:0:0:0:0:
192,192,73678,1,0,0:0:0:50:LR_CymbalLGLH_S.wav
448,192,73678,1,0,0:0:0:0:
320,192,73767,1,0,0:0:0:0:
64,192,73857,1,8,0:0:0:0:
192,192,73857,128,0,73947:0:0:0:0:
448,192,73857,1,0,0:0:0:0:
448,192,73947,128,0,74036:0:0:0:0:
64,192,74036,128,2,74126:0:0:0:0:
192,192,74036,1,0,0:0:0:0:
320,192,74036,1,0,0:0:0:0:
192,192,74126,128,0,74215:0:0:0:0:
64,192,74215,1,8,0:0:0:0:
320,192,74215,1,0,0:0:0:0:
448,192,74215,1,0,0:0:0:0:
448,192,74305,128,0,74394:0:0:0:0:
64,192,74394,1,2,0:0:0:0:
192,192,74394,1,0,0:0:0:0:
320,192,74394,1,0,0:0:0:0:
448,192,74484,128,0,74573:0:0:0:0:
64,192,74573,1,8,0:0:0:0:
192,192,74573,1,0,0:0:0:0:
320,192,74573,128,0,74663:0:0:0:0:
192,192,74663,1,0,0:0:0:0:
64,192,74753,128,2,74842:0:0:0:0:
320,192,74753,1,0,0:0:0:0:
448,192,74753,1,0,0:0:0:0:
320,192,74842,128,0,74932:0:0:0:0:
64,192,74932,1,8,0:0:0:0:
192,192,74932,128,0,75021:0:0:0:0:
448,192,74932,1,0,0:0:0:0:
448,192,75021,128,0,75111:0:0:0:0:
64,192,75111,1,2,0:0:0:0:
64,192,75200,1,0,0:0:0:70:S1.wav
192,192,75200,1,0,0:0:0:0:
320,192,75200,1,0,0:0:0:0:
448,192,75290,1,2,0:0:0:0:
192,192,75379,1,0,0:0:0:70:S1.wav
320,192,75379,1,0,0:0:0:0:
448,192,75379,1,0,0:0:0:0:
64,192,75469,1,2,0:0:0:0:
64,192,75559,1,0,0:0:0:70:S1.wav
192,192,75559,1,0,0:0:0:0:
320,192,75559,1,0,0:0:0:0:
448,192,75648,1,2,0:0:0:0:
192,192,75738,1,0,0:0:0:70:S1.wav
320,192,75738,1,0,0:0:0:0:
448,192,75738,1,0,0:0:0:0:
64,192,75827,1,2,0:0:0:0:
64,192,75917,1,0,0:0:0:70:S1.wav
192,192,75917,1,0,0:0:0:0:
320,192,75917,1,0,0:0:0:0:
448,192,76006,1,2,0:0:0:0:
192,192,76096,1,0,0:0:0:70:S1.wav
320,192,76096,1,0,0:0:0:0:
448,192,76096,1,0,0:0:0:0:
64,192,76185,1,2,0:0:0:0:
64,192,76275,1,0,0:0:0:70:S1.wav
192,192,76275,1,0,0:0:0:0:
320,192,76275,1,0,0:0:0:0:
448,192,76364,1,2,0:0:0:0:
192,192,76454,1,0,0:0:0:70:S1.wav
320,192,76454,1,0,0:0:0:0:
448,192,76454,1,0,0:0:0:0:
64,192,76544,1,2,0:0:0:0:
192,192,76544,1,0,0:0:0:50:LR_CymbalLGLH_S.wav
320,192,76544,128,0,76633:0:0:0:0:
448,192,76633,1,0,0:0:0:0:
64,192,76723,1,8,0:0:0:0:
320,192,76723,128,0,76812:0:0:0:0:
448,192,76723,1,0,0:0:0:0:
64,192,76812,128,0,76902:0:0:0:0:
192,192,76902,128,2,76991:0:0:0:0:
320,192,76902,1,0,0:0:0:0:
448,192,76902,1,0,0:0:0:0:
320,192,76991,128,0,77081:0:0:0:0:
64,192,77081,1,8,0:0:0:0:
192,192,77081,1,0,0:0:0:0:
448,192,77081,1,0,0:0:0:0:
448,192,77170,128,0,77260:0:0:0:0:
64,192,77260,1,2,0:0:0:0:
192,192,77260,1,0,0:0:0:0:
320,192,77260,1,0,0:0:0:0:
448,192,77350,128,0,77439:0:0:0:0:
64,192,77439,1,8,0:0:0:0:
192,192,77439,1,0,0:0:0:0:
320,192,77439,128,0,77529:0:0:0:0:
192,192,77529,1,0,0:0:0:0:
64,192,77618,128,2,77708:0:0:0:0:
320,192,77618,1,0,0:0:0:0:
448,192,77618,1,0,0:0:0:0:
320,192,77708,1,2,0:0:0:0:
448,192,77708,128,0,77797:0:0:0:0:
64,192,77797,1,8,0:0:0:0:
192,192,77797,128,0,77887:0:0:0:0:
320,192,77887,128,2,77976:0:0:0:0:
448,192,77887,1,0,0:0:0:0:
192,192,77976,1,2,0:0:0:0:
64,192,78066,1,0,0:0:0:70:S1.wav
192,192,78066,1,0,0:0:0:0:
448,192,78066,1,0,0:0:0:0:
320,192,78156,1,2,0:0:0:0:
64,192,78245,1,0,0:0:0:70:S1.wav
320,192,78245,1,0,0:0:0:0:
448,192,78245,1,0,0:0:0:0:
192,192,78335,1,2,0:0:0:0:
64,192,78424,1,0,0:0:0:70:S1.wav
192,192,78424,1,0,0:0:0:0:
448,192,78424,1,0,0:0:0:0:
320,192,78514,1,2,0:0:0:0:
64,192,78603,1,0,0:0:0:70:S1.wav
320,192,78603,1,0,0:0:0:0:
448,192,78603,1,0,0:0:0:0:
192,192,78693,1,2,0:0:0:0:
64,192,78782,1,0,0:0:0:70:S1.wav
192,192,78782,1,0,0:0:0:0:
448,192,78782,1,0,0:0:0:0:
320,192,78872,1,2,0:0:0:0:
64,192,78962,1,0,0:0:0:70:S1.wav
320,192,78962,1,0,0:0:0:0:
448,192,78962,1,0,0:0:0:0:
192,192,79051,1,2,0:0:0:0:
64,192,79141,1,0,0:0:0:70:S1.wav
192,192,79141,1,0,0:0:0:0:
448,192,79141,1,0,0:0:0:0:
320,192,79230,1,2,0:0:0:0:
64,192,79320,1,0,0:0:0:70:S1.wav
320,192,79320,1,0,0:0:0:0:
448,192,79320,1,0,0:0:0:0:
64,192,79409,1,2,0:0:0:0:
192,192,79409,1,0,0:0:0:50:LR_CymbalLGLH_S.wav
448,192,79454,1,2,0:0:0:0:
64,192,79499,1,2,0:0:0:0:
192,192,79499,1,0,0:0:0:0:
448,192,79544,1,2,0:0:0:0:
192,192,79588,1,8,0:0:0:0:
320,192,79588,128,0,79678:0:0:0:0:
64,192,79678,1,2,0:0:0:0:
448,192,79678,128,0,79767:0:0:0:0:
64,192,79767,1,2,0:0:0:0:
192,192,79767,128,0,79857:0:0:0:0:
320,192,79767,1,0,0:0:0:0:
320,192,79857,128,0,79947:0:0:0:0:
64,192,79947,1,8,0:0:0:0:
192,192,79947,1,0,0:0:0:0:
448,192,79947,1,0,0:0:0:0:
448,192,80036,128,0,80126:0:0:0:0:
64,192,80126,1,2,0:0:0:0:
192,192,80126,1,0,0:0:0:0:
320,192,80126,1,0,0:0:0:0:
448,192,80215,128,0,80305:0:0:0:0:
64,192,80305,1,8,0:0:0:0:
192,192,80305,128,0,80394:0:0:0:0:
320,192,80305,1,0,0:0:0:0:
64,192,80394,1,0,0:0:0:0:
448,192,80484,1,2,0:0:0:0:
192,192,80484,128,0,80573:0:0:0:0:
320,192,80484,1,0,0:0:0:0:
64,192,80573,1,2,0:0:0:0:
448,192,80573,1,0,0:0:0:0:
320,192,80618,1,2,0:0:0:0:
192,192,80663,1,8,0:0:0:0:
64,192,80663,1,0,0:0:0:0:
448,192,80708,1,2,0:0:0:0:
64,192,80753,1,2,0:0:0:0:
320,192,80753,1,0,0:0:0:0:
192,192,80797,1,0,0:0:0:0:
320,192,80842,1,2,0:0:0:0:
448,192,80842,1,0,0:0:0:0:
192,192,80932,1,0,0:0:0:70:S1.wav
448,192,80932,1,0,0:0:0:0:
64,192,81021,1,0,0:0:0:70:S1.wav
192,192,81021,1,0,0:0:0:0:
64,192,81111,1,0,0:0:0:70:S1.wav
320,192,81111,1,0,0:0:0:0:
320,192,81200,1,0,0:0:0:70:S1.wav
448,192,81200,1,0,0:0:0:0:
192,192,81290,1,0,0:0:0:70:S1.wav
448,192,81290,1,0,0:0:0:0:
64,192,81379,1,0,0:0:0:70:S1.wav
192,192,81379,1,0,0:0:0:0:
64,192,81469,1,0,0:0:0:70:S1.wav
320,192,81469,1,0,0:0:0:0:
320,192,81559,1,0,0:0:0:70:S1.wav
448,192,81559,1,0,0:0:0:0:
192,192,81648,1,0,0:0:0:70:S1.wav
448,192,81648,1,0,0:0:0:0:
64,192,81738,1,0,0:0:0:70:S1.wav
192,192,81738,1,0,0:0:0:0:
64,192,81827,1,0,0:0:0:70:S1.wav
320,192,81827,1,0,0:0:0:0:
448,192,81917,128,0,82275:0:0:0:0:
64,192,82275,1,2,0:0:0:0:
192,192,82275,1,0,0:0:0:50:LR_CymbalLGLH_S.wav
320,192,82275,1,0,0:0:0:0:
192,192,82454,1,0,0:0:0:0:
320,192,82454,1,0,0:0:0:0:
64,192,82499,1,0,0:0:0:0:
320,192,82544,1,0,0:0:0:0:
448,192,82544,1,0,0:0:0:0:
192,192,82588,1,0,0:0:0:0:
64,192,82633,1,0,0:0:0:0:
448,192,82633,1,0,0:0:0:0:
192,192,82723,1,0,0:0:0:0:
320,192,82723,1,0,0:0:0:0:
448,192,82767,1,0,0:0:0:0:
64,192,82812,1,0,0:0:0:0:
192,192,82812,1,0,0:0:0:0:
320,192,82857,1,0,0:0:0:0:
64,192,82902,1,0,0:0:0:0:
448,192,82902,1,0,0:0:0:0:
192,192,82991,1,2,0:0:0:0:
320,192,82991,1,0,0:0:0:50:LR_CymbalLGLH_S.wav
448,192,82991,1,0,0:0:0:0:
192,192,83170,1,0,0:0:0:0:
320,192,83170,1,0,0:0:0:0:
448,192,83215,1,0,0:0:0:0:
64,192,83260,1,0,0:0:0:0:
192,192,83260,1,0,0:0:0:0:
320,192,83305,1,0,0:0:0:0:
64,192,83350,1,0,0:0:0:0:
448,192,83350,1,0,0:0:0:0:
192,192,83439,1,0,0:0:0:0:
320,192,83439,1,0,0:0:0:0:
64,192,83484,1,0,0:0:0:0:
320,192,83529,1,0,0:0:0:0:
448,192,83529,1,0,0:0:0:0:
192,192,83573,1,0,0:0:0:0:
64,192,83618,1,0,0:0:0:0:
448,192,83618,1,0,0:0:0:0:
64,192,83708,1,2,0:0:0:0:
192,192,83708,1,0,0:0:0:50:LR_CymbalLGLH_S.wav
320,192,83708,1,0,0:0:0:0:
192,192,83887,1,0,0:0:0:0:
320,192,83887,1,0,0:0:0:0:
64,192,83932,1,0,0:0:0:0:
320,192,83976,1,0,0:0:0:0:
448,192,83976,1,0,0:0:0:0:
192,192,84021,1,0,0:0:0:0:
64,192,84066,1,0,0:0:0:0:
448,192,84066,1,0,0:0:0:0:
192,192,84156,1,0,0:0:0:0:
320,192,84156,1,0,0:0:0:0:
448,192,84200,1,0,0:0:0:0:
64,192,84245,1,0,0:0:0:0:
192,192,84245,1,0,0:0:0:0:
320,192,84290,1,0,0:0:0:0:
64,192,84335,1,0,0:0:0:0:
448,192,84335,1,0,0:0:0:0:
192,192,84424,1,2,0:0:0:0:
320,192,84424,1,0,0:0:0:50:LR_CymbalLGLH_S.wav
448,192,84424,1,0,0:0:0:0:
192,192,84603,1,0,0:0:0:0:
320,192,84603,1,0,0:0:0:0:
448,192,84648,1,0,0:0:0:0:
64,192,84693,1,0,0:0:0:0:
192,192,84693,1,0,0:0:0:0:
320,192,84738,1,0,0:0:0:0:
64,192,84782,1,0,0:0:0:0:
448,192,84782,1,0,0:0:0:0:
192,192,84872,1,0,0:0:0:0:
320,192,84872,1,0,0:0:0:0:
64,192,84917,1,0,0:0:0:0:
320,192,84962,1,0,0:0:0:0:
448,192,84962,1,0,0:0:0:0:
192,192,85006,1,0,0:0:0:0:
64,192,85051,1,0,0:0:0:0:
448,192,85051,1,0,0:0:0:0:
64,192,85141,1,2,0:0:0:0:
192,192,85141,1,0,0:0:0:50:LR_CymbalLGLH_S.wav
320,192,85141,1,0,0:0:0:0:
192,192,85320,1,0,0:0:0:0:
320,192,85320,1,0,0:0:0:0:
64,192,85364,1,0,0:0:0:0:
320,192,85409,1,0,0:0:0:0:
448,192,85409,1,0,0:0:0:0:
192,192,85454,1,0,0:0:0:0:
64,192,85499,1,0,0:0:0:0:
448,192,85499,1,0,0:0:0:0:
192,192,85588,1,0,0:0:0:0:
320,192,85588,1,0,0:0:0:0:
448,192,85633,1,0,0:0:0:0:
64,192,85678,1,0,0:0:0:0:
192,192,85678,1,0,0:0:0:0:
320,192,85723,1,0,0:0:0:0:
64,192,85767,1,0,0:0:0:0:
448,192,85767,1,0,0:0:0:0:
192,192,85857,1,2,0:0:0:0:
320,192,85857,1,0,0:0:0:50:LR_CymbalLGLH_S.wav
448,192,85857,1,0,0:0:0:0:
192,192,86036,1,0,0:0:0:0:
320,192,86036,1,0,0:0:0:0:
448,192,86081,1,0,0:0:0:0:
64,192,86126,1,0,0:0:0:0:
192,192,86126,1,0,0:0:0:0:
320,192,86170,1,0,0:0:0:0:
64,192,86215,1,0,0:0:0:0:
448,192,86215,1,0,0:0:0:0:
192,192,86305,1,0,0:0:0:0:
320,192,86305,1,0,0:0:0:0:
64,192,86350,1,0,0:0:0:0:
320,192,86394,1,0,0:0:0:0:
448,192,86394,1,0,0:0:0:0:
192,192,86439,1,0,0:0:0:0:
64,192,86484,1,0,0:0:0:0:
448,192,86484,1,0,0:0:0:0:
64,192,86573,1,2,0:0:0:0:
192,192,86573,1,0,0:0:0:50:LR_CymbalLGLH_S.wav
320,192,86573,1,0,0:0:0:0:
192,192,86753,1,0,0:0:0:0:
320,192,86753,1,0,0:0:0:0:
64,192,86797,1,0,0:0:0:0:
320,192,86842,1,0,0:0:0:0:
448,192,86842,1,0,0:0:0:0:
192,192,86887,1,0,0:0:0:0:
64,192,86932,1,0,0:0:0:0:
448,192,86932,1,0,0:0:0:0:
192,192,87021,1,0,0:0:0:0:
320,192,87021,1,0,0:0:0:0:
448,192,87066,1,0,0:0:0:0:
64,192,87111,1,0,0:0:0:0:
192,192,87111,1,0,0:0:0:0:
320,192,87156,1,0,0:0:0:0:
64,192,87200,1,0,0:0:0:0:
448,192,87200,1,0,0:0:0:0:
192,192,87290,1,2,0:0:0:0:
320,192,87290,1,0,0:0:0:50:LR_CymbalLGLH_S.wav
448,192,87290,1,0,0:0:0:0:
192,192,87469,1,0,0:0:0:0:
320,192,87469,1,0,0:0:0:0:
448,192,87514,1,0,0:0:0:0:
64,192,87559,1,0,0:0:0:0:
192,192,87559,1,0,0:0:0:0:
320,192,87603,1,0,0:0:0:0:
64,192,87648,1,0,0:0:0:0:
448,192,87648,1,0,0:0:0:0:
192,192,87738,1,0,0:0:0:0:
320,192,87738,1,0,0:0:0:0:
64,192,87782,1,0,0:0:0:0:
320,192,87827,1,0,0:0:0:0:
448,192,87827,1,0,0:0:0:0:
192,192,87872,1,0,0:0:0:0:
64,192,87917,1,0,0:0:0:0:
448,192,87917,1,0,0:0:0:0:
192,192,88006,1,0,0:0:0:70:LR4_BassLineLDRN.wav
320,192,88006,1,0,0:0:0:0:
448,192,88066,1,0,0:0:0:0:
192,192,88126,1,0,0:0:0:0:
64,192,88185,1,0,0:0:0:0:
320,192,88245,1,0,0:0:0:0:
192,192,88305,1,0,0:0:0:0:
448,192,88364,1,0,0:0:0:0:
320,192,88424,1,0,0:0:0:0:
64,192,88484,1,0,0:0:0:0:
448,192,88544,1,0,0:0:0:0:
192,192,88603,1,0,0:0:0:0:
64,192,88663,1,0,0:0:0:0:
448,192,88723,1,0,0:0:0:0:
320,192,88782,1,0,0:0:0:0:
192,192,88842,1,0,0:0:0:0:
64,192,88902,1,0,0:0:0:0:
64,192,89081,1,0,0:0:0:0:
192,192,89141,1,0,0:0:0:0:
320,192,89200,1,0,0:0:0:0:
448,192,89260,1,0,0:0:0:0:
192,192,89320,1,0,0:0:0:0:
64,192,89379,1,0,0:0:0:0:
320,192,89439,1,0,0:0:0:0:
448,192,89499,1,0,0:0:0:0:
192,192,89559,1,0,0:0:0:0:
64,192,89618,1,0,0:0:0:0:
320,192,89678,1,0,0:0:0:0:
192,192,89738,1,0,0:0:0:0:
448,192,89797,1,0,0:0:0:0:
64,192,89857,1,0,0:0:0:0:
192,192,89917,1,0,0:0:0:0:
320,192,89976,1,0,0:0:0:0:
64,192,90156,1,0,0:0:0:70:LR4_DrumRevBassImpact.wav
192,192,90156,1,0,0:0:0:70:LR_CymbalLGLH_S.wav
448,192,90156,1,0,0:0:0:0:
64,192,90514,1,0,0:0:0:70:LR4_DrumRevBassImpact.wav
192,192,90514,1,0,0:0:0:0:
64,192,93021,1,0,0:0:0:70:LR4_DrumRevBassImpact.wav
320,192,93021,1,0,0:0:0:0:
448,192,93021,1,0,0:0:0:0:
320,192,93379,1,0,0:0:0:70:LR4_DrumRevBassImpact.wav
448,192,93379,1,0,0:0:0:0:
64,192,95887,1,0,0:0:0:70:LR4_DrumRevBassImpact.wav
192,192,95887,1,0,0:0:0:0:
320,192,95887,1,0,0:0:0:0:
192,192,96245,1,0,0:0:0:70:LR4_DrumRevBassImpact.wav
320,192,96245,1,0,0:0:0:0:
64,192,98753,1,2,0:0:0:0:
320,192,98753,1,0,0:0:0:0:
448,192,98753,1,0,0:0:0:0:
192,192,98797,1,2,0:0:0:0:
320,192,98842,1,2,0:0:0:0:
448,192,98842,1,0,0:0:0:0:
192,192,98932,1,2,0:0:0:0:
320,192,98932,1,0,0:0:0:0:
64,192,99021,1,2,0:0:0:0:
192,192,99021,1,0,0:0:0:0:
320,192,99111,1,2,0:0:0:0:
448,192,99111,1,0,0:0:0:0:
64,192,99200,1,2,0:0:0:0:
192,192,99200,1,0,0:0:0:0:
64,192,99290,1,2,0:0:0:0:
192,192,99290,1,0,0:0:0:0:
448,192,99290,1,0,0:0:0:0:
320,192,99335,1,2,0:0:0:0:
64,192,99379,1,2,0:0:0:0:
192,192,99379,1,0,0:0:0:0:
192,192,99469,1,2,0:0:0:0:
320,192,99469,1,0,0:0:0:0:
320,192,99559,1,2,0:0:0:0:
448,192,99559,1,0,0:0:0:0:
64,192,99648,1,2,0:0:0:0:
192,192,99648,1,0,0:0:0:0:
320,192,99738,1,2,0:0:0:0:
448,192,99738,1,0,0:0:0:0:
64,192,99827,1,2,0:0:0:0:
320,192,99827,1,0,0:0:0:0:
448,192,99827,1,0,0:0:0:0:
192,192,99872,1,2,0:0:0:0:
320,192,99917,1,2,0:0:0:0:
448,192,99917,1,0,0:0:0:0:
192,192,100006,1,2,0:0:0:0:
320,192,100006,1,0,0:0:0:0:
64,192,100096,1,2,0:0:0:0:
192,192,100096,1,0,0:0:0:0:
320,192,100185,1,2,0:0:0:0:
448,192,100185,1,0,0:0:0:0:
64,192,100275,1,2,0:0:0:0:
192,192,100275,1,0,0:0:0:0:
64,192,100364,1,2,0:0:0:0:
192,192,100364,1,0,0:0:0:0:
448,192,100364,1,0,0:0:0:0:
320,192,100409,1,2,0:0:0:0:
64,192,100454,1,2,0:0:0:0:
192,192,100454,1,0,0:0:0:0:
192,192,100544,1,2,0:0:0:0:
320,192,100544,1,0,0:0:0:0:
320,192,100633,1,2,0:0:0:0:
448,192,100633,1,0,0:0:0:0:
64,192,100723,1,2,0:0:0:0:
192,192,100723,1,0,0:0:0:0:
320,192,100812,1,2,0:0:0:0:
448,192,100812,1,0,0:0:0:0:
64,192,100902,1,2,0:0:0:0:
320,192,100902,1,0,0:0:0:0:
448,192,100902,1,0,0:0:0:0:
192,192,100947,1,2,0:0:0:0:
320,192,100991,1,2,0:0:0:0:
448,192,100991,1,0,0:0:0:0:
192,192,101081,1,2,0:0:0:0:
320,192,101081,1,0,0:0:0:0:
64,192,101170,1,2,0:0:0:0:
192,192,101170,1,0,0:0:0:0:
64,192,101260,128,0,101394:0:0:0:0:
64,192,101439,128,0,101573:0:0:0:0:
320,192,101618,1,2,0:0:0:0:
448,192,101618,1,0,0:0:0:0:
64,192,101654,1,0,0:0:0:0:
192,192,101690,1,0,0:0:0:0:
320,192,101726,1,0,0:0:0:0:
64,192,101762,1,0,0:0:0:0:
448,192,101797,1,0,0:0:0:0:
192,192,101833,1,0,0:0:0:0:
320,192,101869,1,0,0:0:0:0:
448,192,101905,1,0,0:0:0:0:
192,192,101941,1,0,0:0:0:0:
64,192,101976,1,0,0:0:0:0:
448,192,102012,1,0,0:0:0:0:
320,192,102048,1,0,0:0:0:0:
192,192,102084,1,0,0:0:0:0:
64,192,102120,1,0,0:0:0:0:
448,192,102156,1,0,0:0:0:0:
320,192,102170,1,0,0:0:0:0:
448,192,102245,1,0,0:0:0:0:
320,192,102260,1,0,0:0:0:0:
64,192,102335,1,0,0:0:0:100:VEC4 Snares 002_Reverb.wav
320,192,102335,1,0,0:0:0:0:
448,192,102335,1,0,0:0:0:0:
192,192,102379,1,0,0:0:0:0:
448,192,102424,1,0,0:0:0:0:
320,192,102469,1,0,0:0:0:0:
64,192,102514,1,0,0:0:0:0:
448,192,102559,1,0,0:0:0:0:
192,192,102603,1,0,0:0:0:0:
64,192,102648,1,0,0:0:0:0:
320,192,102693,1,0,0:0:0:0:
192,192,102738,1,0,0:0:0:0:
448,192,102782,1,0,0:0:0:0:
320,192,102827,1,0,0:0:0:0:
64,192,102872,1,0,0:0:0:0:
448,192,102917,1,0,0:0:0:0:
192,192,102962,1,0,0:0:0:0:
64,192,103006,1,0,0:0:0:0:
448,192,103051,128,0,103141:0:0:0:0:
320,192,103081,128,0,103170:0:0:0:0:
192,192,103111,128,0,103200:0:0:0:0:
64,192,103230,128,0,103320:0:0:0:0:
192,192,103260,128,0,103350:0:0:0:0:
320,192,103290,128,0,103379:0:0:0:0:
64,192,103409,1,2,0:0:0:0:
448,192,103409,128,0,103499:0:0:0:0:
320,192,103439,128,0,103529:0:0:0:0:
192,192,103469,128,0,103559:0:0:0:0:
320,192,103588,128,0,103663:0:0:0:0:
448,192,103588,1,0,0:0:0:0:
192,192,103618,128,0,103693:0:0:0:0:
64,192,103648,128,0,103723:0:0:0:0:
64,192,103767,1,0,0:0:0:100:VEC3 Snares 042.wav
192,192,103767,1,0,0:0:0:0:
448,192,103767,1,0,0:0:0:0:
320,192,103812,1,0,0:0:0:0:
64,192,103857,1,0,0:0:0:0:
192,192,103902,1,0,0:0:0:0:
448,192,103947,1,0,0:0:0:0:
64,192,103991,1,0,0:0:0:0:
320,192,104036,1,0,0:0:0:0:
448,192,104081,1,0,0:0:0:0:
192,192,104126,1,0,0:0:0:0:
320,192,104170,1,0,0:0:0:0:
64,192,104215,1,0,0:0:0:0:
448,192,104260,1,0,0:0:0:0:
192,192,104305,1,0,0:0:0:0:
64,192,104350,1,0,0:0:0:0:
448,192,104394,1,0,0:0:0:0:
320,192,104439,1,0,0:0:0:0:
64,192,104484,1,2,0:0:0:0:
192,192,104484,1,0,0:0:0:0:
448,192,104520,1,0,0:0:0:0:
320,192,104556,1,0,0:0:0:0:
64,192,104591,1,0,0:0:0:0:
448,192,104627,1,0,0:0:0:0:
192,192,104663,1,0,0:0:0:0:
320,192,104699,1,0,0:0:0:0:
64,192,104735,1,0,0:0:0:0:
448,192,104770,1,0,0:0:0:0:
320,192,104806,1,0,0:0:0:0:
192,192,104842,1,0,0:0:0:0:
64,192,104878,1,0,0:0:0:0:
448,192,104914,1,0,0:0:0:0:
320,192,104950,1,0,0:0:0:0:
192,192,104985,1,0,0:0:0:0:
448,192,105021,1,0,0:0:0:0:
64,192,105057,1,0,0:0:0:0:
320,192,105093,1,0,0:0:0:0:
192,192,105129,1,0,0:0:0:0:
64,192,105164,1,0,0:0:0:0:
320,192,105200,1,0,0:0:0:100:VEC4 Snares 002_Reverb.wav
448,192,105200,1,0,0:0:0:0:
192,192,105245,1,0,0:0:0:0:
320,192,105290,1,0,0:0:0:0:
64,192,105335,1,0,0:0:0:0:
192,192,105379,1,0,0:0:0:0:
448,192,105424,1,0,0:0:0:0:
64,192,105469,1,0,0:0:0:0:
320,192,105514,1,0,0:0:0:0:
448,192,105559,1,0,0:0:0:0:
192,192,105603,1,0,0:0:0:0:
320,192,105648,1,0,0:0:0:0:
64,192,105693,1,0,0:0:0:0:
192,192,105738,1,0,0:0:0:0:
448,192,105782,1,0,0:0:0:0:
320,192,105827,1,0,0:0:0:0:
192,192,105872,1,0,0:0:0:0:
320,192,106275,1,2,0:0:0:0:
448,192,106275,1,0,0:0:0:0:
64,192,106311,1,0,0:0:0:0:
192,192,106347,1,0,0:0:0:0:
448,192,106382,1,0,0:0:0:0:
64,192,106418,1,0,0:0:0:0:
320,192,106454,1,0,0:0:0:0:
192,192,106490,1,0,0:0:0:0:
448,192,106526,1,0,0:0:0:0:
64,192,106562,1,0,0:0:0:0:
192,192,106597,1,0,0:0:0:0:
320,192,106633,1,0,0:0:0:100:VEC3 Snares 042.wav
448,192,106633,1,0,0:0:0:0:
64,192,106678,1,0,0:0:0:0:
192,192,106723,1,0,0:0:0:0:
448,192,106767,1,0,0:0:0:0:
320,192,106812,1,0,0:0:0:0:
64,192,106857,1,0,0:0:0:0:
448,192,106902,1,0,0:0:0:0:
192,192,106947,1,0,0:0:0:0:
320,192,106991,1,0,0:0:0:0:
64,192,107036,1,0,0:0:0:0:
448,192,107081,1,0,0:0:0:0:
320,192,107126,1,0,0:0:0:0:
192,192,107170,1,0,0:0:0:0:
64,192,107215,1,0,0:0:0:0:
320,192,107260,1,0,0:0:0:0:
448,192,107305,1,0,0:0:0:0:
64,192,107350,1,2,0:0:0:0:
192,192,107350,1,0,0:0:0:0:
320,192,107385,1,0,0:0:0:0:
448,192,107421,1,0,0:0:0:0:
192,192,107457,1,0,0:0:0:0:
320,192,107493,1,0,0:0:0:0:
64,192,107529,1,0,0:0:0:0:
448,192,107564,1,0,0:0:0:0:
192,192,107600,1,0,0:0:0:0:
320,192,107636,1,0,0:0:0:0:
64,192,107672,1,0,0:0:0:0:
448,192,107708,1,0,0:0:0:0:
320,192,107744,1,0,0:0:0:0:
192,192,107779,1,0,0:0:0:0:
448,192,107815,1,0,0:0:0:0:
320,192,107851,1,0,0:0:0:0:
64,192,107887,1,0,0:0:0:0:
192,192,107902,1,0,0:0:0:0:
64,192,107976,1,0,0:0:0:0:
192,192,107991,1,0,0:0:0:0:
64,192,108066,1,0,0:0:0:100:VEC4 Snares 002_Reverb.wav
192,192,108066,1,0,0:0:0:0:
320,192,108111,1,0,0:0:0:0:
448,192,108156,1,0,0:0:0:0:
192,192,108200,1,0,0:0:0:0:
320,192,108245,1,0,0:0:0:0:
64,192,108290,1,0,0:0:0:0:
192,192,108335,1,0,0:0:0:0:
448,192,108379,1,0,0:0:0:0:
64,192,108424,1,0,0:0:0:0:
320,192,108469,1,0,0:0:0:0:
448,192,108514,1,0,0:0:0:0:
192,192,108559,1,0,0:0:0:0:
320,192,108603,1,0,0:0:0:0:
64,192,108648,1,0,0:0:0:0:
192,192,108693,1,0,0:0:0:0:
448,192,108738,1,0,0:0:0:0:
320,192,108917,128,0,108962:0:0:0:0:
448,192,108939,128,0,108984:0:0:0:0:
192,192,109051,128,0,109096:0:0:0:0:
320,192,109073,128,0,109118:0:0:0:0:
64,192,109141,1,2,0:0:0:0:
192,192,109141,1,0,0:0:0:0:
448,192,109141,1,0,0:0:0:0:
320,192,109230,128,0,109275:0:0:0:0:
448,192,109253,128,0,109297:0:0:0:0:
192,192,109320,128,0,109364:0:0:0:0:
64,192,109342,128,0,109387:0:0:0:0:
320,192,109409,128,0,109454:0:0:0:0:
192,192,109432,128,0,109476:0:0:0:0:
64,192,109499,1,0,0:0:0:100:VEC3 Snares 042.wav
320,192,109499,1,0,0:0:0:0:
448,192,109499,1,0,0:0:0:0:
192,192,109544,1,0,0:0:0:0:
320,192,109588,1,0,0:0:0:0:
448,192,109633,1,0,0:0:0:0:
64,192,109678,1,0,0:0:0:0:
192,192,109723,1,0,0:0:0:0:
320,192,109767,1,0,0:0:0:0:
64,192,109812,1,0,0:0:0:0:
448,192,109857,1,0,0:0:0:0:
192,192,109902,1,0,0:0:0:0:
320,192,109947,1,0,0:0:0:0:
448,192,109991,1,0,0:0:0:0:
192,192,110036,1,0,0:0:0:0:
64,192,110081,1,0,0:0:0:0:
448,192,110126,1,0,0:0:0:0:
320,192,110170,1,0,0:0:0:0:
64,192,110215,1,2,0:0:0:0:
192,192,110215,1,0,0:0:0:0:
448,192,110251,1,0,0:0:0:0:
320,192,110287,1,0,0:0:0:0:
64,192,110323,1,0,0:0:0:0:
192,192,110359,1,0,0:0:0:0:
448,192,110394,1,0,0:0:0:0:
64,192,110430,1,0,0:0:0:0:
320,192,110466,1,0,0:0:0:0:
448,192,110502,1,0,0:0:0:0:
192,192,110538,1,0,0:0:0:0:
64,192,110573,1,0,0:0:0:0:
320,192,110609,1,0,0:0:0:0:
192,192,110645,1,0,0:0:0:0:
448,192,110681,1,0,0:0:0:0:
320,192,110717,1,0,0:0:0:0:
64,192,110753,1,0,0:0:0:0:
192,192,110788,1,0,0:0:0:0:
448,192,110824,1,0,0:0:0:0:
320,192,110860,1,0,0:0:0:0:
192,192,110896,1,0,0:0:0:0:
64,192,110932,1,0,0:0:0:100:VEC4 Snares 002_Reverb.wav
448,192,110932,1,0,0:0:0:0:
320,192,110976,1,0,0:0:0:0:
64,192,111021,1,0,0:0:0:0:
192,192,111066,1,0,0:0:0:0:
448,192,111111,1,0,0:0:0:0:
64,192,111156,1,0,0:0:0:0:
320,192,111200,1,0,0:0:0:0:
448,192,111245,1,0,0:0:0:0:
192,192,111290,1,0,0:0:0:0:
320,192,111335,1,0,0:0:0:0:
64,192,111379,1,0,0:0:0:0:
192,192,111424,1,0,0:0:0:0:
320,192,111469,1,0,0:0:0:0:
64,192,111514,1,0,0:0:0:0:
448,192,111559,1,0,0:0:0:0:
192,192,111603,1,0,0:0:0:0:
320,192,111648,1,0,0:0:0:0:
448,192,111693,1,0,0:0:0:0:
192,192,111738,1,0,0:0:0:0:
64,192,111782,1,0,0:0:0:0:
448,192,111827,1,0,0:0:0:0:
320,192,111872,1,0,0:0:0:0:
192,192,111917,1,0,0:0:0:0:
448,192,111962,1,0,0:0:0:0:
64,192,112006,1,0,0:0:0:0:
320,192,112051,1,0,0:0:0:0:
192,192,112096,1,0,0:0:0:0:
448,192,112141,1,0,0:0:0:0:
64,192,112185,1,0,0:0:0:0:
192,192,112230,1,0,0:0:0:0:
320,192,112275,1,0,0:0:0:0:
448,192,112320,1,0,0:0:0:0:
192,192,112364,1,0,0:0:0:0:
64,192,112409,1,0,0:0:0:0:
320,192,112454,1,0,0:0:0:0:
192,192,112499,1,0,0:0:0:0:
448,192,112544,1,0,0:0:0:0:
320,192,112588,1,0,0:0:0:0:
64,192,112633,1,0,0:0:0:0:
448,192,112678,1,0,0:0:0:0:
192,192,112723,128,0,112767:0:0:0:0:
448,192,112812,128,0,112857:0:0:0:0:
320,192,112902,128,0,112947:0:0:0:0:
192,192,112991,128,0,113036:0:0:0:0:
64,192,113081,1,2,0:0:0:0:
320,192,113081,1,0,0:0:0:0:
448,192,113081,1,0,0:0:0:0:
192,192,113126,1,2,0:0:0:0:
320,192,113170,1,2,0:0:0:0:
448,192,113170,1,0,0:0:0:0:
64,192,113260,1,2,0:0:0:0:
192,192,113260,1,0,0:0:0:0:
320,192,113350,1,2,0:0:0:0:
448,192,113350,1,0,0:0:0:0:
192,192,113394,1,2,0:0:0:0:
320,192,113439,1,2,0:0:0:0:
448,192,113439,1,0,0:0:0:0:
64,192,113529,1,2,0:0:0:0:
192,192,113529,1,0,0:0:0:0:
64,192,113618,1,2,0:0:0:0:
192,192,113618,1,0,0:0:0:0:
320,192,113708,1,2,0:0:0:0:
448,192,113708,1,0,0:0:0:0:
64,192,113797,1,0,0:0:0:100:VEC4 Snares 002_Reverb.wav
320,192,113797,1,0,0:0:0:0:
448,192,113797,1,0,0:0:0:0:
192,192,113842,1,0,0:0:0:0:
448,192,113887,1,0,0:0:0:0:
64,192,113932,1,0,0:0:0:0:
320,192,113976,1,0,0:0:0:0:
448,192,114021,1,0,0:0:0:0:
192,192,114066,1,0,0:0:0:0:
320,192,114111,1,0,0:0:0:0:
64,192,114156,1,0,0:0:0:0:
192,192,114200,1,0,0:0:0:0:
448,192,114245,1,0,0:0:0:0:
64,192,114290,1,0,0:0:0:0:
320,192,114335,1,0,0:0:0:0:
448,192,114379,1,0,0:0:0:0:
192,192,114424,1,0,0:0:0:0:
320,192,114469,1,0,0:0:0:0:
64,192,114514,128,0,114603:0:0:0:0:
192,192,114544,128,0,114633:0:0:0:0:
320,192,114573,128,0,114663:0:0:0:0:
448,192,114693,128,0,114782:0:0:0:0:
320,192,114723,128,0,114812:0:0:0:0:
192,192,114753,128,0,114842:0:0:0:0:
320,192,114872,1,2,0:0:0:0:
448,192,114872,1,0,0:0:0:0:
192,192,114917,1,2,0:0:0:0:
320,192,114962,1,2,0:0:0:0:
448,192,114962,1,0,0:0:0:0:
192,192,115006,1,2,0:0:0:0:
320,192,115051,1,2,0:0:0:0:
448,192,115051,1,0,0:0:0:0:
64,192,115141,1,2,0:0:0:0:
192,192,115141,1,0,0:0:0:0:
64,192,115230,1,0,0:0:0:100:VEC3 Snares 042.wav
192,192,115230,1,0,0:0:0:0:
448,192,115230,1,0,0:0:0:0:
64,192,115320,1,0,0:0:0:0:
320,192,115409,1,2,0:0:0:0:
448,192,115409,1,0,0:0:0:0:
192,192,115454,1,2,0:0:0:0:
320,192,115499,1,2,0:0:0:0:
448,192,115499,1,0,0:0:0:0:
192,192,115544,1,0,0:0:0:0:
320,192,115588,1,2,0:0:0:0:
448,192,115588,1,0,0:0:0:0:
64,192,115678,1,2,0:0:0:0:
192,192,115678,1,0,0:0:0:0:
320,192,115723,1,2,0:0:0:0:
64,192,115767,1,2,0:0:0:0:
192,192,115767,1,0,0:0:0:0:
64,192,115857,1,2,0:0:0:0:
192,192,115857,1,0,0:0:0:0:
320,192,115947,1,2,0:0:0:0:
448,192,115947,1,0,0:0:0:0:
192,192,115991,1,2,0:0:0:0:
320,192,116036,1,2,0:0:0:0:
448,192,116036,1,0,0:0:0:0:
64,192,116126,1,2,0:0:0:0:
192,192,116126,1,0,0:0:0:0:
320,192,116215,1,2,0:0:0:0:
448,192,116215,1,0,0:0:0:0:
192,192,116260,1,2,0:0:0:0:
320,192,116305,1,2,0:0:0:0:
448,192,116305,1,0,0:0:0:0:
64,192,116394,1,2,0:0:0:0:
192,192,116394,1,0,0:0:0:0:
64,192,116484,1,2,0:0:0:0:
192,192,116484,1,0,0:0:0:0:
320,192,116573,1,2,0:0:0:0:
448,192,116573,1,0,0:0:0:0:
64,192,116663,1,0,0:0:0:100:VEC4 Snares 002_Reverb.wav
320,192,116663,1,0,0:0:0:0:
448,192,116663,1,0,0:0:0:0:
192,192,116708,1,0,0:0:0:0:
448,192,116753,1,0,0:0:0:0:
64,192,116797,1,0,0:0:0:0:
320,192,116842,1,0,0:0:0:0:
448,192,116887,1,0,0:0:0:0:
192,192,116932,1,0,0:0:0:0:
320,192,116976,1,0,0:0:0:0:
64,192,117021,1,0,0:0:0:0:
192,192,117066,1,0,0:0:0:0:
448,192,117111,1,0,0:0:0:0:
64,192,117156,1,0,0:0:0:0:
320,192,117200,1,0,0:0:0:0:
448,192,117245,1,0,0:0:0:0:
192,192,117290,1,0,0:0:0:0:
64,192,117335,1,0,0:0:0:0:
320,192,117379,1,0,0:0:0:0:
192,192,117439,1,0,0:0:0:0:
448,192,117499,1,0,0:0:0:0:
320,192,117559,1,0,0:0:0:0:
192,192,117618,1,0,0:0:0:0:
64,192,117678,1,0,0:0:0:0:
320,192,117738,1,2,0:0:0:0:
448,192,117738,1,0,0:0:0:0:
192,192,117782,1,2,0:0:0:0:
320,192,117827,1,2,0:0:0:0:
448,192,117827,1,0,0:0:0:0:
192,192,117872,1,0,0:0:0:0:
320,192,117917,1,2,0:0:0:0:
448,192,117917,1,0,0:0:0:0:
64,192,118006,1,2,0:0:0:0:
192,192,118006,1,0,0:0:0:0:
64,192,118096,1,0,0:0:0:100:VEC3 Snares 042.wav
192,192,118096,1,0,0:0:0:0:
448,192,118096,1,0,0:0:0:0:
192,192,118275,128,2,118767:0:0:0:0:
320,192,118275,128,0,118767:0:0:0:0:
64,192,118812,1,2,0:0:0:0:
192,192,118812,1,0,0:0:0:0:
448,192,118812,1,0,0:0:0:0:
320,192,118857,1,2,0:0:0:0:
64,192,118902,1,2,0:0:0:0:
192,192,118902,1,0,0:0:0:0:
320,192,118991,1,2,0:0:0:0:
448,192,118991,1,0,0:0:0:0:
64,192,119081,1,2,0:0:0:0:
192,192,119081,1,0,0:0:0:0:
320,192,119126,1,2,0:0:0:0:
64,192,119170,1,2,0:0:0:0:
192,192,119170,1,0,0:0:0:0:
320,192,119260,1,2,0:0:0:0:
448,192,119260,1,0,0:0:0:0:
320,192,119350,1,2,0:0:0:0:
448,192,119350,1,0,0:0:0:0:
64,192,119439,1,2,0:0:0:0:
192,192,119439,1,0,0:0:0:0:
64,192,119529,1,0,0:0:0:100:VEC4 Snares 002_Reverb.wav
192,192,119529,1,0,0:0:0:0:
448,192,119529,1,0,0:0:0:0:
320,192,119573,1,0,0:0:0:0:
64,192,119618,1,0,0:0:0:0:
448,192,119663,1,0,0:0:0:0:
192,192,119708,1,0,0:0:0:0:
64,192,119753,1,0,0:0:0:0:
320,192,119797,1,0,0:0:0:0:
192,192,119842,1,0,0:0:0:0:
448,192,119887,1,0,0:0:0:0:
320,192,119932,1,0,0:0:0:0:
64,192,119976,1,0,0:0:0:0:
448,192,120021,1,0,0:0:0:0:
192,192,120066,1,0,0:0:0:0:
64,192,120111,1,0,0:0:0:0:
320,192,120156,1,0,0:0:0:0:
192,192,120200,1,0,0:0:0:0:
448,192,120245,128,0,120335:0:0:0:0:
320,192,120275,128,0,120364:0:0:0:0:
192,192,120305,128,0,120394:0:0:0:0:
64,192,120424,128,0,120514:0:0:0:0:
192,192,120454,128,0,120544:0:0:0:0:
320,192,120484,128,0,120573:0:0:0:0:
64,192,120603,1,2,0:0:0:0:
192,192,120603,1,0,0:0:0:0:
320,192,120648,1,2,0:0:0:0:
64,192,120693,1,2,0:0:0:0:
192,192,120693,1,0,0:0:0:0:
320,192,120738,1,2,0:0:0:0:
64,192,120782,1,2,0:0:0:0:
192,192,120782,1,0,0:0:0:0:
320,192,120872,1,2,0:0:0:0:
448,192,120872,1,0,0:0:0:0:
64,192,120962,1,0,0:0:0:100:VEC3 Snares 042.wav
320,192,120962,1,0,0:0:0:0:
448,192,120962,1,0,0:0:0:0:
64,192,121141,1,2,0:0:0:0:
192,192,121141,1,0,0:0:0:0:
320,192,121185,1,2,0:0:0:0:
64,192,121230,1,2,0:0:0:0:
192,192,121230,1,0,0:0:0:0:
320,192,121320,1,2,0:0:0:0:
448,192,121320,1,0,0:0:0:0:
64,192,121409,1,2,0:0:0:0:
192,192,121409,1,0,0:0:0:0:
320,192,121454,1,2,0:0:0:0:
64,192,121499,1,2,0:0:0:0:
192,192,121499,1,0,0:0:0:0:
320,192,121588,1,2,0:0:0:0:
448,192,121588,1,0,0:0:0:0:
64,192,121678,1,2,0:0:0:0:
192,192,121678,1,0,0:0:0:0:
320,192,121723,1,2,0:0:0:0:
64,192,121767,1,2,0:0:0:0:
192,192,121767,1,0,0:0:0:0:
320,192,121857,1,2,0:0:0:0:
448,192,121857,1,0,0:0:0:0:
64,192,121947,1,2,0:0:0:0:
192,192,121947,1,0,0:0:0:0:
320,192,121991,1,2,0:0:0:0:
64,192,122036,1,2,0:0:0:0:
192,192,122036,1,0,0:0:0:0:
320,192,122126,1,2,0:0:0:0:
448,192,122126,1,0,0:0:0:0:
320,192,122215,1,2,0:0:0:0:
448,192,122215,1,0,0:0:0:0:
64,192,122305,1,2,0:0:0:0:
192,192,122305,1,0,0:0:0:0:
64,192,122394,1,0,0:0:0:100:VEC4 Snares 002_Reverb.wav
320,192,122394,1,0,0:0:0:0:
448,192,122394,1,0,0:0:0:0:
320,192,122484,1,2,0:0:0:0:
448,192,122484,1,0,0:0:0:0:
64,192,122573,1,2,0:0:0:0:
192,192,122573,1,0,0:0:0:0:
64,192,122663,1,0,0:0:0:100:VEC4 Snares 002_Reverb.wav
320,192,122663,1,0,0:0:0:0:
448,192,122663,1,0,0:0:0:0:
320,192,122753,1,2,0:0:0:0:
448,192,122753,1,0,0:0:0:0:
64,192,122842,1,2,0:0:0:0:
192,192,122842,1,0,0:0:0:0:
64,192,122932,1,0,0:0:0:100:VEC4 Snares 002_Reverb.wav
320,192,122932,1,0,0:0:0:0:
448,192,122932,1,0,0:0:0:0:
320,192,123021,1,2,0:0:0:0:
448,192,123021,1,0,0:0:0:0:
64,192,123111,1,2,0:0:0:0:
192,192,123111,1,0,0:0:0:0:
320,192,123156,1,2,0:0:0:0:
192,192,123200,1,2,0:0:0:0:
320,192,123290,1,2,0:0:0:0:
448,192,123290,1,0,0:0:0:0:
64,192,123379,1,2,0:0:0:0:
192,192,123379,1,0,0:0:0:0:
320,192,123469,1,2,0:0:0:0:
448,192,123469,1,0,0:0:0:0:
192,192,123514,1,2,0:0:0:0:
320,192,123559,1,2,0:0:0:0:
64,192,123648,1,2,0:0:0:0:
192,192,123648,1,0,0:0:0:0:
320,192,123738,1,2,0:0:0:0:
448,192,123738,1,0,0:0:0:0:
64,192,123827,1,2,0:0:0:0:
192,192,123827,1,0,0:0:0:0:
448,192,123872,1,2,0:0:0:0:
64,192,123917,1,2,0:0:0:0:
320,192,124006,1,2,0:0:0:0:
448,192,124006,1,0,0:0:0:0:
64,192,124096,1,2,0:0:0:0:
192,192,124096,1,0,0:0:0:0:
320,192,124185,1,2,0:0:0:0:
448,192,124185,1,0,0:0:0:0:
64,192,124230,1,2,0:0:0:0:
448,192,124275,1,2,0:0:0:0:
64,192,124364,1,2,0:0:0:0:
192,192,124364,1,0,0:0:0:0:
320,192,124409,1,2,0:0:0:0:
64,192,124454,1,2,0:0:0:0:
320,192,124544,1,2,0:0:0:0:
448,192,124544,1,0,0:0:0:0:
192,192,124588,1,0,0:0:0:0:
448,192,124633,1,0,0:0:0:0:
192,192,124723,1,0,0:0:0:0:
192,192,124812,1,0,0:0:0:0:
320,192,124902,1,0,0:0:0:0:
320,192,124991,1,0,0:0:0:0:
64,192,125081,1,0,0:0:0:0:
64,192,125170,1,0,0:0:0:0:
448,192,125260,1,0,0:0:0:0:
448,192,125350,1,0,0:0:0:0:
192,192,125439,1,0,0:0:0:0:
192,192,125529,1,0,0:0:0:0:
320,192,125618,1,0,0:0:0:0:
320,192,125708,1,0,0:0:0:0:
64,192,125797,1,0,0:0:0:0:
64,192,125887,1,0,0:0:0:0:
192,192,125976,1,0,0:0:0:70:LR_CymbalLGLH_S.wav
320,192,125976,1,0,0:0:0:50:S.wav
448,192,125976,1,0,0:0:0:0:
448,192,126066,1,2,0:0:0:0:
64,192,126156,1,2,0:0:0:0:
448,192,126245,1,2,0:0:0:0:
64,192,126335,1,0,0:0:0:50:S.wav
192,192,126335,1,0,0:0:0:0:
320,192,126335,1,0,0:0:0:0:
64,192,126424,1,2,0:0:0:0:
448,192,126514,1,2,0:0:0:0:
64,192,126603,1,2,0:0:0:0:
192,192,126693,1,0,0:0:0:50:S.wav
320,192,126693,1,0,0:0:0:0:
448,192,126693,1,0,0:0:0:0:
448,192,126782,1,2,0:0:0:0:
64,192,126872,1,2,0:0:0:0:
448,192,126962,1,2,0:0:0:0:
64,192,127051,1,0,0:0:0:50:S.wav
192,192,127051,1,0,0:0:0:0:
320,192,127051,1,0,0:0:0:0:
64,192,127141,1,2,0:0:0:0:
448,192,127230,1,2,0:0:0:0:
64,192,127320,1,2,0:0:0:0:
192,192,127409,1,0,0:0:0:50:S.wav
320,192,127409,1,0,0:0:0:0:
448,192,127409,1,0,0:0:0:0:
320,192,127499,1,0,0:0:0:50:S.wav
448,192,127499,1,0,0:0:0:0:
320,192,127588,1,0,0:0:0:50:S.wav
448,192,127588,1,0,0:0:0:0:
320,192,127678,1,0,0:0:0:50:S.wav
448,192,127678,1,0,0:0:0:0:
64,192,127767,1,0,0:0:0:50:S.wav
192,192,127767,1,0,0:0:0:0:
64,192,127857,1,0,0:0:0:50:S.wav
192,192,127857,1,0,0:0:0:0:
64,192,127947,1,0,0:0:0:50:S.wav
192,192,127947,1,0,0:0:0:0:
64,192,128036,1,0,0:0:0:50:S.wav
192,192,128036,1,0,0:0:0:0:
192,192,128126,128,0,128305:0:0:0:0:
320,192,128305,1,0,0:0:0:0:
320,192,128394,128,0,128484:0:0:0:0:
192,192,128484,1,0,0:0:0:0:
192,192,128573,128,0,128663:0:0:0:0:
320,192,128663,1,0,0:0:0:0:
320,192,128753,128,0,128842:0:0:0:0:
64,192,128842,1,2,0:0:0:0:
192,192,128842,1,0,0:0:0:70:LR_CymbalLGLH_S.wav
448,192,128842,1,0,0:0:0:0:
64,192,128932,1,2,0:0:0:0:
192,192,128932,1,0,0:0:0:0:
448,192,128932,1,0,0:0:0:0:
64,192,129021,1,2,0:0:0:0:
192,192,129021,1,0,0:0:0:0:
320,192,129021,1,0,0:0:0:0:
64,192,129111,1,2,0:0:0:0:
192,192,129111,1,0,0:0:0:0:
320,192,129111,1,0,0:0:0:0:
64,192,129200,1,2,0:0:0:0:
192,192,129200,1,0,0:0:0:0:
448,192,129200,1,0,0:0:0:0:
64,192,129290,1,2,0:0:0:0:
192,192,129290,1,0,0:0:0:0:
448,192,129290,1,0,0:0:0:0:
192,192,129379,1,2,0:0:0:0:
320,192,129379,1,0,0:0:0:0:
64,192,129469,1,2,0:0:0:0:
320,192,129469,1,0,0:0:0:0:
448,192,129469,1,0,0:0:0:0:
64,192,129559,1,2,0:0:0:0:
320,192,129559,1,0,0:0:0:0:
448,192,129559,1,0,0:0:0:0:
192,192,129648,1,2,0:0:0:0:
320,192,129648,1,0,0:0:0:0:
64,192,129738,1,2,0:0:0:0:
192,192,129738,1,0,0:0:0:0:
448,192,129738,1,0,0:0:0:0:
64,192,129827,1,2,0:0:0:0:
192,192,129827,1,0,0:0:0:0:
448,192,129827,1,0,0:0:0:0:
64,192,129917,1,2,0:0:0:0:
192,192,129917,1,0,0:0:0:0:
320,192,129917,1,0,0:0:0:0:
64,192,130006,1,2,0:0:0:0:
192,192,130006,1,0,0:0:0:0:
320,192,130006,1,0,0:0:0:0:
64,192,130096,1,2,0:0:0:0:
192,192,130096,1,0,0:0:0:0:
448,192,130096,1,0,0:0:0:0:
320,192,130185,1,2,0:0:0:0:
448,192,130185,1,0,0:0:0:0:
192,192,130230,1,2,0:0:0:0:
320,192,130275,1,2,0:0:0:0:
448,192,130275,1,0,0:0:0:0:
64,192,130364,1,2,0:0:0:0:
192,192,130364,1,0,0:0:0:0:
320,192,130364,1,0,0:0:0:0:
64,192,130454,1,2,0:0:0:0:
192,192,130454,1,0,0:0:0:0:
448,192,130454,1,0,0:0:0:0:
64,192,130544,1,2,0:0:0:0:
192,192,130544,1,0,0:0:0:0:
448,192,130544,1,0,0:0:0:0:
64,192,130633,1,2,0:0:0:0:
192,192,130633,1,0,0:0:0:0:
320,192,130633,1,0,0:0:0:0:
64,192,130723,1,2,0:0:0:0:
192,192,130723,1,0,0:0:0:0:
448,192,130723,1,0,0:0:0:0:
192,192,130812,1,2,0:0:0:0:
320,192,130812,1,0,0:0:0:0:
64,192,130902,1,2,0:0:0:0:
320,192,130902,1,0,0:0:0:0:
448,192,130902,1,0,0:0:0:0:
192,192,130947,1,2,0:0:0:0:
320,192,130991,1,2,0:0:0:0:
448,192,130991,1,0,0:0:0:0:
64,192,131081,1,2,0:0:0:0:
192,192,131081,1,0,0:0:0:0:
448,192,131081,1,0,0:0:0:0:
320,192,131126,1,2,0:0:0:0:
64,192,131170,1,2,0:0:0:0:
192,192,131170,1,0,0:0:0:0:
64,192,131260,1,2,0:0:0:0:
192,192,131260,1,0,0:0:0:0:
320,192,131260,1,0,0:0:0:0:
448,192,131350,1,0,0:0:0:0:
320,192,131372,1,0,0:0:0:0:
192,192,131394,1,0,0:0:0:0:
64,192,131417,1,0,0:0:0:0:
448,192,131439,1,0,0:0:0:0:
320,192,131462,1,0,0:0:0:0:
64,192,131529,1,0,0:0:0:0:
192,192,131551,1,0,0:0:0:0:
320,192,131573,1,0,0:0:0:0:
448,192,131596,1,0,0:0:0:0:
64,192,131618,1,0,0:0:0:0:
192,192,131641,1,0,0:0:0:0:
64,192,131708,1,2,0:0:0:0:
320,192,131708,1,0,0:0:0:0:
448,192,131708,1,0,0:0:0:0:
192,192,131753,1,2,0:0:0:0:
320,192,131797,1,2,0:0:0:0:
448,192,131797,1,0,0:0:0:0:
64,192,131887,1,2,0:0:0:0:
192,192,131887,1,0,0:0:0:0:
64,192,131976,1,2,0:0:0:0:
192,192,131976,1,0,0:0:0:0:
448,192,131976,1,0,0:0:0:0:
320,192,132066,1,2,0:0:0:0:
448,192,132066,1,0,0:0:0:0:
192,192,132111,1,2,0:0:0:0:
320,192,132156,1,2,0:0:0:0:
448,192,132156,1,0,0:0:0:0:
64,192,132245,1,2,0:0:0:0:
192,192,132245,1,0,0:0:0:0:
448,192,132245,1,0,0:0:0:0:
64,192,132335,1,2,0:0:0:0:
192,192,132335,1,0,0:0:0:0:
64,192,132424,1,2,0:0:0:0:
320,192,132424,1,0,0:0:0:0:
448,192,132424,1,0,0:0:0:0:
320,192,132514,1,2,0:0:0:0:
448,192,132514,1,0,0:0:0:0:
64,192,132603,1,2,0:0:0:0:
192,192,132603,1,0,0:0:0:0:
64,192,132693,1,2,0:0:0:0:
192,192,132693,1,0,0:0:0:0:
448,192,132693,1,0,0:0:0:0:
320,192,132782,1,2,0:0:0:0:
448,192,132782,1,0,0:0:0:0:
192,192,132827,1,2,0:0:0:0:
320,192,132872,1,2,0:0:0:0:
448,192,132872,1,0,0:0:0:0:
64,192,132962,1,0,0:0:0:0:
192,192,132984,1,0,0:0:0:0:
320,192,133006,1,0,0:0:0:0:
448,192,133029,1,0,0:0:0:0:
64,192,133051,1,0,0:0:0:0:
192,192,133073,1,0,0:0:0:0:
320,192,133096,1,0,0:0:0:0:
448,192,133118,1,0,0:0:0:0:
64,192,133141,1,2,0:0:0:0:
192,192,133141,1,0,0:0:0:0:
448,192,133230,1,0,0:0:0:0:
320,192,133253,1,0,0:0:0:0:
192,192,133275,1,0,0:0:0:0:
64,192,133297,1,0,0:0:0:0:
320,192,133320,1,2,0:0:0:0:
448,192,133320,1,0,0:0:0:0:
64,192,133409,1,0,0:0:0:0:
192,192,133432,1,0,0:0:0:0:
320,192,133454,1,0,0:0:0:0:
448,192,133476,1,0,0:0:0:0:
64,192,133499,1,2,0:0:0:0:
192,192,133499,1,0,0:0:0:0:
64,192,133588,1,2,0:0:0:0:
192,192,133588,1,0,0:0:0:0:
64,192,133678,1,0,0:0:0:0:
192,192,133678,1,0,0:0:0:0:
448,192,133678,1,0,0:0:0:0:
192,192,133767,1,2,0:0:0:0:
320,192,133767,1,0,0:0:0:0:
64,192,133857,1,2,0:0:0:0:
320,192,133857,1,0,0:0:0:0:
448,192,133857,1,0,0:0:0:0:
64,192,133947,1,0,0:0:0:0:
192,192,133969,1,0,0:0:0:0:
320,192,133991,1,0,0:0:0:0:
448,192,134014,1,0,0:0:0:0:
64,192,134036,1,2,0:0:0:0:
192,192,134036,1,0,0:0:0:0:
448,192,134126,1,0,0:0:0:0:
320,192,134148,1,0,0:0:0:0:
192,192,134170,1,0,0:0:0:0:
64,192,134193,1,0,0:0:0:0:
320,192,134215,128,0,134529:0:0:0:0:
448,192,134215,128,0,134529:0:0:0:0:
64,192,134394,128,0,134529:0:0:0:0:
192,192,134394,128,0,134529:0:0:0:0:
64,192,134573,1,2,0:0:0:0:
320,192,134573,1,0,0:0:0:70:LR_CymbalLGLH_S.wav
448,192,134573,1,0,0:0:0:0:
64,192,134663,1,2,0:0:0:0:
320,192,134663,1,0,0:0:0:0:
448,192,134663,1,0,0:0:0:0:
192,192,134753,1,2,0:0:0:0:
320,192,134753,1,0,0:0:0:0:
448,192,134753,1,0,0:0:0:0:
192,192,134842,1,2,0:0:0:0:
320,192,134842,1,0,0:0:0:0:
448,192,134842,1,0,0:0:0:0:
64,192,134932,1,2,0:0:0:0:
320,192,134932,1,0,0:0:0:0:
448,192,134932,1,0,0:0:0:0:
64,192,135021,1,2,0:0:0:0:
320,192,135021,1,0,0:0:0:0:
448,192,135021,1,0,0:0:0:0:
192,192,135111,1,2,0:0:0:0:
320,192,135111,1,0,0:0:0:0:
64,192,135200,1,2,0:0:0:0:
192,192,135200,1,0,0:0:0:0:
448,192,135200,1,0,0:0:0:0:
64,192,135290,1,2,0:0:0:0:
192,192,135290,1,0,0:0:0:0:
448,192,135290,1,0,0:0:0:0:
192,192,135379,1,2,0:0:0:0:
320,192,135379,1,0,0:0:0:0:
64,192,135469,1,2,0:0:0:0:
320,192,135469,1,0,0:0:0:0:
448,192,135469,1,0,0:0:0:0:
64,192,135559,1,2,0:0:0:0:
320,192,135559,1,0,0:0:0:0:
448,192,135559,1,0,0:0:0:0:
192,192,135648,1,2,0:0:0:0:
320,192,135648,1,0,0:0:0:0:
448,192,135648,1,0,0:0:0:0:
192,192,135738,1,2,0:0:0:0:
320,192,135738,1,0,0:0:0:0:
448,192,135738,1,0,0:0:0:0:
64,192,135827,1,2,0:0:0:0:
320,192,135827,1,0,0:0:0:0:
448,192,135827,1,0,0:0:0:0:
64,192,135917,1,2,0:0:0:0:
192,192,135917,1,0,0:0:0:0:
320,192,135962,1,2,0:0:0:0:
64,192,136006,1,0,0:0:0:0:
192,192,136029,1,0,0:0:0:0:
320,192,136051,1,0,0:0:0:0:
448,192,136073,1,0,0:0:0:0:
64,192,136096,1,2,0:0:0:0:
192,192,136096,1,0,0:0:0:0:
64,192,136185,1,2,0:0:0:0:
192,192,136185,1,0,0:0:0:0:
448,192,136185,1,0,0:0:0:0:
64,192,136275,1,2,0:0:0:0:
192,192,136275,1,0,0:0:0:0:
320,192,136275,1,0,0:0:0:0:
64,192,136364,1,2,0:0:0:0:
192,192,136364,1,0,0:0:0:0:
320,192,136364,1,0,0:0:0:0:
64,192,136454,1,2,0:0:0:0:
192,192,136454,1,0,0:0:0:0:
448,192,136454,1,0,0:0:0:0:
320,192,136499,1,0,0:0:0:0:
64,192,136544,1,0,0:0:0:0:
192,192,136588,1,0,0:0:0:0:
320,192,136633,1,2,0:0:0:0:
448,192,136633,1,0,0:0:0:0:
192,192,136678,1,2,0:0:0:0:
320,192,136723,1,2,0:0:0:0:
448,192,136723,1,0,0:0:0:0:
64,192,136812,1,2,0:0:0:0:
192,192,136812,1,0,0:0:0:0:
320,192,136857,1,2,0:0:0:0:
64,192,136902,1,2,0:0:0:0:
192,192,136902,1,0,0:0:0:0:
320,192,136991,1,2,0:0:0:0:
448,192,136991,1,0,0:0:0:0:
64,192,137081,1,0,0:0:0:0:
448,192,137126,1,0,0:0:0:0:
64,192,137170,1,0,0:0:0:0:
448,192,137215,1,0,0:0:0:0:
64,192,137260,1,0,0:0:0:0:
448,192,137305,1,0,0:0:0:0:
64,192,137350,1,0,0:0:0:0:
192,192,137439,1,2,0:0:0:0:
320,192,137439,1,0,0:0:0:0:
448,192,137439,1,0,0:0:0:0:
320,192,137529,1,0,0:0:0:0:
64,192,137618,1,0,0:0:0:0:
192,192,137618,1,0,0:0:0:0:
320,192,137708,1,0,0:0:0:0:
448,192,137708,1,0,0:0:0:0:
320,192,137797,1,0,0:0:0:0:
64,192,137887,1,0,0:0:0:0:
192,192,137887,1,0,0:0:0:0:
320,192,137976,1,0,0:0:0:0:
448,192,137976,1,0,0:0:0:0:
320,192,138066,1,0,0:0:0:0:
448,192,138066,1,0,0:0:0:0:
64,192,138156,1,0,0:0:0:100:VEC4 Snares 002_Reverb.wav
192,192,138156,1,0,0:0:0:0:
448,192,138156,1,0,0:0:0:0:
192,192,138245,1,0,0:0:0:0:
320,192,138335,1,0,0:0:0:0:
64,192,138424,1,0,0:0:0:0:
192,192,138424,1,0,0:0:0:0:
192,192,138514,1,0,0:0:0:0:
320,192,138603,1,0,0:0:0:0:
64,192,138693,1,0,0:0:0:0:
192,192,138693,1,0,0:0:0:0:
64,192,138782,1,0,0:0:0:0:
192,192,138782,1,0,0:0:0:0:
320,192,138872,1,0,0:0:0:0:
448,192,138872,1,0,0:0:0:0:
64,192,138962,1,0,0:0:0:0:
320,192,139006,1,0,0:0:0:0:
192,192,139051,1,0,0:0:0:0:
448,192,139096,1,0,0:0:0:0:
320,192,139141,1,0,0:0:0:0:
192,192,139185,1,0,0:0:0:0:
64,192,139230,1,2,0:0:0:0:
448,192,139230,1,0,0:0:0:0:
64,192,139320,1,0,0:0:0:0:
192,192,139409,1,2,0:0:0:0:
320,192,139409,1,0,0:0:0:0:
192,192,139499,1,0,0:0:0:0:
64,192,139588,1,0,0:0:0:100:VEC3 Snares 042.wav
320,192,139588,1,0,0:0:0:0:
448,192,139588,1,0,0:0:0:0:
64,192,139678,1,0,0:0:0:0:
192,192,139767,1,0,0:0:0:0:
320,192,139767,1,0,0:0:0:0:
192,192,139857,1,0,0:0:0:0:
320,192,139857,1,0,0:0:0:0:
64,192,139947,1,0,0:0:0:0:
64,192,140036,1,0,0:0:0:0:
192,192,140036,1,0,0:0:0:0:
320,192,140126,1,2,0:0:0:0:
448,192,140126,1,0,0:0:0:0:
64,192,140170,1,0,0:0:0:0:
192,192,140215,1,0,0:0:0:0:
320,192,140260,1,0,0:0:0:0:
64,192,140305,1,2,0:0:0:0:
192,192,140305,1,0,0:0:0:70:LR_CymbalLGLH_S.wav
448,192,140305,1,0,0:0:0:0:
64,192,140394,1,0,0:0:0:0:
192,192,140394,1,0,0:0:0:0:
64,192,140484,1,8,0:0:0:0:
192,192,140484,1,0,0:0:0:0:
320,192,140484,1,0,0:0:0:0:
64,192,140573,1,0,0:0:0:0:
192,192,140573,1,0,0:0:0:0:
64,192,140663,1,2,0:0:0:0:
192,192,140663,1,0,0:0:0:0:
448,192,140663,1,0,0:0:0:0:
64,192,140753,1,0,0:0:0:0:
192,192,140753,1,0,0:0:0:0:
64,192,140842,1,8,0:0:0:0:
192,192,140842,1,0,0:0:0:0:
448,192,140842,1,0,0:0:0:0:
320,192,140932,1,0,0:0:0:0:
448,192,140932,1,0,0:0:0:0:
64,192,141021,1,2,0:0:0:0:
320,192,141021,1,0,0:0:0:0:
448,192,141021,1,0,0:0:0:0:
64,192,141111,1,0,0:0:0:0:
192,192,141200,1,8,0:0:0:0:
320,192,141200,1,0,0:0:0:0:
448,192,141200,1,0,0:0:0:0:
320,192,141290,1,0,0:0:0:0:
448,192,141290,1,0,0:0:0:0:
64,192,141379,1,2,0:0:0:0:
320,192,141379,1,0,0:0:0:0:
448,192,141379,1,0,0:0:0:0:
320,192,141469,1,0,0:0:0:0:
448,192,141469,1,0,0:0:0:0:
192,192,141559,1,8,0:0:0:0:
320,192,141559,1,0,0:0:0:0:
448,192,141559,1,0,0:0:0:0:
192,192,141648,1,0,0:0:0:0:
64,192,141738,1,2,0:0:0:0:
320,192,141738,1,0,0:0:0:0:
448,192,141738,1,0,0:0:0:0:
64,192,141827,1,2,0:0:0:0:
192,192,141827,1,0,0:0:0:0:
448,192,141827,1,0,0:0:0:0:
64,192,141917,1,8,0:0:0:0:
192,192,141917,1,0,0:0:0:0:
448,192,141917,1,0,0:0:0:0:
64,192,142006,1,0,0:0:0:0:
192,192,142006,1,0,0:0:0:0:
64,192,142096,1,2,0:0:0:0:
192,192,142096,1,0,0:0:0:0:
320,192,142096,1,0,0:0:0:0:
64,192,142185,1,0,0:0:0:0:
192,192,142185,1,0,0:0:0:0:
64,192,142275,1,8,0:0:0:0:
320,192,142275,1,0,0:0:0:0:
448,192,142275,1,0,0:0:0:0:
192,192,142364,1,0,0:0:0:0:
320,192,142364,1,0,0:0:0:0:
64,192,142454,1,2,0:0:0:0:
192,192,142454,1,0,0:0:0:0:
448,192,142454,1,0,0:0:0:0:
64,192,142544,1,0,0:0:0:0:
192,192,142544,1,0,0:0:0:0:
320,192,142573,1,2,0:0:0:0:
448,192,142573,1,0,0:0:0:0:
64,192,142633,1,0,0:0:0:0:
320,192,142693,1,8,0:0:0:0:
448,192,142693,1,0,0:0:0:0:
64,192,142723,1,0,0:0:0:0:
192,192,142723,1,0,0:0:0:0:
192,192,142812,128,0,142857:0:0:0:0:
320,192,142812,128,0,142857:0:0:0:0:
320,192,142902,128,0,142947:0:0:0:0:
448,192,142902,128,0,142947:0:0:0:0:
64,192,142991,128,0,143036:0:0:0:0:
192,192,142991,128,0,143036:0:0:0:0:
192,192,143081,128,0,143126:0:0:0:0:
320,192,143081,128,0,143126:0:0:0:0:
64,192,143170,1,2,0:0:0:0:
320,192,143170,1,0,0:0:0:70:LR_CymbalLGLH_S.wav
448,192,143170,1,0,0:0:0:0:
64,192,143260,1,0,0:0:0:70:S1.wav
192,192,143260,1,0,0:0:0:0:
448,192,143260,1,0,0:0:0:0:
320,192,143350,1,2,0:0:0:0:
64,192,143439,1,0,0:0:0:70:S1.wav
320,192,143439,1,0,0:0:0:0:
448,192,143439,1,0,0:0:0:0:
192,192,143529,1,2,0:0:0:0:
64,192,143618,1,0,0:0:0:70:S1.wav
192,192,143618,1,0,0:0:0:0:
448,192,143618,1,0,0:0:0:0:
320,192,143708,1,2,0:0:0:0:
64,192,143797,1,0,0:0:0:70:S1.wav
320,192,143797,1,0,0:0:0:0:
448,192,143797,1,0,0:0:0:0:
192,192,143887,1,2,0:0:0:0:
64,192,143976,1,0,0:0:0:70:S1.wav
192,192,143976,1,0,0:0:0:0:
448,192,143976,1,0,0:0:0:0:
320,192,144066,1,2,0:0:0:0:
64,192,144156,1,0,0:0:0:70:S1.wav
320,192,144156,1,0,0:0:0:0:
448,192,144156,1,0,0:0:0:0:
192,192,144245,1,2,0:0:0:0:
64,192,144335,1,0,0:0:0:70:S1.wav
192,192,144335,1,0,0:0:0:0:
448,192,144335,1,0,0:0:0:0:
320,192,144424,1,2,0:0:0:0:
64,192,144514,1,0,0:0:0:70:S1.wav
320,192,144514,1,0,0:0:0:0:
448,192,144514,1,0,0:0:0:0:
192,192,144603,1,2,0:0:0:0:
64,192,144693,1,0,0:0:0:70:S1.wav
192,192,144693,1,0,0:0:0:0:
448,192,144693,1,0,0:0:0:0:
320,192,144782,1,2,0:0:0:0:
64,192,144872,1,0,0:0:0:70:S1.wav
320,192,144872,1,0,0:0:0:0:
448,192,144872,1,0,0:0:0:0:
192,192,144962,1,2,0:0:0:0:
64,192,145051,1,0,0:0:0:70:S1.wav
192,192,145051,1,0,0:0:0:0:
448,192,145051,1,0,0:0:0:0:
320,192,145141,1,2,0:0:0:0:
64,192,145230,1,0,0:0:0:70:S1.wav
320,192,145230,1,0,0:0:0:0:
448,192,145230,1,0,0:0:0:0:
64,192,145320,1,2,0:0:0:0:
192,192,145320,1,0,0:0:0:0:
320,192,145364,1,2,0:0:0:0:
64,192,145409,1,2,0:0:0:0:
192,192,145409,1,0,0:0:0:0:
320,192,145454,1,2,0:0:0:0:
64,192,145499,1,2,0:0:0:0:
192,192,145499,1,0,0:0:0:0:
320,192,145588,1,2,0:0:0:0:
448,192,145588,1,0,0:0:0:0:
320,192,145678,128,2,145991:0:0:0:0:
448,192,145678,128,0,145991:0:0:0:0:
64,192,146036,1,2,0:0:0:0:
192,192,146036,1,0,0:0:0:70:LR_CymbalLGLH_S.wav
448,192,146036,1,0,0:0:0:0:
64,192,146126,1,2,0:0:0:0:
320,192,146126,1,0,0:0:0:0:
448,192,146126,1,0,0:0:0:0:
192,192,146215,1,2,0:0:0:0:
320,192,146215,1,0,0:0:0:0:
448,192,146215,1,0,0:0:0:0:
192,192,146305,1,2,0:0:0:0:
320,192,146305,1,0,0:0:0:0:
448,192,146305,1,0,0:0:0:0:
64,192,146394,1,2,0:0:0:0:
320,192,146394,1,0,0:0:0:0:
448,192,146394,1,0,0:0:0:0:
64,192,146484,1,2,0:0:0:0:
320,192,146484,1,0,0:0:0:0:
448,192,146484,1,0,0:0:0:0:
64,192,146573,1,2,0:0:0:0:
192,192,146573,1,0,0:0:0:0:
192,192,146663,1,2,0:0:0:0:
320,192,146663,1,0,0:0:0:0:
448,192,146663,1,0,0:0:0:0:
320,192,146753,1,2,0:0:0:0:
448,192,146753,1,0,0:0:0:0:
64,192,146842,1,2,0:0:0:0:
192,192,146842,1,0,0:0:0:0:
448,192,146842,1,0,0:0:0:0:
64,192,146932,1,2,0:0:0:0:
192,192,146932,1,0,0:0:0:0:
320,192,146932,1,0,0:0:0:0:
64,192,147021,1,2,0:0:0:0:
192,192,147021,1,0,0:0:0:0:
320,192,147021,1,0,0:0:0:0:
64,192,147111,1,2,0:0:0:0:
192,192,147111,1,0,0:0:0:0:
448,192,147111,1,0,0:0:0:0:
64,192,147200,1,2,0:0:0:0:
192,192,147200,1,0,0:0:0:0:
448,192,147200,1,0,0:0:0:0:
192,192,147290,1,2,0:0:0:0:
320,192,147290,1,0,0:0:0:0:
64,192,147379,1,2,0:0:0:0:
320,192,147379,1,0,0:0:0:0:
448,192,147379,1,0,0:0:0:0:
192,192,147424,1,2,0:0:0:0:
320,192,147469,1,2,0:0:0:0:
448,192,147469,1,0,0:0:0:0:
64,192,147559,1,2,0:0:0:0:
192,192,147559,1,0,0:0:0:0:
448,192,147559,1,0,0:0:0:0:
64,192,147648,1,2,0:0:0:0:
192,192,147648,1,0,0:0:0:0:
320,192,147648,1,0,0:0:0:0:
64,192,147738,1,2,0:0:0:0:
192,192,147738,1,0,0:0:0:0:
320,192,147738,1,0,0:0:0:0:
64,192,147827,1,2,0:0:0:0:
192,192,147827,1,0,0:0:0:0:
448,192,147827,1,0,0:0:0:0:
64,192,147917,1,2,0:0:0:0:
192,192,147917,1,0,0:0:0:0:
448,192,147917,1,0,0:0:0:0:
320,192,148006,1,2,0:0:0:0:
448,192,148006,1,0,0:0:0:0:
64,192,148096,1,2,0:0:0:0:
192,192,148096,1,0,0:0:0:0:
320,192,148096,1,0,0:0:0:0:
448,192,148141,1,2,0:0:0:0:
64,192,148185,1,2,0:0:0:0:
192,192,148185,1,0,0:0:0:0:
64,192,148275,1,2,0:0:0:0:
320,192,148275,1,0,0:0:0:0:
448,192,148275,1,0,0:0:0:0:
192,192,148320,1,2,0:0:0:0:
320,192,148364,1,2,0:0:0:0:
448,192,148364,1,0,0:0:0:0:
320,192,148454,1,2,0:0:0:0:
448,192,148454,1,0,0:0:0:0:
192,192,148499,1,2,0:0:0:0:
64,192,148544,1,2,0:0:0:0:
320,192,148544,1,0,0:0:0:0:
448,192,148544,1,0,0:0:0:0:
192,192,148603,1,2,0:0:0:0:
320,192,148633,1,0,0:0:0:0:
448,192,148633,1,0,0:0:0:0:
64,192,148663,1,2,0:0:0:0:
192,192,148723,1,2,0:0:0:0:
64,192,148782,1,2,0:0:0:0:
320,192,148812,1,0,0:0:0:0:
448,192,148812,1,0,0:0:0:0:
192,192,148842,1,2,0:0:0:0:
64,192,148902,1,2,0:0:0:0:
448,192,148902,1,0,0:0:0:70:LR_CymbalLGLH_S.wav
320,192,148932,1,0,0:0:0:0:
192,192,148962,1,0,0:0:0:0:
64,192,148991,1,0,0:0:0:0:
320,192,149021,1,0,0:0:0:0:
448,192,149051,1,0,0:0:0:0:
64,192,149081,1,0,0:0:0:0:
192,192,149111,1,0,0:0:0:0:
320,192,149141,1,0,0:0:0:0:
448,192,149170,1,0,0:0:0:0:
64,192,149200,1,0,0:0:0:0:
192,192,149230,1,0,0:0:0:0:
448,192,149260,1,0,0:0:0:0:
320,192,149290,1,0,0:0:0:0:
192,192,149320,1,0,0:0:0:0:
64,192,149350,1,0,0:0:0:0:
448,192,149379,1,0,0:0:0:0:
320,192,149409,1,0,0:0:0:0:
64,192,149439,1,0,0:0:0:0:
192,192,149469,1,0,0:0:0:0:
320,192,149499,1,0,0:0:0:0:
448,192,149529,1,0,0:0:0:0:
192,192,149559,1,0,0:0:0:0:
64,192,149588,1,0,0:0:0:0:
448,192,149618,1,0,0:0:0:0:
320,192,149648,1,0,0:0:0:0:
192,192,149678,1,0,0:0:0:0:
64,192,149708,1,0,0:0:0:0:
320,192,149738,1,0,0:0:0:0:
448,192,149767,1,0,0:0:0:0:
64,192,149797,1,0,0:0:0:0:
192,192,149827,1,0,0:0:0:0:
320,192,149857,1,0,0:0:0:0:
448,192,149887,1,0,0:0:0:0:
64,192,149917,1,0,0:0:0:0:
192,192,149947,1,0,0:0:0:0:
448,192,149976,1,0,0:0:0:0:
320,192,150006,1,0,0:0:0:0:
192,192,150036,1,0,0:0:0:0:
64,192,150066,1,0,0:0:0:0:
448,192,150096,1,0,0:0:0:0:
320,192,150126,1,0,0:0:0:0:
192,192,150156,128,0,150335:0:0:0:0:
64,192,150335,1,2,0:0:0:0:
320,192,150335,1,0,0:0:0:30:LR_CymbalG_short.wav
448,192,150335,1,0,0:0:0:0:
192,192,150424,1,2,0:0:0:0:
320,192,150424,1,0,0:0:0:30:LR_CymbalG_short.wav
448,192,150424,1,0,0:0:0:0:
64,192,150603,1,2,0:0:0:0:
320,192,150603,1,0,0:0:0:30:LR_CymbalG_short.wav
448,192,150603,1,0,0:0:0:0:
192,192,150693,1,2,0:0:0:0:
320,192,150693,1,0,0:0:0:30:LR_CymbalG_short.wav
448,192,150693,1,0,0:0:0:0:
64,192,150872,1,2,0:0:0:0:
320,192,150872,1,0,0:0:0:30:LR_CymbalG_short.wav
448,192,150872,1,0,0:0:0:0:
192,192,150961,1,2,0:0:0:0:
320,192,150961,1,0,0:0:0:30:LR_CymbalG_short.wav
448,192,150961,1,0,0:0:0:0:
64,192,151140,1,2,0:0:0:0:
320,192,151140,1,0,0:0:0:30:LR_CymbalG_short.wav
448,192,151140,1,0,0:0:0:0:
192,192,151230,1,2,0:0:0:0:
320,192,151230,1,0,0:0:0:30:LR_CymbalG_short.wav
448,192,151230,1,0,0:0:0:0:
64,192,151588,1,2,0:0:0:0:
192,192,151588,1,0,0:0:0:30:LR_CymbalG_short.wav
448,192,151588,1,0,0:0:0:0:
64,192,151678,1,2,0:0:0:0:
192,192,151678,1,0,0:0:0:30:LR_CymbalG_short.wav
320,192,151678,1,0,0:0:0:0:
64,192,151857,1,2,0:0:0:0:
192,192,151857,1,0,0:0:0:30:LR_CymbalG_short.wav
448,192,151857,1,0,0:0:0:0:
64,192,151946,1,2,0:0:0:0:
192,192,151946,1,0,0:0:0:30:LR_CymbalG_short.wav
320,192,151946,1,0,0:0:0:0:
64,192,152126,1,2,0:0:0:0:
192,192,152126,1,0,0:0:0:30:LR_CymbalG_short.wav
448,192,152126,1,0,0:0:0:0:
64,192,152215,1,2,0:0:0:0:
192,192,152215,1,0,0:0:0:30:LR_CymbalG_short.wav
320,192,152215,1,0,0:0:0:0:
64,192,152394,1,2,0:0:0:0:
192,192,152394,1,0,0:0:0:30:LR_CymbalG_short.wav
448,192,152394,1,0,0:0:0:0:
64,192,152484,1,2,0:0:0:0:
192,192,152484,1,0,0:0:0:30:LR_CymbalG_short.wav
320,192,152484,1,0,0:0:0:0:
64,192,152842,1,2,0:0:0:0:
320,192,152842,1,0,0:0:0:30:LR_CymbalG_short.wav
448,192,152842,1,0,0:0:0:0:
192,192,152932,1,2,0:0:0:0:
320,192,152932,1,0,0:0:0:30:LR_CymbalG_short.wav
448,192,152932,1,0,0:0:0:0:
64,192,153111,1,2,0:0:0:0:
320,192,153111,1,0,0:0:0:30:LR_CymbalG_short.wav
448,192,153111,1,0,0:0:0:0:
192,192,153200,1,2,0:0:0:0:
320,192,153200,1,0,0:0:0:30:LR_CymbalG_short.wav
448,192,153200,1,0,0:0:0:0:
64,192,153379,1,2,0:0:0:0:
320,192,153379,1,0,0:0:0:30:LR_CymbalG_short.wav
448,192,153379,1,0,0:0:0:0:
192,192,153469,1,2,0:0:0:0:
320,192,153469,1,0,0:0:0:30:LR_CymbalG_short.wav
448,192,153469,1,0,0:0:0:0:
64,192,153648,1,2,0:0:0:0:
320,192,153648,1,0,0:0:0:30:LR_CymbalG_short.wav
448,192,153648,1,0,0:0:0:0:
192,192,153737,1,2,0:0:0:0:
320,192,153737,1,0,0:0:0:30:LR_CymbalG_short.wav
448,192,153737,1,0,0:0:0:0:
64,192,154096,1,2,0:0:0:0:
192,192,154096,1,0,0:0:0:30:LR_CymbalG_short.wav
448,192,154096,1,0,0:0:0:0:
64,192,154185,1,2,0:0:0:0:
192,192,154185,1,0,0:0:0:30:LR_CymbalG_short.wav
320,192,154185,1,0,0:0:0:0:
64,192,154364,1,2,0:0:0:0:
192,192,154364,1,0,0:0:0:30:LR_CymbalG_short.wav
448,192,154364,1,0,0:0:0:0:
64,192,154454,1,2,0:0:0:0:
192,192,154454,1,0,0:0:0:30:LR_CymbalG_short.wav
320,192,154454,1,0,0:0:0:0:
64,192,154633,1,2,0:0:0:0:
192,192,154633,1,0,0:0:0:30:LR_CymbalG_short.wav
448,192,154633,1,0,0:0:0:0:
64,192,154723,1,2,0:0:0:0:
192,192,154723,1,0,0:0:0:30:LR_CymbalG_short.wav
320,192,154723,1,0,0:0:0:0:
64,192,154902,1,2,0:0:0:0:
192,192,154902,1,0,0:0:0:30:LR_CymbalG_short.wav
448,192,154902,1,0,0:0:0:0:
64,192,154991,1,2,0:0:0:0:
192,192,154991,1,0,0:0:0:30:LR_CymbalG_short.wav
320,192,154991,1,0,0:0:0:0:
64,192,155349,1,2,0:0:0:0:
192,192,155349,1,0,0:0:0:30:LR_CymbalG_short.wav
320,192,155349,1,0,0:0:0:0:
64,192,155438,1,2,0:0:0:0:
192,192,155438,1,0,0:0:0:30:LR_CymbalG_short.wav
448,192,155438,1,0,0:0:0:0:
64,192,155617,1,2,0:0:0:0:
192,192,155617,1,0,0:0:0:30:LR_CymbalG_short.wav
448,192,155617,1,0,0:0:0:0:
64,192,155707,1,2,0:0:0:0:
192,192,155707,1,0,0:0:0:30:LR_CymbalG_short.wav
320,192,155707,1,0,0:0:0:0:
192,192,155886,1,2,0:0:0:0:
320,192,155886,1,0,0:0:0:30:LR_CymbalG_short.wav
448,192,155886,1,0,0:0:0:0:
64,192,155975,1,2,0:0:0:0:
320,192,155975,1,0,0:0:0:30:LR_CymbalG_short.wav
448,192,155975,1,0,0:0:0:0:
64,192,156154,1,2,0:0:0:0:
320,192,156154,1,0,0:0:0:30:LR_CymbalG_short.wav
448,192,156154,1,0,0:0:0:0:
192,192,156244,1,2,0:0:0:0:
320,192,156244,1,0,0:0:0:30:LR_CymbalG_short.wav
448,192,156244,1,0,0:0:0:0:
64,192,156423,1,2,0:0:0:0:
192,192,156423,1,0,0:0:0:30:LR_CymbalG_short.wav
320,192,156423,1,0,0:0:0:0:
64,192,156513,1,2,0:0:0:0:
192,192,156513,1,0,0:0:0:30:LR_CymbalG_short.wav
448,192,156513,1,0,0:0:0:0:
64,192,156692,1,2,0:0:0:0:
192,192,156692,1,0,0:0:0:30:LR_CymbalG_short.wav
448,192,156692,1,0,0:0:0:0:
64,192,156781,1,2,0:0:0:0:
192,192,156781,1,0,0:0:0:30:LR_CymbalG_short.wav
320,192,156781,1,0,0:0:0:0:
192,192,156960,1,2,0:0:0:0:
320,192,156960,1,0,0:0:0:30:LR_CymbalG_short.wav
448,192,156960,1,0,0:0:0:0:
64,192,157050,1,2,0:0:0:0:
320,192,157050,1,0,0:0:0:30:LR_CymbalG_short.wav
448,192,157050,1,0,0:0:0:0:
64,192,157229,1,2,0:0:0:0:
320,192,157229,1,0,0:0:0:30:LR_CymbalG_short.wav
448,192,157229,1,0,0:0:0:0:
192,192,157319,1,2,0:0:0:0:
320,192,157319,1,0,0:0:0:30:LR_CymbalG_short.wav
448,192,157319,1,0,0:0:0:0:
64,192,157498,1,0,0:0:0:70:LR4_BassLineLDRN.wav
192,192,157498,1,0,0:0:0:0:
448,192,157557,1,0,0:0:0:0:
320,192,157617,1,0,0:0:0:0:
192,192,157677,1,0,0:0:0:0:
448,192,157737,1,0,0:0:0:0:
64,192,157796,1,0,0:0:0:0:
320,192,157856,1,0,0:0:0:0:
192,192,157916,1,0,0:0:0:0:
64,192,157975,1,0,0:0:0:0:
448,192,158035,1,0,0:0:0:0:
320,192,158095,1,0,0:0:0:0:
192,192,158154,1,0,0:0:0:0:
64,192,158214,128,0,158573:0:0:0:0:
192,192,158573,1,0,0:0:0:70:LR_CymbalLGLH_S.wav
320,192,158573,1,0,0:0:0:70:LR4_DrumRevBassImpact.wav
448,192,158573,1,0,0:0:0:0:
64,192,164304,5,0,0:0:0:0:
448,192,164304,1,0,0:0:0:0:
192,192,164393,1,0,0:0:0:0:
320,192,164483,1,0,0:0:0:0:
448,192,164483,1,0,0:0:0:0:
64,192,164573,1,0,0:0:0:0:
192,192,164573,1,0,0:0:0:0:
320,192,164662,1,0,0:0:0:0:
64,192,164752,1,0,0:0:0:0:
448,192,164752,1,0,0:0:0:0:
192,192,164841,1,0,0:0:0:0:
320,192,164931,1,0,0:0:0:0:
448,192,164931,1,0,0:0:0:0:
192,192,165020,1,0,0:0:0:0:
64,192,165110,1,0,0:0:0:0:
448,192,165110,1,0,0:0:0:0:
192,192,165199,1,0,0:0:0:0:
320,192,165199,1,0,0:0:0:0:
64,192,165289,1,0,0:0:0:0:
320,192,165378,1,0,0:0:0:0:
448,192,165378,1,0,0:0:0:0:
192,192,165468,1,0,0:0:0:0:
64,192,165558,1,0,0:0:0:0:
448,192,165558,1,0,0:0:0:0:
320,192,165647,1,0,0:0:0:0:
64,192,165737,1,0,0:0:0:0:
192,192,165737,1,0,0:0:0:0:
448,192,165826,1,0,0:0:0:0:
64,192,165916,1,0,0:0:0:0:
320,192,165916,1,0,0:0:0:0:
192,192,166005,1,0,0:0:0:0:
448,192,166005,1,0,0:0:0:0:
64,192,166095,1,0,0:0:0:0:
320,192,166184,1,0,0:0:0:0:
448,192,166184,1,0,0:0:0:0:
192,192,166274,1,0,0:0:0:0:
64,192,166364,1,0,0:0:0:0:
448,192,166364,1,0,0:0:0:0:
320,192,166453,1,0,0:0:0:0:
64,192,166543,1,0,0:0:0:0:
192,192,166543,1,0,0:0:0:0:
320,192,166632,1,0,0:0:0:0:
448,192,166632,1,0,0:0:0:0:
64,192,166722,1,0,0:0:0:0:
192,192,166722,1,0,0:0:0:0:
320,192,166811,1,0,0:0:0:0:
448,192,166811,1,0,0:0:0:0:
64,192,166901,1,0,0:0:0:0:
192,192,166901,1,0,0:0:0:0:
192,192,166990,1,0,0:0:0:0:
320,192,166990,1,0,0:0:0:0:
320,192,167080,1,0,0:0:0:0:
448,192,167080,1,0,0:0:0:0:
64,192,167170,1,0,0:0:0:0:
192,192,167170,1,0,0:0:0:0:
448,192,167259,1,0,0:0:0:0:
64,192,167349,1,0,0:0:0:0:
320,192,167349,1,0,0:0:0:0:
192,192,167438,1,0,0:0:0:0:
448,192,167438,1,0,0:0:0:0:
64,192,167528,1,0,0:0:0:0:
320,192,167617,1,0,0:0:0:0:
448,192,167617,1,0,0:0:0:0:
64,192,167707,1,0,0:0:0:0:
192,192,167796,1,0,0:0:0:0:
320,192,167796,1,0,0:0:0:0:
64,192,167886,1,0,0:0:0:0:
320,192,167975,1,0,0:0:0:0:
448,192,167975,1,0,0:0:0:0:
64,192,168065,1,0,0:0:0:0:
192,192,168065,1,0,0:0:0:0:
448,192,168155,1,0,0:0:0:0:
64,192,168244,1,0,0:0:0:0:
192,192,168244,1,0,0:0:0:0:
320,192,168334,1,0,0:0:0:0:
448,192,168334,1,0,0:0:0:0:
192,192,168423,1,0,0:0:0:0:
320,192,168423,1,0,0:0:0:0:
64,192,168513,1,0,0:0:0:0:
192,192,168513,1,0,0:0:0:0:
320,192,168602,1,0,0:0:0:0:
448,192,168602,1,0,0:0:0:0:
192,192,168692,1,0,0:0:0:0:
64,192,168781,1,0,0:0:0:0:
320,192,168781,1,0,0:0:0:0:
192,192,168871,1,0,0:0:0:0:
448,192,168871,1,0,0:0:0:0:
64,192,168961,1,0,0:0:0:0:
320,192,169050,1,0,0:0:0:0:
448,192,169050,1,0,0:0:0:0:
192,192,169140,1,0,0:0:0:0:
64,192,169229,1,0,0:0:0:0:
448,192,169229,1,0,0:0:0:0:
320,192,169319,1,0,0:0:0:0:
64,192,169408,1,0,0:0:0:0:
448,192,169408,1,0,0:0:0:0:
192,192,169498,1,0,0:0:0:0:
320,192,169498,1,0,0:0:0:0:
64,192,169587,1,0,0:0:0:0:
192,192,169677,1,0,0:0:0:0:
448,192,169677,1,0,0:0:0:0:
320,192,169767,1,0,0:0:0:0:
64,192,169856,1,0,0:0:0:0:
448,192,169856,1,0,0:0:0:0:
192,192,169946,1,0,0:0:0:0:
320,192,169946,1,0,0:0:0:0:
64,192,170035,1,0,0:0:0:0:
448,192,170035,1,0,0:0:0:0:
192,192,170125,1,0,0:0:0:0:
64,192,170214,1,0,0:0:0:0:
320,192,170214,1,0,0:0:0:0:
192,192,170304,1,0,0:0:0:0:
448,192,170304,1,0,0:0:0:0:
320,192,170393,1,0,0:0:0:0:
64,192,170483,1,0,0:0:0:0:
192,192,170483,1,0,0:0:0:0:
320,192,170572,1,0,0:0:0:0:
64,192,170662,1,0,0:0:0:0:
448,192,170662,1,0,0:0:0:0:
192,192,170752,1,0,0:0:0:0:
320,192,170841,1,0,0:0:0:0:
448,192,170841,1,0,0:0:0:0:
64,192,170931,1,0,0:0:0:0:
192,192,170931,1,0,0:0:0:0:
448,192,171020,1,0,0:0:0:0:
64,192,171110,1,0,0:0:0:0:
320,192,171110,1,0,0:0:0:0:
192,192,171199,1,0,0:0:0:0:
320,192,171289,1,0,0:0:0:0:
448,192,171289,1,0,0:0:0:0:
64,192,171378,1,0,0:0:0:0:
192,192,171378,1,0,0:0:0:0:
320,192,171468,1,0,0:0:0:0:
448,192,171468,1,0,0:0:0:0:
192,192,171558,1,0,0:0:0:0:
64,192,171647,1,0,0:0:0:0:
320,192,171647,1,0,0:0:0:0:
192,192,171737,1,0,0:0:0:0:
448,192,171737,1,0,0:0:0:0:
64,192,171826,1,0,0:0:0:0:
320,192,171916,1,0,0:0:0:0:
448,192,171916,1,0,0:0:0:0:
192,192,172005,1,0,0:0:0:0:
64,192,172095,1,0,0:0:0:0:
448,192,172095,1,0,0:0:0:0:
320,192,172184,1,0,0:0:0:0:
64,192,172274,1,0,0:0:0:0:
192,192,172274,1,0,0:0:0:0:
320,192,172364,1,0,0:0:0:0:
448,192,172364,1,0,0:0:0:0:
64,192,172453,1,0,0:0:0:0:
192,192,172543,1,0,0:0:0:0:
448,192,172543,1,0,0:0:0:0:
320,192,172632,1,0,0:0:0:0:
64,192,172722,1,0,0:0:0:0:
448,192,172722,1,0,0:0:0:0:
192,192,172811,1,0,0:0:0:0:
320,192,172811,1,0,0:0:0:0:
64,192,172901,1,0,0:0:0:0:
448,192,172901,1,0,0:0:0:0:
192,192,172990,1,0,0:0:0:0:
320,192,173080,1,0,0:0:0:0:
448,192,173080,1,0,0:0:0:0:
64,192,173170,1,0,0:0:0:0:
192,192,173170,1,0,0:0:0:0:
448,192,173259,1,0,0:0:0:0:
64,192,173349,1,0,0:0:0:0:
320,192,173349,1,0,0:0:0:0:
192,192,173438,1,0,0:0:0:0:
320,192,173528,1,0,0:0:0:0:
448,192,173528,1,0,0:0:0:0:
64,192,173617,1,0,0:0:0:0:
192,192,173707,1,0,0:0:0:0:
320,192,173707,1,0,0:0:0:0:
64,192,173796,1,0,0:0:0:0:
448,192,173796,1,0,0:0:0:0:
192,192,173886,1,0,0:0:0:0:
320,192,173975,1,0,0:0:0:0:
448,192,173975,1,0,0:0:0:0:
192,192,174065,1,0,0:0:0:0:
64,192,174155,1,0,0:0:0:0:
448,192,174155,1,0,0:0:0:0:
320,192,174244,1,0,0:0:0:0:
64,192,174334,1,2,0:0:0:0:
192,192,174334,1,0,0:0:0:30:LR_CymbalG_short.wav
448,192,174334,1,0,0:0:0:0:
64,192,174423,1,2,0:0:0:0:
192,192,174423,1,0,0:0:0:30:LR_CymbalG_short.wav
320,192,174423,1,0,0:0:0:0:
64,192,174602,1,2,0:0:0:0:
192,192,174602,1,0,0:0:0:30:LR_CymbalG_short.wav
448,192,174602,1,0,0:0:0:0:
64,192,174692,1,2,0:0:0:0:
192,192,174692,1,0,0:0:0:30:LR_CymbalG_short.wav
320,192,174692,1,0,0:0:0:0:
64,192,174871,1,2,0:0:0:0:
192,192,174871,1,0,0:0:0:30:LR_CymbalG_short.wav
448,192,174871,1,0,0:0:0:0:
64,192,174961,1,2,0:0:0:0:
192,192,174961,1,0,0:0:0:30:LR_CymbalG_short.wav
320,192,174961,1,0,0:0:0:0:
64,192,175140,1,2,0:0:0:0:
192,192,175140,1,0,0:0:0:30:LR_CymbalG_short.wav
448,192,175140,1,0,0:0:0:0:
64,192,175229,1,2,0:0:0:0:
192,192,175229,1,0,0:0:0:30:LR_CymbalG_short.wav
320,192,175229,1,0,0:0:0:0:
64,192,175408,1,0,0:0:0:50:LR4_BassLineLDRN.wav
448,192,175408,1,0,0:0:0:0:
320,192,175468,1,0,0:0:0:0:
192,192,175528,1,0,0:0:0:0:
448,192,175587,1,0,0:0:0:0:
320,192,175647,1,0,0:0:0:0:
192,192,175707,1,0,0:0:0:0:
64,192,175767,1,0,0:0:0:50:S.wav
320,192,175767,1,0,0:0:0:70:LR_CymbalLGLH_S.wav
448,192,175767,1,0,0:0:0:0:
64,192,175856,1,0,0:0:0:0:
192,192,175946,1,0,0:0:0:50:S.wav
320,192,175946,1,0,0:0:0:0:
448,192,175946,1,0,0:0:0:0:
192,192,176035,1,0,0:0:0:0:
64,192,176125,1,0,0:0:0:50:S.wav
320,192,176125,1,0,0:0:0:0:
448,192,176125,1,0,0:0:0:0:
64,192,176214,1,0,0:0:0:0:
192,192,176304,1,0,0:0:0:50:S.wav
320,192,176304,1,0,0:0:0:0:
448,192,176304,1,0,0:0:0:0:
64,192,176393,1,0,0:0:0:0:
448,192,176393,1,0,0:0:0:0:
64,192,176483,1,0,0:0:0:50:S.wav
192,192,176483,1,0,0:0:0:0:
320,192,176483,1,0,0:0:0:0:
320,192,176572,1,0,0:0:0:0:
64,192,176662,1,0,0:0:0:50:S.wav
192,192,176662,1,0,0:0:0:0:
448,192,176662,1,0,0:0:0:0:
448,192,176752,1,0,0:0:0:0:
64,192,176841,1,0,0:0:0:50:S.wav
192,192,176841,1,0,0:0:0:0:
320,192,176841,1,0,0:0:0:0:
320,192,176931,1,0,0:0:0:0:
64,192,177020,1,0,0:0:0:50:S.wav
192,192,177020,1,0,0:0:0:0:
448,192,177020,1,0,0:0:0:0:
448,192,177110,1,0,0:0:0:0:
64,192,177199,1,0,0:0:0:50:S.wav
320,192,177199,1,0,0:0:0:0:
448,192,177199,1,0,0:0:0:0:
192,192,177259,1,0,0:0:0:0:
320,192,177319,1,0,0:0:0:0:
64,192,177378,1,0,0:0:0:50:S.wav
192,192,177378,1,0,0:0:0:0:
448,192,177378,1,0,0:0:0:0:
320,192,177438,1,0,0:0:0:0:
192,192,177498,1,0,0:0:0:0:
64,192,177558,1,0,0:0:0:50:S.wav
320,192,177558,1,0,0:0:0:0:
448,192,177558,1,0,0:0:0:0:
64,192,177647,1,0,0:0:0:0:
192,192,177737,1,0,0:0:0:50:S.wav
320,192,177737,1,0,0:0:0:0:
448,192,177737,1,0,0:0:0:0:
320,192,177826,1,0,0:0:0:0:
448,192,177826,1,0,0:0:0:0:
64,192,177916,1,0,0:0:0:50:S.wav
192,192,177916,1,0,0:0:0:0:
448,192,177916,1,0,0:0:0:0:
192,192,178005,1,0,0:0:0:0:
64,192,178095,1,0,0:0:0:50:S.wav
320,192,178095,1,0,0:0:0:0:
448,192,178095,1,0,0:0:0:0:
192,192,178184,1,0,0:0:0:0:
320,192,178184,1,0,0:0:0:0:
64,192,178274,1,0,0:0:0:50:S.wav
192,192,178274,1,0,0:0:0:0:
448,192,178274,1,0,0:0:0:0:
448,192,178364,1,0,0:0:0:0:
64,192,178453,1,0,0:0:0:50:S.wav
192,192,178453,1,0,0:0:0:0:
320,192,178453,1,0,0:0:0:0:
64,192,178543,1,0,0:0:0:0:
448,192,178543,1,0,0:0:0:0:
192,192,178587,1,0,0:0:0:0:
64,192,178632,1,0,0:0:0:50:S.wav
320,192,178632,1,0,0:0:0:0:
448,192,178632,1,0,0:0:0:0:
320,192,178722,1,0,0:0:0:0:
64,192,178811,1,0,0:0:0:50:S.wav
192,192,178811,1,0,0:0:0:0:
448,192,178811,1,0,0:0:0:0:
64,192,178901,1,0,0:0:0:0:
192,192,178990,1,0,0:0:0:50:S.wav
320,192,178990,1,0,0:0:0:0:
448,192,178990,1,0,0:0:0:0:
192,192,179080,1,0,0:0:0:0:
64,192,179170,1,0,0:0:0:50:S.wav
320,192,179170,1,0,0:0:0:0:
448,192,179170,1,0,0:0:0:0:
192,192,179259,1,0,0:0:0:0:
320,192,179259,1,0,0:0:0:0:
64,192,179349,1,0,0:0:0:50:S.wav
192,192,179349,1,0,0:0:0:0:
448,192,179349,1,0,0:0:0:0:
448,192,179438,1,0,0:0:0:0:
64,192,179528,1,0,0:0:0:50:S.wav
192,192,179528,1,0,0:0:0:0:
320,192,179528,1,0,0:0:0:0:
320,192,179617,1,0,0:0:0:0:
64,192,179707,1,0,0:0:0:50:S.wav
192,192,179707,1,0,0:0:0:0:
448,192,179707,1,0,0:0:0:0:
448,192,179796,1,0,0:0:0:0:
64,192,179886,1,0,0:0:0:50:S.wav
192,192,179886,1,0,0:0:0:0:
320,192,179886,1,0,0:0:0:0:
320,192,179975,1,0,0:0:0:0:
64,192,180065,1,0,0:0:0:50:S.wav
192,192,180065,1,0,0:0:0:0:
448,192,180065,1,0,0:0:0:0:
320,192,180125,1,0,0:0:0:0:
192,192,180184,1,0,0:0:0:0:
64,192,180244,1,0,0:0:0:50:S.wav
320,192,180244,1,0,0:0:0:0:
448,192,180244,1,0,0:0:0:0:
192,192,180304,1,0,0:0:0:0:
320,192,180364,1,0,0:0:0:0:
64,192,180423,1,0,0:0:0:50:S.wav
192,192,180423,1,0,0:0:0:0:
448,192,180423,1,0,0:0:0:0:
64,192,180513,1,0,0:0:0:0:
192,192,180602,1,0,0:0:0:50:S.wav
320,192,180602,1,0,0:0:0:0:
448,192,180602,1,0,0:0:0:0:
64,192,180692,1,0,0:0:0:0:
448,192,180692,1,0,0:0:0:0:
64,192,180781,1,0,0:0:0:50:S.wav
192,192,180781,1,0,0:0:0:0:
320,192,180781,1,0,0:0:0:0:
320,192,180871,1,0,0:0:0:0:
64,192,180961,1,0,0:0:0:50:S.wav
192,192,180961,1,0,0:0:0:0:
448,192,180961,1,0,0:0:0:0:
192,192,181050,1,0,0:0:0:0:
320,192,181050,1,0,0:0:0:0:
64,192,181140,1,0,0:0:0:50:S.wav
320,192,181140,1,0,0:0:0:0:
448,192,181140,1,0,0:0:0:0:
64,192,181229,1,0,0:0:0:50:S.wav
192,192,181229,1,0,0:0:0:0:
64,192,181319,1,0,0:0:0:50:S.wav
192,192,181319,1,0,0:0:0:0:
64,192,181408,1,0,0:0:0:50:S.wav
192,192,181408,1,0,0:0:0:0:
64,192,181498,1,0,0:0:0:50:S.wav
320,192,181498,1,0,0:0:0:70:LR_CymbalLGLH_S.wav
448,192,181498,1,0,0:0:0:0:
320,192,181587,1,0,0:0:0:0:
64,192,181677,1,0,0:0:0:50:S.wav
192,192,181677,1,0,0:0:0:0:
448,192,181677,1,0,0:0:0:0:
192,192,181767,1,0,0:0:0:0:
64,192,181856,1,0,0:0:0:50:S.wav
320,192,181856,1,0,0:0:0:0:
448,192,181856,1,0,0:0:0:0:
320,192,181946,1,0,0:0:0:0:
64,192,182035,1,0,0:0:0:50:S.wav
192,192,182035,1,0,0:0:0:0:
448,192,182035,1,0,0:0:0:0:
192,192,182125,1,0,0:0:0:0:
320,192,182125,1,0,0:0:0:0:
64,192,182214,1,0,0:0:0:50:S.wav
320,192,182214,1,0,0:0:0:0:
448,192,182214,1,0,0:0:0:0:
64,192,182304,1,0,0:0:0:0:
192,192,182393,1,0,0:0:0:50:S.wav
320,192,182393,1,0,0:0:0:0:
448,192,182393,1,0,0:0:0:0:
448,192,182483,1,0,0:0:0:0:
64,192,182572,1,0,0:0:0:50:S.wav
192,192,182572,1,0,0:0:0:0:
320,192,182572,1,0,0:0:0:0:
64,192,182662,1,0,0:0:0:0:
192,192,182752,1,0,0:0:0:50:S.wav
320,192,182752,1,0,0:0:0:0:
448,192,182752,1,0,0:0:0:0:
64,192,182841,1,0,0:0:0:0:
448,192,182841,1,0,0:0:0:0:
64,192,182931,1,0,0:0:0:50:S.wav
192,192,182931,1,0,0:0:0:0:
320,192,182931,1,0,0:0:0:0:
320,192,183020,1,0,0:0:0:0:
64,192,183110,1,0,0:0:0:50:S.wav
192,192,183110,1,0,0:0:0:0:
448,192,183110,1,0,0:0:0:0:
192,192,183199,1,0,0:0:0:0:
320,192,183199,1,0,0:0:0:0:
64,192,183289,1,0,0:0:0:50:S.wav
320,192,183289,1,0,0:0:0:0:
448,192,183289,1,0,0:0:0:0:
64,192,183378,1,0,0:0:0:0:
192,192,183468,1,0,0:0:0:50:S.wav
320,192,183468,1,0,0:0:0:0:
448,192,183468,1,0,0:0:0:0:
64,192,183558,1,0,0:0:0:0:
448,192,183558,1,0,0:0:0:0:
64,192,183647,1,0,0:0:0:50:S.wav
192,192,183647,1,0,0:0:0:0:
320,192,183647,1,0,0:0:0:0:
320,192,183737,1,0,0:0:0:0:
64,192,183826,1,0,0:0:0:50:S.wav
192,192,183826,1,0,0:0:0:0:
448,192,183826,1,0,0:0:0:0:
192,192,183916,1,0,0:0:0:0:
320,192,183916,1,0,0:0:0:0:
64,192,184005,1,0,0:0:0:50:S.wav
320,192,184005,1,0,0:0:0:0:
448,192,184005,1,0,0:0:0:0:
64,192,184095,1,0,0:0:0:0:
192,192,184184,1,0,0:0:0:50:S.wav
320,192,184184,1,0,0:0:0:0:
448,192,184184,1,0,0:0:0:0:
448,192,184274,1,0,0:0:0:0:
64,192,184364,1,0,0:0:0:50:S.wav
192,192,184364,1,0,0:0:0:70:LR_CymbalLGLH_S.wav
320,192,184364,1,0,0:0:0:0:
64,192,184453,1,0,0:0:0:50:S.wav
192,192,184453,1,0,0:0:0:0:
64,192,184543,1,0,0:0:0:50:S.wav
192,192,184543,1,0,0:0:0:0:
64,192,184632,1,0,0:0:0:50:S.wav
192,192,184632,1,0,0:0:0:0:
320,192,184722,1,0,0:0:0:50:S.wav
448,192,184722,1,0,0:0:0:0:
320,192,184811,1,0,0:0:0:50:S.wav
448,192,184811,1,0,0:0:0:0:
320,192,184901,1,0,0:0:0:50:S.wav
448,192,184901,1,0,0:0:0:0:
320,192,184990,1,0,0:0:0:50:S.wav
448,192,184990,1,0,0:0:0:0:
64,192,185080,1,0,0:0:0:50:S.wav
192,192,185080,1,0,0:0:0:0:
64,192,185170,1,0,0:0:0:50:S.wav
192,192,185170,1,0,0:0:0:0:
64,192,185259,1,0,0:0:0:50:S.wav
192,192,185259,1,0,0:0:0:0:
64,192,185349,1,0,0:0:0:50:S.wav
192,192,185349,1,0,0:0:0:0:
320,192,185438,128,0,185796:0:0:0:0:
64,192,185796,1,0,0:0:0:50:S.wav
192,192,185796,1,0,0:0:0:0:
448,192,185796,1,0,0:0:0:0:
64,192,185886,1,0,0:0:0:50:S.wav
192,192,185886,1,0,0:0:0:0:
64,192,185975,1,0,0:0:0:50:S.wav
320,192,185975,1,0,0:0:0:0:
448,192,185975,1,0,0:0:0:0:
320,192,186065,1,0,0:0:0:50:S.wav
448,192,186065,1,0,0:0:0:0:
64,192,186155,1,0,0:0:0:50:S.wav
192,192,186155,1,0,0:0:0:0:
448,192,186155,1,0,0:0:0:0:
64,192,186244,1,0,0:0:0:50:S.wav
192,192,186244,1,0,0:0:0:0:
64,192,186334,1,0,0:0:0:50:S.wav
320,192,186334,1,0,0:0:0:0:
448,192,186334,1,0,0:0:0:0:
320,192,186423,1,0,0:0:0:50:S.wav
448,192,186423,1,0,0:0:0:0:
64,192,186513,1,0,0:0:0:50:S.wav
192,192,186513,1,0,0:0:0:0:
448,192,186513,1,0,0:0:0:0:
64,192,186602,1,0,0:0:0:50:S.wav
192,192,186602,1,0,0:0:0:0:
64,192,186692,1,0,0:0:0:50:S.wav
320,192,186692,1,0,0:0:0:0:
448,192,186692,1,0,0:0:0:0:
320,192,186781,1,0,0:0:0:50:S.wav
448,192,186781,1,0,0:0:0:0:
192,192,186871,128,0,187184:0:0:0:0:
320,192,187050,128,0,187184:0:0:0:0:
64,192,187229,1,0,0:0:0:50:S.wav
320,192,187229,1,0,0:0:0:0:
448,192,187229,1,0,0:0:0:0:
64,192,187319,1,0,0:0:0:50:S.wav
192,192,187319,1,0,0:0:0:0:
448,192,187319,1,0,0:0:0:0:
64,192,187408,1,0,0:0:0:50:S.wav
192,192,187408,1,0,0:0:0:0:
320,192,187408,1,0,0:0:0:0:
192,192,187498,1,0,0:0:0:50:S.wav
320,192,187498,1,0,0:0:0:0:
448,192,187498,1,0,0:0:0:0:
64,192,187587,1,0,0:0:0:50:S.wav
320,192,187587,1,0,0:0:0:0:
448,192,187587,1,0,0:0:0:0:
64,192,187677,1,0,0:0:0:50:S.wav
192,192,187677,1,0,0:0:0:0:
448,192,187677,1,0,0:0:0:0:
64,192,187767,1,0,0:0:0:50:S.wav
192,192,187767,1,0,0:0:0:0:
320,192,187767,1,0,0:0:0:0:
192,192,187856,1,0,0:0:0:50:S.wav
320,192,187856,1,0,0:0:0:0:
448,192,187856,1,0,0:0:0:0:
64,192,187946,1,0,0:0:0:50:S.wav
320,192,187946,1,0,0:0:0:0:
448,192,187946,1,0,0:0:0:0:
64,192,188035,1,0,0:0:0:50:S.wav
192,192,188035,1,0,0:0:0:0:
448,192,188035,1,0,0:0:0:0:
64,192,188125,1,0,0:0:0:50:S.wav
192,192,188125,1,0,0:0:0:0:
320,192,188125,1,0,0:0:0:0:
192,192,188214,1,0,0:0:0:50:S.wav
320,192,188214,1,0,0:0:0:0:
448,192,188214,1,0,0:0:0:0:
64,192,188304,1,0,0:0:0:50:S.wav
320,192,188304,1,0,0:0:0:0:
448,192,188304,1,0,0:0:0:0:
64,192,188393,1,0,0:0:0:50:S.wav
192,192,188393,1,0,0:0:0:0:
448,192,188393,1,0,0:0:0:0:
64,192,188483,1,0,0:0:0:50:S.wav
192,192,188483,1,0,0:0:0:0:
320,192,188483,1,0,0:0:0:0:
192,192,188572,1,0,0:0:0:50:S.wav
320,192,188572,1,0,0:0:0:0:
448,192,188572,1,0,0:0:0:0:
320,192,188662,128,0,188841:0:0:0:50:LR4_BassLineLDRN.wav
448,192,188662,128,0,188841:0:0:0:0:
64,192,188841,128,0,189020:0:0:0:0:
192,192,188841,128,0,189020:0:0:0:0:
320,192,189020,128,0,189199:0:0:0:0:
448,192,189020,128,0,189692:0:0:0:0:
64,192,189199,1,0,0:0:0:0:
192,192,189244,1,0,0:0:0:0:
320,192,189289,1,0,0:0:0:0:
64,192,189334,1,0,0:0:0:0:
192,192,189378,1,0,0:0:0:0:
320,192,189423,1,0,0:0:0:0:
64,192,189468,1,0,0:0:0:0:
192,192,189513,1,0,0:0:0:0:
320,192,189558,1,0,0:0:0:0:
64,192,189602,1,0,0:0:0:0:
192,192,189647,1,0,0:0:0:0:
320,192,189692,1,0,0:0:0:0:
64,192,189737,1,0,0:0:0:100:VEC3 Snares 042.wav
448,192,189737,128,0,189916:0:0:0:0:
192,192,189781,1,0,0:0:0:0:
320,192,189826,1,0,0:0:0:0:
192,192,189871,1,0,0:0:0:0:
64,192,189916,1,0,0:0:0:0:
64,192,190095,1,2,0:0:0:0:
192,192,190095,1,0,0:0:0:70:LR_CymbalLGLH_S.wav
448,192,190095,1,0,0:0:0:0:
192,192,190184,1,2,0:0:0:0:
320,192,190184,1,0,0:0:0:0:
64,192,190274,1,2,0:0:0:0:
320,192,190274,1,0,0:0:0:0:
448,192,190274,1,0,0:0:0:0:
64,192,190364,1,2,0:0:0:0:
192,192,190364,1,0,0:0:0:0:
448,192,190364,1,0,0:0:0:0:
192,192,190453,1,2,0:0:0:0:
320,192,190453,1,0,0:0:0:0:
64,192,190543,1,2,0:0:0:0:
320,192,190543,1,0,0:0:0:0:
448,192,190543,1,0,0:0:0:0:
64,192,190632,1,2,0:0:0:0:
192,192,190632,1,0,0:0:0:0:
192,192,190722,1,2,0:0:0:0:
320,192,190722,1,0,0:0:0:0:
448,192,190722,1,0,0:0:0:0:
64,192,190811,1,2,0:0:0:0:
448,192,190811,1,0,0:0:0:0:
64,192,190901,1,2,0:0:0:0:
192,192,190901,1,0,0:0:0:0:
320,192,190901,1,0,0:0:0:0:
192,192,190990,1,2,0:0:0:0:
320,192,190990,1,0,0:0:0:0:
448,192,190990,1,0,0:0:0:0:
64,192,191080,1,2,0:0:0:0:
448,192,191080,1,0,0:0:0:0:
64,192,191170,1,2,0:0:0:0:
192,192,191170,1,0,0:0:0:0:
320,192,191170,1,0,0:0:0:0:
192,192,191259,1,2,0:0:0:0:
448,192,191259,1,0,0:0:0:0:
64,192,191349,1,2,0:0:0:0:
320,192,191349,1,0,0:0:0:0:
448,192,191349,1,0,0:0:0:0:
64,192,191438,1,2,0:0:0:0:
192,192,191438,1,0,0:0:0:0:
320,192,191483,1,2,0:0:0:0:
64,192,191528,1,2,0:0:0:0:
192,192,191528,1,0,0:0:0:0:
448,192,191528,1,0,0:0:0:0:
192,192,191617,1,2,0:0:0:0:
320,192,191617,1,0,0:0:0:0:
64,192,191707,1,2,0:0:0:0:
320,192,191707,1,0,0:0:0:0:
448,192,191707,1,0,0:0:0:0:
64,192,191796,1,2,0:0:0:0:
192,192,191796,1,0,0:0:0:0:
448,192,191796,1,0,0:0:0:0:
192,192,191886,1,2,0:0:0:0:
320,192,191886,1,0,0:0:0:0:
64,192,191975,1,2,0:0:0:0:
320,192,191975,1,0,0:0:0:0:
448,192,191975,1,0,0:0:0:0:
64,192,192065,1,2,0:0:0:0:
192,192,192065,1,0,0:0:0:0:
192,192,192155,1,2,0:0:0:0:
320,192,192155,1,0,0:0:0:0:
448,192,192155,1,0,0:0:0:0:
64,192,192199,1,2,0:0:0:0:
320,192,192244,1,2,0:0:0:0:
448,192,192244,1,0,0:0:0:0:
64,192,192334,1,2,0:0:0:0:
192,192,192334,1,0,0:0:0:0:
448,192,192334,1,0,0:0:0:0:
320,192,192378,1,2,0:0:0:0:
64,192,192423,1,2,0:0:0:0:
192,192,192423,1,0,0:0:0:0:
64,192,192513,1,2,0:0:0:0:
320,192,192513,1,0,0:0:0:0:
448,192,192513,1,0,0:0:0:0:
192,192,192558,1,2,0:0:0:0:
320,192,192602,1,2,0:0:0:0:
448,192,192602,1,0,0:0:0:0:
64,192,192692,1,2,0:0:0:0:
192,192,192692,1,0,0:0:0:0:
448,192,192692,1,0,0:0:0:0:
64,192,192781,1,2,0:0:0:0:
192,192,192781,1,0,0:0:0:0:
320,192,192781,1,0,0:0:0:0:
192,192,192871,1,2,0:0:0:0:
320,192,192871,1,0,0:0:0:0:
448,192,192871,1,0,0:0:0:0:
64,192,192961,1,2,0:0:0:0:
320,192,192961,1,0,0:0:0:0:
448,192,192961,1,0,0:0:0:0:
64,192,193050,1,2,0:0:0:0:
192,192,193050,1,0,0:0:0:0:
320,192,193095,1,2,0:0:0:0:
64,192,193140,1,2,0:0:0:0:
192,192,193140,1,0,0:0:0:0:
448,192,193140,1,0,0:0:0:0:
192,192,193229,1,2,0:0:0:0:
320,192,193229,1,0,0:0:0:0:
64,192,193319,1,2,0:0:0:0:
448,192,193319,1,0,0:0:0:0:
320,192,193364,1,2,0:0:0:0:
64,192,193408,1,2,0:0:0:0:
192,192,193408,1,0,0:0:0:0:
448,192,193408,1,0,0:0:0:0:
320,192,193453,1,2,0:0:0:0:
64,192,193498,1,2,0:0:0:0:
192,192,193498,1,0,0:0:0:0:
192,192,193587,1,2,0:0:0:0:
320,192,193587,1,0,0:0:0:0:
448,192,193587,1,0,0:0:0:0:
64,192,193677,1,2,0:0:0:0:
448,192,193677,1,0,0:0:0:0:
64,192,193767,1,2,0:0:0:0:
192,192,193767,1,0,0:0:0:0:
320,192,193767,1,0,0:0:0:0:
192,192,193856,1,2,0:0:0:0:
320,192,193856,1,0,0:0:0:0:
448,192,193856,1,0,0:0:0:0:
64,192,193946,1,2,0:0:0:0:
448,192,193946,1,0,0:0:0:0:
64,192,194035,1,2,0:0:0:0:
192,192,194035,1,0,0:0:0:0:
320,192,194035,1,0,0:0:0:0:
448,192,194080,1,2,0:0:0:0:
192,192,194125,1,2,0:0:0:0:
320,192,194125,1,0,0:0:0:0:
64,192,194170,1,0,0:0:0:0:
448,192,194214,1,0,0:0:0:0:
320,192,194237,1,0,0:0:0:0:
192,192,194259,1,0,0:0:0:0:
64,192,194281,1,0,0:0:0:0:
448,192,194304,1,0,0:0:0:0:
320,192,194326,1,0,0:0:0:0:
192,192,194349,1,0,0:0:0:0:
64,192,194371,1,0,0:0:0:0:
320,192,194393,1,2,0:0:0:0:
448,192,194393,1,0,0:0:0:0:
64,192,194483,1,2,0:0:0:0:
192,192,194483,1,0,0:0:0:0:
64,192,194572,1,2,0:0:0:0:
320,192,194572,1,0,0:0:0:0:
448,192,194572,1,0,0:0:0:0:
192,192,194617,1,0,0:0:0:0:
320,192,194662,1,2,0:0:0:0:
448,192,194662,1,0,0:0:0:0:
64,192,194752,1,2,0:0:0:0:
192,192,194752,1,0,0:0:0:0:
64,192,194841,1,2,0:0:0:0:
320,192,194841,1,0,0:0:0:0:
448,192,194841,1,0,0:0:0:0:
192,192,194931,1,2,0:0:0:0:
320,192,194931,1,0,0:0:0:0:
448,192,195020,1,2,0:0:0:0:
320,192,195043,1,0,0:0:0:0:
192,192,195065,1,2,0:0:0:0:
64,192,195087,1,0,0:0:0:0:
320,192,195110,1,2,0:0:0:0:
448,192,195110,1,0,0:0:0:0:
64,192,195199,1,2,0:0:0:0:
192,192,195222,1,0,0:0:0:0:
320,192,195244,1,2,0:0:0:0:
448,192,195267,1,0,0:0:0:0:
64,192,195289,1,2,0:0:0:0:
192,192,195289,1,0,0:0:0:0:
64,192,195378,1,2,0:0:0:0:
192,192,195378,1,0,0:0:0:0:
448,192,195468,1,2,0:0:0:0:
320,192,195490,1,0,0:0:0:0:
192,192,195513,1,2,0:0:0:0:
64,192,195535,1,0,0:0:0:0:
320,192,195558,1,2,0:0:0:0:
448,192,195558,1,0,0:0:0:0:
64,192,195647,1,2,0:0:0:0:
192,192,195647,1,0,0:0:0:0:
448,192,195647,1,0,0:0:0:0:
320,192,195692,1,2,0:0:0:0:
64,192,195737,1,2,0:0:0:0:
192,192,195737,1,0,0:0:0:0:
320,192,195781,1,2,0:0:0:0:
64,192,195826,1,2,0:0:0:0:
192,192,195826,1,0,0:0:0:70:LR_CymbalLGLH_S.wav
448,192,195826,1,0,0:0:0:0:
192,192,195916,1,2,0:0:0:0:
320,192,195916,1,0,0:0:0:0:
64,192,196005,1,2,0:0:0:0:
320,192,196005,1,0,0:0:0:0:
448,192,196005,1,0,0:0:0:0:
64,192,196095,1,2,0:0:0:0:
192,192,196095,1,0,0:0:0:0:
448,192,196095,1,0,0:0:0:0:
192,192,196184,1,2,0:0:0:0:
320,192,196184,1,0,0:0:0:0:
64,192,196274,1,2,0:0:0:0:
320,192,196274,1,0,0:0:0:0:
448,192,196274,1,0,0:0:0:0:
192,192,196319,1,2,0:0:0:0:
320,192,196364,1,2,0:0:0:0:
448,192,196364,1,0,0:0:0:0:
64,192,196453,1,2,0:0:0:0:
192,192,196453,1,0,0:0:0:0:
448,192,196453,1,0,0:0:0:0:
320,192,196498,1,2,0:0:0:0:
64,192,196543,1,2,0:0:0:0:
192,192,196543,1,0,0:0:0:0:
64,192,196632,1,2,0:0:0:0:
192,192,196632,1,0,0:0:0:0:
448,192,196632,1,0,0:0:0:0:
64,192,196722,1,2,0:0:0:0:
320,192,196722,1,0,0:0:0:0:
448,192,196722,1,0,0:0:0:0:
192,192,196811,1,2,0:0:0:0:
320,192,196811,1,0,0:0:0:0:
64,192,196901,128,0,196990:0:0:0:0:
320,192,196990,128,0,197080:0:0:0:0:
192,192,197080,128,0,197170:0:0:0:0:
448,192,197170,128,0,197259:0:0:0:0:
64,192,197259,1,2,0:0:0:0:
192,192,197259,1,0,0:0:0:0:
320,192,197259,1,0,0:0:0:0:
448,192,197304,1,2,0:0:0:0:
64,192,197349,1,2,0:0:0:0:
192,192,197349,1,0,0:0:0:0:
320,192,197393,1,2,0:0:0:0:
64,192,197438,1,2,0:0:0:0:
192,192,197438,1,0,0:0:0:0:
448,192,197438,1,0,0:0:0:0:
64,192,197528,1,2,0:0:0:0:
320,192,197528,1,0,0:0:0:0:
448,192,197528,1,0,0:0:0:0:
192,192,197617,1,2,0:0:0:0:
320,192,197617,1,0,0:0:0:0:
64,192,197707,1,2,0:0:0:0:
192,192,197707,1,0,0:0:0:0:
448,192,197707,1,0,0:0:0:0:
320,192,197796,1,2,0:0:0:0:
448,192,197796,1,0,0:0:0:0:
64,192,197886,1,2,0:0:0:0:
192,192,197886,1,0,0:0:0:0:
320,192,197886,1,0,0:0:0:0:
448,192,197931,1,2,0:0:0:0:
64,192,197975,1,2,0:0:0:0:
192,192,197975,1,0,0:0:0:0:
192,192,198065,1,2,0:0:0:0:
320,192,198065,1,0,0:0:0:0:
448,192,198065,1,0,0:0:0:0:
64,192,198110,1,2,0:0:0:0:
320,192,198155,1,2,0:0:0:0:
448,192,198155,1,0,0:0:0:0:
64,192,198244,1,2,0:0:0:0:
192,192,198244,1,0,0:0:0:0:
320,192,198378,128,0,198423:0:0:0:0:
192,192,198423,128,0,198513:0:0:0:0:
320,192,198513,128,0,198602:0:0:0:0:
448,192,198602,128,0,198692:0:0:0:0:
64,192,198692,1,2,0:0:0:0:
192,192,198692,1,0,0:0:0:0:
320,192,198692,1,0,0:0:0:0:
448,192,198737,1,2,0:0:0:0:
64,192,198781,1,2,0:0:0:0:
192,192,198781,1,0,0:0:0:0:
320,192,198826,1,2,0:0:0:0:
64,192,198871,1,2,0:0:0:0:
192,192,198871,1,0,0:0:0:0:
448,192,198871,1,0,0:0:0:0:
64,192,198961,1,2,0:0:0:0:
320,192,198961,1,0,0:0:0:0:
448,192,198961,1,0,0:0:0:0:
192,192,199050,1,2,0:0:0:0:
320,192,199050,1,0,0:0:0:0:
64,192,199140,1,2,0:0:0:0:
192,192,199140,1,0,0:0:0:0:
448,192,199140,1,0,0:0:0:0:
64,192,199229,1,2,0:0:0:0:
320,192,199229,1,0,0:0:0:0:
192,192,199319,1,2,0:0:0:0:
320,192,199319,1,0,0:0:0:0:
448,192,199319,1,0,0:0:0:0:
64,192,199408,1,2,0:0:0:0:
448,192,199408,1,0,0:0:0:0:
64,192,199498,1,2,0:0:0:0:
192,192,199498,1,0,0:0:0:0:
320,192,199498,1,0,0:0:0:0:
192,192,199587,1,2,0:0:0:0:
320,192,199587,1,0,0:0:0:0:
448,192,199587,1,0,0:0:0:0:
64,192,199677,1,2,0:0:0:0:
448,192,199677,1,0,0:0:0:0:
64,192,199767,1,2,0:0:0:0:
192,192,199767,1,0,0:0:0:0:
320,192,199767,1,0,0:0:0:0:
320,192,199856,1,2,0:0:0:0:
448,192,199856,1,0,0:0:0:0:
192,192,199901,1,2,0:0:0:0:
64,192,199946,1,2,0:0:0:0:
320,192,199946,1,0,0:0:0:0:
448,192,199946,1,0,0:0:0:0:
192,192,199990,1,2,0:0:0:0:
64,192,200035,1,2,0:0:0:0:
448,192,200035,1,0,0:0:0:0:
320,192,200080,1,2,0:0:0:0:
64,192,200125,1,2,0:0:0:0:
192,192,200125,1,4,0:0:0:50:LR_CymbalLGLH_S.wav
448,192,200125,1,0,0:0:0:0:
64,192,200214,1,2,0:0:0:0:
192,192,200214,1,4,0:0:0:50:LR_CymbalLGLH_S.wav
320,192,200214,1,0,0:0:0:0:
64,192,200393,1,2,0:0:0:0:
192,192,200393,1,4,0:0:0:50:LR_CymbalLGLH_S.wav
320,192,200393,1,0,0:0:0:0:
64,192,200483,1,2,0:0:0:0:
192,192,200483,1,4,0:0:0:50:LR_CymbalLGLH_S.wav
448,192,200483,1,0,0:0:0:0:
64,192,200662,1,2,0:0:0:0:
192,192,200662,1,4,0:0:0:50:LR_CymbalLGLH_S.wav
448,192,200662,1,0,0:0:0:0:
64,192,200752,1,2,0:0:0:0:
192,192,200752,1,4,0:0:0:50:LR_CymbalLGLH_S.wav
320,192,200752,1,0,0:0:0:0:
64,192,200931,1,2,0:0:0:0:
192,192,200931,1,4,0:0:0:50:LR_CymbalLGLH_S.wav
320,192,200931,1,0,0:0:0:0:
64,192,201020,1,2,0:0:0:0:
192,192,201020,1,4,0:0:0:50:LR_CymbalLGLH_S.wav
448,192,201020,1,0,0:0:0:0:
192,192,201199,1,0,0:0:0:70:S1.wav
320,192,201199,1,0,0:0:0:0:
192,192,201289,1,0,0:0:0:70:S1.wav
320,192,201289,1,0,0:0:0:0:
192,192,201378,1,0,0:0:0:70:S1.wav
320,192,201378,1,0,0:0:0:0:
192,192,201468,1,0,0:0:0:70:S1.wav
320,192,201468,1,0,0:0:0:0:
64,192,201558,1,2,0:0:0:0:
320,192,201558,1,0,0:0:0:50:LR_CymbalLGLH_S.wav
448,192,201558,1,0,0:0:0:0:
64,192,201647,1,0,0:0:0:0:
192,192,201737,1,8,0:0:0:0:
320,192,201737,1,0,0:0:0:0:
448,192,201737,1,0,0:0:0:0:
192,192,201826,1,0,0:0:0:0:
320,192,201826,1,0,0:0:0:0:
448,192,201826,1,0,0:0:0:0:
64,192,201916,1,2,0:0:0:0:
448,192,201916,1,0,0:0:0:0:
64,192,202005,1,0,0:0:0:0:
192,192,202005,1,0,0:0:0:0:
320,192,202005,1,0,0:0:0:0:
320,192,202095,1,8,0:0:0:0:
64,192,202184,1,0,0:0:0:0:
192,192,202184,1,0,0:0:0:0:
448,192,202184,1,0,0:0:0:0:
448,192,202274,1,2,0:0:0:0:
64,192,202364,1,0,0:0:0:0:
192,192,202364,1,0,0:0:0:0:
320,192,202364,1,0,0:0:0:0:
64,192,202453,1,8,0:0:0:0:
192,192,202453,1,0,0:0:0:0:
320,192,202453,1,0,0:0:0:0:
64,192,202543,1,0,0:0:0:0:
192,192,202632,1,2,0:0:0:0:
320,192,202632,1,0,0:0:0:0:
448,192,202632,1,0,0:0:0:0:
448,192,202722,1,0,0:0:0:0:
64,192,202811,1,8,0:0:0:0:
192,192,202811,1,0,0:0:0:0:
320,192,202811,1,0,0:0:0:0:
64,192,202901,1,0,0:0:0:0:
192,192,202901,1,0,0:0:0:0:
320,192,202901,1,0,0:0:0:0:
192,192,202990,1,2,0:0:0:0:
320,192,202990,1,0,0:0:0:0:
448,192,202990,1,0,0:0:0:0:
448,192,203080,1,0,0:0:0:0:
64,192,203170,1,8,0:0:0:0:
192,192,203170,1,0,0:0:0:0:
320,192,203170,1,0,0:0:0:0:
64,192,203259,1,0,0:0:0:0:
192,192,203259,1,0,0:0:0:0:
320,192,203259,1,0,0:0:0:0:
320,192,203349,1,2,0:0:0:0:
64,192,203438,1,0,0:0:0:0:
192,192,203438,1,0,0:0:0:0:
448,192,203438,1,0,0:0:0:0:
64,192,203528,1,8,0:0:0:0:
192,192,203528,1,0,0:0:0:0:
320,192,203528,1,0,0:0:0:0:
192,192,203617,1,0,0:0:0:0:
320,192,203617,1,0,0:0:0:0:
448,192,203617,1,0,0:0:0:0:
64,192,203707,1,2,0:0:0:0:
448,192,203707,1,0,0:0:0:0:
64,192,203796,1,0,0:0:0:0:
192,192,203796,1,0,0:0:0:0:
320,192,203796,1,0,0:0:0:0:
192,192,203886,1,8,0:0:0:0:
320,192,203886,1,0,0:0:0:0:
448,192,203886,1,0,0:0:0:0:
64,192,203975,1,0,0:0:0:0:
320,192,203975,1,0,0:0:0:0:
448,192,203975,1,0,0:0:0:0:
64,192,204065,1,2,0:0:0:0:
192,192,204065,1,0,0:0:0:0:
192,192,204155,1,0,0:0:0:0:
320,192,204155,1,0,0:0:0:0:
448,192,204155,1,0,0:0:0:0:
64,192,204244,1,8,0:0:0:0:
320,192,204244,1,0,0:0:0:0:
448,192,204244,1,0,0:0:0:0:
64,192,204334,1,0,0:0:0:0:
192,192,204334,1,0,0:0:0:0:
448,192,204334,1,0,0:0:0:0:
64,192,204423,1,2,0:0:0:0:
192,192,204423,1,0,0:0:0:0:
320,192,204423,1,0,0:0:0:0:
320,192,204513,1,0,0:0:0:0:
64,192,204602,1,8,0:0:0:0:
192,192,204602,1,0,0:0:0:0:
448,192,204602,1,0,0:0:0:0:
64,192,204692,1,0,0:0:0:0:
192,192,204692,1,0,0:0:0:0:
448,192,204692,1,0,0:0:0:0:
64,192,204781,1,2,0:0:0:0:
320,192,204781,1,0,0:0:0:0:
192,192,204871,1,0,0:0:0:0:
320,192,204871,1,0,0:0:0:0:
448,192,204871,1,0,0:0:0:0:
64,192,204961,1,8,0:0:0:0:
192,192,204961,1,0,0:0:0:0:
64,192,205050,1,0,0:0:0:0:
320,192,205050,1,0,0:0:0:0:
448,192,205050,1,0,0:0:0:0:
192,192,205140,1,2,0:0:0:0:
320,192,205140,1,0,0:0:0:0:
64,192,205229,1,0,0:0:0:0:
192,192,205229,1,0,0:0:0:0:
448,192,205229,1,0,0:0:0:0:
64,192,205319,1,8,0:0:0:0:
320,192,205319,1,0,0:0:0:0:
448,192,205319,1,0,0:0:0:0:
192,192,205408,1,0,0:0:0:0:
64,192,205498,1,2,0:0:0:0:
320,192,205498,1,0,0:0:0:0:
448,192,205498,1,0,0:0:0:0:
64,192,205587,1,0,0:0:0:0:
192,192,205587,1,0,0:0:0:0:
448,192,205587,1,0,0:0:0:0:
64,192,205677,1,8,0:0:0:0:
192,192,205677,1,0,0:0:0:0:
320,192,205677,1,0,0:0:0:0:
192,192,205767,1,0,0:0:0:0:
320,192,205767,1,0,0:0:0:0:
448,192,205767,1,0,0:0:0:0:
64,192,205856,1,2,0:0:0:0:
320,192,205856,1,0,0:0:0:0:
448,192,205856,1,0,0:0:0:0:
320,192,205946,1,0,0:0:0:0:
448,192,205946,1,0,0:0:0:0:
64,192,206035,1,8,0:0:0:0:
192,192,206035,1,0,0:0:0:0:
448,192,206035,1,0,0:0:0:0:
64,192,206125,1,0,0:0:0:0:
192,192,206125,1,0,0:0:0:0:
320,192,206125,1,0,0:0:0:0:
64,192,206214,1,2,0:0:0:0:
448,192,206214,1,0,0:0:0:0:
64,192,206304,1,0,0:0:0:0:
192,192,206304,1,0,0:0:0:0:
320,192,206304,1,0,0:0:0:0:
320,192,206393,1,8,0:0:0:0:
448,192,206393,1,0,0:0:0:0:
64,192,206483,1,0,0:0:0:0:
192,192,206483,1,0,0:0:0:0:
448,192,206483,1,0,0:0:0:0:
64,192,206572,1,2,0:0:0:0:
192,192,206572,1,0,0:0:0:50:LR_CymbalLGLH_S.wav
320,192,206572,1,0,0:0:0:0:
192,192,206662,1,0,0:0:0:0:
320,192,206662,1,0,0:0:0:0:
448,192,206662,1,0,0:0:0:0:
64,192,206752,1,2,0:0:0:70:S.wav
320,192,206752,1,0,0:0:0:0:
448,192,206752,1,0,0:0:0:0:
64,192,206841,1,2,0:0:0:0:
192,192,206841,1,0,0:0:0:50:LR_CymbalLGLH_S.wav
448,192,206841,1,0,0:0:0:0:
64,192,206931,1,0,0:0:0:0:
192,192,206931,1,0,0:0:0:0:
320,192,206931,1,0,0:0:0:0:
64,192,207020,1,0,0:0:0:0:
192,192,207020,1,0,0:0:0:0:
448,192,207020,1,0,0:0:0:0:
64,192,207110,1,2,0:0:0:0:
320,192,207110,1,0,0:0:0:50:LR_CymbalLGLH_S.wav
448,192,207110,1,0,0:0:0:0:
448,192,207199,1,0,0:0:0:0:
64,192,207289,1,2,0:0:0:0:
192,192,207289,1,0,0:0:0:50:LR_CymbalLGLH_S.wav
320,192,207289,1,0,0:0:0:0:
64,192,207378,1,2,0:0:0:0:
192,192,207378,1,0,0:0:0:0:
64,192,207468,1,8,0:0:0:0:
320,192,207468,1,0,0:0:0:0:
448,192,207468,1,0,0:0:0:0:
192,192,207558,1,0,0:0:0:0:
320,192,207558,1,0,0:0:0:0:
448,192,207558,1,0,0:0:0:0:
64,192,207647,1,2,0:0:0:0:
192,192,207647,1,0,0:0:0:0:
64,192,207737,1,0,0:0:0:0:
320,192,207737,1,0,0:0:0:0:
448,192,207737,1,0,0:0:0:0:
192,192,207826,1,8,0:0:0:0:
320,192,207826,1,0,0:0:0:0:
64,192,207916,1,0,0:0:0:0:
192,192,207916,1,0,0:0:0:0:
448,192,207916,1,0,0:0:0:0:
448,192,208005,1,2,0:0:0:0:
64,192,208095,1,0,0:0:0:0:
192,192,208095,1,0,0:0:0:0:
320,192,208095,1,0,0:0:0:0:
64,192,208184,1,8,0:0:0:0:
192,192,208184,1,0,0:0:0:0:
448,192,208184,1,0,0:0:0:0:
64,192,208274,1,0,0:0:0:0:
320,192,208274,1,0,0:0:0:0:
448,192,208274,1,0,0:0:0:0:
192,192,208364,128,0,208453:0:0:0:0:
64,192,208453,128,0,208543:0:0:0:0:
320,192,208543,128,0,208632:0:0:0:0:
448,192,208632,128,0,208722:0:0:0:0:
64,192,208722,1,2,0:0:0:0:
192,192,208722,1,0,0:0:0:70:LR_CymbalLGLH_S.wav
320,192,208722,1,0,0:0:0:0:
448,192,208767,1,2,0:0:0:0:
64,192,208811,1,2,0:0:0:0:
192,192,208811,1,0,0:0:0:0:
320,192,208856,1,2,0:0:0:0:
64,192,208901,1,8,0:0:0:0:
192,192,208901,1,0,0:0:0:0:
448,192,208901,1,0,0:0:0:0:
64,192,208990,1,0,0:0:0:0:
320,192,208990,1,0,0:0:0:0:
448,192,208990,1,0,0:0:0:0:
192,192,209080,1,2,0:0:0:0:
320,192,209080,1,0,0:0:0:0:
64,192,209170,1,0,0:0:0:0:
192,192,209170,1,0,0:0:0:0:
448,192,209170,1,0,0:0:0:0:
64,192,209259,1,8,0:0:0:0:
320,192,209259,1,0,0:0:0:0:
192,192,209349,1,0,0:0:0:0:
320,192,209349,1,0,0:0:0:0:
448,192,209349,1,0,0:0:0:0:
64,192,209438,1,2,0:0:0:0:
192,192,209438,1,0,0:0:0:0:
64,192,209528,1,0,0:0:0:0:
320,192,209528,1,0,0:0:0:0:
448,192,209528,1,0,0:0:0:0:
192,192,209617,1,8,0:0:0:0:
320,192,209617,1,0,0:0:0:0:
448,192,209617,1,0,0:0:0:0:
64,192,209707,1,0,0:0:0:0:
192,192,209707,1,0,0:0:0:0:
320,192,209707,1,0,0:0:0:0:
448,192,209796,128,0,209886:0:0:0:0:
64,192,209886,128,0,209975:0:0:0:0:
320,192,209975,1,0,0:0:0:0:
192,192,210020,1,0,0:0:0:0:
320,192,210065,1,0,0:0:0:0:
192,192,210110,1,0,0:0:0:0:
64,192,210155,1,2,0:0:0:0:
320,192,210155,1,0,0:0:0:70:LR_CymbalLGLH_S.wav
448,192,210155,1,0,0:0:0:0:
64,192,210244,1,0,0:0:0:0:
192,192,210334,1,0,0:0:0:70:S1.wav
320,192,210334,1,0,0:0:0:0:
448,192,210334,1,0,0:0:0:0:
64,192,210423,1,0,0:0:0:70:S1.wav
320,192,210423,1,0,0:0:0:0:
448,192,210423,1,0,0:0:0:0:
64,192,210513,1,0,0:0:0:70:S1.wav
192,192,210513,1,0,0:0:0:0:
64,192,210602,1,0,0:0:0:70:S1.wav
192,192,210602,1,0,0:0:0:0:
448,192,210602,1,0,0:0:0:0:
320,192,210692,1,0,0:0:0:70:S1.wav
448,192,210692,1,0,0:0:0:0:
192,192,210737,1,0,0:0:0:70:S1.wav
64,192,210781,1,0,0:0:0:70:S1.wav
320,192,210781,1,0,0:0:0:0:
448,192,210781,1,0,0:0:0:0:
192,192,210871,1,2,0:0:0:0:
320,192,210871,1,0,0:0:0:70:S1.wav
64,192,210961,1,0,0:0:0:70:S1.wav
192,192,210961,1,0,0:0:0:0:
448,192,210961,1,0,0:0:0:0:
64,192,211050,1,2,0:0:0:0:
192,192,211050,1,0,0:0:0:70:S1.wav
320,192,211050,1,0,0:0:0:0:
64,192,211140,1,0,0:0:0:70:S1.wav
448,192,211140,1,0,0:0:0:0:
192,192,211229,1,2,0:0:0:0:
320,192,211229,1,0,0:0:0:70:S1.wav
448,192,211229,1,0,0:0:0:0:
64,192,211274,1,0,0:0:0:70:S1.wav
320,192,211319,1,0,0:0:0:70:S1.wav
448,192,211319,1,0,0:0:0:0:
192,192,211364,1,0,0:0:0:70:S1.wav
64,192,211408,1,2,0:0:0:0:
320,192,211408,1,0,0:0:0:70:S1.wav
448,192,211408,1,0,0:0:0:0:
64,192,211498,1,2,0:0:0:0:
192,192,211498,1,0,0:0:0:70:S1.wav
320,192,211498,1,0,0:0:0:0:
64,192,211587,1,2,0:0:0:0:
192,192,211587,1,0,0:0:0:30:LR_CymbalG_short.wav
448,192,211587,1,0,0:0:0:0:
64,192,211677,1,2,0:0:0:0:
192,192,211677,1,0,0:0:0:30:LR_CymbalG_short.wav
320,192,211677,1,0,0:0:0:0:
64,192,211856,1,2,0:0:0:0:
192,192,211856,1,0,0:0:0:30:LR_CymbalG_short.wav
320,192,211856,1,0,0:0:0:0:
64,192,211946,1,2,0:0:0:0:
192,192,211946,1,0,0:0:0:30:LR_CymbalG_short.wav
448,192,211946,1,0,0:0:0:0:
64,192,212125,1,2,0:0:0:0:
192,192,212125,1,0,0:0:0:30:LR_CymbalG_short.wav
448,192,212125,1,0,0:0:0:0:
64,192,212214,1,2,0:0:0:0:
192,192,212214,1,0,0:0:0:30:LR_CymbalG_short.wav
320,192,212214,1,0,0:0:0:0:
64,192,212393,1,2,0:0:0:0:
192,192,212393,1,0,0:0:0:30:LR_CymbalG_short.wav
320,192,212393,1,0,0:0:0:0:
64,192,212483,1,2,0:0:0:0:
192,192,212483,1,0,0:0:0:30:LR_CymbalG_short.wav
448,192,212483,1,0,0:0:0:0:
320,192,212662,128,0,212752:0:0:0:0:
64,192,212752,128,0,212841:0:0:0:0:
192,192,212841,1,2,0:0:0:0:
320,192,212841,1,0,0:0:0:30:LR_CymbalG_short.wav
448,192,212841,1,0,0:0:0:0:
64,192,212931,1,2,0:0:0:0:
320,192,212931,1,0,0:0:0:30:LR_CymbalG_short.wav
448,192,212931,1,0,0:0:0:0:
64,192,213110,1,2,0:0:0:0:
320,192,213110,1,0,0:0:0:30:LR_CymbalG_short.wav
448,192,213110,1,0,0:0:0:0:
192,192,213199,1,2,0:0:0:0:
320,192,213199,1,0,0:0:0:30:LR_CymbalG_short.wav
448,192,213199,1,0,0:0:0:0:
192,192,213378,1,2,0:0:0:0:
320,192,213378,1,0,0:0:0:30:LR_CymbalG_short.wav
448,192,213378,1,0,0:0:0:0:
64,192,213468,1,2,0:0:0:0:
320,192,213468,1,0,0:0:0:30:LR_CymbalG_short.wav
448,192,213468,1,0,0:0:0:0:
64,192,213647,1,2,0:0:0:0:
320,192,213647,1,0,0:0:0:30:LR_CymbalG_short.wav
448,192,213647,1,0,0:0:0:0:
192,192,213737,1,2,0:0:0:0:
320,192,213737,1,0,0:0:0:30:LR_CymbalG_short.wav
448,192,213737,1,0,0:0:0:0:
320,192,213916,128,0,214005:0:0:0:0:
64,192,214005,128,0,214095:0:0:0:0:
192,192,214095,1,2,0:0:0:0:
320,192,214095,1,0,0:0:0:70:LR_CymbalLGLH_S.wav
448,192,214095,1,0,0:0:0:0:
64,192,214184,1,0,0:0:0:0:
192,192,214274,1,0,0:0:0:70:LR_Drum Rpd x2.wav
448,192,214274,1,0,0:0:0:0:
320,192,214364,1,0,0:0:0:0:
64,192,214453,128,0,214811:0:0:0:0:
448,192,214453,1,0,0:0:0:0:
192,192,214543,1,0,0:0:0:0:
320,192,214632,1,0,0:0:0:70:LR_Drum Rpd vFast.wav
448,192,214632,1,0,0:0:0:0:
320,192,214722,1,0,0:0:0:70:LR_Drum Rpd vFast.wav
448,192,214722,1,0,0:0:0:0:
192,192,214811,128,0,215170:0:0:0:0:
448,192,214901,1,0,0:0:0:0:
320,192,214990,1,0,0:0:0:70:LR_Drum Rpd x2.wav
64,192,215080,1,0,0:0:0:0:
320,192,215170,128,0,215528:0:0:0:70:LR_Drum Rpd vFast.wav
448,192,215170,1,0,0:0:0:0:
64,192,215259,1,0,0:0:0:0:
192,192,215349,1,0,0:0:0:70:LR_Drum Rpd x2.wav
192,192,215438,1,0,0:0:0:0:
64,192,215528,128,0,215886:0:0:0:70:LR_Drum Rpd vFast.wav
320,192,215617,1,0,0:0:0:0:
448,192,215617,1,0,0:0:0:0:
192,192,215707,1,0,0:0:0:70:LR_Drum Rpd vFast.wav
320,192,215707,1,0,0:0:0:0:
192,192,215796,1,0,0:0:0:70:LR_Drum Rpd vFast.wav
448,192,215886,128,0,216244:0:0:0:0:
320,192,215975,1,0,0:0:0:0:
64,192,216065,1,0,0:0:0:70:LR_Drum Rpd vFast.wav
192,192,216065,1,0,0:0:0:0:
64,192,216155,1,0,0:0:0:70:LR_Drum Rpd vFast.wav
192,192,216155,1,0,0:0:0:0:
320,192,216244,128,0,216602:0:0:0:70:LR_Drum Rpd x2.wav
192,192,216334,1,0,0:0:0:0:
64,192,216423,1,0,0:0:0:70:LR_Drum Rpd x2.wav
192,192,216513,1,0,0:0:0:0:
64,192,216602,1,2,0:0:0:0:
192,192,216602,1,0,0:0:0:50:LR_CymbalLGLH_S.wav
448,192,216602,1,0,0:0:0:0:
320,192,216692,1,2,0:0:0:0:
448,192,216692,1,0,0:0:0:0:
64,192,216781,1,2,0:0:0:0:
192,192,216781,1,0,0:0:0:0:
320,192,216781,1,0,0:0:0:0:
64,192,216871,1,2,0:0:0:0:
192,192,216871,1,0,0:0:0:0:
448,192,216871,1,0,0:0:0:0:
320,192,216961,1,2,0:0:0:0:
448,192,216961,1,0,0:0:0:0:
64,192,217050,1,2,0:0:0:0:
192,192,217050,1,0,0:0:0:0:
320,192,217050,1,0,0:0:0:0:
64,192,217140,1,2,0:0:0:0:
448,192,217140,1,0,0:0:0:0:
192,192,217229,1,2,0:0:0:0:
320,192,217229,1,0,0:0:0:0:
448,192,217229,1,0,0:0:0:0:
64,192,217319,1,2,0:0:0:0:
320,192,217319,1,0,0:0:0:0:
64,192,217408,1,2,0:0:0:0:
192,192,217408,1,0,0:0:0:0:
448,192,217408,1,0,0:0:0:0:
64,192,217498,1,2,0:0:0:0:
192,192,217498,1,0,0:0:0:0:
320,192,217498,1,0,0:0:0:0:
320,192,217587,1,2,0:0:0:0:
448,192,217587,1,0,0:0:0:0:
64,192,217677,1,2,0:0:0:0:
192,192,217677,1,0,0:0:0:0:
448,192,217677,1,0,0:0:0:0:
192,192,217767,1,2,0:0:0:0:
320,192,217767,1,0,0:0:0:0:
64,192,217856,1,2,0:0:0:0:
320,192,217856,1,0,0:0:0:0:
448,192,217856,1,0,0:0:0:0:
64,192,217946,1,2,0:0:0:0:
192,192,217946,1,0,0:0:0:0:
448,192,217946,1,0,0:0:0:0:
320,192,217990,1,2,0:0:0:0:
64,192,218035,1,2,0:0:0:0:
192,192,218035,1,0,0:0:0:0:
192,192,218125,1,2,0:0:0:0:
320,192,218125,1,0,0:0:0:0:
448,192,218125,1,0,0:0:0:0:
64,192,218214,1,2,0:0:0:0:
448,192,218214,1,0,0:0:0:0:
64,192,218304,1,2,0:0:0:0:
192,192,218304,1,0,0:0:0:0:
320,192,218304,1,0,0:0:0:0:
320,192,218393,1,2,0:0:0:0:
448,192,218393,1,0,0:0:0:0:
64,192,218483,1,2,0:0:0:0:
192,192,218483,1,0,0:0:0:0:
448,192,218483,1,0,0:0:0:0:
64,192,218572,1,2,0:0:0:0:
192,192,218572,1,0,0:0:0:0:
320,192,218572,1,0,0:0:0:0:
64,192,218662,1,2,0:0:0:0:
320,192,218662,1,0,0:0:0:0:
448,192,218662,1,0,0:0:0:0:
192,192,218707,1,2,0:0:0:0:
320,192,218752,1,2,0:0:0:0:
448,192,218752,1,0,0:0:0:0:
64,192,218841,1,2,0:0:0:0:
192,192,218841,1,0,0:0:0:0:
448,192,218841,1,0,0:0:0:0:
320,192,218886,1,2,0:0:0:0:
64,192,218931,1,2,0:0:0:0:
192,192,218931,1,0,0:0:0:0:
320,192,219020,1,2,0:0:0:0:
448,192,219020,1,0,0:0:0:0:
192,192,219065,1,2,0:0:0:0:
64,192,219110,1,2,0:0:0:0:
320,192,219110,1,0,0:0:0:70:LR_CymbalLGLH_S.wav
448,192,219110,1,0,0:0:0:0:
192,192,219199,1,0,0:0:0:0:
320,192,219289,1,0,0:0:0:70:LR_Drum Rpd x2.wav
192,192,219378,1,0,0:0:0:0:
64,192,219468,128,0,219826:0:0:0:70:LR_Drum Rpd vFast.wav
448,192,219468,1,0,0:0:0:0:
192,192,219558,1,0,0:0:0:70:LR_Drum Rpd x2.wav
320,192,219558,1,0,0:0:0:0:
320,192,219647,1,0,0:0:0:70:LR_Drum Rpd vFast.wav
448,192,219647,1,0,0:0:0:0:
192,192,219737,1,0,0:0:0:0:
192,192,219826,128,0,220184:0:0:0:70:LR_Drum Rpd vFast.wav
320,192,219916,1,0,0:0:0:0:
448,192,220005,1,0,0:0:0:70:LR_Drum Rpd x2.wav
64,192,220095,1,0,0:0:0:0:
320,192,220184,128,0,220543:0:0:0:70:LR_Drum Rpd vFast.wav
448,192,220184,1,0,0:0:0:0:
64,192,220274,1,0,0:0:0:0:
192,192,220364,1,0,0:0:0:70:LR_Drum Rpd x2.wav
64,192,220408,1,0,0:0:0:0:
448,192,220453,1,0,0:0:0:70:LR_Drum Rpd x2.wav
192,192,220498,1,0,0:0:0:0:
64,192,220543,128,0,220901:0:0:0:70:LR_Drum Rpd vFast.wav
192,192,220632,1,0,0:0:0:0:
448,192,220722,1,0,0:0:0:70:LR_Drum Rpd vFast.wav
320,192,220841,1,0,0:0:0:0:
192,192,220901,128,0,221259:0:0:0:70:LR_Drum Rpd vFast.wav
448,192,220946,1,0,0:0:0:0:
320,192,220990,1,0,0:0:0:70:LR_Drum Rpd x2.wav
448,192,221080,1,0,0:0:0:70:LR_Drum Rpd vFast.wav
64,192,221170,1,0,0:0:0:70:LR_Drum Rpd x2.wav
448,192,221259,128,0,221617:0:0:0:70:LR_Drum Rpd vFast.wav
64,192,221349,1,0,0:0:0:70:LR_Drum Rpd x2.wav
320,192,221349,1,0,0:0:0:0:
192,192,221438,1,0,0:0:0:70:LR_Drum Rpd x2.wav
320,192,221528,1,0,0:0:0:70:LR_Drum Rpd vFast.wav
64,192,221617,1,2,0:0:0:0:
192,192,221617,1,0,0:0:0:50:LR_CymbalLGLH_S.wav
320,192,221617,1,0,0:0:0:0:
64,192,221707,1,2,0:0:0:0:
448,192,221707,1,0,0:0:0:0:
192,192,221796,1,2,0:0:0:0:
320,192,221796,1,0,0:0:0:0:
448,192,221796,1,0,0:0:0:0:
64,192,221886,1,2,0:0:0:0:
192,192,221886,1,0,0:0:0:0:
320,192,221886,1,0,0:0:0:0:
64,192,221975,1,2,0:0:0:0:
448,192,221975,1,0,0:0:0:0:
192,192,222065,1,2,0:0:0:0:
320,192,222065,1,0,0:0:0:0:
448,192,222065,1,0,0:0:0:0:
64,192,222155,1,2,0:0:0:0:
192,192,222155,1,0,0:0:0:0:
64,192,222244,1,2,0:0:0:0:
320,192,222244,1,0,0:0:0:0:
448,192,222244,1,0,0:0:0:0:
192,192,222334,1,2,0:0:0:0:
320,192,222334,1,0,0:0:0:0:
64,192,222423,1,2,0:0:0:0:
192,192,222423,1,0,0:0:0:0:
448,192,222423,1,0,0:0:0:0:
64,192,222513,1,2,0:0:0:0:
320,192,222513,1,0,0:0:0:0:
448,192,222513,1,0,0:0:0:0:
192,192,222602,1,2,0:0:0:0:
320,192,222602,1,0,0:0:0:0:
64,192,222692,1,2,0:0:0:0:
192,192,222692,1,0,0:0:0:0:
448,192,222692,1,0,0:0:0:0:
64,192,222781,1,2,0:0:0:0:
320,192,222781,1,0,0:0:0:0:
192,192,222871,1,2,0:0:0:0:
320,192,222871,1,0,0:0:0:0:
448,192,222871,1,0,0:0:0:0:
64,192,222961,1,2,0:0:0:0:
192,192,222961,1,0,0:0:0:0:
448,192,222961,1,0,0:0:0:0:
320,192,223005,1,2,0:0:0:0:
64,192,223050,1,2,0:0:0:0:
192,192,223050,1,0,0:0:0:0:
64,192,223140,1,2,0:0:0:0:
320,192,223140,1,0,0:0:0:0:
448,192,223140,1,0,0:0:0:0:
192,192,223229,1,2,0:0:0:0:
320,192,223229,1,0,0:0:0:0:
64,192,223319,1,2,0:0:0:0:
192,192,223319,1,0,0:0:0:0:
448,192,223319,1,0,0:0:0:0:
64,192,223408,1,2,0:0:0:0:
320,192,223408,1,0,0:0:0:0:
192,192,223498,1,2,0:0:0:0:
320,192,223498,1,0,0:0:0:0:
448,192,223498,1,0,0:0:0:0:
64,192,223587,1,2,0:0:0:0:
192,192,223587,1,0,0:0:0:0:
448,192,223587,1,0,0:0:0:0:
64,192,223677,1,2,0:0:0:0:
192,192,223677,1,0,0:0:0:0:
448,192,223677,1,0,0:0:0:0:
320,192,223722,1,2,0:0:0:0:
64,192,223767,1,2,0:0:0:0:
192,192,223767,1,0,0:0:0:0:
64,192,223856,1,2,0:0:0:0:
320,192,223856,1,0,0:0:0:0:
448,192,223856,1,0,0:0:0:0:
192,192,223901,1,2,0:0:0:0:
320,192,223946,1,2,0:0:0:0:
448,192,223946,1,0,0:0:0:0:
64,192,223990,1,0,0:0:0:0:
192,192,224035,1,2,0:0:0:0:
320,192,224080,1,2,0:0:0:0:
64,192,224125,1,8,0:0:0:0:
192,192,224125,1,0,0:0:0:70:LR_CymbalLGLH_S.wav
448,192,224125,1,0,0:0:0:0:
320,192,224214,1,0,0:0:0:0:
64,192,224304,1,0,0:0:0:70:LR_Drum Rpd x2.wav
448,192,224304,1,0,0:0:0:0:
192,192,224393,1,0,0:0:0:0:
64,192,224483,128,2,224841:0:0:0:0:
448,192,224483,1,0,0:0:0:0:
192,192,224572,1,0,0:0:0:0:
320,192,224662,1,0,0:0:0:70:LR_Drum Rpd vFast.wav
448,192,224662,1,0,0:0:0:0:
320,192,224752,1,0,0:0:0:70:LR_Drum Rpd vFast.wav
448,192,224752,1,0,0:0:0:0:
192,192,224841,128,2,225199:0:0:0:0:
320,192,224931,1,0,0:0:0:0:
64,192,225020,1,0,0:0:0:70:LR_Drum Rpd x2.wav
448,192,225065,1,0,0:0:0:0:
320,192,225110,1,0,0:0:0:0:
64,192,225155,1,0,0:0:0:0:
320,192,225199,128,2,225558:0:0:0:0:
448,192,225199,1,0,0:0:0:70:LR_Drum Rpd vFast.wav
192,192,225289,1,0,0:0:0:0:
64,192,225378,1,0,0:0:0:70:LR_Drum Rpd x2.wav
64,192,225468,1,0,0:0:0:0:
192,192,225558,128,2,225916:0:0:0:0:
448,192,225558,1,0,0:0:0:70:LR_Drum Rpd vFast.wav
320,192,225647,1,0,0:0:0:0:
320,192,225737,1,0,0:0:0:70:LR_Drum Rpd vFast.wav
448,192,225737,1,0,0:0:0:0:
64,192,225826,1,0,0:0:0:70:LR_Drum Rpd vFast.wav
320,192,225916,1,2,0:0:0:0:
448,192,225916,128,0,226274:0:0:0:0:
192,192,226005,1,0,0:0:0:0:
64,192,226095,1,0,0:0:0:70:LR_Drum Rpd vFast.wav
320,192,226095,1,0,0:0:0:0:
64,192,226184,1,0,0:0:0:70:LR_Drum Rpd vFast.wav
192,192,226184,1,0,0:0:0:0:
64,192,226274,128,2,226632:0:0:0:0:
320,192,226274,1,0,0:0:0:70:LR_Drum Rpd x2.wav
192,192,226364,1,0,0:0:0:0:
320,192,226453,1,0,0:0:0:70:LR_Drum Rpd x2.wav
448,192,226543,1,0,0:0:0:0:
192,192,226632,1,2,0:0:0:0:
320,192,226632,1,0,0:0:0:50:LR_CymbalLGLH_S.wav
448,192,226632,1,0,0:0:0:0:
64,192,226722,1,2,0:0:0:0:
192,192,226722,1,0,0:0:0:0:
64,192,226811,1,2,0:0:0:0:
320,192,226811,1,0,0:0:0:0:
448,192,226811,1,0,0:0:0:0:
192,192,226901,1,2,0:0:0:0:
320,192,226901,1,0,0:0:0:0:
448,192,226901,1,0,0:0:0:0:
64,192,226990,1,2,0:0:0:0:
192,192,226990,1,0,0:0:0:0:
64,192,227080,1,2,0:0:0:0:
320,192,227080,1,0,0:0:0:0:
448,192,227080,1,0,0:0:0:0:
192,192,227170,1,2,0:0:0:0:
320,192,227170,1,0,0:0:0:0:
64,192,227259,1,2,0:0:0:0:
192,192,227259,1,0,0:0:0:0:
448,192,227259,1,0,0:0:0:0:
64,192,227349,1,2,0:0:0:0:
320,192,227349,1,0,0:0:0:0:
192,192,227438,1,2,0:0:0:0:
320,192,227438,1,0,0:0:0:0:
448,192,227438,1,0,0:0:0:0:
64,192,227528,1,2,0:0:0:0:
192,192,227528,1,0,0:0:0:0:
448,192,227528,1,0,0:0:0:0:
64,192,227617,1,2,0:0:0:0:
320,192,227617,1,0,0:0:0:0:
192,192,227707,1,2,0:0:0:0:
320,192,227707,1,0,0:0:0:0:
448,192,227707,1,0,0:0:0:0:
64,192,227796,1,2,0:0:0:0:
448,192,227796,1,0,0:0:0:0:
64,192,227886,1,2,0:0:0:0:
192,192,227886,1,0,0:0:0:0:
320,192,227886,1,0,0:0:0:0:
64,192,227975,1,2,0:0:0:0:
320,192,227975,1,0,0:0:0:0:
448,192,227975,1,0,0:0:0:0:
192,192,228020,1,2,0:0:0:0:
320,192,228065,1,2,0:0:0:0:
448,192,228065,1,0,0:0:0:0:
64,192,228155,1,2,0:0:0:0:
192,192,228155,1,0,0:0:0:0:
448,192,228155,1,0,0:0:0:0:
64,192,228244,1,2,0:0:0:0:
320,192,228244,1,0,0:0:0:0:
192,192,228334,1,2,0:0:0:0:
320,192,228334,1,0,0:0:0:0:
448,192,228334,1,0,0:0:0:0:
64,192,228423,1,2,0:0:0:0:
192,192,228423,1,0,0:0:0:0:
64,192,228513,1,2,0:0:0:0:
320,192,228513,1,0,0:0:0:0:
448,192,228513,1,0,0:0:0:0:
192,192,228602,1,2,0:0:0:0:
320,192,228602,1,0,0:0:0:0:
448,192,228602,1,0,0:0:0:0:
64,192,228692,1,2,0:0:0:0:
192,192,228692,1,0,0:0:0:0:
448,192,228692,1,0,0:0:0:0:
320,192,228737,1,2,0:0:0:0:
64,192,228781,1,2,0:0:0:0:
192,192,228781,1,0,0:0:0:0:
64,192,228871,1,2,0:0:0:0:
320,192,228871,1,0,0:0:0:0:
448,192,228871,1,0,0:0:0:0:
192,192,228916,1,2,0:0:0:0:
320,192,228961,1,2,0:0:0:0:
448,192,228961,1,0,0:0:0:0:
192,192,229005,1,0,0:0:0:0:
64,192,229050,1,2,0:0:0:0:
448,192,229050,1,0,0:0:0:0:
320,192,229095,1,2,0:0:0:0:
64,192,229140,1,2,0:0:0:0:
192,192,229140,1,0,0:0:0:70:LR_CymbalLGLH_S.wav
448,192,229140,1,0,0:0:0:0:
320,192,229229,1,0,0:0:0:0:
192,192,229319,1,0,0:0:0:70:LR_Drum Rpd x2.wav
448,192,229408,1,0,0:0:0:0:
64,192,229498,128,2,229856:0:0:0:0:
192,192,229498,1,0,0:0:0:70:LR_Drum Rpd vFast.wav
320,192,229587,1,0,0:0:0:70:LR_Drum Rpd x2.wav
192,192,229677,1,0,0:0:0:70:LR_Drum Rpd vFast.wav
320,192,229767,1,2,0:0:0:0:
448,192,229767,1,0,0:0:0:0:
192,192,229856,128,2,230214:0:0:0:0:
448,192,229856,1,0,0:0:0:70:LR_Drum Rpd vFast.wav
320,192,229946,1,0,0:0:0:0:
64,192,230035,1,2,0:0:0:0:
448,192,230035,1,0,0:0:0:70:LR_Drum Rpd x2.wav
320,192,230125,1,0,0:0:0:0:
64,192,230170,1,0,0:0:0:0:
320,192,230214,128,2,230572:0:0:0:0:
448,192,230214,1,0,0:0:0:70:LR_Drum Rpd vFast.wav
64,192,230259,1,0,0:0:0:0:
192,192,230304,1,0,0:0:0:0:
448,192,230349,1,0,0:0:0:0:
64,192,230393,1,2,0:0:0:0:
192,192,230393,1,0,0:0:0:70:LR_Drum Rpd x2.wav
448,192,230483,1,2,0:0:0:0:
64,192,230572,1,2,0:0:0:0:
192,192,230572,128,0,230931:0:0:0:70:LR_CymbalLGLH_S.wav
448,192,230572,1,0,0:0:0:0:
64,192,230752,1,2,0:0:0:0:
320,192,230752,1,0,0:0:0:70:LR_CymbalLGLH_S.wav
448,192,230752,1,0,0:0:0:0:
64,192,230931,128,0,231289:0:0:0:0:
448,192,231289,128,0,231647:0:0:0:0:
64,192,231647,1,2,0:0:0:0:
192,192,231647,1,0,0:0:0:50:LR_CymbalLGLH_S.wav
320,192,231647,1,0,0:0:0:0:
64,192,231826,1,0,0:0:0:0:
448,192,231826,1,0,0:0:0:0:
320,192,231871,1,0,0:0:0:0:
64,192,231916,1,0,0:0:0:0:
192,192,231916,1,0,0:0:0:0:
448,192,231961,1,0,0:0:0:0:
192,192,232005,1,0,0:0:0:0:
320,192,232005,1,0,0:0:0:0:
64,192,232095,1,0,0:0:0:0:
448,192,232095,1,0,0:0:0:0:
192,192,232140,1,0,0:0:0:0:
320,192,232184,1,0,0:0:0:0:
448,192,232184,1,0,0:0:0:0:
64,192,232229,1,0,0:0:0:0:
192,192,232274,1,0,0:0:0:0:
320,192,232274,1,0,0:0:0:0:
64,192,232364,1,2,0:0:0:0:
192,192,232364,1,0,0:0:0:50:LR_CymbalLGLH_S.wav
448,192,232364,1,0,0:0:0:0:
64,192,232543,1,0,0:0:0:0:
448,192,232543,1,0,0:0:0:0:
192,192,232587,1,0,0:0:0:0:
320,192,232632,1,0,0:0:0:0:
448,192,232632,1,0,0:0:0:0:
64,192,232677,1,0,0:0:0:0:
192,192,232722,1,0,0:0:0:0:
320,192,232722,1,0,0:0:0:0:
64,192,232811,1,0,0:0:0:0:
448,192,232811,1,0,0:0:0:0:
320,192,232856,1,0,0:0:0:0:
64,192,232901,1,0,0:0:0:0:
192,192,232901,1,0,0:0:0:0:
448,192,232946,1,0,0:0:0:0:
192,192,232990,1,0,0:0:0:0:
320,192,232990,1,0,0:0:0:0:
64,192,233080,1,2,0:0:0:0:
320,192,233080,1,0,0:0:0:50:LR_CymbalLGLH_S.wav
448,192,233080,1,0,0:0:0:0:
64,192,233259,1,0,0:0:0:0:
448,192,233259,1,0,0:0:0:0:
320,192,233304,1,0,0:0:0:0:
64,192,233349,1,0,0:0:0:0:
192,192,233349,1,0,0:0:0:0:
448,192,233393,1,0,0:0:0:0:
192,192,233438,1,0,0:0:0:0:
320,192,233438,1,0,0:0:0:0:
64,192,233528,1,0,0:0:0:0:
448,192,233528,1,0,0:0:0:0:
192,192,233572,1,0,0:0:0:0:
320,192,233617,1,0,0:0:0:0:
448,192,233617,1,0,0:0:0:0:
64,192,233662,1,0,0:0:0:0:
192,192,233707,1,0,0:0:0:0:
320,192,233707,1,0,0:0:0:0:
64,192,233796,1,2,0:0:0:0:
192,192,233796,1,0,0:0:0:50:LR_CymbalLGLH_S.wav
448,192,233796,1,0,0:0:0:0:
64,192,233975,1,0,0:0:0:0:
448,192,233975,1,0,0:0:0:0:
192,192,234020,1,0,0:0:0:0:
320,192,234065,1,0,0:0:0:0:
448,192,234065,1,0,0:0:0:0:
64,192,234110,1,0,0:0:0:0:
192,192,234155,1,0,0:0:0:0:
320,192,234155,1,0,0:0:0:0:
64,192,234244,1,0,0:0:0:0:
448,192,234244,1,0,0:0:0:0:
320,192,234289,1,0,0:0:0:0:
64,192,234334,1,0,0:0:0:0:
192,192,234334,1,0,0:0:0:0:
448,192,234378,1,0,0:0:0:0:
192,192,234423,1,0,0:0:0:0:
320,192,234423,1,0,0:0:0:0:
64,192,234513,1,2,0:0:0:0:
320,192,234513,1,0,0:0:0:50:LR_CymbalLGLH_S.wav
448,192,234513,1,0,0:0:0:0:
64,192,234692,1,0,0:0:0:0:
448,192,234692,1,0,0:0:0:0:
320,192,234737,1,0,0:0:0:0:
64,192,234781,1,0,0:0:0:0:
192,192,234781,1,0,0:0:0:0:
448,192,234826,1,0,0:0:0:0:
192,192,234871,1,0,0:0:0:0:
320,192,234871,1,0,0:0:0:0:
64,192,234961,1,0,0:0:0:0:
448,192,234961,1,0,0:0:0:0:
192,192,235005,1,0,0:0:0:0:
320,192,235050,1,0,0:0:0:0:
448,192,235050,1,0,0:0:0:0:
64,192,235095,1,0,0:0:0:0:
192,192,235140,1,0,0:0:0:0:
320,192,235140,1,0,0:0:0:0:
64,192,235229,1,2,0:0:0:0:
192,192,235229,1,0,0:0:0:50:LR_CymbalLGLH_S.wav
448,192,235229,1,0,0:0:0:0:
64,192,235408,1,0,0:0:0:0:
448,192,235408,1,0,0:0:0:0:
192,192,235453,1,0,0:0:0:0:
320,192,235498,1,0,0:0:0:0:
448,192,235498,1,0,0:0:0:0:
64,192,235543,1,0,0:0:0:0:
192,192,235587,1,0,0:0:0:0:
320,192,235587,1,0,0:0:0:0:
64,192,235677,1,0,0:0:0:0:
448,192,235677,1,0,0:0:0:0:
320,192,235722,1,0,0:0:0:0:
64,192,235767,1,0,0:0:0:0:
192,192,235767,1,0,0:0:0:0:
448,192,235811,1,0,0:0:0:0:
192,192,235856,1,0,0:0:0:0:
320,192,235856,1,0,0:0:0:0:
64,192,235946,1,2,0:0:0:0:
320,192,235946,1,0,0:0:0:50:LR_CymbalLGLH_S.wav
448,192,235946,1,0,0:0:0:0:
64,192,236125,1,0,0:0:0:0:
448,192,236125,1,0,0:0:0:0:
320,192,236170,1,0,0:0:0:0:
64,192,236214,1,0,0:0:0:0:
192,192,236214,1,0,0:0:0:0:
448,192,236259,1,0,0:0:0:0:
192,192,236304,1,0,0:0:0:0:
320,192,236304,1,0,0:0:0:0:
64,192,236393,1,0,0:0:0:0:
448,192,236393,1,0,0:0:0:0:
192,192,236438,1,0,0:0:0:0:
320,192,236483,1,0,0:0:0:0:
448,192,236483,1,0,0:0:0:0:
64,192,236528,1,0,0:0:0:0:
192,192,236572,1,0,0:0:0:0:
320,192,236572,1,0,0:0:0:0:
64,192,236662,1,2,0:0:0:0:
192,192,236662,1,0,0:0:0:50:LR_CymbalLGLH_S.wav
448,192,236662,1,0,0:0:0:0:
64,192,236841,1,0,0:0:0:0:
448,192,236841,1,0,0:0:0:0:
192,192,236886,1,0,0:0:0:0:
320,192,236931,1,0,0:0:0:0:
448,192,236931,1,0,0:0:0:0:
64,192,236975,1,0,0:0:0:0:
192,192,237020,1,0,0:0:0:0:
320,192,237020,1,0,0:0:0:0:
64,192,237110,1,0,0:0:0:0:
448,192,237110,1,0,0:0:0:0:
320,192,237155,1,0,0:0:0:0:
64,192,237199,1,0,0:0:0:0:
192,192,237199,1,0,0:0:0:0:
448,192,237244,1,0,0:0:0:0:
192,192,237289,1,0,0:0:0:0:
320,192,237289,1,0,0:0:0:0:
64,192,237378,128,0,240065:0:0:0:70:LR4_DrumRevBassImpact.wav
448,192,237378,1,0,0:0:0:0:
64,192,242393,128,0,243065:0:0:0:0:
64,192,243110,1,2,0:0:0:0:
192,192,243110,1,0,0:0:0:50:LR_CymbalLGLH_S.wav
448,192,243110,1,0,0:0:0:0:
320,192,243155,1,0,0:0:0:0:
64,192,243199,1,0,0:0:0:0:
192,192,243244,1,0,0:0:0:0:
448,192,243289,1,0,0:0:0:0:
64,192,243334,1,0,0:0:0:0:
320,192,243378,1,0,0:0:0:0:
448,192,243423,1,0,0:0:0:0:
192,192,243468,1,0,0:0:0:0:
320,192,243513,1,0,0:0:0:0:
64,192,243558,1,0,0:0:0:0:
192,192,243602,1,0,0:0:0:0:
448,192,243647,1,0,0:0:0:0:
64,192,243692,1,0,0:0:0:0:
320,192,243737,1,0,0:0:0:0:
448,192,243781,1,0,0:0:0:0:
64,192,243826,128,0,244274:0:0:0:0:
192,192,243826,128,0,244184:0:0:0:0:
448,192,244005,128,0,244364:0:0:0:0:
320,192,244184,128,0,244498:0:0:0:0:
192,192,244274,128,0,244498:0:0:0:0:
64,192,244364,128,0,244498:0:0:0:0:
448,192,244453,128,0,244498:0:0:0:0:
64,192,244543,1,2,0:0:0:0:
320,192,244543,1,0,0:0:0:50:LR_CymbalLGLH_S.wav
448,192,244543,1,0,0:0:0:0:
192,192,244587,1,0,0:0:0:0:
448,192,244632,1,0,0:0:0:0:
320,192,244677,1,0,0:0:0:0:
64,192,244722,1,0,0:0:0:0:
448,192,244767,1,0,0:0:0:0:
192,192,244811,1,0,0:0:0:0:
64,192,244856,1,0,0:0:0:0:
320,192,244901,1,0,0:0:0:0:
192,192,244946,1,0,0:0:0:0:
448,192,244990,1,0,0:0:0:0:
320,192,245035,1,0,0:0:0:0:
64,192,245080,1,0,0:0:0:0:
448,192,245125,1,0,0:0:0:0:
192,192,245170,1,0,0:0:0:0:
64,192,245214,1,0,0:0:0:0:
320,192,245259,128,0,245378:0:0:0:0:
448,192,245259,1,0,0:0:0:0:
192,192,245319,128,0,245438:0:0:0:0:
64,192,245378,128,0,245498:0:0:0:0:
320,192,245438,128,0,245558:0:0:0:0:
192,192,245498,128,0,245617:0:0:0:0:
448,192,245558,128,0,245677:0:0:0:0:
320,192,245617,128,0,245737:0:0:0:0:
192,192,245677,128,0,245796:0:0:0:0:
64,192,245737,128,0,245856:0:0:0:0:
448,192,245796,128,0,245916:0:0:0:0:
320,192,245856,128,0,245916:0:0:0:0:
192,192,245916,128,0,245975:0:0:0:0:
64,192,245975,1,2,0:0:0:0:
320,192,245975,1,0,0:0:0:50:LR_CymbalLGLH_S.wav
448,192,245975,1,0,0:0:0:70:S1.wav
192,192,246020,1,0,0:0:0:0:
448,192,246065,1,0,0:0:0:0:
320,192,246110,1,0,0:0:0:0:
64,192,246155,1,2,0:0:0:0:
192,192,246155,1,0,0:0:0:0:
320,192,246199,1,0,0:0:0:0:
64,192,246244,1,0,0:0:0:0:
192,192,246289,1,0,0:0:0:0:
320,192,246334,1,2,0:0:0:0:
448,192,246334,1,0,0:0:0:0:
192,192,246378,1,0,0:0:0:0:
448,192,246423,1,0,0:0:0:0:
320,192,246468,1,0,0:0:0:0:
64,192,246513,1,2,0:0:0:0:
192,192,246513,1,0,0:0:0:0:
320,192,246558,1,0,0:0:0:0:
64,192,246602,1,0,0:0:0:0:
192,192,246647,1,0,0:0:0:0:
320,192,246692,1,0,0:0:0:70:S1.wav
448,192,246692,1,0,0:0:0:0:
192,192,246737,1,0,0:0:0:0:
64,192,246781,1,0,0:0:0:70:S1.wav
448,192,246781,1,0,0:0:0:0:
320,192,246826,1,0,0:0:0:0:
64,192,246871,1,0,0:0:0:70:S1.wav
192,192,246871,1,0,0:0:0:0:
448,192,246916,1,0,0:0:0:0:
64,192,246961,1,0,0:0:0:70:S1.wav
320,192,246961,1,0,0:0:0:0:
192,192,247005,1,0,0:0:0:0:
320,192,247050,1,0,0:0:0:70:S1.wav
448,192,247050,1,0,0:0:0:0:
64,192,247095,1,0,0:0:0:0:
192,192,247140,1,0,0:0:0:70:S1.wav
448,192,247140,1,0,0:0:0:0:
320,192,247184,1,0,0:0:0:0:
64,192,247229,1,0,0:0:0:70:S1.wav
192,192,247229,1,0,0:0:0:0:
320,192,247274,1,0,0:0:0:0:
64,192,247319,1,0,0:0:0:70:S1.wav
448,192,247319,1,0,0:0:0:0:
192,192,247364,1,0,0:0:0:0:
320,192,247408,128,0,247587:0:0:0:0:
448,192,247408,128,0,247587:0:0:0:0:
64,192,247587,128,0,247767:0:0:0:0:
192,192,247587,128,0,247767:0:0:0:0:
320,192,247767,128,0,247946:0:0:0:0:
448,192,247767,128,0,248438:0:0:0:0:
64,192,247946,1,0,0:0:0:0:
192,192,247990,1,0,0:0:0:0:
320,192,248035,1,0,0:0:0:0:
64,192,248080,1,0,0:0:0:0:
192,192,248125,1,0,0:0:0:0:
320,192,248170,1,0,0:0:0:0:
64,192,248214,1,0,0:0:0:0:
192,192,248259,1,0,0:0:0:0:
320,192,248304,1,0,0:0:0:0:
64,192,248349,1,0,0:0:0:0:
192,192,248393,1,0,0:0:0:0:
320,192,248438,1,0,0:0:0:0:
64,192,248483,1,0,0:0:0:100:VEC3 Snares 042.wav
448,192,248483,128,0,248662:0:0:0:0:
192,192,248528,1,0,0:0:0:0:
320,192,248572,1,0,0:0:0:0:
192,192,248617,1,0,0:0:0:0:
64,192,248662,1,0,0:0:0:0:
64,192,248841,1,2,0:0:0:0:
192,192,248841,1,0,0:0:0:50:LR_CymbalLGLH_S.wav
448,192,248841,1,0,0:0:0:0:
320,192,248886,1,2,0:0:0:0:
64,192,248931,1,2,0:0:0:0:
192,192,248931,1,0,0:0:0:0:
448,192,248975,1,2,0:0:0:0:
192,192,249020,1,2,0:0:0:0:
320,192,249020,1,0,0:0:0:0:
64,192,249065,1,2,0:0:0:0:
320,192,249110,1,2,0:0:0:0:
448,192,249110,1,0,0:0:0:0:
192,192,249155,1,2,0:0:0:0:
320,192,249199,1,2,0:0:0:0:
448,192,249199,1,0,0:0:0:0:
64,192,249244,1,2,0:0:0:0:
192,192,249289,1,2,0:0:0:0:
320,192,249289,1,0,0:0:0:0:
448,192,249334,1,2,0:0:0:0:
64,192,249378,1,2,0:0:0:0:
192,192,249378,1,0,0:0:0:0:
320,192,249423,1,2,0:0:0:0:
64,192,249468,1,2,0:0:0:0:
192,192,249468,1,0,0:0:0:0:
448,192,249513,1,2,0:0:0:0:
192,192,249558,1,2,0:0:0:0:
320,192,249558,1,0,0:0:0:0:
64,192,249602,1,2,0:0:0:0:
320,192,249647,1,2,0:0:0:0:
448,192,249647,1,0,0:0:0:0:
192,192,249692,1,2,0:0:0:0:
320,192,249737,1,2,0:0:0:0:
448,192,249737,1,0,0:0:0:0:
64,192,249781,1,2,0:0:0:0:
192,192,249826,1,2,0:0:0:0:
320,192,249826,1,0,0:0:0:0:
448,192,249871,1,2,0:0:0:0:
64,192,249916,1,2,0:0:0:0:
192,192,249916,1,0,0:0:0:0:
320,192,249961,1,2,0:0:0:0:
64,192,250005,1,2,0:0:0:0:
192,192,250005,1,0,0:0:0:0:
448,192,250050,1,2,0:0:0:0:
192,192,250095,1,2,0:0:0:0:
320,192,250095,1,0,0:0:0:0:
64,192,250140,1,2,0:0:0:0:
320,192,250184,1,2,0:0:0:0:
448,192,250184,1,0,0:0:0:0:
192,192,250229,1,2,0:0:0:0:
64,192,250274,1,2,0:0:0:0:
320,192,250274,1,0,0:0:0:50:LR_CymbalLGLH_S.wav
448,192,250274,1,0,0:0:0:0:
192,192,250319,1,2,0:0:0:0:
320,192,250364,1,2,0:0:0:0:
448,192,250364,1,0,0:0:0:0:
64,192,250453,1,2,0:0:0:0:
192,192,250453,1,0,0:0:0:0:
320,192,250498,1,2,0:0:0:0:
64,192,250543,1,2,0:0:0:0:
192,192,250543,1,0,0:0:0:0:
320,192,250632,1,2,0:0:0:0:
448,192,250632,1,0,0:0:0:0:
192,192,250677,1,2,0:0:0:0:
320,192,250722,1,2,0:0:0:0:
448,192,250722,1,0,0:0:0:0:
64,192,250811,1,2,0:0:0:0:
192,192,250811,1,0,0:0:0:0:
320,192,250856,1,2,0:0:0:0:
64,192,250901,1,2,0:0:0:0:
192,192,250901,1,0,0:0:0:0:
320,192,250990,1,2,0:0:0:0:
448,192,250990,1,0,0:0:0:0:
192,192,251035,1,2,0:0:0:0:
320,192,251080,1,2,0:0:0:0:
448,192,251080,1,0,0:0:0:0:
192,192,251125,1,2,0:0:0:0:
320,192,251170,1,2,0:0:0:0:
448,192,251170,1,0,0:0:0:0:
64,192,251259,1,2,0:0:0:0:
192,192,251259,1,0,0:0:0:0:
320,192,251304,1,2,0:0:0:0:
64,192,251349,1,2,0:0:0:0:
192,192,251349,1,0,0:0:0:0:
320,192,251393,1,2,0:0:0:0:
64,192,251438,1,2,0:0:0:0:
192,192,251438,1,0,0:0:0:0:
320,192,251528,1,2,0:0:0:0:
448,192,251528,1,0,0:0:0:0:
192,192,251572,1,2,0:0:0:0:
320,192,251617,1,2,0:0:0:0:
448,192,251617,1,0,0:0:0:0:
192,192,251662,1,2,0:0:0:0:
320,192,251707,1,0,0:0:0:70:LR4_BassLineLDRN.wav
448,192,251707,1,0,0:0:0:0:
192,192,251796,1,0,0:0:0:0:
64,192,251886,1,0,0:0:0:0:
448,192,251975,1,0,0:0:0:0:
320,192,252065,1,0,0:0:0:0:
64,192,252155,1,0,0:0:0:0:
192,192,252244,1,0,0:0:0:0:
192,192,252334,1,0,0:0:0:0:
320,192,252423,1,0,0:0:0:0:
448,192,252423,1,0,0:0:0:0:
192,192,252513,1,0,0:0:0:0:
64,192,252602,1,0,0:0:0:0:
448,192,252692,1,0,0:0:0:0:
320,192,252781,1,0,0:0:0:0:
64,192,252871,1,0,0:0:0:0:
192,192,252961,1,0,0:0:0:0:
192,192,253050,1,0,0:0:0:0:
64,192,253140,1,0,0:0:0:70:S1.wav
320,192,253140,1,0,0:0:0:0:
448,192,253140,1,0,0:0:0:0:
320,192,253229,1,0,0:0:0:0:
64,192,253319,1,0,0:0:0:70:S1.wav
192,192,253319,1,0,0:0:0:0:
448,192,253319,1,0,0:0:0:0:
192,192,253408,1,0,0:0:0:0:
64,192,253498,1,0,0:0:0:70:S1.wav
320,192,253498,1,0,0:0:0:0:
448,192,253498,1,0,0:0:0:0:
320,192,253587,1,0,0:0:0:0:
64,192,253677,1,0,0:0:0:70:S1.wav
192,192,253677,1,0,0:0:0:0:
448,192,253677,1,0,0:0:0:0:
192,192,253767,1,0,0:0:0:0:
64,192,253856,1,0,0:0:0:70:S1.wav
320,192,253856,1,0,0:0:0:0:
448,192,253856,1,0,0:0:0:0:
320,192,253946,1,0,0:0:0:70:S1.wav
448,192,253946,1,0,0:0:0:0:
64,192,254035,1,0,0:0:0:70:S1.wav
192,192,254035,1,0,0:0:0:0:
64,192,254125,1,0,0:0:0:70:S1.wav
192,192,254125,1,0,0:0:0:0:
320,192,254214,128,0,254393:0:0:0:100:VEC3 Snares 042.wav
448,192,254214,128,0,254393:0:0:0:0:
64,192,254572,1,2,0:0:0:0:
192,192,254572,1,0,0:0:0:50:LR_CymbalLGLH_S.wav
448,192,254572,1,0,0:0:0:0:
320,192,254617,1,2,0:0:0:0:
64,192,254662,1,2,0:0:0:0:
192,192,254662,1,0,0:0:0:0:
448,192,254707,1,2,0:0:0:0:
64,192,254752,1,2,0:0:0:0:
320,192,254752,1,0,0:0:0:0:
192,192,254796,1,2,0:0:0:0:
320,192,254841,1,2,0:0:0:0:
448,192,254841,1,0,0:0:0:0:
64,192,254886,1,2,0:0:0:0:
192,192,254931,1,2,0:0:0:0:
320,192,254931,1,0,0:0:0:0:
448,192,254975,1,2,0:0:0:0:
64,192,255020,1,2,0:0:0:0:
192,192,255020,1,0,0:0:0:0:
448,192,255065,1,2,0:0:0:0:
64,192,255110,1,2,0:0:0:0:
320,192,255110,1,0,0:0:0:0:
192,192,255155,1,2,0:0:0:0:
320,192,255199,1,2,0:0:0:0:
448,192,255199,1,0,0:0:0:0:
192,192,255244,1,2,0:0:0:0:
64,192,255289,1,2,0:0:0:0:
448,192,255289,1,0,0:0:0:0:
320,192,255334,1,2,0:0:0:0:
64,192,255378,1,2,0:0:0:0:
192,192,255378,1,0,0:0:0:0:
448,192,255423,1,2,0:0:0:0:
64,192,255468,1,2,0:0:0:0:
320,192,255468,1,0,0:0:0:0:
192,192,255513,1,2,0:0:0:0:
320,192,255558,1,2,0:0:0:0:
448,192,255558,1,0,0:0:0:0:
64,192,255602,1,2,0:0:0:0:
192,192,255647,1,2,0:0:0:0:
320,192,255647,1,0,0:0:0:0:
448,192,255692,1,2,0:0:0:0:
64,192,255737,1,2,0:0:0:0:
192,192,255737,1,0,0:0:0:0:
320,192,255781,1,2,0:0:0:0:
64,192,255826,1,2,0:0:0:0:
448,192,255826,1,0,0:0:0:0:
192,192,255856,1,2,0:0:0:0:
320,192,255886,1,2,0:0:0:0:
448,192,255916,1,2,0:0:0:0:
64,192,255946,1,2,0:0:0:0:
192,192,255975,1,2,0:0:0:0:
320,192,256005,1,2,0:0:0:0:
448,192,256005,1,0,0:0:0:0:
64,192,256050,1,2,0:0:0:0:
192,192,256095,1,2,0:0:0:0:
320,192,256095,1,0,0:0:0:0:
448,192,256140,1,2,0:0:0:0:
64,192,256184,1,2,0:0:0:0:
192,192,256184,1,0,0:0:0:0:
448,192,256229,1,2,0:0:0:0:
64,192,256274,1,2,0:0:0:0:
320,192,256274,1,0,0:0:0:0:
192,192,256319,1,2,0:0:0:0:
320,192,256364,1,2,0:0:0:0:
448,192,256364,1,0,0:0:0:0:
192,192,256408,1,2,0:0:0:0:
64,192,256453,1,2,0:0:0:0:
448,192,256453,1,0,0:0:0:0:
320,192,256498,1,2,0:0:0:0:
64,192,256543,1,2,0:0:0:0:
192,192,256543,1,0,0:0:0:0:
320,192,256587,1,2,0:0:0:0:
192,192,256632,1,2,0:0:0:0:
448,192,256632,1,0,0:0:0:0:
64,192,256677,1,2,0:0:0:0:
448,192,256722,1,2,0:0:0:0:
320,192,256752,1,2,0:0:0:0:
192,192,256781,1,2,0:0:0:0:
64,192,256856,1,2,0:0:0:0:
192,192,256886,1,2,0:0:0:0:
320,192,256916,1,2,0:0:0:0:
448,192,256990,1,2,0:0:0:0:
320,192,257020,1,2,0:0:0:0:
192,192,257050,1,2,0:0:0:0:
448,192,257080,1,2,0:0:0:0:
320,192,257102,1,2,0:0:0:0:
192,192,257125,1,2,0:0:0:0:
64,192,257147,1,2,0:0:0:0:
448,192,257170,1,2,0:0:0:0:
320,192,257192,1,2,0:0:0:0:
192,192,257214,1,2,0:0:0:0:
64,192,257237,1,2,0:0:0:0:
448,192,257259,1,0,0:0:0:0:
320,192,257270,1,0,0:0:0:0:
64,192,257304,1,0,0:0:0:0:
192,192,257315,1,0,0:0:0:0:
448,192,257349,1,0,0:0:0:0:
320,192,257360,1,0,0:0:0:0:
64,192,257393,1,0,0:0:0:0:
192,192,257405,1,0,0:0:0:0:
64,192,257617,1,2,0:0:0:0:
192,192,257617,1,0,0:0:0:50:LR_CymbalLGLH_S.wav
448,192,257617,1,0,0:0:0:0:
320,192,257662,1,2,0:0:0:0:
64,192,257707,1,2,0:0:0:0:
192,192,257707,1,0,0:0:0:0:
448,192,257752,1,2,0:0:0:0:
192,192,257796,1,2,0:0:0:0:
320,192,257796,1,0,0:0:0:0:
64,192,257841,1,2,0:0:0:0:
320,192,257886,1,2,0:0:0:0:
448,192,257886,1,0,0:0:0:0:
64,192,257931,1,2,0:0:0:0:
192,192,257975,1,2,0:0:0:0:
448,192,257975,1,0,0:0:0:0:
320,192,258020,1,2,0:0:0:0:
64,192,258065,1,2,0:0:0:0:
192,192,258065,1,0,0:0:0:0:
448,192,258110,1,2,0:0:0:0:
64,192,258155,1,2,0:0:0:0:
320,192,258155,1,0,0:0:0:0:
192,192,258199,1,2,0:0:0:0:
320,192,258244,1,2,0:0:0:0:
448,192,258267,1,0,0:0:0:0:
64,192,258289,1,0,0:0:0:0:
192,192,258311,1,0,0:0:0:0:
320,192,258334,1,2,0:0:0:0:
448,192,258378,1,2,0:0:0:0:
64,192,258423,1,0,0:0:0:0:
192,192,258446,1,0,0:0:0:0:
320,192,258468,1,0,0:0:0:0:
448,192,258490,1,0,0:0:0:0:
64,192,258513,128,0,258602:0:0:0:0:
192,192,258513,128,0,258602:0:0:0:0:
320,192,258602,1,2,0:0:0:0:
448,192,258602,1,0,0:0:0:0:
192,192,258647,1,2,0:0:0:0:
64,192,258692,1,2,0:0:0:0:
448,192,258692,1,0,0:0:0:0:
320,192,258737,1,2,0:0:0:0:
64,192,258781,1,2,0:0:0:0:
192,192,258781,1,0,0:0:0:0:
448,192,258826,1,2,0:0:0:0:
64,192,258871,1,2,0:0:0:0:
320,192,258871,1,0,0:0:0:0:
192,192,258916,1,2,0:0:0:0:
320,192,258961,1,2,0:0:0:0:
448,192,258961,1,0,0:0:0:0:
192,192,259005,1,2,0:0:0:0:
64,192,259050,1,2,0:0:0:0:
448,192,259050,1,0,0:0:0:0:
320,192,259095,1,2,0:0:0:0:
64,192,259140,1,2,0:0:0:0:
192,192,259140,1,0,0:0:0:0:
320,192,259184,1,2,0:0:0:0:
64,192,259229,1,2,0:0:0:0:
192,192,259229,1,0,0:0:0:0:
320,192,259274,1,2,0:0:0:0:
64,192,259319,1,2,0:0:0:0:
448,192,259319,1,0,0:0:0:0:
192,192,259364,1,2,0:0:0:0:
320,192,259408,1,2,0:0:0:0:
448,192,259408,1,0,0:0:0:0:
64,192,259587,1,2,0:0:0:0:
320,192,259587,1,0,0:0:0:0:
448,192,259587,1,0,0:0:0:0:
192,192,259632,1,2,0:0:0:0:
320,192,259677,1,2,0:0:0:0:
448,192,259677,1,0,0:0:0:0:
192,192,259722,1,2,0:0:0:0:
64,192,259767,1,2,0:0:0:0:
448,192,259767,1,0,0:0:0:0:
192,192,259856,1,2,0:0:0:0:
320,192,259856,1,0,0:0:0:0:
64,192,259946,1,2,0:0:0:0:
192,192,259946,1,0,0:0:0:0:
448,192,259946,1,0,0:0:0:0:
320,192,259990,1,0,0:0:0:0:
64,192,260035,1,0,0:0:0:0:
448,192,260080,1,0,0:0:0:0:
320,192,260125,1,0,0:0:0:0:
64,192,260170,1,0,0:0:0:0:
192,192,260214,1,0,0:0:0:0:
320,192,260259,1,0,0:0:0:0:
64,192,260304,1,2,0:0:0:0:
192,192,260304,1,0,0:0:0:50:LR_CymbalLGLH_S.wav
448,192,260304,1,0,0:0:0:0:
320,192,260349,1,2,0:0:0:0:
64,192,260393,1,2,0:0:0:0:
448,192,260393,1,0,0:0:0:0:
192,192,260438,1,2,0:0:0:0:
320,192,260483,1,2,0:0:0:0:
448,192,260483,1,0,0:0:0:0:
64,192,260528,1,2,0:0:0:0:
192,192,260572,1,0,0:0:0:0:
320,192,260602,1,0,0:0:0:0:
448,192,260632,1,0,0:0:0:0:
64,192,260662,1,2,0:0:0:0:
192,192,260662,1,0,0:0:0:0:
448,192,260707,1,2,0:0:0:0:
320,192,260752,1,0,0:0:0:0:
192,192,260781,1,0,0:0:0:0:
64,192,260811,1,0,0:0:0:0:
320,192,260841,1,2,0:0:0:0:
448,192,260841,1,0,0:0:0:0:
64,192,260886,1,2,0:0:0:0:
192,192,260931,1,0,0:0:0:0:
320,192,260961,1,0,0:0:0:0:
448,192,260990,1,0,0:0:0:0:
64,192,261020,1,2,0:0:0:0:
192,192,261020,1,0,0:0:0:0:
448,192,261065,1,2,0:0:0:0:
64,192,261110,1,2,0:0:0:0:
320,192,261110,1,0,0:0:0:0:
192,192,261155,1,2,0:0:0:0:
320,192,261199,1,2,0:0:0:0:
448,192,261199,1,0,0:0:0:0:
192,192,261244,1,2,0:0:0:0:
64,192,261289,1,2,0:0:0:0:
448,192,261289,1,0,0:0:0:0:
320,192,261334,1,2,0:0:0:0:
64,192,261378,1,2,0:0:0:0:
192,192,261378,1,0,0:0:0:0:
320,192,261423,1,2,0:0:0:0:
64,192,261468,1,2,0:0:0:0:
448,192,261468,1,0,0:0:0:0:
192,192,261513,1,2,0:0:0:0:
448,192,261558,1,0,0:0:0:0:
320,192,261580,1,0,0:0:0:0:
192,192,261602,1,0,0:0:0:0:
64,192,261625,1,0,0:0:0:0:
448,192,261647,1,0,0:0:0:0:
320,192,261670,1,0,0:0:0:0:
192,192,261692,1,0,0:0:0:0:
64,192,261714,1,0,0:0:0:0:
320,192,261737,1,2,0:0:0:0:
448,192,261737,1,0,0:0:0:0:
192,192,261781,1,2,0:0:0:0:
64,192,261826,1,2,0:0:0:0:
320,192,261826,1,0,0:0:0:0:
448,192,261871,1,2,0:0:0:0:
64,192,261916,1,2,0:0:0:0:
192,192,261916,1,0,0:0:0:0:
320,192,261961,1,2,0:0:0:0:
64,192,262005,1,2,0:0:0:0:
448,192,262005,1,0,0:0:0:0:
192,192,262050,1,2,0:0:0:0:
320,192,262095,1,2,0:0:0:0:
448,192,262095,1,0,0:0:0:0:
192,192,262140,1,2,0:0:0:0:
64,192,262184,1,2,0:0:0:0:
320,192,262184,1,0,0:0:0:0:
448,192,262229,1,2,0:0:0:0:
64,192,262274,1,2,0:0:0:0:
192,192,262274,1,0,0:0:0:0:
448,192,262319,1,2,0:0:0:0:
64,192,262364,1,2,0:0:0:0:
320,192,262364,1,0,0:0:0:0:
192,192,262408,1,2,0:0:0:0:
448,192,262453,128,2,262498:0:0:0:0:
320,192,262464,128,0,262498:0:0:0:0:
64,192,262543,1,0,0:0:0:0:
192,192,262543,1,0,0:0:0:0:
320,192,262587,128,0,262677:0:0:0:0:
448,192,262599,128,0,262677:0:0:0:0:
64,192,262677,1,0,0:0:0:0:
192,192,262707,1,0,0:0:0:0:
320,192,262737,1,0,0:0:0:0:
448,192,262767,1,0,0:0:0:0:
64,192,262811,1,2,0:0:0:0:
192,192,262811,1,0,0:0:0:0:
320,192,262856,1,2,0:0:0:0:
64,192,262901,1,2,0:0:0:0:
448,192,262901,1,0,0:0:0:0:
192,192,262946,1,2,0:0:0:0:
320,192,262990,1,2,0:0:0:0:
448,192,262990,1,0,0:0:0:0:
64,192,263035,1,2,0:0:0:0:
192,192,263080,1,2,0:0:0:0:
448,192,263080,1,0,0:0:0:0:
320,192,263125,1,2,0:0:0:0:
64,192,263170,1,2,0:0:0:0:
192,192,263170,1,0,0:0:0:0:
448,192,263214,1,2,0:0:0:0:
64,192,263259,1,2,0:0:0:0:
320,192,263259,1,0,0:0:0:0:
192,192,263304,1,2,0:0:0:0:
320,192,263349,1,2,0:0:0:0:
448,192,263349,1,0,0:0:0:0:
192,192,263393,1,2,0:0:0:0:
64,192,263438,1,2,0:0:0:0:
448,192,263438,1,0,0:0:0:0:
320,192,263483,1,2,0:0:0:0:
64,192,263528,1,2,0:0:0:0:
192,192,263528,1,0,0:0:0:0:
320,192,263572,1,2,0:0:0:0:
192,192,263617,1,2,0:0:0:0:
448,192,263617,1,0,0:0:0:0:
64,192,263662,1,2,0:0:0:0:
320,192,263707,1,2,0:0:0:0:
448,192,263707,1,0,0:0:0:0:
64,192,263752,1,2,0:0:0:0:
192,192,263796,1,0,0:0:0:0:
320,192,263819,1,0,0:0:0:0:
448,192,263841,1,0,0:0:0:0:
64,192,263864,1,0,0:0:0:0:
192,192,263886,1,0,0:0:0:0:
320,192,263908,1,0,0:0:0:0:
448,192,263931,1,0,0:0:0:0:
64,192,263953,1,0,0:0:0:0:
192,192,263975,1,2,0:0:0:0:
320,192,264020,1,2,0:0:0:0:
192,192,264065,1,2,0:0:0:0:
448,192,264065,1,0,0:0:0:0:
64,192,264110,1,2,0:0:0:0:
448,192,264155,1,0,0:0:0:0:
320,192,264177,1,0,0:0:0:0:
192,192,264199,1,0,0:0:0:0:
64,192,264222,1,0,0:0:0:0:
448,192,264244,1,2,0:0:0:0:
320,192,264244,1,0,0:0:0:0:
192,192,264289,1,2,0:0:0:0:
448,192,264334,1,2,0:0:0:0:
64,192,264334,1,0,0:0:0:0:
320,192,264378,1,2,0:0:0:0:
64,192,264423,1,0,0:0:0:0:
192,192,264446,1,0,0:0:0:0:
320,192,264468,1,0,0:0:0:0:
448,192,264490,1,0,0:0:0:0:
192,192,264513,1,2,0:0:0:0:
64,192,264513,1,0,0:0:0:0:
320,192,264558,1,2,0:0:0:0:
64,192,264692,1,2,0:0:0:0:
320,192,264692,1,0,0:0:0:0:
448,192,264692,1,0,0:0:0:0:
192,192,264737,1,2,0:0:0:0:
448,192,264781,1,2,0:0:0:0:
320,192,264826,1,0,0:0:0:0:
64,192,264961,1,2,0:0:0:0:
192,192,264961,1,0,0:0:0:0:
448,192,264961,1,0,0:0:0:0:
320,192,265005,1,2,0:0:0:0:
64,192,265050,1,2,0:0:0:0:
192,192,265095,1,0,0:0:0:0:
192,192,265229,1,2,0:0:0:0:
320,192,265229,1,0,0:0:0:0:
448,192,265229,1,0,0:0:0:0:
64,192,265274,1,2,0:0:0:0:
320,192,265319,1,2,0:0:0:0:
448,192,265364,1,0,0:0:0:0:
64,192,265498,1,2,0:0:0:0:
192,192,265498,1,0,0:0:0:0:
320,192,265498,1,0,0:0:0:0:
448,192,265543,1,2,0:0:0:0:
192,192,265587,1,2,0:0:0:0:
64,192,265632,1,0,0:0:0:0:
192,192,265767,1,2,0:0:0:0:
320,192,265767,1,0,0:0:0:0:
448,192,265767,1,0,0:0:0:0:
64,192,265811,1,2,0:0:0:0:
320,192,265856,1,2,0:0:0:0:
448,192,265901,1,0,0:0:0:0:
64,192,266035,1,2,0:0:0:0:
192,192,266035,1,0,0:0:0:30:LR_CymbalG_short.wav
320,192,266035,1,0,0:0:0:0:
64,192,266124,1,2,0:0:0:0:
192,192,266124,1,0,0:0:0:30:LR_CymbalG_short.wav
448,192,266124,1,0,0:0:0:0:
64,192,266303,1,2,0:0:0:0:
192,192,266303,1,0,0:0:0:30:LR_CymbalG_short.wav
320,192,266303,1,0,0:0:0:0:
64,192,266393,1,2,0:0:0:0:
192,192,266393,1,0,0:0:0:30:LR_CymbalG_short.wav
448,192,266393,1,0,0:0:0:0:
64,192,266572,1,2,0:0:0:0:
192,192,266572,1,0,0:0:0:30:LR_CymbalG_short.wav
320,192,266572,1,0,0:0:0:0:
64,192,266661,1,2,0:0:0:0:
192,192,266661,1,0,0:0:0:30:LR_CymbalG_short.wav
448,192,266661,1,0,0:0:0:0:
64,192,266840,1,2,0:0:0:0:
192,192,266840,1,0,0:0:0:30:LR_CymbalG_short.wav
320,192,266840,1,0,0:0:0:0:
64,192,266930,1,2,0:0:0:0:
192,192,266930,1,0,0:0:0:30:LR_CymbalG_short.wav
448,192,266930,1,0,0:0:0:0:
192,192,267288,1,2,0:0:0:0:
320,192,267288,1,0,0:0:0:30:LR_CymbalG_short.wav
448,192,267288,1,0,0:0:0:0:
64,192,267378,1,2,0:0:0:0:
320,192,267378,1,0,0:0:0:30:LR_CymbalG_short.wav
448,192,267378,1,0,0:0:0:0:
192,192,267557,1,2,0:0:0:0:
320,192,267557,1,0,0:0:0:30:LR_CymbalG_short.wav
448,192,267557,1,0,0:0:0:0:
64,192,267646,1,2,0:0:0:0:
320,192,267646,1,0,0:0:0:30:LR_CymbalG_short.wav
448,192,267646,1,0,0:0:0:0:
192,192,267826,1,2,0:0:0:0:
320,192,267826,1,0,0:0:0:30:LR_CymbalG_short.wav
448,192,267826,1,0,0:0:0:0:
64,192,267915,1,2,0:0:0:0:
320,192,267915,1,0,0:0:0:30:LR_CymbalG_short.wav
448,192,267915,1,0,0:0:0:0:
192,192,268094,1,2,0:0:0:0:
320,192,268094,1,0,0:0:0:30:LR_CymbalG_short.wav
448,192,268094,1,0,0:0:0:0:
64,192,268184,1,2,0:0:0:0:
320,192,268184,1,0,0:0:0:30:LR_CymbalG_short.wav
448,192,268184,1,0,0:0:0:0:
64,192,268542,1,2,0:0:0:0:
192,192,268542,1,0,0:0:0:30:LR_CymbalG_short.wav
448,192,268542,1,0,0:0:0:0:
64,192,268632,1,2,0:0:0:0:
192,192,268632,1,0,0:0:0:30:LR_CymbalG_short.wav
320,192,268632,1,0,0:0:0:0:
64,192,268811,1,2,0:0:0:0:
192,192,268811,1,0,0:0:0:30:LR_CymbalG_short.wav
448,192,268811,1,0,0:0:0:0:
64,192,268900,1,2,0:0:0:0:
192,192,268900,1,0,0:0:0:30:LR_CymbalG_short.wav
320,192,268900,1,0,0:0:0:0:
64,192,269079,1,2,0:0:0:0:
192,192,269079,1,0,0:0:0:30:LR_CymbalG_short.wav
448,192,269079,1,0,0:0:0:0:
64,192,269169,1,2,0:0:0:0:
192,192,269169,1,0,0:0:0:30:LR_CymbalG_short.wav
320,192,269169,1,0,0:0:0:0:
64,192,269348,1,2,0:0:0:0:
192,192,269348,1,0,0:0:0:30:LR_CymbalG_short.wav
448,192,269348,1,0,0:0:0:0:
64,192,269437,1,2,0:0:0:0:
192,192,269437,1,0,0:0:0:30:LR_CymbalG_short.wav
320,192,269437,1,0,0:0:0:0:
64,192,269796,1,2,0:0:0:0:
320,192,269796,1,0,0:0:0:30:LR_CymbalG_short.wav
448,192,269796,1,0,0:0:0:0:
192,192,269885,1,2,0:0:0:0:
320,192,269885,1,0,0:0:0:30:LR_CymbalG_short.wav
448,192,269885,1,0,0:0:0:0:
64,192,270064,1,2,0:0:0:0:
320,192,270064,1,0,0:0:0:30:LR_CymbalG_short.wav
448,192,270064,1,0,0:0:0:0:
192,192,270154,1,2,0:0:0:0:
320,192,270154,1,0,0:0:0:30:LR_CymbalG_short.wav
448,192,270154,1,0,0:0:0:0:
64,192,270333,1,2,0:0:0:0:
320,192,270333,1,0,0:0:0:30:LR_CymbalG_short.wav
448,192,270333,1,0,0:0:0:0:
192,192,270423,1,2,0:0:0:0:
320,192,270423,1,0,0:0:0:30:LR_CymbalG_short.wav
448,192,270423,1,0,0:0:0:0:
64,192,270602,1,2,0:0:0:0:
320,192,270602,1,0,0:0:0:30:LR_CymbalG_short.wav
448,192,270602,1,0,0:0:0:0:
192,192,270691,1,2,0:0:0:0:
320,192,270691,1,0,0:0:0:30:LR_CymbalG_short.wav
448,192,270691,1,0,0:0:0:0:
64,192,271049,1,2,0:0:0:0:
192,192,271049,1,0,0:0:0:30:LR_CymbalG_short.wav
320,192,271049,1,0,0:0:0:0:
64,192,271139,1,2,0:0:0:0:
192,192,271139,1,0,0:0:0:30:LR_CymbalG_short.wav
448,192,271139,1,0,0:0:0:0:
64,192,271318,1,2,0:0:0:0:
192,192,271318,1,0,0:0:0:30:LR_CymbalG_short.wav
448,192,271318,1,0,0:0:0:0:
64,192,271408,1,2,0:0:0:0:
192,192,271408,1,0,0:0:0:30:LR_CymbalG_short.wav
320,192,271408,1,0,0:0:0:0:
64,192,271587,1,2,0:0:0:0:
192,192,271587,1,0,0:0:0:30:LR_CymbalG_short.wav
320,192,271587,1,0,0:0:0:0:
64,192,271676,1,2,0:0:0:0:
192,192,271676,1,0,0:0:0:30:LR_CymbalG_short.wav
448,192,271676,1,0,0:0:0:0:
64,192,271855,1,2,0:0:0:0:
192,192,271855,1,0,0:0:0:30:LR_CymbalG_short.wav
448,192,271855,1,0,0:0:0:0:
64,192,271945,1,2,0:0:0:0:
192,192,271945,1,0,0:0:0:30:LR_CymbalG_short.wav
320,192,271945,1,0,0:0:0:0:
192,192,272303,1,2,0:0:0:0:
320,192,272303,1,0,0:0:0:30:LR_CymbalG_short.wav
448,192,272303,1,0,0:0:0:0:
64,192,272393,1,2,0:0:0:0:
320,192,272393,1,0,0:0:0:30:LR_CymbalG_short.wav
448,192,272393,1,0,0:0:0:0:
64,192,272572,1,2,0:0:0:0:
320,192,272572,1,0,0:0:0:30:LR_CymbalG_short.wav
448,192,272572,1,0,0:0:0:0:
192,192,272661,1,2,0:0:0:0:
320,192,272661,1,0,0:0:0:30:LR_CymbalG_short.wav
448,192,272661,1,0,0:0:0:0:
192,192,272840,1,2,0:0:0:0:
320,192,272840,1,0,0:0:0:30:LR_CymbalG_short.wav
448,192,272840,1,0,0:0:0:0:
64,192,272930,1,2,0:0:0:0:
320,192,272930,1,0,0:0:0:30:LR_CymbalG_short.wav
448,192,272930,1,0,0:0:0:0:
64,192,273109,1,2,0:0:0:0:
320,192,273109,1,0,0:0:0:30:LR_CymbalG_short.wav
448,192,273109,1,0,0:0:0:0:
192,192,273199,1,2,0:0:0:0:
320,192,273199,1,0,0:0:0:30:LR_CymbalG_short.wav
448,192,273199,1,0,0:0:0:0:
64,192,273557,1,2,0:0:0:0:
192,192,273557,1,0,0:0:0:30:LR_CymbalG_short.wav
448,192,273557,1,0,0:0:0:0:
64,192,273646,1,2,0:0:0:0:
192,192,273646,1,0,0:0:0:30:LR_CymbalG_short.wav
320,192,273646,1,0,0:0:0:0:
64,192,273826,1,2,0:0:0:0:
192,192,273826,1,0,0:0:0:30:LR_CymbalG_short.wav
320,192,273826,1,0,0:0:0:0:
64,192,273915,1,2,0:0:0:0:
192,192,273915,1,0,0:0:0:30:LR_CymbalG_short.wav
448,192,273915,1,0,0:0:0:0:
64,192,274094,1,2,0:0:0:0:
192,192,274094,1,0,0:0:0:30:LR_CymbalG_short.wav
448,192,274094,1,0,0:0:0:0:
64,192,274184,1,2,0:0:0:0:
192,192,274184,1,0,0:0:0:30:LR_CymbalG_short.wav
320,192,274184,1,0,0:0:0:0:
64,192,274363,1,2,0:0:0:0:
192,192,274363,1,0,0:0:0:30:LR_CymbalG_short.wav
320,192,274363,1,0,0:0:0:0:
64,192,274452,1,2,0:0:0:0:
192,192,274452,1,0,0:0:0:30:LR_CymbalG_short.wav
448,192,274452,1,0,0:0:0:0:
64,192,274811,1,2,0:0:0:0:
320,192,274811,1,0,0:0:0:30:LR_CymbalG_short.wav
448,192,274811,1,0,0:0:0:0:
192,192,274900,1,2,0:0:0:0:
320,192,274900,1,0,0:0:0:30:LR_CymbalG_short.wav
448,192,274900,1,0,0:0:0:0:
192,192,275079,1,2,0:0:0:0:
320,192,275079,1,0,0:0:0:30:LR_CymbalG_short.wav
448,192,275079,1,0,0:0:0:0:
64,192,275169,1,2,0:0:0:0:
320,192,275169,1,0,0:0:0:30:LR_CymbalG_short.wav
448,192,275169,1,0,0:0:0:0:
64,192,275348,1,2,0:0:0:0:
320,192,275348,1,0,0:0:0:30:LR_CymbalG_short.wav
448,192,275348,1,0,0:0:0:0:
192,192,275437,1,2,0:0:0:0:
320,192,275437,1,0,0:0:0:30:LR_CymbalG_short.wav
448,192,275437,1,0,0:0:0:0:
192,192,275616,1,2,0:0:0:0:
320,192,275616,1,0,0:0:0:30:LR_CymbalG_short.wav
448,192,275616,1,0,0:0:0:0:
64,192,275706,1,2,0:0:0:0:
320,192,275706,1,0,0:0:0:30:LR_CymbalG_short.wav
448,192,275706,1,0,0:0:0:0:
64,192,275885,1,2,0:0:0:0:
320,192,275885,1,0,0:0:0:30:LR_CymbalG_short.wav
448,192,275885,1,0,0:0:0:0:
192,192,275975,1,2,0:0:0:0:
320,192,275975,1,0,0:0:0:30:LR_CymbalG_short.wav
448,192,275975,1,0,0:0:0:0:
192,192,276154,1,2,0:0:0:0:
320,192,276154,1,0,0:0:0:30:LR_CymbalG_short.wav
448,192,276154,1,0,0:0:0:0:
64,192,276243,1,2,0:0:0:0:
320,192,276243,1,0,0:0:0:30:LR_CymbalG_short.wav
448,192,276243,1,0,0:0:0:0:
64,192,276422,1,2,0:0:0:0:
320,192,276422,1,0,0:0:0:30:LR_CymbalG_short.wav
448,192,276422,1,0,0:0:0:0:
192,192,276512,1,2,0:0:0:0:
320,192,276512,1,0,0:0:0:30:LR_CymbalG_short.wav
448,192,276512,1,0,0:0:0:0:
192,192,276691,1,2,0:0:0:0:
320,192,276691,1,0,0:0:0:30:LR_CymbalG_short.wav
448,192,276691,1,0,0:0:0:0:
64,192,276781,1,2,0:0:0:0:
320,192,276781,1,0,0:0:0:30:LR_CymbalG_short.wav
448,192,276781,1,0,0:0:0:0:
64,192,276960,1,0,0:0:0:70:LR4_BassLineLDRN.wav
448,192,276960,1,0,0:0:0:0:
320,192,277019,1,0,0:0:0:0:
192,192,277079,1,0,0:0:0:0:
64,192,277139,1,0,0:0:0:0:
320,192,277199,1,0,0:0:0:0:
192,192,277258,1,0,0:0:0:0:
64,192,277318,1,0,0:0:0:0:
448,192,277378,1,0,0:0:0:0:
320,192,277437,1,0,0:0:0:0:
192,192,277497,1,0,0:0:0:0:
64,192,277527,1,0,0:0:0:0:
448,192,277557,1,0,0:0:0:0:
320,192,277587,1,0,0:0:0:0:
192,192,277616,1,0,0:0:0:0:
64,192,277646,1,0,0:0:0:0:
448,192,277676,1,0,0:0:0:0:
320,192,277699,1,0,0:0:0:0:
192,192,277721,1,0,0:0:0:0:
64,192,277743,1,0,0:0:0:0:
448,192,277766,1,0,0:0:0:0:
320,192,277788,1,0,0:0:0:0:
192,192,277811,1,0,0:0:0:0:
64,192,277833,1,0,0:0:0:0:
448,192,277855,1,0,0:0:0:0:
320,192,277878,1,0,0:0:0:0:
192,192,277900,1,0,0:0:0:0:
64,192,277922,1,0,0:0:0:0:
448,192,277945,1,0,0:0:0:0:
320,192,277967,1,0,0:0:0:0:
192,192,277990,1,0,0:0:0:0:
64,192,278012,1,0,0:0:0:0:
320,192,278034,1,0,0:0:0:70:LR_CymbalLGLH_S.wav
448,192,278034,1,0,0:0:0:70:LR4_DrumRevBassImpact.wav
