osu file format v14

[General]
AudioFilename: audio.ogg
AudioLeadIn: 0
PreviewTime: 93077
Countdown: 0
SampleSet: Normal
StackLeniency: 0.7
Mode: 1
LetterboxInBreaks: 0
WidescreenStoryboard: 1

[Editor]
DistanceSpacing: 0.8
BeatDivisor: 4
GridSize: 32
TimelineZoom: 2.999999

[Metadata]
Title:Xronial Xero
TitleUnicode:Xroniàl Xéro
Artist:Camellia as "menaXe inXonnu"
ArtistUnicode:かめりあ as ”menaXe inXonnu”
Creator:Cynplytholowazy
Version:PH0ENIIXZ' HEAVENLY
Source:SOUND VOLTEX VIVID WAVE
Tags:Electronic Speedcore Drumstep Instrumental SDVX 5 Xronièr Xronier Xéroa Xeroa menace inconnu Masaya Oya 大箭将也 Cametek KamelCamellia かめるかめりあ BEMANI KONAMI Ph0eNiiXZ ler1211 Rinze
BeatmapID:3999737
BeatmapSetID:1935359

[Difficulty]
HPDrainRate:4
CircleSize:10
OverallDifficulty:8
ApproachRate:10
SliderMultiplier:1.4
SliderTickRate:1

[Events]
//Background and Video events
0,0,"bg.jpg",0,0
//Break Periods
//Storyboard Layer 0 (Background)
//Storyboard Layer 1 (Fail)
//Storyboard Layer 2 (Pass)
//Storyboard Layer 3 (Foreground)
//Storyboard Layer 4 (Overlay)
//Storyboard Sound Samples

[TimingPoints]
705,179.10447761194,7,1,0,90,1,0
705,-100,7,1,0,90,0,1
5719,179.10447761194,4,1,0,90,1,0
5719,-100,4,1,0,90,0,0
5808,-50,4,1,0,30,0,0
5898,-166.666666666667,4,1,0,30,0,0
7778,-166.666666666667,4,1,0,80,0,0
7868,179.10447761194,4,1,0,80,1,8
7869,179.10447761194,4,1,0,80,1,0
7869,-166.666666666667,4,1,0,80,0,0
13321,-166.666666666667,4,1,0,80,0,0
13366,-166.61368981248,4,1,0,80,0,0
13411,-166.506174507576,4,1,0,80,0,0
13500,-166.185391828648,4,1,0,80,0,0
13590,-165.745620980829,4,1,0,80,0,0
13679,-165.216222577239,4,1,0,80,0,0
13769,-164.597932629281,4,1,0,80,0,0
13858,-163.913646264056,4,1,0,80,0,0
13948,-163.155390775005,4,1,0,80,0,0
14038,-162.336716791384,4,1,0,80,0,0
14127,-161.473030475377,4,1,0,80,0,0
14217,-160.549677456859,4,1,0,80,0,0
14306,-159.591398411331,4,1,0,80,0,0
14396,-158.580569114007,4,1,0,80,0,0
14485,-157.543199941325,4,1,0,80,0,0
14575,-156.459317934851,4,1,0,80,0,0
14664,-155.356075037981,4,1,0,80,0,0
14754,-154.211590636663,4,1,0,80,0,0
14844,-153.040846118233,4,1,0,80,0,0
14933,-151.859825491476,4,1,0,80,0,0
15023,-150.644407099136,4,1,0,80,0,0
15112,-149.423846070839,4,1,0,80,0,0
15202,-148.172864360413,4,1,0,80,0,0
15291,-146.921260603819,4,1,0,80,0,0
15381,-145.642823678984,4,1,0,80,0,0
15470,-144.367743338806,4,1,0,80,0,0
15560,-143.069070395022,4,1,0,80,0,0
15650,-141.762695465064,4,1,0,80,0,0
15739,-140.464758873389,4,1,0,80,0,0
15829,-139.147518913783,4,1,0,80,0,0
15918,-137.841568924853,4,1,0,80,0,0
16008,-136.518822508919,4,1,0,80,0,0
16097,-135.209840589504,4,1,0,80,0,0
16187,-133.88631867609,4,1,0,80,0,0
16276,-132.578693905422,4,1,0,80,0,0
16366,-131.258555683204,4,1,0,80,0,0
16456,-129.941524114937,4,1,0,80,0,0
16515,-129.080236966572,4,1,0,80,0,0
16575,-128.206335033341,4,1,0,80,0,0
16635,-127.334660207894,4,1,0,80,0,0
16724,-126.046240399675,4,1,0,80,0,0
16814,-124.749493297868,4,1,0,80,0,0
16873,-123.903067410834,4,1,0,80,0,0
16933,-123.045477252244,4,1,0,80,0,0
16993,-122.191263533569,4,1,0,80,0,0
17082,-120.930738274222,4,1,0,80,0,0
17172,-119.664457750219,4,1,0,80,0,0
17217,-119.034633649494,4,1,0,80,0,0
17261,-118.421013523167,4,1,0,80,0,0
17306,-117.795756422502,4,1,0,80,0,0
17351,-117.172883370712,4,1,0,80,0,0
17441,-115.934476435164,4,1,0,80,0,0
17530,-114.719736848714,4,1,0,80,0,0
17575,-114.109392595077,4,1,0,80,0,0
17620,-113.501683814553,4,1,0,80,0,0
17664,-112.91006165892,4,1,0,80,0,0
17709,-112.307666889586,4,1,0,80,0,0
17754,-111.708006779702,4,1,0,80,0,0
17799,-111.111111111111,4,1,0,80,0,0
17854,-50,4,1,0,80,0,0
17943,-142.857142857143,4,1,0,40,0,0
18883,-125,4,1,0,80,0,0
19242,-111.111111111111,4,1,0,90,0,0
19331,-111.111111111111,4,1,0,90,0,1
28645,-111.111111111111,4,1,0,90,0,0
28754,-113.201581027668,4,1,0,90,0,0
28873,-115.37222043184,4,1,0,90,0,0
28993,-117.647058823529,4,1,0,90,0,0
29112,-119.993296463885,4,1,0,90,0,0
29232,-122.455960321532,4,1,0,90,0,0
29351,-125,4,1,0,90,0,0
29451,-100,4,1,0,90,0,1
29709,-102.558228331424,4,1,0,90,0,1
29978,-105.261095326737,4,1,0,90,0,1
30067,-106.186993476972,4,1,0,90,0,1
30247,-108.110283759308,4,1,0,90,0,1
30515,-111.106514994829,4,1,0,90,0,1
30794,-114.285714285714,4,1,0,90,0,0
30963,-125,4,1,0,90,0,0
31053,-126.021427274378,4,1,0,90,0,0
31142,-127.048054919908,4,1,0,90,0,0
31232,-128.103368712506,4,1,0,90,0,0
31321,-129.164340219617,4,1,0,90,0,0
31411,-130.255255255255,4,1,0,90,0,0
31500,-131.352323270559,4,1,0,90,0,0
31590,-132.480671948077,4,1,0,90,0,0
31679,-133.615710435117,4,1,0,90,0,0
31769,-134.783453097689,4,1,0,90,0,0
31859,-135.971786833856,4,1,0,90,0,0
31948,-137.167704318608,4,1,0,90,0,0
32038,-138.398643932595,4,1,0,90,0,0
32127,-139.637826961771,4,1,0,90,0,0
32217,-140.913705583756,4,1,0,90,0,0
32306,-142.198545231021,4,1,0,90,0,0
32396,-143.521869506773,4,1,0,90,0,0
32485,-144.854936338969,4,1,0,90,0,0
32575,-146.228402865571,4,1,0,90,0,0
32664,-147.6124641072,4,1,0,90,0,0
32754,-149.038977773006,4,1,0,90,0,0
32844,-150.493331887672,4,1,0,90,0,0
32933,-151.959710970002,4,1,0,90,0,0
33023,-153.471915081822,4,1,0,90,0,0
33112,-154.99720826354,4,1,0,90,0,0
33202,-156.570783981952,4,1,0,90,0,0
33291,-158.158614402917,4,1,0,90,0,0
33381,-159.797375086346,4,1,0,90,0,0
33470,-161.451669186926,4,1,0,90,0,0
33560,-163.159750793464,4,1,0,90,0,0
33650,-164.904360223357,4,1,0,90,0,0
33694,-165.770930371432,4,1,0,90,0,0
33739,-166.666666666667,4,1,0,90,0,0
33829,-114.285714285714,4,1,0,90,0,0
34008,-125,4,1,0,90,0,0
34097,-126.307746561655,4,1,0,90,0,0
34187,-127.658310561958,4,1,0,90,0,0
34276,-129.022574447646,4,1,0,90,0,0
34366,-130.432143724205,4,1,0,90,0,0
34456,-131.872852233677,4,1,0,90,0,0
34545,-133.329197170865,4,1,0,90,0,0
34635,-134.83498556908,4,1,0,90,0,0
34724,-136.357868020305,4,1,0,90,0,0
34814,-137.93324775353,4,1,0,90,0,0
34903,-139.527334112453,4,1,0,90,0,0
34993,-141.177243463408,4,1,0,90,0,0
35082,-142.84764690242,4,1,0,90,0,0
35172,-144.577502691066,4,1,0,90,0,0
35261,-146.329837940896,4,1,0,90,0,0
35351,-148.145594926237,4,1,0,90,0,0
35441,-150.00698031551,4,1,0,90,0,0
35530,-151.894260672887,4,1,0,90,0,0
35620,-153.85166093929,4,1,0,90,0,0
35709,-155.837563451777,4,1,0,90,0,0
35799,-157.898603967671,4,1,0,90,0,0
35888,-159.99106611078,4,1,0,90,0,0
35978,-162.164201629943,4,1,0,90,0,0
36067,-164.372036102188,4,1,0,90,0,0
36157,-166.666666666667,4,1,0,90,0,0
36515,-181.818181818182,4,1,0,90,0,0
36605,-179.325353645267,4,1,0,90,0,0
36694,-176.926545423314,4,1,0,90,0,0
36784,-174.565175942207,4,1,0,90,0,0
36873,-172.291222347677,4,1,0,90,0,0
36963,-170.051180452369,4,1,0,90,0,0
37053,-167.868638715723,4,1,0,90,0,0
37142,-165.764750849947,4,1,0,90,0,0
37232,-163.690180575697,4,1,0,90,0,0
37321,-161.689101683607,4,1,0,90,0,0
37411,-159.714684447201,4,1,0,90,0,0
37500,-157.809058699607,4,1,0,90,0,0
37590,-155.927713123285,4,1,0,90,0,0
37679,-154.110870053116,4,1,0,90,0,0
37769,-152.316166956265,4,1,0,90,0,0
37858,-150.582043456808,4,1,0,90,0,0
37948,-148.868132463732,4,1,0,90,0,0
38038,-147.192797556314,4,1,0,90,0,0
38127,-145.572751042329,4,1,0,90,0,0
38217,-143.970367264214,4,1,0,90,0,0
38306,-142.420104740999,4,1,0,90,0,0
38396,-140.886008856669,4,1,0,90,0,0
38485,-139.401116562341,4,1,0,90,0,0
38575,-137.931034482759,4,1,0,90,0,0
38664,-136.507463181088,4,1,0,90,0,0
38754,-135.097470201499,4,1,0,90,0,0
38844,-133.716307222953,4,1,0,90,0,0
38933,-132.377984127494,4,1,0,90,0,0
39023,-131.051593612825,4,1,0,90,0,0
39112,-129.765823083828,4,1,0,90,0,0
39202,-128.491010307349,4,1,0,90,0,0
39291,-127.254756609834,4,1,0,90,0,0
39381,-126.028570554587,4,1,0,90,0,0
39441,-125.224157320446,4,1,0,90,0,0
39500,-124.44310201616,4,1,0,90,0,0
39560,-123.658737900503,4,1,0,90,0,0
39650,-122.500557496469,4,1,0,90,0,0
39739,-121.376384633514,4,1,0,90,0,0
39799,-120.630087251859,4,1,0,90,0,0
39859,-119.892911186125,4,1,0,90,0,0
39918,-119.176754747545,4,1,0,90,0,0
40008,-118.100643533846,4,1,0,90,0,0
40097,-117.055430860585,4,1,0,90,0,0
40142,-116.53396314472,4,1,0,90,0,0
40187,-116.017120973192,4,1,0,90,0,0
40232,-115.504843073214,4,1,0,90,0,0
40276,-115.008304604519,4,1,0,90,0,0
40366,-114.005838648533,4,1,0,90,0,0
40456,-113.020697601053,4,1,0,90,0,0
40500,-112.545243461039,4,1,0,90,0,0
40545,-112.063103495172,4,1,0,90,0,0
40590,-111.585076850159,4,1,0,90,0,0
40635,-111.111111111111,4,1,0,90,0,0
40734,-50,4,1,0,90,0,0
40913,-166.666666666667,4,1,0,90,0,0
42257,-111.111111111111,4,1,0,90,0,1
52286,-100,4,1,0,90,0,0
53719,-111.111111111111,4,1,0,90,0,1
55152,-111.111111111111,4,1,0,90,0,0
55232,-112.790795330478,4,1,0,90,0,0
55321,-114.50251513343,4,1,0,90,0,0
55411,-116.287124426357,4,1,0,90,0,0
55500,-118.107466361798,4,1,0,90,0,0
55590,-120.007148601555,4,1,0,90,0,0
55679,-121.946790157087,4,1,0,90,0,0
55769,-123.973045324471,4,1,0,90,0,0
55858,-126.044110746129,4,1,0,90,0,0
55948,-128.210023866349,4,1,0,90,0,0
56038,-130.451675570665,4,1,0,90,0,0
56127,-132.746861717901,4,1,0,90,0,0
56217,-135.151454161216,4,1,0,90,0,0
56306,-137.616559073676,4,1,0,90,0,0
56396,-140.202526359745,4,1,0,90,0,0
56485,-142.857142857143,4,1,0,90,0,0
56585,-111.111111111111,4,1,0,90,0,1
58018,-111.111111111111,4,1,0,90,0,0
58097,-108.924029636183,4,1,0,90,0,0
58187,-106.798221836713,4,1,0,90,0,0
58276,-104.77608765025,4,1,0,90,0,0
58366,-102.807640121073,4,1,0,90,0,0
58456,-100.911791824608,4,1,0,90,0,0
58545,-99.1045376798471,4,1,0,90,0,0
58635,-97.3416345488685,4,1,0,90,0,0
58724,-95.6589297853744,4,1,0,90,0,0
58814,-94.0154624415386,4,1,0,90,0,0
58903,-92.4448615673393,4,1,0,90,0,0
58993,-90.9090909090909,4,1,0,90,0,0
59451,-111.111111111111,4,1,0,90,0,1
59620,-121.951219512195,4,1,0,90,0,1
59679,-120.657888823979,4,1,0,90,0,1
59739,-119.370470813142,4,1,0,90,0,1
59799,-118.110236220472,4,1,0,90,0,1
59888,-116.289142015678,4,1,0,90,0,1
59933,-115.389574111479,4,1,0,90,0,1
59978,-114.503816793893,4,1,0,90,0,1
60067,-112.791430371771,4,1,0,90,0,1
60157,-111.111111111111,4,1,0,90,0,1
60336,-121.951219512195,4,1,0,90,0,1
60396,-120.636204340208,4,1,0,90,0,1
60456,-119.349246566209,4,1,0,90,0,1
60515,-118.110236220472,4,1,0,90,0,1
60605,-116.268999263846,4,1,0,90,0,1
60650,-115.369741760839,4,1,0,90,0,1
60694,-114.503816793893,4,1,0,90,0,1
60784,-112.772480994582,4,1,0,90,0,1
60873,-111.111111111111,4,1,0,90,0,1
61053,-121.951219512195,4,1,0,90,0,1
61112,-120.657888823979,4,1,0,90,0,1
61172,-119.370470813142,4,1,0,90,0,1
61232,-118.110236220472,4,1,0,90,0,1
61321,-116.289142015678,4,1,0,90,0,1
61366,-115.389574111479,4,1,0,90,0,1
61411,-114.503816793893,4,1,0,90,0,1
61500,-112.791430371771,4,1,0,90,0,1
61590,-111.111111111111,4,1,0,90,0,1
61769,-121.951219512195,4,1,0,90,0,1
61829,-120.636204340208,4,1,0,90,0,1
61888,-119.370470813142,4,1,0,90,0,1
61948,-118.110236220472,4,1,0,90,0,1
62038,-116.268999263846,4,1,0,90,0,1
62082,-115.389574111479,4,1,0,90,0,1
62127,-114.503816793893,4,1,0,90,0,1
62217,-112.772480994582,4,1,0,90,0,1
62306,-111.111111111111,4,1,0,90,0,1
62485,-121.951219512195,4,1,0,90,0,1
62545,-120.638622297964,4,1,0,90,0,1
62605,-119.353979944982,4,1,0,90,0,1
62664,-118.117151137262,4,1,0,90,0,1
62754,-116.279069767442,4,1,0,90,0,1
62799,-115.381315947499,4,1,0,90,0,1
62844,-114.497318464289,4,1,0,90,0,1
62933,-112.788259958071,4,1,0,90,0,1
63023,-111.111111111111,4,1,0,90,0,1
63202,-121.951219512195,4,1,0,90,0,1
63261,-120.657888823979,4,1,0,90,0,1
63321,-119.370470813142,4,1,0,90,0,1
63381,-118.110236220472,4,1,0,90,0,1
63470,-116.289142015678,4,1,0,90,0,1
63515,-115.389574111479,4,1,0,90,0,1
63560,-114.503816793893,4,1,0,90,0,1
63650,-112.772480994582,4,1,0,90,0,1
63739,-111.111111111111,4,1,0,90,0,1
63918,-121.951219512195,4,1,0,90,0,1
63978,-120.638622297964,4,1,0,90,0,1
64038,-119.353979944982,4,1,0,90,0,1
64097,-118.117151137262,4,1,0,90,0,1
64187,-116.279069767442,4,1,0,90,0,1
64232,-115.381315947499,4,1,0,90,0,1
64276,-114.516815666241,4,1,0,90,0,1
64366,-112.788259958071,4,1,0,90,0,1
64456,-111.111111111111,4,1,0,90,0,1
64635,-121.951219512195,4,1,0,90,0,1
64694,-120.657888823979,4,1,0,90,0,1
64754,-119.370470813142,4,1,0,90,0,1
64814,-118.110236220472,4,1,0,90,0,1
64903,-116.289142015678,4,1,0,90,0,1
64993,-114.503816793893,4,1,0,90,0,1
65082,-112.791430371771,4,1,0,90,0,1
65182,-50,4,1,0,90,0,0
65271,-166.666666666667,4,1,0,90,0,0
67331,179.10447761194,4,1,0,80,1,0
67331,-166.666666666667,4,1,0,80,0,0
67420,-166.666666666667,4,1,0,65,0,0
73052,-166.666666666667,4,1,0,65,0,0
73231,-164.875412788952,4,1,0,65,0,0
73321,-163.989250522544,4,1,0,65,0,0
73410,-163.122252584056,4,1,0,65,0,0
73500,-162.254786102576,4,1,0,65,0,0
73589,-161.405983659554,4,1,0,65,0,0
73679,-160.556627492253,4,1,0,65,0,0
73768,-159.725453699395,4,1,0,65,0,0
73947,-158.079557883829,4,1,0,65,0,0
74037,-157.264761468415,4,1,0,65,0,0
74126,-156.467236467236,4,1,0,65,0,0
74306,-154.878736604625,4,1,0,65,0,0
74395,-154.105168640216,4,1,0,65,0,0
74485,-153.330727567145,4,1,0,65,0,0
74574,-152.572508056451,4,1,0,65,0,0
74664,-151.813356921716,4,1,0,65,0,0
74753,-151.070033558893,4,1,0,65,0,0
74843,-150.325723983139,4,1,0,65,0,0
74932,-149.596862061451,4,1,0,65,0,0
75022,-148.866963027215,4,1,0,65,0,0
75201,-147.436241610738,4,1,0,65,0,0
75291,-146.72722415175,4,1,0,65,0,0
75380,-146.03275898745,4,1,0,65,0,0
75559,-144.655744613602,4,1,0,65,0,0
75738,-143.304456737293,4,1,0,65,0,0
75828,-142.634531477249,4,1,0,65,0,0
75918,-141.970840657636,4,1,0,65,0,0
76097,-140.669023103325,4,1,0,65,0,0
76186,-140.03059663437,4,1,0,65,0,0
76276,-139.390862944162,4,1,0,65,0,0
76365,-138.763959775633,4,1,0,65,0,0
76455,-138.135721112732,4,1,0,65,0,0
76544,-137.520032051282,4,1,0,65,0,0
76634,-136.902981354073,4,1,0,65,0,0
76723,-136.298208169951,4,1,0,65,0,0
76813,-135.692049216781,4,1,0,65,0,0
76903,-135.091257932799,4,1,0,65,0,0
76992,-134.502351097179,4,1,0,65,0,0
77082,-133.912025748561,4,1,0,65,0,0
77171,-133.333333333333,4,1,0,65,0,0
77271,-100,4,1,0,80,0,0
78704,-125,4,1,0,80,0,0
78962,-133.333333333333,4,1,0,80,0,0
79052,-133.330567612013,4,1,0,80,0,0
79141,-133.322394033584,4,1,0,80,0,0
79231,-133.30863197894,4,1,0,80,0,0
79320,-133.289592284254,4,1,0,80,0,0
79410,-133.264854205972,4,1,0,80,0,0
79500,-133.234610225951,4,1,0,80,0,0
79589,-133.199298843475,4,1,0,80,0,0
79679,-133.158139706966,4,1,0,80,0,0
79768,-133.112062394363,4,1,0,80,0,0
79858,-133.060048593934,4,1,0,80,0,0
79947,-133.003272983337,4,1,0,80,0,0
80037,-132.940480752042,4,1,0,80,0,0
80126,-132.873089919292,4,1,0,80,0,0
80216,-132.799610971149,4,1,0,80,0,0
80276,-132.74766005624,4,1,0,80,0,0
80335,-132.694271542832,4,1,0,80,0,0
80395,-132.637644373119,4,1,0,80,0,0
80485,-132.548311187851,4,1,0,80,0,0
80529,-132.502727341048,4,1,0,80,0,0
80574,-132.454815720534,4,1,0,80,0,0
80664,-132.355091054655,4,1,0,80,0,0
80753,-132.251388631143,4,1,0,80,0,0
80843,-132.141415658882,4,1,0,80,0,0
80932,-132.027654702924,4,1,0,80,0,0
81022,-131.907590309545,4,1,0,80,0,0
81112,-131.782515469284,4,1,0,80,0,0
81201,-131.653946824936,4,1,0,80,0,0
81291,-131.519040979901,4,1,0,80,0,0
81380,-131.380842458603,4,1,0,80,0,0
81470,-131.236294485211,4,1,0,80,0,0
81559,-131.08865875668,4,1,0,80,0,0
81649,-130.934669293993,4,1,0,80,0,0
81738,-130.777800353244,4,1,0,80,0,0
81828,-130.614581176071,4,1,0,80,0,0
81918,-130.44680469874,4,1,0,80,0,0
82007,-130.276467077682,4,1,0,80,0,0
82097,-130.099798644004,4,1,0,80,0,0
82186,-129.92078379258,4,1,0,80,0,0
82276,-129.735460144469,4,1,0,80,0,0
82365,-129.548006596132,4,1,0,80,0,0
82455,-129.354273242249,4,1,0,80,0,0
82544,-129.158627849706,4,1,0,80,0,0
82634,-128.956738354821,4,1,0,80,0,0
82723,-128.753155582598,4,1,0,80,0,0
82813,-128.543370848367,4,1,0,80,0,0
82903,-128.329717121269,4,1,0,80,0,0
82992,-128.114699599393,4,1,0,80,0,0
83082,-127.893554921095,4,1,0,80,0,0
83141,-127.746590498719,4,1,0,80,0,0
83201,-127.595541404041,4,1,0,80,0,0
83261,-127.442906009251,4,1,0,80,0,0
83350,-127.213620274207,4,1,0,80,0,0
83395,-127.096400394682,4,1,0,80,0,0
83440,-126.978326755649,4,1,0,80,0,0
83529,-126.74232452977,4,1,0,80,0,0
83619,-126.500382007716,4,1,0,80,0,0
83709,-126.255205165615,4,1,0,80,0,0
83798,-126.009643681484,4,1,0,80,0,0
83888,-125.758252226931,4,1,0,80,0,0
83977,-125.50668937581,4,1,0,80,0,0
84067,-125.249375439519,4,1,0,80,0,0
84156,-124.99210101499,4,1,0,80,0,0
84246,-124.729158399969,4,1,0,80,0,0
84335,-124.466463524649,4,1,0,80,0,0
84380,-124.332651241799,4,1,0,80,0,0
84425,-124.198187054438,4,1,0,80,0,0
84470,-124.063080293148,4,1,0,80,0,0
84515,-123.92734028793,4,1,0,80,0,0
84604,-123.657048432799,4,1,0,80,0,0
84694,-123.38131140923,4,1,0,80,0,0
84783,-123.106329426434,4,1,0,80,0,0
84873,-122.825996806209,4,1,0,80,0,0
84962,-122.546615613045,4,1,0,80,0,0
85052,-122.261980967724,4,1,0,80,0,0
85141,-121.978490131442,4,1,0,80,0,0
85231,-121.689845397686,4,1,0,80,0,0
85321,-121.399294051937,4,1,0,80,0,0
85410,-121.110167569552,4,1,0,80,0,0
85500,-120.816040649711,4,1,0,80,0,0
85589,-120.523519936298,4,1,0,80,0,0
85679,-120.226103074812,4,1,0,80,0,0
85768,-119.930468997355,4,1,0,80,0,0
85858,-119.630044499012,4,1,0,80,0,0
85947,-119.331574423565,4,1,0,80,0,0
86037,-119.028420847697,4,1,0,80,0,0
86126,-118.727388240888,4,1,0,80,0,0
86216,-118.421780013251,4,1,0,80,0,0
86306,-118.115039877878,4,1,0,80,0,0
86395,-117.810661127563,4,1,0,80,0,0
86485,-117.501870193278,4,1,0,80,0,0
86574,-117.195593893499,4,1,0,80,0,0
86664,-116.885014734556,4,1,0,80,0,0
86723,-116.68097384958,4,1,0,80,0,0
86783,-116.47314011643,4,1,0,80,0,0
86843,-116.264987905765,4,1,0,80,0,0
86932,-115.955682444291,4,1,0,80,0,0
87022,-115.642293263533,4,1,0,80,0,0
87082,-115.433057888215,4,1,0,80,0,0
87141,-115.227089197522,4,1,0,80,0,0
87201,-115.01742304969,4,1,0,80,0,0
87390,-114.390857778749,4,1,0,80,0,1
87470,-114.075332695881,4,1,0,80,0,1
87559,-113.763065878721,4,1,0,80,0,1
87649,-113.447097130035,4,1,0,80,0,1
87738,-113.13450338355,4,1,0,80,0,1
87828,-112.818315494269,4,1,0,80,0,1
87918,-112.502100220408,4,1,0,80,0,1
88007,-112.189424727199,4,1,0,80,0,1
88097,-111.873315581507,4,1,0,80,0,1
88186,-111.560848817495,4,1,0,80,0,1
88276,-111.245054039732,4,1,0,80,0,1
88365,-110.932998661872,4,1,0,80,0,1
88465,-100,4,1,0,80,0,0
88823,-109.3673845663,4,1,0,80,0,1
88903,-109.054237108581,4,1,0,80,0,1
88992,-108.745125728522,4,1,0,80,0,1
89052,-108.537070054478,4,1,0,80,0,1
89112,-108.32929838894,4,1,0,80,0,1
89171,-108.125278878937,4,1,0,80,0,1
89261,-107.814642358084,4,1,0,80,0,1
89350,-107.50818211849,4,1,0,80,0,1
89410,-107.302006436485,4,1,0,80,0,1
89470,-107.096188283093,4,1,0,80,0,1
89529,-106.894160467839,4,1,0,80,0,1
89619,-106.586695126424,4,1,0,80,0,1
89664,-106.433295680231,4,1,0,80,0,1
89709,-106.280124705056,4,1,0,80,0,1
89798,-105.977877546044,4,1,0,80,0,1
89898,-100,4,1,0,80,0,0
90256,-104.471542641747,4,1,0,80,0,1
90306,-104.27185666296,4,1,0,80,0,1
90365,-104.076002336792,4,1,0,80,0,1
90425,-103.877349811624,4,1,0,80,0,1
90515,-103.580376917528,4,1,0,80,0,1
90604,-103.287917358868,4,1,0,80,0,1
90664,-103.091449297518,4,1,0,80,0,1
90723,-102.89881185391,4,1,0,80,0,1
90783,-102.703483358751,4,1,0,80,0,1
90873,-102.411594116265,4,1,0,80,0,1
90962,-102.124274377588,4,1,0,80,0,1
91007,-101.979510731649,4,1,0,80,0,1
91052,-101.835094282272,4,1,0,80,0,1
91097,-101.691028297115,4,1,0,80,0,1
91141,-101.550505741807,4,1,0,80,0,1
91231,-101.264138899613,4,1,0,80,0,1
91320,-100.982381817228,4,1,0,80,0,1
91365,-100.840468367788,4,1,0,80,0,1
91410,-100.698926931498,4,1,0,80,0,1
91455,-100.55776044039,4,1,0,80,0,1
91500,-100.416971785642,4,1,0,80,0,1
91544,-100.279679838886,4,1,0,80,0,1
91589,-100.139646816097,4,1,0,80,0,1
91634,-100,4,1,0,80,0,1
91689,-50,4,1,0,80,0,0
91778,-142.857142857143,4,1,0,80,0,0
92674,-125,4,1,0,80,0,0
93032,-111.111111111111,4,1,0,90,0,0
93122,-111.111111111111,4,1,0,90,0,1
98664,-111.111111111111,4,1,0,90,0,1
98709,-111.590451538683,4,1,0,90,0,1
98753,-112.063155867912,4,1,0,90,0,1
98798,-112.550763875459,4,1,0,90,0,1
98843,-113.042633776828,4,1,0,90,0,1
98932,-114.028213166144,4,1,0,90,0,1
99022,-115.042498517494,4,1,0,90,0,1
99067,-115.556438002581,4,1,0,90,0,1
99112,-116.074990027922,4,1,0,90,0,1
99201,-117.114397826743,4,1,0,90,0,1
99291,-118.184587267743,4,1,0,90,0,1
99335,-118.714941356451,4,1,0,90,0,1
99380,-119.262295081967,4,1,0,90,0,1
99425,-119.814719505919,4,1,0,90,0,1
99470,-120.372285418821,4,1,0,90,0,1
99559,-121.490449848659,4,1,0,90,0,1
99649,-122.642503424297,4,1,0,90,0,1
99694,-123.226762650857,4,1,0,90,0,1
99738,-123.803446075303,4,1,0,90,0,1
99783,-124.398845783905,4,1,0,90,0,1
99828,-125,4,1,0,90,0,1
99928,-111.111111111111,4,1,0,90,0,0
100286,-111.111111111111,4,1,0,90,0,1
100321,-111.678004535147,4,1,0,90,0,1
100365,-112.237921604376,4,1,0,90,0,1
100410,-112.816401328599,4,1,0,90,0,1
100455,-113.400874971218,4,1,0,90,0,1
100544,-114.574851692451,4,1,0,90,0,1
100634,-115.786998942048,4,1,0,90,0,1
100679,-116.402741668636,4,1,0,90,0,1
100723,-117.011166547874,4,1,0,90,0,1
100813,-118.275696445725,4,1,0,90,0,1
100903,-119.567856275795,4,1,0,90,0,1
100947,-120.209909690017,4,1,0,90,0,1
100992,-120.873726837649,4,1,0,90,0,1
101082,-122.223600943045,4,1,0,90,0,1
101171,-123.588456712672,4,1,0,90,0,1
101216,-124.290220820189,4,1,0,90,0,1
101261,-125,4,1,0,90,0,1
101360,-111.111111111111,4,1,0,90,0,0
101719,-133.333333333333,4,1,0,90,0,1
101753,-132.465354835528,4,1,0,90,0,1
101798,-131.589261218891,4,1,0,90,0,1
101843,-130.724680001947,4,1,0,90,0,1
101888,-129.871385746059,4,1,0,90,0,1
101977,-128.216143968686,4,1,0,90,0,1
102067,-126.584664687309,4,1,0,90,0,1
102156,-125.011635483571,4,1,0,90,0,1
102246,-123.460194888766,4,1,0,90,0,1
102291,-122.698826001553,4,1,0,90,0,1
102335,-121.963401898016,4,1,0,90,0,1
102425,-120.486251289642,4,1,0,90,0,1
102515,-119.044453308514,4,1,0,90,0,1
102559,-118.352059925094,4,1,0,90,0,1
102604,-117.652212001752,4,1,0,90,0,1
102694,-116.277056277056,4,1,0,90,0,1
102783,-114.948431548765,4,1,0,90,0,1
102828,-114.288145689728,4,1,0,90,0,1
102873,-113.635402123789,4,1,0,90,0,1
102918,-112.99007235403,4,1,0,90,0,1
102962,-112.366131191432,4,1,0,90,0,1
103007,-111.735097133824,4,1,0,90,0,1
103052,-111.111111111111,4,1,0,90,0,1
103107,-100,4,1,0,90,0,1
104226,-111.111111111111,4,1,0,90,0,0
104306,-108.091787439613,4,1,0,90,0,0
104395,-105.263157894737,4,1,0,90,0,0
104485,-102.549412775709,4,1,0,90,0,0
104584,-100,4,1,0,90,0,1
104674,-111.111111111111,4,1,0,90,0,1
109231,-111.111111111111,4,1,0,90,0,1
109321,-109.88336402701,4,1,0,90,0,1
109410,-108.695652173913,4,1,0,90,0,1
109500,-107.520422873619,4,1,0,90,0,1
109589,-106.382978723404,4,1,0,90,0,1
109768,-104.166666666667,4,1,0,90,0,1
109858,-103.086846348768,4,1,0,90,0,1
110037,-101.004401309107,4,1,0,90,0,1
110126,-100,4,1,0,90,0,1
110226,-111.111111111111,4,1,0,90,0,1
110395,-111.935322553759,4,1,0,90,0,1
110485,-112.781323480013,4,1,0,90,0,1
110574,-113.630594804975,4,1,0,90,0,1
110619,-114.064888737897,4,1,0,90,0,1
110664,-114.50251513343,4,1,0,90,0,1
110709,-114.943512495721,4,1,0,90,0,1
110753,-115.378006872852,4,1,0,90,0,1
110843,-116.277056277056,4,1,0,90,0,1
110888,-116.731855714907,4,1,0,90,0,1
110932,-117.180001745048,4,1,0,90,0,1
111022,-118.107466361798,4,1,0,90,0,1
111112,-119.049729633898,4,1,0,90,0,1
111156,-119.515885022693,4,1,0,90,0,1
111201,-119.996426018585,4,1,0,90,0,1
111291,-120.969194739687,4,1,0,90,0,1
111390,-121.946790157087,4,1,0,90,0,0
111559,-123.961602362932,4,1,0,90,0,0
111649,-125,4,1,0,90,0,0
111748,-111.111111111111,4,1,0,90,0,1
111783,-111.678004535147,4,1,0,90,0,1
111828,-112.250712250712,4,1,0,90,0,1
111873,-112.82932416953,4,1,0,90,0,1
111918,-113.413932066782,4,1,0,90,0,1
112007,-114.588180549093,4,1,0,90,0,1
112097,-115.800611333177,4,1,0,90,0,1
112156,-116.609447140997,4,1,0,90,0,1
112216,-117.443662811494,4,1,0,90,0,1
112276,-118.289900324246,4,1,0,90,0,1
112365,-119.567856275795,4,1,0,90,0,1
112410,-120.22458196021,4,1,0,90,0,1
112455,-120.888561610211,4,1,0,90,0,1
112544,-122.223600943045,4,1,0,90,0,1
112634,-123.603965365792,4,1,0,90,0,1
112723,-125,4,1,0,90,0,1
112823,-133.333333333333,4,1,0,90,0,0
113181,-133.333333333333,4,1,0,90,0,1
113261,-131.571218795888,4,1,0,90,0,1
113350,-129.873894767358,4,1,0,90,0,1
113395,-129.032258064516,4,1,0,90,0,1
113440,-128.201459436257,4,1,0,90,0,1
113485,-127.381290872903,4,1,0,90,0,1
113529,-126.58943204295,4,1,0,90,0,1
113619,-125,4,1,0,90,0,1
113709,-123.4499862221,4,1,0,90,0,1
113753,-122.70610791564,4,1,0,90,0,1
113798,-121.954539267728,4,1,0,90,0,1
113843,-121.212121212121,4,1,0,90,0,1
113888,-120.478687642867,4,1,0,90,0,1
113977,-119.053946319426,4,1,0,90,0,1
114067,-117.647058823529,4,1,0,90,0,1
114156,-116.288124594419,4,1,0,90,0,1
114246,-114.94547787043,4,1,0,90,0,1
114291,-114.285714285714,4,1,0,90,0,1
114335,-113.647894469812,4,1,0,90,0,1
114380,-113.002900744104,4,1,0,90,0,1
114425,-112.365186857286,4,1,0,90,0,1
114470,-111.734630253149,4,1,0,90,0,1
114515,-111.111111111111,4,1,0,90,0,1
114569,-100,4,1,0,90,0,1
114614,179.10447761194,4,1,0,90,1,9
114615,179.10447761194,7,1,0,90,1,0
114615,-100,7,1,0,90,0,0
117032,-50,7,1,0,60,0,0
117122,179.10447761194,4,1,0,60,1,0
117122,-50,4,1,0,60,0,0
117211,-142.857142857143,4,1,0,60,0,0
118107,-125,4,1,0,60,0,0
118465,-111.111111111111,4,1,0,70,0,0
118554,179.10447761194,4,1,0,70,1,8
118555,179.10447761194,4,1,0,70,1,0
118555,-111.111111111111,4,1,0,70,0,0
118589,-111.016390901693,4,1,0,70,0,0
118634,-110.919684856463,4,1,0,70,0,0
118679,-110.823147145289,4,1,0,70,0,0
118724,-110.72677732903,4,1,0,70,0,0
118813,-110.536671939504,4,1,0,70,0,0
118903,-110.345093205978,4,1,0,70,0,0
118947,-110.251673978296,4,1,0,70,0,0
118992,-110.156295057385,4,1,0,70,0,0
119037,-110.061081018785,4,1,0,70,0,0
119082,-109.966031435316,4,1,0,70,0,0
119171,-109.778527090198,4,1,0,70,0,0
119261,-109.589565084344,4,1,0,70,0,0
119306,-109.495327817164,4,1,0,70,0,0
119350,-109.403341288783,4,1,0,70,0,0
119395,-109.309423884014,4,1,0,70,0,0
119440,-109.215667587916,4,1,0,70,0,0
119530,-109.028636666349,4,1,0,70,0,0
119619,-108.844312742193,4,1,0,70,0,0
119664,-108.751352274668,4,1,0,70,0,0
119709,-108.658550460803,4,1,0,70,0,0
119753,-108.567963924362,4,1,0,70,0,0
119798,-108.475474698521,4,1,0,70,0,0
119888,-108.290968193072,4,1,0,70,0,0
119987,-108.109127957436,4,1,0,80,0,0
120067,-107.92586453703,4,1,0,80,0,0
120156,-107.74524736278,4,1,0,80,0,0
120246,-107.563214506955,4,1,0,80,0,0
120336,-107.381795693484,4,1,0,80,0,0
120425,-107.202993451824,4,1,0,80,0,0
120515,-107.022786701532,4,1,0,80,0,0
120604,-106.845177049731,4,1,0,80,0,0
120694,-106.666170256334,4,1,0,80,0,0
120739,-106.576891600327,4,1,0,80,0,0
120783,-106.489741302409,4,1,0,80,0,0
120873,-106.311922520316,4,1,0,80,0,0
120962,-106.136662529868,4,1,0,80,0,0
121007,-106.048267693219,4,1,0,80,0,0
121052,-105.960019971522,4,1,0,80,0,0
121142,-105.783964406373,4,1,0,80,0,0
121231,-105.610439398408,4,1,0,80,0,0
121276,-105.52291854662,4,1,0,80,0,0
121321,-105.435542634233,4,1,0,80,0,0
121365,-105.350248207391,4,1,0,80,0,0
121410,-105.263157894737,4,1,0,80,0,0
121465,-50,4,1,0,80,0,0
121555,-166.666666666667,4,1,0,80,0,0
122763,-146.159133871799,4,1,0,80,0,0
122933,-143.932983584363,4,1,0,80,0,0
123022,-141.797265755252,4,1,0,80,0,0
123112,-139.701051248357,4,1,0,80,0,0
123201,-137.688198154444,4,1,0,80,0,0
123291,-135.710866443274,4,1,0,80,0,0
123380,-133.810572687225,4,1,0,80,0,0
123470,-131.942289792119,4,1,0,80,0,0
123559,-130.145371078806,4,1,0,80,0,0
123649,-128.377358490566,4,1,0,80,0,0
123739,-126.656738644825,4,1,0,80,0,0
123828,-125,4,1,0,80,0,0
123883,-76.9230769230769,4,1,0,80,0,0
124196,-111.111111111111,4,1,0,90,0,0
124286,179.10447761194,4,1,0,90,1,8
124287,179.10447761194,4,1,0,90,1,1
124287,-111.111111111111,4,1,0,90,0,1
127152,-111.111111111111,4,1,0,90,0,0
127331,-111.111111111111,4,1,0,90,0,1
128585,-111.111111111111,4,1,0,90,0,0
130018,-105.263157894737,4,1,0,90,0,1
132381,-105.263157894737,4,1,0,90,0,1
132426,-105.139577354553,4,1,0,90,0,1
132471,-105.016286644951,4,1,0,90,0,1
132515,-104.896014992582,4,1,0,90,0,1
132605,-104.650860837726,4,1,0,90,0,1
132650,-104.528712974011,4,1,0,90,0,1
132694,-104.409554899218,4,1,0,90,0,1
132739,-104.287969360557,4,1,0,90,0,1
132784,-104.166666666667,4,1,0,90,0,1
132829,-104.04564583172,4,1,0,90,0,1
132874,-103.924905874465,4,1,0,90,0,1
132963,-103.686932359071,4,1,0,90,0,1
133053,-103.447390712837,4,1,0,90,0,1
133097,-103.33068382862,4,1,0,90,0,1
133142,-103.211596578395,4,1,0,90,0,1
133187,-103.092783505155,4,1,0,90,0,1
133232,-102.974243663124,4,1,0,90,0,1
133321,-102.740599107712,4,1,0,90,0,1
133411,-102.505405061681,4,1,0,90,0,1
133456,-102.388211382114,4,1,0,90,0,1
133500,-102.273880824282,4,1,0,90,0,1
133545,-102.157215645517,4,1,0,90,0,1
133590,-102.040816326531,4,1,0,90,0,1
133635,-101.924681959584,4,1,0,90,0,1
133679,-101.81138367481,4,1,0,90,0,1
133769,-101.580419932952,4,1,0,90,0,1
133859,-101.350501722707,4,1,0,90,0,1
133903,-101.238475644987,4,1,0,90,0,1
133948,-101.124159389742,4,1,0,90,0,1
134038,-100.89629963447,4,1,0,90,0,1
134127,-100.671979216108,4,1,0,90,0,1
134172,-100.558938017766,4,1,0,90,0,1
134227,-100.446150395055,4,1,0,90,0,0
134306,-100.223824919174,4,1,0,90,0,0
134406,-100,4,1,0,90,0,1
135481,-100,4,1,0,90,0,0
135749,179.10447761194,7,1,0,90,1,1
135749,-100,7,1,0,90,0,1
139510,179.10447761194,6,1,0,90,1,1
139510,-100,6,1,0,90,0,1
141659,-111.111111111111,6,1,0,90,0,0
141708,-112.565154707774,6,1,0,90,0,0
141768,-114.083398898505,6,1,0,90,0,0
141828,-115.643158254529,6,1,0,90,0,0
141888,-117.246159177544,6,1,0,90,0,0
141947,-118.866377795995,6,1,0,90,0,0
142007,-120.560636655185,6,1,0,90,0,0
142067,-122.303892035185,6,1,0,90,0,0
142126,-124.067962351791,6,1,0,90,0,0
142186,-125.914898895919,6,1,0,90,0,0
142246,-127.817655207153,6,1,0,90,0,0
142305,-129.745621884188,6,1,0,90,0,0
142365,-131.766844086719,6,1,0,90,0,0
142425,-133.852037452196,6,1,0,90,0,0
142485,-136.004287819912,6,1,0,90,0,0
142544,-138.189244383935,6,1,0,90,0,0
142604,-140.484429065744,6,1,0,90,0,0
142664,-142.857142857143,6,1,0,90,0,0
142733,179.10447761194,8,1,0,90,1,8
142734,179.10447761194,8,1,0,90,1,1
142734,-90.9090909090909,8,1,0,90,0,1
142778,-50,8,1,0,90,0,1
142913,-142.857142857143,8,1,0,90,0,1
145957,-100,8,1,0,90,0,0

[HitObjects]
256,320,705,5,12,0:0:0:0:
256,320,794,1,4,0:0:0:0:
256,320,973,1,12,0:0:0:0:
256,320,1063,1,4,0:0:0:0:
256,320,1242,1,12,0:0:0:0:
256,320,1331,1,4,0:0:0:0:
256,320,1510,1,12,0:0:0:0:
256,320,1600,1,4,0:0:0:0:
256,320,1958,1,4,0:0:0:0:
256,320,2048,1,12,0:0:0:0:
256,320,2227,1,4,0:0:0:0:
256,320,2316,1,12,0:0:0:0:
256,320,2496,1,4,0:0:0:0:
256,320,2585,1,12,0:0:0:0:
256,320,2764,1,4,0:0:0:0:
256,320,2854,1,12,0:0:0:0:
256,320,3212,1,12,0:0:0:0:
256,320,3302,1,4,0:0:0:0:
256,320,3481,1,12,0:0:0:0:
256,320,3570,1,4,0:0:0:0:
256,320,3749,1,12,0:0:0:0:
256,320,3839,1,4,0:0:0:0:
256,320,4018,1,12,0:0:0:0:
256,320,4107,1,4,0:0:0:0:
256,320,4466,1,4,0:0:0:0:
256,320,4555,1,12,0:0:0:0:
256,320,4734,1,4,0:0:0:0:
256,320,4824,1,12,0:0:0:0:
256,320,5003,1,4,0:0:0:0:
256,320,5093,1,12,0:0:0:0:
256,320,5272,1,4,0:0:0:0:
256,320,5361,1,12,0:0:0:0:
256,320,5719,1,12,0:0:0:0:
256,192,5808,12,0,7689,0:0:0:0:
256,320,7869,5,12,0:0:0:0:
256,64,8048,1,0,0:0:0:0:
256,64,8137,1,0,0:0:0:0:
256,64,8227,1,8,0:0:0:0:
256,64,8406,1,0,0:0:0:0:
256,64,8451,1,0,0:0:0:0:
256,64,8495,1,0,0:0:0:0:
256,64,8585,1,8,0:0:0:0:
256,64,8764,1,0,0:0:0:0:
256,64,8854,1,0,0:0:0:0:
256,64,8943,1,0,0:0:0:0:
256,64,9122,1,8,0:0:0:0:
256,64,9301,1,0,0:0:0:0:
256,64,9391,1,0,0:0:0:0:
256,64,9480,1,8,0:0:0:0:
256,64,9660,1,0,0:0:0:0:
256,64,9749,1,0,0:0:0:0:
256,64,9839,1,0,0:0:0:0:
256,64,9928,1,0,0:0:0:0:
256,64,10018,1,8,0:0:0:0:
256,64,10197,1,0,0:0:0:0:
256,64,10242,1,0,0:0:0:0:
256,64,10286,1,0,0:0:0:0:
256,64,10376,1,8,0:0:0:0:
256,64,10555,1,8,0:0:0:0:
256,64,10734,1,0,0:0:0:0:
256,64,10913,1,8,0:0:0:0:
256,64,11003,1,8,0:0:0:0:
256,64,11092,1,8,0:0:0:0:
256,64,11271,1,0,0:0:0:0:
256,64,11316,1,0,0:0:0:0:
256,64,11361,1,0,0:0:0:0:
256,64,11451,1,8,0:0:0:0:
256,64,11630,1,0,0:0:0:0:
256,64,11719,1,0,0:0:0:0:
256,64,11809,1,0,0:0:0:0:
256,64,11988,1,8,0:0:0:0:
256,64,12167,1,0,0:0:0:0:
256,64,12257,1,0,0:0:0:0:
256,64,12346,1,8,0:0:0:0:
256,64,12436,1,8,0:0:0:0:
256,64,12525,1,0,0:0:0:0:
256,64,12615,1,8,0:0:0:0:
256,64,12704,1,0,0:0:0:0:
256,64,12794,1,0,0:0:0:0:
256,64,12883,1,8,0:0:0:0:
256,64,12973,1,0,0:0:0:0:
256,64,13018,1,0,0:0:0:0:
256,64,13063,1,0,0:0:0:0:
256,64,13152,1,8,0:0:0:0:
256,64,13331,1,0,0:0:0:0:
256,64,13376,1,0,0:0:0:0:
256,64,13421,1,8,0:0:0:0:
256,64,13510,1,8,0:0:0:0:
256,64,13600,1,0,0:0:0:0:
256,64,13689,1,0,0:0:0:0:
256,64,13779,1,8,0:0:0:0:
256,64,13868,1,8,0:0:0:0:
256,64,13958,1,0,0:0:0:0:
256,64,14048,1,8,0:0:0:0:
256,64,14137,1,0,0:0:0:0:
256,64,14227,1,0,0:0:0:0:
256,64,14316,1,8,0:0:0:0:
256,64,14406,1,8,0:0:0:0:
256,64,14495,1,0,0:0:0:0:
256,64,14585,1,8,0:0:0:0:
256,64,14674,1,0,0:0:0:0:
256,64,14764,1,0,0:0:0:0:
256,64,14854,1,8,0:0:0:0:
256,64,14943,1,0,0:0:0:0:
256,64,15033,1,0,0:0:0:0:
256,64,15122,1,0,0:0:0:0:
256,64,15212,1,8,0:0:0:0:
256,64,15301,1,8,0:0:0:0:
256,64,15391,1,0,0:0:0:0:
256,64,15480,1,8,0:0:0:0:
256,64,15570,1,0,0:0:0:0:
256,64,15660,1,0,0:0:0:0:
256,64,15749,1,8,0:0:0:0:
256,64,15839,1,8,0:0:0:0:
256,64,15928,1,0,0:0:0:0:
256,64,16018,1,8,0:0:0:0:
256,64,16107,1,0,0:0:0:0:
256,64,16197,1,0,0:0:0:0:
256,64,16286,1,8,0:0:0:0:
256,64,16376,1,0,0:0:0:0:
256,64,16466,1,8,0:0:0:0:
256,64,16525,1,8,0:0:0:0:
256,64,16585,1,8,0:0:0:0:
256,64,16645,1,0,0:0:0:0:
256,64,16734,1,8,0:0:0:0:
256,64,16824,1,0,0:0:0:0:
256,64,16883,1,0,0:0:0:0:
256,64,16943,1,0,0:0:0:0:
256,64,17003,1,8,0:0:0:0:
256,64,17092,1,0,0:0:0:0:
256,64,17182,1,8,0:0:0:0:
256,64,17227,1,8,0:0:0:0:
256,64,17271,1,0,0:0:0:0:
256,64,17316,1,0,0:0:0:0:
256,64,17361,1,8,0:0:0:0:
256,64,17451,1,0,0:0:0:0:
256,64,17540,1,8,0:0:0:0:
256,64,17585,1,8,0:0:0:0:
256,64,17630,1,0,0:0:0:0:
256,64,17674,1,0,0:0:0:0:
256,64,17719,1,8,0:0:0:0:
256,64,17764,1,8,0:0:0:0:
256,64,17809,1,0,0:0:0:0:
256,192,17898,12,0,18794,0:0:0:0:
256,320,18973,5,12,0:0:0:0:
256,64,19331,1,8,0:0:0:0:
256,64,19421,1,0,0:0:0:0:
256,64,19510,1,8,0:0:0:0:
256,64,19600,1,8,0:0:0:0:
256,64,19689,1,0,0:0:0:0:
256,64,19779,1,0,0:0:0:0:
256,64,19868,1,8,0:0:0:0:
256,64,19913,1,8,0:0:0:0:
256,64,19958,1,0,0:0:0:0:
256,64,20048,1,8,0:0:0:0:
256,64,20092,1,8,0:0:0:0:
256,64,20137,1,0,0:0:0:0:
256,64,20227,1,8,0:0:0:0:
256,64,20316,1,8,0:0:0:0:
256,64,20406,1,0,0:0:0:0:
256,64,20495,1,0,0:0:0:0:
256,64,20585,1,8,0:0:0:0:
256,64,20630,1,8,0:0:0:0:
256,64,20674,1,0,0:0:0:0:
256,64,20719,1,0,0:0:0:0:
256,64,20764,1,8,0:0:0:0:
256,64,20943,1,8,0:0:0:0:
256,64,21033,1,8,0:0:0:0:
256,64,21122,1,0,0:0:0:0:
256,64,21212,1,0,0:0:0:0:
256,64,21301,1,8,0:0:0:0:
256,64,21346,1,8,0:0:0:0:
256,64,21391,1,0,0:0:0:0:
256,64,21480,1,8,0:0:0:0:
256,64,21525,1,8,0:0:0:0:
256,64,21570,1,0,0:0:0:0:
256,64,21660,1,8,0:0:0:0:
256,64,21704,1,8,0:0:0:0:
256,64,21749,1,0,0:0:0:0:
256,64,21794,1,0,0:0:0:0:
256,64,21839,1,8,0:0:0:0:
256,64,21928,1,0,0:0:0:0:
256,64,22018,1,8,0:0:0:0:
256,64,22063,1,0,0:0:0:0:
256,64,22107,1,8,0:0:0:0:
256,64,22152,1,8,0:0:0:0:
256,64,22197,1,0,0:0:0:0:
256,64,22376,1,0,0:0:0:0:
256,64,22466,1,0,0:0:0:0:
256,64,22555,1,8,0:0:0:0:
256,64,22600,1,8,0:0:0:0:
256,64,22645,1,0,0:0:0:0:
256,64,22734,1,8,0:0:0:0:
256,64,22824,1,8,0:0:0:0:
256,64,22913,1,0,0:0:0:0:
256,64,23003,1,0,0:0:0:0:
256,64,23092,1,8,0:0:0:0:
256,64,23182,1,8,0:0:0:0:
256,64,23271,1,0,0:0:0:0:
256,64,23316,1,8,0:0:0:0:
256,64,23361,1,0,0:0:0:0:
256,64,23406,1,0,0:0:0:0:
256,64,23451,1,8,0:0:0:0:
256,64,23630,1,8,0:0:0:0:
256,64,23674,1,8,0:0:0:0:
256,64,23719,1,0,0:0:0:0:
256,64,23764,1,0,0:0:0:0:
256,64,23809,1,8,0:0:0:0:
256,64,23898,1,0,0:0:0:0:
256,64,23988,1,8,0:0:0:0:
256,64,24077,1,8,0:0:0:0:
256,64,24167,1,0,0:0:0:0:
256,64,24227,1,0,0:0:0:0:
256,64,24286,1,0,0:0:0:0:
256,64,24346,1,8,0:0:0:0:
256,64,24436,1,0,0:0:0:0:
256,64,24495,1,0,0:0:0:0:
256,64,24555,1,0,0:0:0:0:
256,64,24615,1,8,0:0:0:0:
256,64,24704,1,0,0:0:0:0:
256,64,24749,1,0,0:0:0:0:
256,64,24794,1,8,0:0:0:0:
256,64,24839,1,8,0:0:0:0:
256,64,24883,1,0,0:0:0:0:
256,64,25063,1,8,0:0:0:0:
256,64,25152,1,0,0:0:0:0:
256,64,25242,1,8,0:0:0:0:
256,64,25331,1,8,0:0:0:0:
256,64,25421,1,0,0:0:0:0:
256,64,25466,1,0,0:0:0:0:
256,64,25510,1,8,0:0:0:0:
256,64,25600,1,0,0:0:0:0:
256,64,25645,1,0,0:0:0:0:
256,64,25689,1,8,0:0:0:0:
256,64,25734,1,0,0:0:0:0:
256,64,25779,1,8,0:0:0:0:
256,64,25868,1,0,0:0:0:0:
256,64,25958,1,8,0:0:0:0:
256,64,26003,1,0,0:0:0:0:
256,64,26048,1,8,0:0:0:0:
256,64,26092,1,8,0:0:0:0:
256,64,26137,1,0,0:0:0:0:
256,64,26227,1,8,0:0:0:0:
256,64,26316,1,0,0:0:0:0:
256,64,26361,1,8,0:0:0:0:
256,64,26406,1,0,0:0:0:0:
256,64,26451,1,0,0:0:0:0:
256,64,26495,1,8,0:0:0:0:
256,64,26674,1,8,0:0:0:0:
256,64,26764,1,8,0:0:0:0:
256,64,26854,1,0,0:0:0:0:
256,64,26943,1,8,0:0:0:0:
256,64,27033,1,0,0:0:0:0:
256,64,27122,1,0,0:0:0:0:
256,64,27211,1,8,0:0:0:0:
256,64,27257,1,8,0:0:0:0:
256,64,27301,1,0,0:0:0:0:
256,64,27391,1,8,0:0:0:0:
256,64,27436,1,8,0:0:0:0:
256,64,27480,1,0,0:0:0:0:
256,64,27525,1,0,0:0:0:0:
256,64,27570,1,8,0:0:0:0:
256,64,27749,1,8,0:0:0:0:
256,64,27839,1,8,0:0:0:0:
256,64,27928,1,0,0:0:0:0:
256,64,27973,1,8,0:0:0:0:
256,64,28018,1,0,0:0:0:0:
256,64,28063,1,0,0:0:0:0:
256,64,28107,1,8,0:0:0:0:
256,64,28197,1,0,0:0:0:0:
256,64,28286,1,8,0:0:0:0:
256,64,28376,1,8,0:0:0:0:
256,64,28466,1,0,0:0:0:0:
256,64,28510,1,0,0:0:0:0:
256,64,28555,1,0,0:0:0:0:
256,64,28600,1,0,0:0:0:0:
256,64,28645,1,8,0:0:0:0:
256,64,28764,1,8,0:0:0:0:
256,64,28883,1,8,0:0:0:0:
256,64,29003,1,8,0:0:0:0:
256,64,29122,1,8,0:0:0:0:
256,64,29242,1,8,0:0:0:0:
256,320,29451,1,4,0:0:0:0:
256,320,29719,1,4,0:0:0:0:
256,320,29988,1,4,0:0:0:0:
256,320,30257,1,4,0:0:0:0:
256,320,30525,1,4,0:0:0:0:
256,320,30794,1,12,0:0:0:0:
256,64,30973,1,0,0:0:0:0:
256,64,31063,1,0,0:0:0:0:
256,64,31152,1,8,0:0:0:0:
256,64,31242,1,8,0:0:0:0:
256,64,31331,1,0,0:0:0:0:
256,64,31421,1,8,0:0:0:0:
256,64,31510,1,0,0:0:0:0:
256,64,31600,1,8,0:0:0:0:
256,64,31689,1,8,0:0:0:0:
256,64,31779,1,0,0:0:0:0:
256,64,31869,1,8,0:0:0:0:
256,64,31958,1,8,0:0:0:0:
256,64,32048,1,0,0:0:0:0:
256,64,32137,1,8,0:0:0:0:
256,64,32227,1,0,0:0:0:0:
256,64,32316,1,0,0:0:0:0:
256,64,32406,1,8,0:0:0:0:
256,64,32495,1,0,0:0:0:0:
256,64,32585,1,8,0:0:0:0:
256,64,32674,1,8,0:0:0:0:
256,64,32764,1,0,0:0:0:0:
256,64,32854,1,8,0:0:0:0:
256,64,32943,1,0,0:0:0:0:
256,64,33033,1,8,0:0:0:0:
256,64,33122,1,8,0:0:0:0:
256,64,33212,1,0,0:0:0:0:
256,64,33301,1,8,0:0:0:0:
256,64,33391,1,8,0:0:0:0:
256,64,33480,1,8,0:0:0:0:
256,64,33570,1,8,0:0:0:0:
256,64,33660,1,0,0:0:0:0:
256,64,33704,1,0,0:0:0:0:
256,64,33749,1,0,0:0:0:0:
256,320,33839,1,12,0:0:0:0:
256,64,34018,1,8,0:0:0:0:
256,64,34107,1,8,0:0:0:0:
256,64,34197,1,0,0:0:0:0:
256,64,34286,1,8,0:0:0:0:
256,64,34376,1,0,0:0:0:0:
256,64,34466,1,8,0:0:0:0:
256,64,34555,1,8,0:0:0:0:
256,64,34645,1,0,0:0:0:0:
256,64,34734,1,8,0:0:0:0:
256,64,34824,1,8,0:0:0:0:
256,64,34913,1,0,0:0:0:0:
256,64,35003,1,8,0:0:0:0:
256,64,35092,1,0,0:0:0:0:
256,64,35182,1,0,0:0:0:0:
256,64,35271,1,8,0:0:0:0:
256,64,35361,1,0,0:0:0:0:
256,64,35451,1,8,0:0:0:0:
256,64,35540,1,8,0:0:0:0:
256,64,35630,1,0,0:0:0:0:
256,64,35719,1,8,0:0:0:0:
256,64,35809,1,0,0:0:0:0:
256,64,35898,1,8,0:0:0:0:
256,64,35988,1,8,0:0:0:0:
256,64,36077,1,8,0:0:0:0:
256,64,36167,1,0,0:0:0:0:
256,64,36525,1,8,0:0:0:0:
256,64,36615,1,8,0:0:0:0:
256,64,36704,1,0,0:0:0:0:
256,64,36794,1,0,0:0:0:0:
256,64,36883,1,8,0:0:0:0:
256,64,36973,1,8,0:0:0:0:
256,64,37063,1,0,0:0:0:0:
256,64,37152,1,8,0:0:0:0:
256,64,37242,1,0,0:0:0:0:
256,64,37331,1,8,0:0:0:0:
256,64,37421,1,8,0:0:0:0:
256,64,37510,1,0,0:0:0:0:
256,64,37600,1,8,0:0:0:0:
256,64,37689,1,8,0:0:0:0:
256,64,37779,1,8,0:0:0:0:
256,64,37868,1,8,0:0:0:0:
256,64,37958,1,0,0:0:0:0:
256,64,38048,1,0,0:0:0:0:
256,64,38137,1,0,0:0:0:0:
256,64,38227,1,0,0:0:0:0:
256,64,38316,1,8,0:0:0:0:
256,64,38406,1,8,0:0:0:0:
256,64,38495,1,0,0:0:0:0:
256,64,38585,1,8,0:0:0:0:
256,64,38674,1,0,0:0:0:0:
256,64,38764,1,8,0:0:0:0:
256,64,38854,1,8,0:0:0:0:
256,64,38943,1,8,0:0:0:0:
256,64,39033,1,0,0:0:0:0:
256,64,39122,1,8,0:0:0:0:
256,64,39212,1,0,0:0:0:0:
256,64,39301,1,0,0:0:0:0:
256,64,39391,1,8,0:0:0:0:
256,64,39451,1,8,0:0:0:0:
256,64,39510,1,8,0:0:0:0:
256,64,39570,1,0,0:0:0:0:
256,64,39660,1,8,0:0:0:0:
256,64,39749,1,0,0:0:0:0:
256,64,39809,1,0,0:0:0:0:
256,64,39869,1,0,0:0:0:0:
256,64,39928,1,8,0:0:0:0:
256,64,40018,1,0,0:0:0:0:
256,64,40107,1,8,0:0:0:0:
256,64,40152,1,0,0:0:0:0:
256,64,40197,1,8,0:0:0:0:
256,64,40242,1,8,0:0:0:0:
256,64,40286,1,0,0:0:0:0:
256,64,40376,1,8,0:0:0:0:
256,64,40466,1,0,0:0:0:0:
256,64,40510,1,0,0:0:0:0:
256,64,40555,1,0,0:0:0:0:
256,64,40600,1,0,0:0:0:0:
256,64,40645,1,8,0:0:0:0:
256,192,40824,12,0,41898,0:0:0:0:
256,320,42257,5,12,0:0:0:0:
256,64,42436,1,0,0:0:0:0:
256,64,42525,1,0,0:0:0:0:
256,64,42615,1,8,0:0:0:0:
256,64,42704,1,8,0:0:0:0:
256,64,42794,1,0,0:0:0:0:
256,64,42839,1,0,0:0:0:0:
256,64,42883,1,8,0:0:0:0:
256,64,42973,1,0,0:0:0:0:
256,64,43063,1,8,0:0:0:0:
256,64,43107,1,8,0:0:0:0:
256,64,43152,1,0,0:0:0:0:
256,64,43242,1,8,0:0:0:0:
256,64,43331,1,8,0:0:0:0:
256,64,43421,1,0,0:0:0:0:
256,64,43510,1,8,0:0:0:0:
256,64,43600,1,8,0:0:0:0:
256,64,43689,1,0,0:0:0:0:
256,64,43868,1,0,0:0:0:0:
256,64,43958,1,0,0:0:0:0:
256,64,44048,1,8,0:0:0:0:
256,64,44137,1,8,0:0:0:0:
256,64,44227,1,0,0:0:0:0:
256,64,44271,1,0,0:0:0:0:
256,64,44316,1,8,0:0:0:0:
256,64,44406,1,0,0:0:0:0:
256,64,44495,1,8,0:0:0:0:
256,64,44540,1,8,0:0:0:0:
256,64,44585,1,8,0:0:0:0:
256,64,44674,1,0,0:0:0:0:
256,64,44764,1,8,0:0:0:0:
256,64,44809,1,8,0:0:0:0:
256,64,44854,1,0,0:0:0:0:
256,64,44898,1,0,0:0:0:0:
256,64,44943,1,8,0:0:0:0:
256,64,45033,1,0,0:0:0:0:
256,64,45122,1,8,0:0:0:0:
256,64,45301,1,0,0:0:0:0:
256,64,45391,1,0,0:0:0:0:
256,64,45480,1,8,0:0:0:0:
256,64,45570,1,8,0:0:0:0:
256,64,45660,1,0,0:0:0:0:
256,64,45704,1,0,0:0:0:0:
256,64,45749,1,8,0:0:0:0:
256,64,45839,1,0,0:0:0:0:
256,64,45928,1,8,0:0:0:0:
256,64,45973,1,8,0:0:0:0:
256,64,46018,1,0,0:0:0:0:
256,64,46107,1,8,0:0:0:0:
256,64,46197,1,0,0:0:0:0:
256,64,46286,1,0,0:0:0:0:
256,64,46376,1,8,0:0:0:0:
256,64,46555,1,0,0:0:0:0:
256,64,46645,1,0,0:0:0:0:
256,64,46734,1,8,0:0:0:0:
256,64,46824,1,0,0:0:0:0:
256,64,46913,1,8,0:0:0:0:
256,64,47003,1,8,0:0:0:0:
256,64,47092,1,0,0:0:0:0:
256,64,47137,1,0,0:0:0:0:
256,64,47182,1,8,0:0:0:0:
256,64,47271,1,0,0:0:0:0:
256,64,47361,1,8,0:0:0:0:
256,64,47406,1,8,0:0:0:0:
256,64,47451,1,8,0:0:0:0:
256,64,47540,1,0,0:0:0:0:
256,64,47630,1,8,0:0:0:0:
256,64,47674,1,8,0:0:0:0:
256,64,47719,1,0,0:0:0:0:
256,64,47764,1,0,0:0:0:0:
256,64,47809,1,8,0:0:0:0:
256,64,47854,1,8,0:0:0:0:
256,64,47898,1,0,0:0:0:0:
256,64,47943,1,0,0:0:0:0:
256,64,47988,1,8,0:0:0:0:
256,64,48167,1,0,0:0:0:0:
256,64,48257,1,0,0:0:0:0:
256,64,48346,1,8,0:0:0:0:
256,64,48436,1,0,0:0:0:0:
256,64,48525,1,8,0:0:0:0:
256,64,48570,1,8,0:0:0:0:
256,64,48615,1,8,0:0:0:0:
256,64,48704,1,0,0:0:0:0:
256,64,48794,1,8,0:0:0:0:
256,64,48839,1,8,0:0:0:0:
256,64,48883,1,0,0:0:0:0:
256,64,48928,1,0,0:0:0:0:
256,64,48973,1,8,0:0:0:0:
256,64,49018,1,8,0:0:0:0:
256,64,49063,1,0,0:0:0:0:
256,64,49152,1,8,0:0:0:0:
256,64,49242,1,8,0:0:0:0:
256,64,49331,1,8,0:0:0:0:
256,64,49421,1,0,0:0:0:0:
256,64,49600,1,0,0:0:0:0:
256,64,49689,1,0,0:0:0:0:
256,64,49779,1,8,0:0:0:0:
256,64,49868,1,0,0:0:0:0:
256,64,49958,1,8,0:0:0:0:
256,64,50003,1,8,0:0:0:0:
256,64,50048,1,8,0:0:0:0:
256,64,50137,1,0,0:0:0:0:
256,64,50227,1,8,0:0:0:0:
256,64,50271,1,8,0:0:0:0:
256,64,50316,1,8,0:0:0:0:
256,64,50406,1,0,0:0:0:0:
256,64,50495,1,8,0:0:0:0:
256,64,50585,1,8,0:0:0:0:
256,64,50674,1,8,0:0:0:0:
256,64,50764,1,8,0:0:0:0:
256,64,50854,1,0,0:0:0:0:
256,64,51033,1,0,0:0:0:0:
256,64,51122,1,0,0:0:0:0:
256,64,51212,1,8,0:0:0:0:
256,64,51301,1,0,0:0:0:0:
256,64,51391,1,8,0:0:0:0:
256,64,51436,1,8,0:0:0:0:
256,64,51480,1,8,0:0:0:0:
256,64,51570,1,0,0:0:0:0:
256,64,51660,1,8,0:0:0:0:
256,64,51704,1,8,0:0:0:0:
256,64,51749,1,0,0:0:0:0:
256,64,51794,1,8,0:0:0:0:
256,64,51839,1,0,0:0:0:0:
256,64,51883,1,0,0:0:0:0:
256,64,51928,1,8,0:0:0:0:
256,64,52018,1,0,0:0:0:0:
256,64,52107,1,8,0:0:0:0:
256,64,52197,1,8,0:0:0:0:
256,320,52286,1,4,0:0:0:0:
256,320,52555,1,4,0:0:0:0:
256,320,52824,1,4,0:0:0:0:
256,320,53092,1,4,0:0:0:0:
256,320,53361,1,12,0:0:0:0:
256,64,53719,1,0,0:0:0:0:
256,64,53809,1,0,0:0:0:0:
256,64,53898,1,8,0:0:0:0:
256,64,53988,1,0,0:0:0:0:
256,64,54077,1,8,0:0:0:0:
256,64,54167,1,8,0:0:0:0:
256,64,54257,1,0,0:0:0:0:
256,64,54301,1,0,0:0:0:0:
256,64,54346,1,8,0:0:0:0:
256,64,54436,1,0,0:0:0:0:
256,64,54525,1,8,0:0:0:0:
256,64,54570,1,8,0:0:0:0:
256,64,54615,1,0,0:0:0:0:
256,64,54704,1,8,0:0:0:0:
256,64,54794,1,0,0:0:0:0:
256,64,54839,1,0,0:0:0:0:
256,64,54883,1,8,0:0:0:0:
256,64,54928,1,8,0:0:0:0:
256,64,54973,1,0,0:0:0:0:
256,64,55063,1,8,0:0:0:0:
256,64,55152,1,0,0:0:0:0:
256,64,55242,1,8,0:0:0:0:
256,64,55331,1,0,0:0:0:0:
256,64,55421,1,8,0:0:0:0:
256,64,55510,1,0,0:0:0:0:
256,64,55600,1,8,0:0:0:0:
256,64,55689,1,0,0:0:0:0:
256,64,55779,1,8,0:0:0:0:
256,64,55868,1,0,0:0:0:0:
256,64,55958,1,8,0:0:0:0:
256,64,56048,1,0,0:0:0:0:
256,64,56137,1,8,0:0:0:0:
256,64,56227,1,0,0:0:0:0:
256,64,56316,1,8,0:0:0:0:
256,64,56406,1,0,0:0:0:0:
256,64,56495,1,8,0:0:0:0:
256,64,56585,1,0,0:0:0:0:
256,64,56645,1,0,0:0:0:0:
256,64,56704,1,0,0:0:0:0:
256,64,56764,1,8,0:0:0:0:
256,64,56854,1,8,0:0:0:0:
256,64,56943,1,0,0:0:0:0:
256,64,57003,1,0,0:0:0:0:
256,64,57063,1,0,0:0:0:0:
256,64,57122,1,8,0:0:0:0:
256,64,57212,1,8,0:0:0:0:
256,64,57301,1,0,0:0:0:0:
256,64,57346,1,0,0:0:0:0:
256,64,57391,1,8,0:0:0:0:
256,64,57436,1,8,0:0:0:0:
256,64,57480,1,0,0:0:0:0:
256,64,57570,1,8,0:0:0:0:
256,64,57660,1,0,0:0:0:0:
256,64,57704,1,0,0:0:0:0:
256,64,57749,1,0,0:0:0:0:
256,64,57839,1,8,0:0:0:0:
256,64,57883,1,8,0:0:0:0:
256,64,57928,1,8,0:0:0:0:
256,64,57973,1,8,0:0:0:0:
256,64,58018,1,0,0:0:0:0:
256,64,58107,1,0,0:0:0:0:
256,64,58197,1,0,0:0:0:0:
256,64,58286,1,0,0:0:0:0:
256,64,58376,1,0,0:0:0:0:
256,64,58466,1,0,0:0:0:0:
256,64,58555,1,0,0:0:0:0:
256,64,58645,1,0,0:0:0:0:
256,64,58734,1,0,0:0:0:0:
256,64,58824,1,0,0:0:0:0:
256,64,58913,1,0,0:0:0:0:
256,64,59003,1,0,0:0:0:0:
256,320,59451,1,12,0:0:0:0:
256,64,59630,1,0,0:0:0:0:
256,64,59689,1,0,0:0:0:0:
256,64,59749,1,0,0:0:0:0:
256,64,59809,1,8,0:0:0:0:
256,64,59898,1,0,0:0:0:0:
256,64,59943,1,0,0:0:0:0:
256,64,59988,1,8,0:0:0:0:
256,64,60077,1,0,0:0:0:0:
256,320,60167,1,12,0:0:0:0:
256,64,60346,1,0,0:0:0:0:
256,64,60406,1,8,0:0:0:0:
256,64,60466,1,8,0:0:0:0:
256,64,60525,1,0,0:0:0:0:
256,64,60615,1,8,0:0:0:0:
256,64,60660,1,8,0:0:0:0:
256,64,60704,1,0,0:0:0:0:
256,64,60794,1,0,0:0:0:0:
256,320,60883,1,12,0:0:0:0:
256,64,61063,1,0,0:0:0:0:
256,64,61122,1,0,0:0:0:0:
256,64,61182,1,0,0:0:0:0:
256,64,61242,1,0,0:0:0:0:
256,64,61331,1,8,0:0:0:0:
256,64,61376,1,8,0:0:0:0:
256,64,61421,1,0,0:0:0:0:
256,64,61510,1,0,0:0:0:0:
256,320,61600,1,12,0:0:0:0:
256,64,61779,1,8,0:0:0:0:
256,64,61839,1,8,0:0:0:0:
256,64,61898,1,0,0:0:0:0:
256,64,61958,1,8,0:0:0:0:
256,64,62048,1,0,0:0:0:0:
256,64,62092,1,0,0:0:0:0:
256,64,62137,1,8,0:0:0:0:
256,64,62227,1,0,0:0:0:0:
256,320,62316,1,12,0:0:0:0:
256,64,62495,1,8,0:0:0:0:
256,64,62555,1,8,0:0:0:0:
256,64,62615,1,8,0:0:0:0:
256,64,62674,1,0,0:0:0:0:
256,64,62764,1,8,0:0:0:0:
256,64,62809,1,0,0:0:0:0:
256,64,62854,1,8,0:0:0:0:
256,64,62943,1,0,0:0:0:0:
256,320,63033,1,12,0:0:0:0:
256,64,63212,1,8,0:0:0:0:
256,64,63271,1,8,0:0:0:0:
256,64,63331,1,8,0:0:0:0:
256,64,63391,1,8,0:0:0:0:
256,64,63480,1,0,0:0:0:0:
256,64,63525,1,0,0:0:0:0:
256,64,63570,1,0,0:0:0:0:
256,64,63660,1,0,0:0:0:0:
256,320,63749,1,12,0:0:0:0:
256,64,63928,1,0,0:0:0:0:
256,64,63988,1,0,0:0:0:0:
256,64,64048,1,0,0:0:0:0:
256,64,64107,1,0,0:0:0:0:
256,64,64197,1,8,0:0:0:0:
256,64,64242,1,8,0:0:0:0:
256,64,64286,1,8,0:0:0:0:
256,64,64376,1,0,0:0:0:0:
256,320,64466,1,12,0:0:0:0:
256,64,64645,1,0,0:0:0:0:
256,64,64704,1,0,0:0:0:0:
256,64,64764,1,0,0:0:0:0:
256,64,64824,1,8,0:0:0:0:
256,64,64913,1,8,0:0:0:0:
256,64,65003,1,8,0:0:0:0:
256,64,65092,1,8,0:0:0:0:
256,192,65182,12,0,67152,0:0:0:0:
256,320,67331,5,4,0:0:0:0:
256,64,67510,1,0,0:0:0:0:
256,64,67599,1,8,0:0:0:0:
256,64,67778,1,8,0:0:0:0:
256,64,67868,1,0,0:0:0:0:
256,64,67957,1,8,0:0:0:0:
256,64,68136,1,0,0:0:0:0:
256,64,68226,1,0,0:0:0:0:
256,64,68405,1,8,0:0:0:0:
256,64,68584,1,0,0:0:0:0:
256,64,68674,1,0,0:0:0:0:
256,64,68763,1,8,0:0:0:0:
256,64,68942,1,8,0:0:0:0:
256,64,69032,1,0,0:0:0:0:
256,64,69122,1,8,0:0:0:0:
256,64,69211,1,0,0:0:0:0:
256,64,69390,1,8,0:0:0:0:
256,64,69480,1,0,0:0:0:0:
256,64,69659,1,8,0:0:0:0:
256,64,69748,1,0,0:0:0:0:
256,64,69838,1,8,0:0:0:0:
256,64,69928,1,8,0:0:0:0:
256,64,70017,1,0,0:0:0:0:
256,64,70107,1,0,0:0:0:0:
256,64,70196,1,8,0:0:0:0:
256,64,70375,1,0,0:0:0:0:
256,64,70465,1,8,0:0:0:0:
256,64,70644,1,8,0:0:0:0:
256,64,70733,1,0,0:0:0:0:
256,64,70823,1,8,0:0:0:0:
256,64,71002,1,0,0:0:0:0:
256,64,71092,1,0,0:0:0:0:
256,64,71271,1,8,0:0:0:0:
256,64,71360,1,8,0:0:0:0:
256,64,71450,1,0,0:0:0:0:
256,64,71539,1,0,0:0:0:0:
256,64,71629,1,8,0:0:0:0:
256,64,71808,1,0,0:0:0:0:
256,64,71898,1,8,0:0:0:0:
256,64,72077,1,0,0:0:0:0:
256,64,72166,1,0,0:0:0:0:
256,64,72256,1,8,0:0:0:0:
256,64,72435,1,8,0:0:0:0:
256,64,72525,1,0,0:0:0:0:
256,64,72704,1,8,0:0:0:0:
256,64,72883,1,0,0:0:0:0:
256,64,72972,1,8,0:0:0:0:
256,64,73062,1,0,0:0:0:0:
256,64,73241,1,0,0:0:0:0:
256,64,73331,1,0,0:0:0:0:
256,64,73420,1,8,0:0:0:0:
256,64,73510,1,0,0:0:0:0:
256,64,73599,1,8,0:0:0:0:
256,64,73689,1,8,0:0:0:0:
256,64,73778,1,0,0:0:0:0:
256,64,73957,1,8,0:0:0:0:
256,64,74047,1,0,0:0:0:0:
256,64,74136,1,8,0:0:0:0:
256,64,74316,1,0,0:0:0:0:
256,64,74405,1,0,0:0:0:0:
256,64,74495,1,8,0:0:0:0:
256,64,74584,1,0,0:0:0:0:
256,64,74674,1,8,0:0:0:0:
256,64,74763,1,8,0:0:0:0:
256,64,74853,1,0,0:0:0:0:
256,64,74942,1,8,0:0:0:0:
256,64,75032,1,0,0:0:0:0:
256,64,75211,1,8,0:0:0:0:
256,64,75301,1,8,0:0:0:0:
256,64,75390,1,8,0:0:0:0:
256,64,75569,1,0,0:0:0:0:
256,64,75748,1,8,0:0:0:0:
256,64,75838,1,0,0:0:0:0:
256,64,75928,1,8,0:0:0:0:
256,64,76107,1,0,0:0:0:0:
256,64,76196,1,8,0:0:0:0:
256,64,76286,1,8,0:0:0:0:
256,64,76375,1,8,0:0:0:0:
256,64,76465,1,0,0:0:0:0:
256,64,76554,1,8,0:0:0:0:
256,64,76733,1,8,0:0:0:0:
256,64,76823,1,8,0:0:0:0:
256,64,76913,1,8,0:0:0:0:
256,64,77002,1,0,0:0:0:0:
256,64,77092,1,0,0:0:0:0:
256,64,77181,1,0,0:0:0:0:
256,320,77360,1,12,0:0:0:0:
256,320,77450,1,4,0:0:0:0:
256,320,77629,1,12,0:0:0:0:
256,320,77719,1,4,0:0:0:0:
256,320,77898,1,12,0:0:0:0:
256,320,77987,1,4,0:0:0:0:
256,320,78166,1,12,0:0:0:0:
256,320,78256,1,4,0:0:0:0:
256,320,78793,1,12,0:0:0:0:
256,64,78972,1,0,0:0:0:0:
256,64,79062,1,0,0:0:0:0:
256,64,79151,1,8,0:0:0:0:
256,64,79241,1,0,0:0:0:0:
256,64,79330,1,8,0:0:0:0:
256,64,79420,1,8,0:0:0:0:
256,64,79510,1,8,0:0:0:0:
256,64,79599,1,0,0:0:0:0:
256,64,79689,1,8,0:0:0:0:
256,64,79778,1,8,0:0:0:0:
256,64,79868,1,0,0:0:0:0:
256,64,79957,1,0,0:0:0:0:
256,64,80047,1,8,0:0:0:0:
256,64,80136,1,8,0:0:0:0:
256,64,80226,1,0,0:0:0:0:
256,64,80286,1,0,0:0:0:0:
256,64,80345,1,0,0:0:0:0:
256,64,80405,1,8,0:0:0:0:
256,64,80495,1,0,0:0:0:0:
256,64,80539,1,0,0:0:0:0:
256,64,80584,1,8,0:0:0:0:
256,64,80674,1,0,0:0:0:0:
256,64,80763,1,8,0:0:0:0:
256,64,80853,1,8,0:0:0:0:
256,64,80942,1,8,0:0:0:0:
256,64,81032,1,0,0:0:0:0:
256,64,81122,1,8,0:0:0:0:
256,64,81211,1,8,0:0:0:0:
256,64,81301,1,0,0:0:0:0:
256,64,81390,1,0,0:0:0:0:
256,64,81480,1,8,0:0:0:0:
256,64,81569,1,8,0:0:0:0:
256,64,81659,1,0,0:0:0:0:
256,64,81748,1,0,0:0:0:0:
256,64,81838,1,8,0:0:0:0:
256,64,81928,1,0,0:0:0:0:
256,64,82017,1,0,0:0:0:0:
256,64,82107,1,0,0:0:0:0:
256,64,82196,1,8,0:0:0:0:
256,64,82286,1,8,0:0:0:0:
256,64,82375,1,8,0:0:0:0:
256,64,82465,1,0,0:0:0:0:
256,64,82554,1,8,0:0:0:0:
256,64,82644,1,8,0:0:0:0:
256,64,82733,1,0,0:0:0:0:
256,64,82823,1,0,0:0:0:0:
256,64,82913,1,8,0:0:0:0:
256,64,83002,1,0,0:0:0:0:
256,64,83092,1,8,0:0:0:0:
256,64,83151,1,8,0:0:0:0:
256,64,83211,1,8,0:0:0:0:
256,64,83271,1,0,0:0:0:0:
256,64,83360,1,8,0:0:0:0:
256,64,83405,1,8,0:0:0:0:
256,64,83450,1,0,0:0:0:0:
256,64,83539,1,8,0:0:0:0:
256,64,83629,1,0,0:0:0:0:
256,64,83719,1,0,0:0:0:0:
256,64,83808,1,8,0:0:0:0:
256,64,83898,1,8,0:0:0:0:
256,64,83987,1,0,0:0:0:0:
256,64,84077,1,0,0:0:0:0:
256,64,84166,1,8,0:0:0:0:
256,64,84256,1,8,0:0:0:0:
256,64,84345,1,0,0:0:0:0:
256,64,84390,1,0,0:0:0:0:
256,64,84435,1,0,0:0:0:0:
256,64,84480,1,0,0:0:0:0:
256,64,84525,1,8,0:0:0:0:
256,64,84614,1,0,0:0:0:0:
256,64,84704,1,0,0:0:0:0:
256,64,84793,1,0,0:0:0:0:
256,64,84883,1,8,0:0:0:0:
256,64,84972,1,0,0:0:0:0:
256,64,85062,1,8,0:0:0:0:
256,64,85151,1,8,0:0:0:0:
256,64,85241,1,8,0:0:0:0:
256,64,85331,1,0,0:0:0:0:
256,64,85420,1,8,0:0:0:0:
256,64,85510,1,8,0:0:0:0:
256,64,85599,1,0,0:0:0:0:
256,64,85689,1,8,0:0:0:0:
256,64,85778,1,8,0:0:0:0:
256,64,85868,1,0,0:0:0:0:
256,64,85957,1,8,0:0:0:0:
256,64,86047,1,0,0:0:0:0:
256,64,86136,1,8,0:0:0:0:
256,64,86226,1,8,0:0:0:0:
256,64,86316,1,0,0:0:0:0:
256,64,86405,1,8,0:0:0:0:
256,64,86495,1,0,0:0:0:0:
256,64,86584,1,0,0:0:0:0:
256,64,86674,1,8,0:0:0:0:
256,64,86733,1,8,0:0:0:0:
256,64,86793,1,8,0:0:0:0:
256,64,86853,1,0,0:0:0:0:
256,64,86942,1,8,0:0:0:0:
256,64,87032,1,0,0:0:0:0:
256,64,87092,1,0,0:0:0:0:
256,64,87151,1,0,0:0:0:0:
256,64,87211,1,8,0:0:0:0:
256,64,87390,1,8,0:0:0:0:
256,64,87480,1,8,0:0:0:0:
256,64,87569,1,0,0:0:0:0:
256,64,87659,1,8,0:0:0:0:
256,64,87748,1,8,0:0:0:0:
256,64,87838,1,0,0:0:0:0:
256,64,87928,1,8,0:0:0:0:
256,64,88017,1,0,0:0:0:0:
256,64,88107,1,8,0:0:0:0:
256,64,88196,1,8,0:0:0:0:
256,64,88286,1,8,0:0:0:0:
256,64,88375,1,8,0:0:0:0:
256,64,88823,1,8,0:0:0:0:
256,64,88913,1,8,0:0:0:0:
256,64,89002,1,0,0:0:0:0:
256,64,89062,1,0,0:0:0:0:
256,64,89122,1,0,0:0:0:0:
256,64,89181,1,8,0:0:0:0:
256,64,89271,1,0,0:0:0:0:
256,64,89360,1,8,0:0:0:0:
256,64,89420,1,0,0:0:0:0:
256,64,89480,1,0,0:0:0:0:
256,64,89539,1,8,0:0:0:0:
256,64,89629,1,0,0:0:0:0:
256,64,89674,1,0,0:0:0:0:
256,64,89719,1,0,0:0:0:0:
256,64,89808,1,8,0:0:0:0:
256,64,90256,1,8,0:0:0:0:
256,64,90316,1,8,0:0:0:0:
256,64,90375,1,8,0:0:0:0:
256,64,90435,1,0,0:0:0:0:
256,64,90525,1,0,0:0:0:0:
256,64,90614,1,8,0:0:0:0:
256,64,90674,1,8,0:0:0:0:
256,64,90733,1,8,0:0:0:0:
256,64,90793,1,0,0:0:0:0:
256,64,90883,1,0,0:0:0:0:
256,64,90972,1,8,0:0:0:0:
256,64,91017,1,8,0:0:0:0:
256,64,91062,1,0,0:0:0:0:
256,64,91107,1,0,0:0:0:0:
256,64,91151,1,8,0:0:0:0:
256,64,91241,1,0,0:0:0:0:
256,64,91330,1,8,0:0:0:0:
256,64,91375,1,8,0:0:0:0:
256,64,91420,1,0,0:0:0:0:
256,64,91465,1,0,0:0:0:0:
256,64,91510,1,8,0:0:0:0:
256,64,91554,1,8,0:0:0:0:
256,64,91599,1,8,0:0:0:0:
256,64,91644,1,8,0:0:0:0:
256,192,91689,12,0,92674,0:0:0:0:
256,320,92763,5,12,0:0:0:0:
256,64,93122,1,0,0:0:0:0:
256,64,93211,1,0,0:0:0:0:
256,64,93301,1,8,0:0:0:0:
256,64,93390,1,8,0:0:0:0:
256,64,93480,1,0,0:0:0:0:
256,64,93525,1,0,0:0:0:0:
256,64,93569,1,8,0:0:0:0:
256,64,93614,1,8,0:0:0:0:
256,64,93659,1,0,0:0:0:0:
256,64,93748,1,8,0:0:0:0:
256,64,93838,1,0,0:0:0:0:
256,64,93883,1,0,0:0:0:0:
256,64,93928,1,0,0:0:0:0:
256,64,94017,1,8,0:0:0:0:
256,64,94107,1,0,0:0:0:0:
256,64,94151,1,0,0:0:0:0:
256,64,94196,1,8,0:0:0:0:
256,64,94286,1,8,0:0:0:0:
256,64,94375,1,0,0:0:0:0:
256,64,94420,1,8,0:0:0:0:
256,64,94465,1,0,0:0:0:0:
256,64,94510,1,0,0:0:0:0:
256,64,94554,1,8,0:0:0:0:
256,64,94644,1,0,0:0:0:0:
256,64,94733,1,8,0:0:0:0:
256,64,94823,1,8,0:0:0:0:
256,64,94913,1,0,0:0:0:0:
256,64,95002,1,8,0:0:0:0:
256,64,95092,1,0,0:0:0:0:
256,64,95136,1,0,0:0:0:0:
256,64,95181,1,8,0:0:0:0:
256,64,95271,1,0,0:0:0:0:
256,64,95360,1,8,0:0:0:0:
256,64,95405,1,8,0:0:0:0:
256,64,95450,1,0,0:0:0:0:
256,64,95539,1,8,0:0:0:0:
256,64,95629,1,0,0:0:0:0:
256,64,95674,1,0,0:0:0:0:
256,64,95719,1,8,0:0:0:0:
256,64,95763,1,8,0:0:0:0:
256,64,95808,1,0,0:0:0:0:
256,64,95898,1,8,0:0:0:0:
256,64,95942,1,8,0:0:0:0:
256,64,95987,1,0,0:0:0:0:
256,64,96166,1,8,0:0:0:0:
256,64,96256,1,8,0:0:0:0:
256,64,96345,1,0,0:0:0:0:
256,64,96390,1,0,0:0:0:0:
256,64,96435,1,8,0:0:0:0:
256,64,96525,1,0,0:0:0:0:
256,64,96614,1,8,0:0:0:0:
256,64,96659,1,8,0:0:0:0:
256,64,96704,1,0,0:0:0:0:
256,64,96793,1,8,0:0:0:0:
256,64,96883,1,0,0:0:0:0:
256,64,96972,1,0,0:0:0:0:
256,64,97062,1,8,0:0:0:0:
256,64,97107,1,8,0:0:0:0:
256,64,97151,1,0,0:0:0:0:
256,64,97196,1,0,0:0:0:0:
256,64,97241,1,8,0:0:0:0:
256,64,97331,1,0,0:0:0:0:
256,64,97420,1,8,0:0:0:0:
256,64,97465,1,0,0:0:0:0:
256,64,97510,1,8,0:0:0:0:
256,64,97554,1,8,0:0:0:0:
256,64,97599,1,0,0:0:0:0:
256,64,97689,1,8,0:0:0:0:
256,64,97778,1,0,0:0:0:0:
256,64,97823,1,0,0:0:0:0:
256,64,97868,1,8,0:0:0:0:
256,64,97957,1,0,0:0:0:0:
256,64,98047,1,8,0:0:0:0:
256,64,98092,1,8,0:0:0:0:
256,64,98136,1,0,0:0:0:0:
256,64,98226,1,8,0:0:0:0:
256,64,98316,1,0,0:0:0:0:
256,64,98360,1,0,0:0:0:0:
256,64,98405,1,0,0:0:0:0:
256,64,98495,1,8,0:0:0:0:
256,64,98674,1,0,0:0:0:0:
256,64,98719,1,0,0:0:0:0:
256,64,98763,1,0,0:0:0:0:
256,64,98808,1,0,0:0:0:0:
256,64,98853,1,8,0:0:0:0:
256,64,98942,1,0,0:0:0:0:
256,64,99032,1,8,0:0:0:0:
256,64,99077,1,0,0:0:0:0:
256,64,99122,1,8,0:0:0:0:
256,64,99211,1,0,0:0:0:0:
256,64,99301,1,8,0:0:0:0:
256,64,99345,1,8,0:0:0:0:
256,64,99390,1,0,0:0:0:0:
256,64,99435,1,0,0:0:0:0:
256,64,99480,1,8,0:0:0:0:
256,64,99569,1,0,0:0:0:0:
256,64,99659,1,8,0:0:0:0:
256,64,99704,1,0,0:0:0:0:
256,64,99748,1,8,0:0:0:0:
256,64,99793,1,8,0:0:0:0:
256,64,99838,1,0,0:0:0:0:
256,64,100286,1,8,0:0:0:0:
256,64,100331,1,8,0:0:0:0:
256,64,100375,1,8,0:0:0:0:
256,64,100420,1,8,0:0:0:0:
256,64,100465,1,0,0:0:0:0:
256,64,100554,1,8,0:0:0:0:
256,64,100644,1,0,0:0:0:0:
257,64,100689,1,0,0:0:0:0:
256,64,100733,1,8,0:0:0:0:
256,64,100823,1,0,0:0:0:0:
256,64,100913,1,8,0:0:0:0:
256,64,100957,1,8,0:0:0:0:
256,64,101002,1,0,0:0:0:0:
256,64,101092,1,8,0:0:0:0:
256,64,101181,1,0,0:0:0:0:
256,64,101226,1,0,0:0:0:0:
256,64,101271,1,0,0:0:0:0:
256,64,101719,1,8,0:0:0:0:
256,64,101763,1,8,0:0:0:0:
256,64,101808,1,0,0:0:0:0:
256,64,101853,1,0,0:0:0:0:
256,64,101898,1,8,0:0:0:0:
256,64,101987,1,8,0:0:0:0:
256,64,102077,1,0,0:0:0:0:
256,64,102166,1,8,0:0:0:0:
256,64,102256,1,0,0:0:0:0:
256,64,102301,1,0,0:0:0:0:
256,64,102345,1,8,0:0:0:0:
256,64,102435,1,0,0:0:0:0:
256,64,102525,1,8,0:0:0:0:
256,64,102569,1,0,0:0:0:0:
256,64,102614,1,8,0:0:0:0:
256,64,102704,1,0,0:0:0:0:
256,64,102793,1,8,0:0:0:0:
256,64,102838,1,8,0:0:0:0:
256,64,102883,1,0,0:0:0:0:
256,64,102928,1,0,0:0:0:0:
256,64,102972,1,8,0:0:0:0:
256,64,103017,1,8,0:0:0:0:
256,64,103062,1,0,0:0:0:0:
256,320,103151,1,12,0:0:0:0:
256,320,103241,1,4,0:0:0:0:
256,320,103420,1,12,0:0:0:0:
256,320,103510,1,4,0:0:0:0:
256,320,103689,1,12,0:0:0:0:
256,320,103778,1,4,0:0:0:0:
256,320,103957,1,12,0:0:0:0:
256,320,104047,1,4,0:0:0:0:
256,64,104226,1,8,0:0:0:0:
256,64,104316,1,8,0:0:0:0:
256,64,104405,1,8,0:0:0:0:
256,64,104495,1,8,0:0:0:0:
256,320,104584,1,4,0:0:0:0:
256,64,104763,1,8,0:0:0:0:
256,64,104853,1,8,0:0:0:0:
256,64,104942,1,0,0:0:0:0:
256,64,104987,1,0,0:0:0:0:
256,64,105032,1,8,0:0:0:0:
256,64,105077,1,8,0:0:0:0:
256,64,105122,1,0,0:0:0:0:
256,64,105211,1,8,0:0:0:0:
256,64,105301,1,0,0:0:0:0:
256,64,105345,1,0,0:0:0:0:
256,64,105390,1,0,0:0:0:0:
256,64,105480,1,8,0:0:0:0:
256,64,105569,1,0,0:0:0:0:
256,64,105659,1,8,0:0:0:0:
256,64,105704,1,8,0:0:0:0:
256,64,105748,1,8,0:0:0:0:
256,64,105838,1,0,0:0:0:0:
256,64,105928,1,0,0:0:0:0:
256,64,106017,1,8,0:0:0:0:
256,64,106062,1,8,0:0:0:0:
256,64,106107,1,0,0:0:0:0:
256,64,106151,1,0,0:0:0:0:
256,64,106196,1,8,0:0:0:0:
256,64,106286,1,0,0:0:0:0:
256,64,106375,1,8,0:0:0:0:
256,64,106420,1,8,0:0:0:0:
256,64,106465,1,0,0:0:0:0:
256,64,106554,1,8,0:0:0:0:
256,64,106644,1,0,0:0:0:0:
256,64,106689,1,0,0:0:0:0:
256,64,106733,1,8,0:0:0:0:
256,64,106823,1,8,0:0:0:0:
256,64,106913,1,0,0:0:0:0:
256,64,106957,1,0,0:0:0:0:
256,64,107002,1,0,0:0:0:0:
256,64,107092,1,8,0:0:0:0:
256,64,107181,1,0,0:0:0:0:
256,64,107226,1,0,0:0:0:0:
256,64,107271,1,8,0:0:0:0:
256,64,107360,1,8,0:0:0:0:
256,64,107450,1,0,0:0:0:0:
256,64,107539,1,0,0:0:0:0:
256,64,107629,1,8,0:0:0:0:
256,64,107674,1,8,0:0:0:0:
256,64,107719,1,8,0:0:0:0:
256,64,107808,1,0,0:0:0:0:
256,64,107898,1,8,0:0:0:0:
256,64,107942,1,8,0:0:0:0:
256,64,107987,1,0,0:0:0:0:
256,64,108077,1,8,0:0:0:0:
256,64,108166,1,0,0:0:0:0:
256,64,108211,1,0,0:0:0:0:
256,64,108256,1,8,0:0:0:0:
256,64,108301,1,0,0:0:0:0:
256,64,108345,1,8,0:0:0:0:
256,64,108435,1,0,0:0:0:0:
256,64,108525,1,8,0:0:0:0:
256,64,108569,1,8,0:0:0:0:
256,64,108614,1,0,0:0:0:0:
256,64,108659,1,0,0:0:0:0:
256,64,108704,1,8,0:0:0:0:
256,64,108793,1,0,0:0:0:0:
256,64,108883,1,8,0:0:0:0:
256,64,108928,1,8,0:0:0:0:
256,64,108972,1,8,0:0:0:0:
256,64,109062,1,0,0:0:0:0:
256,64,109151,1,8,0:0:0:0:
256,64,109196,1,8,0:0:0:0:
256,64,109241,1,0,0:0:0:0:
256,64,109331,1,8,0:0:0:0:
256,64,109420,1,8,0:0:0:0:
256,64,109510,1,8,0:0:0:0:
256,320,109599,1,4,0:0:0:0:
256,64,109778,1,8,0:0:0:0:
256,320,109868,1,4,0:0:0:0:
256,64,110047,1,8,0:0:0:0:
256,320,110136,1,4,0:0:0:0:
256,64,110316,1,8,0:0:0:0:
256,64,110405,1,8,0:0:0:0:
256,64,110495,1,0,0:0:0:0:
256,64,110584,1,8,0:0:0:0:
256,64,110629,1,8,0:0:0:0:
256,64,110674,1,0,0:0:0:0:
256,64,110719,1,0,0:0:0:0:
256,64,110763,1,8,0:0:0:0:
256,64,110853,1,0,0:0:0:0:
256,64,110898,1,0,0:0:0:0:
256,64,110942,1,8,0:0:0:0:
256,64,111032,1,0,0:0:0:0:
256,64,111122,1,8,0:0:0:0:
256,64,111166,1,8,0:0:0:0:
256,64,111211,1,8,0:0:0:0:
256,64,111301,1,0,0:0:0:0:
256,64,111390,1,8,0:0:0:0:
256,64,111569,1,8,0:0:0:0:
256,64,111659,1,8,0:0:0:0:
256,64,111748,1,0,0:0:0:0:
256,64,111793,1,0,0:0:0:0:
256,64,111838,1,0,0:0:0:0:
256,64,111883,1,0,0:0:0:0:
256,64,111928,1,8,0:0:0:0:
256,64,112017,1,0,0:0:0:0:
256,64,112107,1,8,0:0:0:0:
256,64,112166,1,8,0:0:0:0:
256,64,112226,1,8,0:0:0:0:
256,64,112286,1,0,0:0:0:0:
256,64,112375,1,8,0:0:0:0:
256,64,112420,1,8,0:0:0:0:
256,64,112465,1,0,0:0:0:0:
256,64,112554,1,8,0:0:0:0:
256,64,112644,1,8,0:0:0:0:
256,64,112733,1,0,0:0:0:0:
256,64,113181,1,0,0:0:0:0:
256,64,113271,1,0,0:0:0:0:
256,64,113360,1,8,0:0:0:0:
256,64,113405,1,8,0:0:0:0:
256,64,113450,1,8,0:0:0:0:
256,64,113495,1,8,0:0:0:0:
256,64,113539,1,0,0:0:0:0:
256,64,113629,1,0,0:0:0:0:
256,64,113719,1,8,0:0:0:0:
256,64,113763,1,8,0:0:0:0:
256,64,113808,1,0,0:0:0:0:
256,64,113853,1,0,0:0:0:0:
256,64,113898,1,8,0:0:0:0:
256,64,113987,1,8,0:0:0:0:
256,64,114077,1,0,0:0:0:0:
256,64,114166,1,0,0:0:0:0:
256,64,114256,1,8,0:0:0:0:
256,64,114301,1,8,0:0:0:0:
256,64,114345,1,0,0:0:0:0:
256,64,114390,1,0,0:0:0:0:
256,64,114435,1,8,0:0:0:0:
256,64,114480,1,8,0:0:0:0:
256,64,114525,1,0,0:0:0:0:
256,320,114614,1,12,0:0:0:0:
256,320,114704,1,4,0:0:0:0:
256,320,114883,1,12,0:0:0:0:
256,320,114973,1,4,0:0:0:0:
256,320,115152,1,12,0:0:0:0:
256,320,115241,1,4,0:0:0:0:
256,320,115420,1,12,0:0:0:0:
256,320,115510,1,4,0:0:0:0:
256,320,115868,1,12,0:0:0:0:
256,320,115958,1,4,0:0:0:0:
256,320,116137,1,12,0:0:0:0:
256,320,116226,1,4,0:0:0:0:
256,320,116406,1,12,0:0:0:0:
256,320,116495,1,4,0:0:0:0:
256,320,116674,1,12,0:0:0:0:
256,320,116764,1,4,0:0:0:0:
256,192,117122,12,0,118107,0:0:0:0:
256,320,118196,5,12,0:0:0:0:
256,64,118555,1,8,0:0:0:0:
256,64,118599,1,8,0:0:0:0:
256,64,118644,1,0,0:0:0:0:
256,64,118689,1,0,0:0:0:0:
256,64,118734,1,8,0:0:0:0:
256,64,118823,1,0,0:0:0:0:
256,64,118913,1,8,0:0:0:0:
256,64,118957,1,8,0:0:0:0:
256,64,119002,1,0,0:0:0:0:
256,64,119047,1,0,0:0:0:0:
256,64,119092,1,8,0:0:0:0:
256,64,119181,1,0,0:0:0:0:
256,64,119271,1,8,0:0:0:0:
256,64,119316,1,8,0:0:0:0:
256,64,119360,1,0,0:0:0:0:
256,64,119405,1,0,0:0:0:0:
256,64,119450,1,8,0:0:0:0:
256,64,119540,1,0,0:0:0:0:
256,64,119629,1,8,0:0:0:0:
256,64,119674,1,8,0:0:0:0:
256,64,119719,1,0,0:0:0:0:
256,64,119763,1,0,0:0:0:0:
256,64,119808,1,8,0:0:0:0:
256,64,119898,1,0,0:0:0:0:
256,64,119987,1,8,0:0:0:0:
256,64,120077,1,0,0:0:0:0:
256,64,120166,1,8,0:0:0:0:
256,64,120256,1,0,0:0:0:0:
256,64,120346,1,8,0:0:0:0:
256,64,120435,1,0,0:0:0:0:
256,64,120525,1,8,0:0:0:0:
256,64,120614,1,0,0:0:0:0:
256,64,120704,1,8,0:0:0:0:
256,64,120749,1,8,0:0:0:0:
256,64,120793,1,0,0:0:0:0:
256,64,120883,1,8,0:0:0:0:
256,64,120972,1,0,0:0:0:0:
256,64,121017,1,0,0:0:0:0:
256,64,121062,1,8,0:0:0:0:
256,64,121152,1,0,0:0:0:0:
256,64,121241,1,8,0:0:0:0:
256,64,121286,1,8,0:0:0:0:
256,64,121331,1,8,0:0:0:0:
256,64,121375,1,8,0:0:0:0:
256,64,121420,1,0,0:0:0:0:
256,192,121510,12,0,122763,0:0:0:0:
256,64,122853,5,0,0:0:0:0:
256,64,122943,1,0,0:0:0:0:
256,64,123032,1,8,0:0:0:0:
256,64,123122,1,8,0:0:0:0:
256,64,123211,1,0,0:0:0:0:
256,64,123301,1,8,0:0:0:0:
256,64,123390,1,0,0:0:0:0:
256,64,123480,1,0,0:0:0:0:
256,64,123569,1,8,0:0:0:0:
256,64,123659,1,8,0:0:0:0:
256,64,123749,1,8,0:0:0:0:
256,64,123838,1,8,0:0:0:0:
256,192,123928,12,0,124107,0:0:0:0:
256,64,124287,5,8,0:0:0:0:
256,64,124331,1,8,0:0:0:0:
256,64,124376,1,8,0:0:0:0:
256,64,124466,1,0,0:0:0:0:
256,64,124555,1,8,0:0:0:0:
256,64,124645,1,0,0:0:0:0:
256,64,124689,1,0,0:0:0:0:
256,64,124734,1,0,0:0:0:0:
256,64,124824,1,8,0:0:0:0:
256,64,124913,1,0,0:0:0:0:
256,64,125003,1,8,0:0:0:0:
256,64,125048,1,0,0:0:0:0:
256,64,125092,1,8,0:0:0:0:
256,64,125137,1,8,0:0:0:0:
256,64,125182,1,0,0:0:0:0:
256,64,125272,1,8,0:0:0:0:
256,64,125361,1,0,0:0:0:0:
256,64,125406,1,0,0:0:0:0:
256,64,125451,1,0,0:0:0:0:
256,64,125495,1,0,0:0:0:0:
256,64,125540,1,8,0:0:0:0:
256,64,125630,1,0,0:0:0:0:
256,64,125719,1,8,0:0:0:0:
256,64,125764,1,8,0:0:0:0:
256,64,125809,1,8,0:0:0:0:
256,64,125898,1,0,0:0:0:0:
256,64,125988,1,8,0:0:0:0:
256,64,126078,1,0,0:0:0:0:
256,64,126122,1,0,0:0:0:0:
256,64,126167,1,0,0:0:0:0:
256,64,126257,1,8,0:0:0:0:
256,64,126301,1,8,0:0:0:0:
256,64,126346,1,0,0:0:0:0:
256,64,126391,1,0,0:0:0:0:
256,64,126436,1,8,0:0:0:0:
256,64,126570,1,8,0:0:0:0:
256,64,126704,1,8,0:0:0:0:
256,64,126794,1,0,0:0:0:0:
256,64,126839,1,0,0:0:0:0:
256,64,126884,1,0,0:0:0:0:
256,64,126928,1,0,0:0:0:0:
256,64,126973,1,8,0:0:0:0:
256,64,127018,1,8,0:0:0:0:
256,64,127063,1,8,0:0:0:0:
256,64,127107,1,8,0:0:0:0:
256,64,127331,1,0,0:0:0:0:
256,64,127376,1,0,0:0:0:0:
256,64,127421,1,0,0:0:0:0:
256,64,127466,1,0,0:0:0:0:
256,64,127510,1,8,0:0:0:0:
256,64,127600,1,0,0:0:0:0:
256,64,127689,1,8,0:0:0:0:
256,64,127734,1,8,0:0:0:0:
256,64,127779,1,8,0:0:0:0:
256,64,127824,1,8,0:0:0:0:
256,64,127869,1,0,0:0:0:0:
256,64,127958,1,8,0:0:0:0:
256,64,128048,1,0,0:0:0:0:
256,64,128137,1,0,0:0:0:0:
256,64,128227,1,8,0:0:0:0:
256,64,128257,1,8,0:0:0:0:
256,64,128286,1,8,0:0:0:0:
256,64,128316,1,0,0:0:0:0:
256,64,128406,1,8,0:0:0:0:
256,64,128495,1,8,0:0:0:0:
256,64,128585,1,0,0:0:0:0:
256,64,128675,1,0,0:0:0:0:
256,64,128764,1,8,0:0:0:0:
256,64,128809,1,8,0:0:0:0:
256,64,128854,1,8,0:0:0:0:
256,64,128898,1,8,0:0:0:0:
256,64,128943,1,0,0:0:0:0:
256,64,129122,1,0,0:0:0:0:
256,64,129212,1,0,0:0:0:0:
256,64,129301,1,8,0:0:0:0:
256,64,129346,1,8,0:0:0:0:
256,64,129391,1,8,0:0:0:0:
256,64,129436,1,8,0:0:0:0:
256,64,129481,1,0,0:0:0:0:
256,64,129570,1,0,0:0:0:0:
256,64,129660,1,8,0:0:0:0:
256,64,129719,1,8,0:0:0:0:
256,64,129779,1,8,0:0:0:0:
256,64,129839,1,0,0:0:0:0:
256,64,130018,1,0,0:0:0:0:
256,64,130063,1,0,0:0:0:0:
256,64,130107,1,8,0:0:0:0:
256,64,130152,1,8,0:0:0:0:
256,64,130197,1,0,0:0:0:0:
256,64,130242,1,0,0:0:0:0:
256,64,130287,1,8,0:0:0:0:
256,64,130376,1,0,0:0:0:0:
256,64,130466,1,8,0:0:0:0:
256,64,130510,1,8,0:0:0:0:
256,64,130555,1,0,0:0:0:0:
256,64,130600,1,0,0:0:0:0:
256,64,130645,1,8,0:0:0:0:
256,64,130734,1,0,0:0:0:0:
256,64,130824,1,8,0:0:0:0:
256,64,130869,1,8,0:0:0:0:
256,64,130913,1,0,0:0:0:0:
256,64,131003,1,8,0:0:0:0:
256,64,131092,1,0,0:0:0:0:
256,64,131137,1,0,0:0:0:0:
256,64,131182,1,0,0:0:0:0:
256,64,131272,1,8,0:0:0:0:
256,64,131301,1,8,0:0:0:0:
256,64,131331,1,8,0:0:0:0:
256,64,131451,1,0,0:0:0:0:
256,64,131495,1,0,0:0:0:0:
256,64,131540,1,8,0:0:0:0:
256,64,131585,1,8,0:0:0:0:
256,64,131630,1,0,0:0:0:0:
256,64,131719,1,8,0:0:0:0:
256,64,131764,1,8,0:0:0:0:
256,64,131809,1,8,0:0:0:0:
256,64,131854,1,8,0:0:0:0:
256,64,131898,1,0,0:0:0:0:
256,64,131988,1,8,0:0:0:0:
256,64,132033,1,8,0:0:0:0:
256,64,132078,1,0,0:0:0:0:
256,64,132167,1,8,0:0:0:0:
256,64,132197,1,8,0:0:0:0:
256,64,132391,1,0,0:0:0:0:
256,64,132436,1,0,0:0:0:0:
256,64,132481,1,0,0:0:0:0:
256,64,132525,1,8,0:0:0:0:
256,64,132615,1,0,0:0:0:0:
256,64,132660,1,0,0:0:0:0:
256,64,132704,1,8,0:0:0:0:
256,64,132749,1,8,0:0:0:0:
256,64,132794,1,0,0:0:0:0:
256,64,132839,1,0,0:0:0:0:
256,64,132884,1,8,0:0:0:0:
256,64,132973,1,0,0:0:0:0:
256,64,133063,1,8,0:0:0:0:
256,64,133107,1,0,0:0:0:0:
256,64,133152,1,8,0:0:0:0:
256,64,133197,1,8,0:0:0:0:
256,64,133242,1,0,0:0:0:0:
256,64,133331,1,8,0:0:0:0:
256,64,133421,1,0,0:0:0:0:
256,64,133466,1,0,0:0:0:0:
256,64,133510,1,8,0:0:0:0:
256,64,133555,1,8,0:0:0:0:
256,64,133600,1,0,0:0:0:0:
256,64,133645,1,0,0:0:0:0:
256,64,133689,1,8,0:0:0:0:
256,64,133779,1,0,0:0:0:0:
256,64,133869,1,8,0:0:0:0:
256,64,133913,1,8,0:0:0:0:
256,64,133958,1,8,0:0:0:0:
256,64,134048,1,0,0:0:0:0:
256,64,134137,1,8,0:0:0:0:
256,64,134182,1,8,0:0:0:0:
256,64,134227,1,8,0:0:0:0:
256,320,134406,1,4,0:0:0:0:
256,320,134675,1,4,0:0:0:0:
256,320,134943,1,4,0:0:0:0:
256,320,135212,1,4,0:0:0:0:
256,320,135481,1,4,0:0:0:0:
256,320,135749,1,12,0:0:0:0:
256,320,135838,1,4,0:0:0:0:
256,320,136017,1,12,0:0:0:0:
256,320,136107,1,4,0:0:0:0:
256,320,136286,1,12,0:0:0:0:
256,320,136375,1,4,0:0:0:0:
256,320,136554,1,12,0:0:0:0:
256,320,136644,1,4,0:0:0:0:
256,320,137002,1,4,0:0:0:0:
256,320,137092,1,12,0:0:0:0:
256,320,137271,1,4,0:0:0:0:
256,320,137360,1,12,0:0:0:0:
256,320,137540,1,4,0:0:0:0:
256,320,137629,1,12,0:0:0:0:
256,320,137808,1,4,0:0:0:0:
256,320,137898,1,12,0:0:0:0:
256,320,138256,1,12,0:0:0:0:
256,320,138346,1,4,0:0:0:0:
256,320,138525,1,12,0:0:0:0:
256,320,138614,1,4,0:0:0:0:
256,320,138793,1,12,0:0:0:0:
256,320,138883,1,4,0:0:0:0:
256,320,139062,1,12,0:0:0:0:
256,320,139151,1,4,0:0:0:0:
256,320,139510,1,4,0:0:0:0:
256,320,139599,1,12,0:0:0:0:
256,320,139778,1,4,0:0:0:0:
256,320,139868,1,12,0:0:0:0:
256,320,140047,1,4,0:0:0:0:
256,320,140136,1,12,0:0:0:0:
256,320,140315,1,4,0:0:0:0:
256,320,140405,1,12,0:0:0:0:
256,320,140584,1,4,0:0:0:0:
256,320,140674,1,12,0:0:0:0:
256,320,140853,1,4,0:0:0:0:
256,320,140942,1,12,0:0:0:0:
256,320,141121,1,4,0:0:0:0:
256,320,141211,1,12,0:0:0:0:
256,320,141390,1,4,0:0:0:0:
256,320,141480,1,12,0:0:0:0:
256,64,141659,1,8,0:0:0:0:
256,64,141718,1,8,0:0:0:0:
256,64,141778,1,0,0:0:0:0:
256,64,141838,1,8,0:0:0:0:
256,64,141898,1,0,0:0:0:0:
256,64,141957,1,0,0:0:0:0:
256,64,142017,1,8,0:0:0:0:
256,64,142077,1,8,0:0:0:0:
256,64,142136,1,0,0:0:0:0:
256,64,142196,1,8,0:0:0:0:
256,64,142256,1,0,0:0:0:0:
256,64,142315,1,0,0:0:0:0:
256,64,142375,1,8,0:0:0:0:
256,64,142435,1,8,0:0:0:0:
256,64,142495,1,0,0:0:0:0:
256,64,142554,1,8,0:0:0:0:
256,64,142614,1,0,0:0:0:0:
256,64,142674,1,0,0:0:0:0:
256,320,142734,1,12,0:0:0:0:
256,192,142823,12,0,145957,0:0:0:0:
