osu file format v14

[General]
AudioFilename: audio.ogg
AudioLeadIn: 0
PreviewTime: 93077
Countdown: 0
SampleSet: Normal
StackLeniency: 0.7
Mode: 1
LetterboxInBreaks: 0
WidescreenStoryboard: 1

[Editor]
DistanceSpacing: 0.8
BeatDivisor: 4
GridSize: 32
TimelineZoom: 1.900001

[Metadata]
Title:Xronial Xero
TitleUnicode:Xroniàl Xéro
Artist:Camellia as "menaXe inXonnu"
ArtistUnicode:かめりあ as ”menaXe inXonnu”
Creator:Cynplytholowazy
Version:NOVICE
Source:SOUND VOLTEX VIVID WAVE
Tags:Electronic Speedcore Drumstep Instrumental SDVX 5 Xronièr Xronier Xéroa Xeroa menace inconnu Masaya Oya 大箭将也 Cametek KamelCamellia かめるかめりあ BEMANI KONAMI Ph0eNiiXZ ler1211 Rinze
BeatmapID:4013448
BeatmapSetID:1935359

[Difficulty]
HPDrainRate:8.5
CircleSize:10
OverallDifficulty:3
ApproachRate:10
SliderMultiplier:0.7
SliderTickRate:1

[Events]
//Background and Video events
0,0,"bg.jpg",0,0
//Break Periods
2,67689,72166
//Storyboard Layer 0 (Background)
//Storyboard Layer 1 (Fail)
//Storyboard Layer 2 (Pass)
//Storyboard Layer 3 (Foreground)
//Storyboard Layer 4 (Overlay)
//Storyboard Sound Samples

[TimingPoints]
705,179.10447761194,7,1,0,90,1,0
705,-100,7,1,0,90,0,1
5719,179.10447761194,4,1,0,90,1,0
5719,-100,4,1,0,90,0,0
5808,-100,4,1,0,30,0,0
7778,-100,4,1,0,80,0,0
7868,179.10447761194,4,1,0,80,1,8
7869,179.10447761194,4,1,0,80,1,0
7869,-100,4,1,0,80,0,0
17943,-100,4,1,0,40,0,0
18883,-100,4,1,0,80,0,0
19242,-100,4,1,0,90,0,0
19331,-100,4,1,0,90,0,1
28645,-100,4,1,0,90,0,0
29451,-100,4,1,0,90,0,1
30794,-100,4,1,0,90,0,0
42257,-100,4,1,0,90,0,1
52286,-100,4,1,0,90,0,0
53719,-100,4,1,0,90,0,1
55152,-100,4,1,0,90,0,0
56585,-100,4,1,0,90,0,1
58018,-100,4,1,0,90,0,0
59451,-100,4,1,0,90,0,1
65182,-100,4,1,0,90,0,0
67331,179.10447761194,4,1,0,80,1,0
67331,-100,4,1,0,80,0,0
67420,-100,4,1,0,65,0,0
77271,-100,4,1,0,80,0,0
87390,-100,4,1,0,80,0,1
88465,-100,4,1,0,80,0,0
88823,-100,4,1,0,80,0,1
89898,-100,4,1,0,80,0,0
90256,-100,4,1,0,80,0,1
91689,-100,4,1,0,80,0,0
93032,-100,4,1,0,90,0,0
93122,-100,4,1,0,90,0,1
99928,-100,4,1,0,90,0,0
100286,-100,4,1,0,90,0,1
101360,-100,4,1,0,90,0,0
101719,-100,4,1,0,90,0,1
104226,-100,4,1,0,90,0,0
104584,-100,4,1,0,90,0,1
111390,-100,4,1,0,90,0,0
111748,-100,4,1,0,90,0,1
112823,-100,4,1,0,90,0,0
113181,-100,4,1,0,90,0,1
114614,179.10447761194,4,1,0,90,1,9
114615,179.10447761194,7,1,0,90,1,0
114615,-100,7,1,0,90,0,0
117032,-100,7,1,0,60,0,0
117122,179.10447761194,4,1,0,60,1,0
117122,-100,4,1,0,60,0,0
118465,-100,4,1,0,70,0,0
118554,179.10447761194,4,1,0,70,1,8
118555,179.10447761194,4,1,0,70,1,0
118555,-100,4,1,0,70,0,0
119987,-100,4,1,0,80,0,0
124196,-100,4,1,0,90,0,0
124286,179.10447761194,4,1,0,90,1,8
124287,179.10447761194,4,1,0,90,1,1
124287,-100,4,1,0,90,0,1
127152,-100,4,1,0,90,0,0
127331,-100,4,1,0,90,0,1
128585,-100,4,1,0,90,0,0
130018,-100,4,1,0,90,0,1
134227,-100,4,1,0,90,0,0
134406,-100,4,1,0,90,0,1
135481,-100,4,1,0,90,0,0
135749,179.10447761194,7,1,0,90,1,1
135749,-100,7,1,0,90,0,1
139510,179.10447761194,6,1,0,90,1,1
139510,-100,6,1,0,90,0,1
141659,-100,6,1,0,90,0,0
142733,179.10447761194,8,1,0,90,1,8
142734,179.10447761194,8,1,0,90,1,1
142734,-100,8,1,0,90,0,1
145957,-100,8,1,0,90,0,0

[HitObjects]
256,192,705,5,12,0:0:0:0:
256,192,973,1,4,0:0:0:0:
256,192,1242,1,12,0:0:0:0:
256,192,1510,1,4,0:0:0:0:
256,192,1958,1,12,0:0:0:0:
256,192,2227,1,4,0:0:0:0:
256,192,2496,1,12,0:0:0:0:
256,192,2764,1,4,0:0:0:0:
256,192,3212,1,12,0:0:0:0:
256,192,3481,1,4,0:0:0:0:
256,192,3749,1,12,0:0:0:0:
256,192,4018,1,4,0:0:0:0:
256,192,4466,1,12,0:0:0:0:
256,192,4734,1,4,0:0:0:0:
256,192,5003,1,12,0:0:0:0:
256,192,5272,1,4,0:0:0:0:
256,192,5719,1,12,0:0:0:0:
256,192,7868,1,4,0:0:0:0:
256,192,8585,1,8,0:0:0:0:
256,192,9301,1,0,0:0:0:0:
256,192,9660,1,0,0:0:0:0:
256,192,10018,1,8,0:0:0:0:
256,192,10734,1,0,0:0:0:0:
256,192,11451,1,8,0:0:0:0:
256,192,12167,1,0,0:0:0:0:
256,192,12525,1,0,0:0:0:0:
256,192,12883,1,8,0:0:0:0:
256,192,13600,1,8,0:0:0:0:
256,192,13958,1,0,0:0:0:0:
256,192,14316,1,8,0:0:0:0:
256,192,14674,1,8,0:0:0:0:
256,192,15033,1,0,0:0:0:0:
256,192,15212,1,0,0:0:0:0:
256,192,15391,1,0,0:0:0:0:
256,192,15749,1,8,0:0:0:0:
256,192,16107,1,0,0:0:0:0:
256,192,16466,1,8,0:0:0:0:
256,192,16645,1,8,0:0:0:0:
256,192,16824,1,8,0:0:0:0:
256,192,17182,1,0,0:0:0:0:
256,192,17361,1,0,0:0:0:0:
256,192,17540,1,0,0:0:0:0:
256,192,17719,1,0,0:0:0:0:
256,192,18973,1,12,0:0:0:0:
256,192,19331,1,4,0:0:0:0:
256,192,20048,1,8,0:0:0:0:
256,192,20316,1,0,0:0:0:0:
256,192,20585,1,0,0:0:0:0:
256,192,20764,1,8,0:0:0:0:
256,192,21122,1,0,0:0:0:0:
256,192,21480,1,8,0:0:0:0:
256,192,21749,1,8,0:0:0:0:
256,192,22197,1,0,0:0:0:0:
256,192,22913,1,8,0:0:0:0:
256,192,23182,1,0,0:0:0:0:
256,192,23451,1,0,0:0:0:0:
256,192,23630,1,8,0:0:0:0:
256,192,23988,1,0,0:0:0:0:
256,192,24346,1,8,0:0:0:0:
256,192,24525,1,8,0:0:0:0:
256,192,24704,1,0,0:0:0:0:
256,192,24883,1,0,0:0:0:0:
256,192,25063,1,8,0:0:0:0:
256,192,25779,1,8,0:0:0:0:
256,192,26048,1,0,0:0:0:0:
256,192,26316,1,0,0:0:0:0:
256,192,26495,1,8,0:0:0:0:
256,192,26854,1,0,0:0:0:0:
256,192,27212,1,8,0:0:0:0:
256,192,27480,1,8,0:0:0:0:
256,192,27928,1,8,0:0:0:0:
256,192,28645,1,0,0:0:0:0:
256,192,28883,1,0,0:0:0:0:
256,192,29122,1,0,0:0:0:0:
256,192,29451,1,12,0:0:0:0:
256,192,29719,1,12,0:0:0:0:
256,192,29988,1,12,0:0:0:0:
256,192,30257,1,12,0:0:0:0:
256,192,30525,1,12,0:0:0:0:
256,192,30794,1,0,0:0:0:0:
256,192,31510,1,8,0:0:0:0:
256,192,31868,1,8,0:0:0:0:
256,192,32227,1,0,0:0:0:0:
256,192,32585,1,0,0:0:0:0:
256,192,32943,1,8,0:0:0:0:
256,192,33839,1,8,0:0:0:0:
256,192,34018,1,0,0:0:0:0:
256,192,34376,1,8,0:0:0:0:
256,192,34734,1,8,0:0:0:0:
256,192,35092,1,0,0:0:0:0:
256,192,35451,1,0,0:0:0:0:
256,192,35809,1,8,0:0:0:0:
256,192,36525,1,8,0:0:0:0:
256,192,36883,1,0,0:0:0:0:
256,192,37242,1,8,0:0:0:0:
256,192,37600,1,8,0:0:0:0:
256,192,37958,1,0,0:0:0:0:
256,192,38316,1,0,0:0:0:0:
256,192,38674,1,8,0:0:0:0:
256,192,39391,1,8,0:0:0:0:
256,192,39749,1,0,0:0:0:0:
256,192,39928,1,0,0:0:0:0:
256,192,40107,1,8,0:0:0:0:
256,192,40286,1,8,0:0:0:0:
256,192,40466,1,0,0:0:0:0:
256,192,42257,1,8,0:0:0:0:
256,192,42973,1,8,0:0:0:0:
256,192,43331,1,0,0:0:0:0:
256,192,43510,1,0,0:0:0:0:
256,192,43689,1,8,0:0:0:0:
256,192,44048,1,0,0:0:0:0:
256,192,44406,1,8,0:0:0:0:
256,192,45122,1,8,0:0:0:0:
256,192,45301,1,8,0:0:0:0:
256,192,45839,1,8,0:0:0:0:
256,192,46197,1,0,0:0:0:0:
256,192,46555,1,8,0:0:0:0:
256,192,46734,1,8,0:0:0:0:
256,192,47092,1,8,0:0:0:0:
256,192,47451,1,8,0:0:0:0:
256,192,47630,1,0,0:0:0:0:
256,192,47988,1,8,0:0:0:0:
256,192,48704,1,8,0:0:0:0:
256,192,49063,1,0,0:0:0:0:
256,192,49242,1,0,0:0:0:0:
256,192,49421,1,8,0:0:0:0:
256,192,49779,1,0,0:0:0:0:
256,192,50137,1,8,0:0:0:0:
256,192,50854,1,8,0:0:0:0:
256,192,51212,1,0,0:0:0:0:
256,192,51391,1,0,0:0:0:0:
256,192,51570,1,8,0:0:0:0:
256,192,51928,1,0,0:0:0:0:
256,192,52286,1,12,0:0:0:0:
256,192,52555,1,12,0:0:0:0:
256,192,52824,1,12,0:0:0:0:
256,192,53092,1,12,0:0:0:0:
256,192,53719,1,0,0:0:0:0:
256,192,53898,1,8,0:0:0:0:
256,192,54257,1,8,0:0:0:0:
256,192,54615,1,8,0:0:0:0:
256,192,54973,1,8,0:0:0:0:
256,192,55152,2,0,L|320:192,12,35
256,192,56585,1,0,0:0:0:0:
256,192,56764,1,8,0:0:0:0:
256,192,57122,1,8,0:0:0:0:
256,192,57480,1,8,0:0:0:0:
256,192,57839,1,8,0:0:0:0:
256,192,58018,2,0,L|320:192,11,35
256,192,59451,1,12,0:0:0:0:
256,192,60167,1,12,0:0:0:0:
256,192,60883,1,12,0:0:0:0:
256,192,61600,1,12,0:0:0:0:
256,192,62316,1,12,0:0:0:0:
256,192,63033,1,12,0:0:0:0:
256,192,63749,1,12,0:0:0:0:
256,192,64466,1,12,0:0:0:0:
256,192,65182,12,0,67152,0:0:0:0:
256,192,67331,5,12,0:0:0:0:
256,192,73062,5,8,0:0:0:0:
256,192,74495,1,8,0:0:0:0:
256,192,75928,1,0,0:0:0:0:
256,192,77360,1,12,0:0:0:0:
256,192,77629,1,4,0:0:0:0:
256,192,77898,1,12,0:0:0:0:
256,192,78166,1,4,0:0:0:0:
256,192,78793,1,12,0:0:0:0:
256,192,79330,1,0,0:0:0:0:
256,192,79510,1,8,0:0:0:0:
256,192,80226,1,0,0:0:0:0:
256,192,80584,1,8,0:0:0:0:
256,192,80942,1,0,0:0:0:0:
256,192,81301,1,0,0:0:0:0:
256,192,81659,1,8,0:0:0:0:
256,192,82196,1,8,0:0:0:0:
256,192,82375,1,0,0:0:0:0:
256,192,83092,1,0,0:0:0:0:
256,192,83450,1,0,0:0:0:0:
256,192,83808,1,8,0:0:0:0:
256,192,84166,1,0,0:0:0:0:
256,192,84525,1,8,0:0:0:0:
256,192,85062,1,0,0:0:0:0:
256,192,85241,1,0,0:0:0:0:
256,192,85599,1,8,0:0:0:0:
256,192,85957,1,8,0:0:0:0:
256,192,86316,1,0,0:0:0:0:
256,192,86674,1,8,0:0:0:0:
256,192,87390,1,8,0:0:0:0:
256,192,87748,1,0,0:0:0:0:
256,192,87928,1,0,0:0:0:0:
256,192,88107,1,8,0:0:0:0:
256,192,88823,1,8,0:0:0:0:
256,192,89002,1,8,0:0:0:0:
256,192,89181,1,0,0:0:0:0:
256,192,89360,1,0,0:0:0:0:
256,192,89539,1,8,0:0:0:0:
256,192,90256,1,8,0:0:0:0:
256,192,90435,1,8,0:0:0:0:
256,192,90614,1,0,0:0:0:0:
256,192,90793,1,0,0:0:0:0:
256,192,90972,1,8,0:0:0:0:
256,192,91330,1,8,0:0:0:0:
256,192,91510,1,8,0:0:0:0:
256,192,91689,12,0,92763,0:0:0:0:
256,192,93122,5,12,0:0:0:0:
256,192,93838,1,8,0:0:0:0:
256,192,94196,1,0,0:0:0:0:
256,192,94375,1,0,0:0:0:0:
256,192,94554,1,8,0:0:0:0:
256,192,94913,1,0,0:0:0:0:
256,192,95271,1,8,0:0:0:0:
256,192,95450,1,8,0:0:0:0:
256,192,95629,1,0,0:0:0:0:
256,192,95808,1,0,0:0:0:0:
256,192,95987,1,8,0:0:0:0:
256,192,96704,1,8,0:0:0:0:
256,192,97062,1,0,0:0:0:0:
256,192,97420,1,8,0:0:0:0:
256,192,97599,1,8,0:0:0:0:
256,192,97778,1,0,0:0:0:0:
256,192,98136,1,8,0:0:0:0:
256,192,98495,1,8,0:0:0:0:
256,192,98674,1,0,0:0:0:0:
256,192,98853,1,8,0:0:0:0:
256,192,99211,1,0,0:0:0:0:
256,192,99569,1,8,0:0:0:0:
256,192,99748,1,8,0:0:0:0:
256,192,100286,1,8,0:0:0:0:
256,192,100644,1,0,0:0:0:0:
256,192,101002,1,8,0:0:0:0:
256,192,101181,1,8,0:0:0:0:
256,192,101719,1,8,0:0:0:0:
256,192,102077,1,0,0:0:0:0:
256,192,102256,1,0,0:0:0:0:
256,192,102435,1,8,0:0:0:0:
256,192,102614,1,8,0:0:0:0:
256,192,102793,1,0,0:0:0:0:
256,192,103151,1,12,0:0:0:0:
256,192,103420,1,4,0:0:0:0:
256,192,103689,1,12,0:0:0:0:
256,192,103957,1,4,0:0:0:0:
256,192,104584,1,12,0:0:0:0:
256,192,105301,1,8,0:0:0:0:
256,192,105659,1,0,0:0:0:0:
256,192,105838,1,0,0:0:0:0:
256,192,106017,1,8,0:0:0:0:
256,192,106375,1,0,0:0:0:0:
256,192,106554,1,8,0:0:0:0:
256,192,106913,1,8,0:0:0:0:
256,192,107092,1,0,0:0:0:0:
256,192,107450,1,8,0:0:0:0:
256,192,108166,1,8,0:0:0:0:
256,192,108525,1,8,0:0:0:0:
256,192,108704,1,8,0:0:0:0:
256,192,108883,1,0,0:0:0:0:
256,192,109062,1,8,0:0:0:0:
256,192,109420,1,8,0:0:0:0:
256,192,109599,1,0,0:0:0:0:
256,192,110316,1,8,0:0:0:0:
256,192,110495,1,8,0:0:0:0:
256,192,110674,1,8,0:0:0:0:
256,192,111032,1,0,0:0:0:0:
256,192,111748,1,8,0:0:0:0:
256,192,111928,1,8,0:0:0:0:
256,192,112107,1,8,0:0:0:0:
256,192,112465,1,0,0:0:0:0:
256,192,112644,1,0,0:0:0:0:
256,192,113181,1,8,0:0:0:0:
256,192,113360,1,8,0:0:0:0:
256,192,113539,1,0,0:0:0:0:
256,192,113719,1,0,0:0:0:0:
256,192,113898,1,8,0:0:0:0:
256,192,114615,1,12,0:0:0:0:
256,192,114883,1,4,0:0:0:0:
256,192,115152,1,12,0:0:0:0:
256,192,115420,1,4,0:0:0:0:
256,192,115868,1,12,0:0:0:0:
256,192,116137,1,4,0:0:0:0:
256,192,116406,1,12,0:0:0:0:
256,192,116674,1,4,0:0:0:0:
256,192,117122,12,0,118196,0:0:0:0:
256,192,118555,6,0,L|297:192,12,35
256,192,119987,1,8,0:0:0:0:
256,192,120166,1,8,0:0:0:0:
256,192,120346,1,8,0:0:0:0:
256,192,120704,1,8,0:0:0:0:
256,192,120972,1,8,0:0:0:0:
256,192,121241,1,8,0:0:0:0:
256,192,121420,1,0,0:0:0:0:
256,192,122853,1,0,0:0:0:0:
256,192,123211,1,0,0:0:0:0:
256,192,123569,1,8,0:0:0:0:
256,192,124287,1,8,0:0:0:0:
256,192,124466,1,0,0:0:0:0:
256,192,124645,1,8,0:0:0:0:
256,192,124824,1,8,0:0:0:0:
256,192,125003,1,0,0:0:0:0:
256,192,125361,1,0,0:0:0:0:
256,192,125719,1,8,0:0:0:0:
256,192,125898,1,8,0:0:0:0:
256,192,126078,1,0,0:0:0:0:
256,192,126257,1,0,0:0:0:0:
256,192,126436,1,8,0:0:0:0:
256,192,126794,1,8,0:0:0:0:
256,192,127331,1,0,0:0:0:0:
256,192,127510,1,0,0:0:0:0:
256,192,127869,1,8,0:0:0:0:
256,192,128048,1,0,0:0:0:0:
256,192,128227,1,8,0:0:0:0:
256,192,128406,1,8,0:0:0:0:
256,192,128585,1,0,0:0:0:0:
256,192,128943,1,0,0:0:0:0:
256,192,129301,1,8,0:0:0:0:
256,192,129481,1,0,0:0:0:0:
256,192,129660,1,8,0:0:0:0:
256,192,130018,1,0,0:0:0:0:
256,192,130197,1,0,0:0:0:0:
256,192,130376,1,8,0:0:0:0:
256,192,130555,1,0,0:0:0:0:
256,192,130734,1,8,0:0:0:0:
256,192,131092,1,0,0:0:0:0:
256,192,131451,1,8,0:0:0:0:
256,192,131630,1,8,0:0:0:0:
256,192,131809,1,0,0:0:0:0:
256,192,131988,1,0,0:0:0:0:
256,192,132167,1,8,0:0:0:0:
256,192,132884,1,8,0:0:0:0:
256,192,133063,1,0,0:0:0:0:
256,192,133242,1,8,0:0:0:0:
256,192,133600,1,0,0:0:0:0:
256,192,133869,1,0,0:0:0:0:
256,192,134137,1,0,0:0:0:0:
256,192,134406,1,12,0:0:0:0:
256,192,134675,1,12,0:0:0:0:
256,192,134943,1,12,0:0:0:0:
256,192,135212,1,12,0:0:0:0:
256,192,135749,1,4,0:0:0:0:
256,192,136017,1,12,0:0:0:0:
256,192,136286,1,4,0:0:0:0:
256,192,136554,1,12,0:0:0:0:
256,192,137002,1,4,0:0:0:0:
256,192,137271,1,12,0:0:0:0:
256,192,137540,1,4,0:0:0:0:
256,192,137808,1,12,0:0:0:0:
256,192,138256,1,4,0:0:0:0:
256,192,138525,1,12,0:0:0:0:
256,192,138793,1,4,0:0:0:0:
256,192,139062,1,12,0:0:0:0:
256,192,139510,1,4,0:0:0:0:
256,192,139778,1,12,0:0:0:0:
256,192,140047,1,4,0:0:0:0:
256,192,140315,1,12,0:0:0:0:
256,192,140584,1,4,0:0:0:0:
256,192,140853,1,12,0:0:0:0:
256,192,141121,1,4,0:0:0:0:
256,192,141390,1,12,0:0:0:0:
256,192,142733,1,4,0:0:0:0:
256,192,142913,12,4,145957,0:0:0:0:
