osu file format v14

[General]
AudioFilename: audio.ogg
AudioLeadIn: 0
PreviewTime: 93077
Countdown: 0
SampleSet: Normal
StackLeniency: 0.7
Mode: 1
LetterboxInBreaks: 0
WidescreenStoryboard: 1

[Editor]
DistanceSpacing: 0.8
BeatDivisor: 4
GridSize: 32
TimelineZoom: 3.899998

[Metadata]
Title:Xronial Xero
TitleUnicode:Xroniàl Xéro
Artist:Camellia as "menaXe inXonnu"
ArtistUnicode:かめりあ as ”menaXe inXonnu”
Creator:Cynplytholowazy
Version:LER'S GRAVITY
Source:SOUND VOLTEX VIVID WAVE
Tags:Electronic Speedcore Drumstep Instrumental SDVX 5 Xronièr Xronier Xéroa Xeroa menace inconnu Masaya Oya 大箭将也 Cametek KamelCamellia かめるかめりあ BEMANI KONAMI Ph0eNiiXZ ler1211 Rinze
BeatmapID:3999742
BeatmapSetID:1935359

[Difficulty]
HPDrainRate:5
CircleSize:10
OverallDifficulty:7
ApproachRate:10
SliderMultiplier:1.15
SliderTickRate:1

[Events]
//Background and Video events
0,0,"bg.jpg",0,0
//Break Periods
2,65182,66881
//Storyboard Layer 0 (Background)
//Storyboard Layer 1 (Fail)
//Storyboard Layer 2 (Pass)
//Storyboard Layer 3 (Foreground)
//Storyboard Layer 4 (Overlay)
//Storyboard Sound Samples

[TimingPoints]
705,179.10447761194,7,1,0,90,1,0
705,-100,7,1,0,90,0,1
5719,179.10447761194,4,1,0,90,1,0
5719,-100,4,1,0,90,0,0
5808,-100,4,1,0,30,0,0
7778,-100,4,1,0,80,0,0
7868,179.10447761194,4,1,0,80,1,8
7869,179.10447761194,4,1,0,80,1,0
7869,-100,4,1,0,80,0,0
17943,-100,4,1,0,40,0,0
18883,-100,4,1,0,80,0,0
19242,-100,4,1,0,90,0,0
19331,-100,4,1,0,90,0,1
28645,-100,4,1,0,90,0,0
29451,-100,4,1,0,90,0,1
30794,-100,4,1,0,90,0,0
42257,-100,4,1,0,90,0,1
52286,-100,4,1,0,90,0,0
53719,-100,4,1,0,90,0,1
55152,-100,4,1,0,90,0,0
56585,-100,4,1,0,90,0,1
58018,-100,4,1,0,90,0,0
59451,-100,4,1,0,90,0,1
65182,-100,4,1,0,90,0,0
67331,179.10447761194,4,1,0,80,1,0
67331,-100,4,1,0,80,0,0
67420,-100,4,1,0,65,0,0
77271,-100,4,1,0,80,0,0
87390,-100,4,1,0,80,0,1
88465,-100,4,1,0,80,0,0
88823,-100,4,1,0,80,0,1
89898,-100,4,1,0,80,0,0
90256,-100,4,1,0,80,0,1
91689,-100,4,1,0,80,0,0
93032,-100,4,1,0,90,0,0
93122,-100,4,1,0,90,0,1
99928,-100,4,1,0,90,0,0
100286,-100,4,1,0,90,0,1
101360,-100,4,1,0,90,0,0
101719,-100,4,1,0,90,0,1
104226,-100,4,1,0,90,0,0
104584,-100,4,1,0,90,0,1
111390,-100,4,1,0,90,0,0
111748,-100,4,1,0,90,0,1
112823,-100,4,1,0,90,0,0
113181,-100,4,1,0,90,0,1
114614,179.10447761194,4,1,0,90,1,9
114615,179.10447761194,7,1,0,90,1,0
114615,-100,7,1,0,90,0,0
117032,-100,7,1,0,60,0,0
117122,179.10447761194,4,1,0,60,1,0
117122,-100,4,1,0,60,0,0
118465,-100,4,1,0,70,0,0
118554,179.10447761194,4,1,0,70,1,8
118555,179.10447761194,4,1,0,70,1,0
118555,-100,4,1,0,70,0,0
119987,-100,4,1,0,80,0,0
124196,-100,4,1,0,90,0,0
124286,179.10447761194,4,1,0,90,1,8
124287,179.10447761194,4,1,0,90,1,1
124287,-100,4,1,0,90,0,1
127152,-100,4,1,0,90,0,0
127331,-100,4,1,0,90,0,1
128585,-100,4,1,0,90,0,0
130018,-100,4,1,0,90,0,1
134227,-100,4,1,0,90,0,0
134406,-100,4,1,0,90,0,1
135481,-100,4,1,0,90,0,0
135749,179.10447761194,7,1,0,90,1,1
135749,-100,7,1,0,90,0,1
139510,179.10447761194,6,1,0,90,1,1
139510,-100,6,1,0,90,0,1
141659,-100,6,1,0,90,0,0
142733,179.10447761194,8,1,0,90,1,8
142734,179.10447761194,8,1,0,90,1,1
142734,-100,8,1,0,90,0,1
145957,-100,8,1,0,90,0,0

[HitObjects]
256,192,705,5,0,0:0:0:0:
256,192,794,1,0,0:0:0:0:
256,192,973,1,0,0:0:0:0:
256,192,1063,1,0,0:0:0:0:
256,192,1242,1,0,0:0:0:0:
256,192,1331,1,0,0:0:0:0:
256,192,1510,1,0,0:0:0:0:
256,192,1600,1,0,0:0:0:0:
256,192,1779,1,0,0:0:0:0:
256,192,1869,1,8,0:0:0:0:
256,192,1958,1,0,0:0:0:0:
256,192,2048,1,0,0:0:0:0:
256,192,2227,1,0,0:0:0:0:
256,192,2316,1,0,0:0:0:0:
256,192,2496,1,0,0:0:0:0:
256,192,2585,1,0,0:0:0:0:
256,192,2764,1,0,0:0:0:0:
256,192,2854,1,0,0:0:0:0:
256,192,3033,1,8,0:0:0:0:
256,192,3122,1,8,0:0:0:0:
256,192,3212,1,0,0:0:0:0:
256,192,3302,1,0,0:0:0:0:
256,192,3481,1,0,0:0:0:0:
256,192,3570,1,0,0:0:0:0:
256,192,3749,1,0,0:0:0:0:
256,192,3839,1,0,0:0:0:0:
256,192,4018,1,0,0:0:0:0:
256,192,4107,1,0,0:0:0:0:
256,192,4287,1,0,0:0:0:0:
256,192,4376,1,8,0:0:0:0:
256,192,4466,1,0,0:0:0:0:
256,192,4555,1,0,0:0:0:0:
256,192,4734,1,0,0:0:0:0:
256,192,4824,1,0,0:0:0:0:
256,192,5003,1,0,0:0:0:0:
256,192,5093,1,0,0:0:0:0:
256,192,5272,1,0,0:0:0:0:
256,192,5361,1,0,0:0:0:0:
256,192,5540,1,8,0:0:0:0:
256,192,5585,1,8,0:0:0:0:
256,192,5630,1,8,0:0:0:0:
256,192,5719,1,4,0:0:0:0:
256,192,7868,1,0,0:0:0:0:
256,192,8048,1,0,0:0:0:0:
256,192,8227,1,8,0:0:0:0:
256,192,8406,1,0,0:0:0:0:
256,192,8451,1,0,0:0:0:0:
256,192,8495,1,0,0:0:0:0:
256,192,8585,1,8,0:0:0:0:
256,192,8764,1,0,0:0:0:0:
256,192,8943,1,0,0:0:0:0:
256,192,9122,1,8,0:0:0:0:
256,192,9301,1,0,0:0:0:0:
256,192,9391,1,0,0:0:0:0:
256,192,9480,1,8,0:0:0:0:
256,192,9660,1,0,0:0:0:0:
256,192,9749,1,0,0:0:0:0:
256,192,9839,1,0,0:0:0:0:
256,192,9928,1,0,0:0:0:0:
256,192,10018,1,8,0:0:0:0:
256,192,10197,1,0,0:0:0:0:
256,192,10242,1,0,0:0:0:0:
256,192,10286,1,0,0:0:0:0:
256,192,10376,1,0,0:0:0:0:
256,192,10555,1,8,0:0:0:0:
256,192,10645,1,8,0:0:0:0:
256,192,10734,1,0,0:0:0:0:
256,192,10913,1,8,0:0:0:0:
256,192,11003,1,8,0:0:0:0:
256,192,11092,1,8,0:0:0:0:
256,192,11271,1,0,0:0:0:0:
256,192,11316,1,0,0:0:0:0:
256,192,11361,1,0,0:0:0:0:
256,192,11451,1,8,0:0:0:0:
256,192,11630,1,0,0:0:0:0:
256,192,11719,1,0,0:0:0:0:
256,192,11898,1,0,0:0:0:0:
256,192,11988,1,8,0:0:0:0:
256,192,12167,1,0,0:0:0:0:
256,192,12257,1,0,0:0:0:0:
256,192,12346,1,8,0:0:0:0:
256,192,12525,1,0,0:0:0:0:
256,192,12615,1,0,0:0:0:0:
256,192,12704,1,0,0:0:0:0:
256,192,12794,1,0,0:0:0:0:
256,192,12883,1,8,0:0:0:0:
256,192,12973,1,0,0:0:0:0:
256,192,13018,1,0,0:0:0:0:
256,192,13063,1,0,0:0:0:0:
256,192,13152,1,8,0:0:0:0:
256,192,13331,1,0,0:0:0:0:
256,192,13376,1,0,0:0:0:0:
256,192,13421,1,8,0:0:0:0:
256,192,13510,1,8,0:0:0:0:
256,192,13600,1,0,0:0:0:0:
256,192,13689,1,0,0:0:0:0:
256,192,13779,1,8,0:0:0:0:
256,192,13868,1,0,0:0:0:0:
256,192,13958,1,8,0:0:0:0:
256,192,14048,1,8,0:0:0:0:
256,192,14137,1,0,0:0:0:0:
256,192,14227,1,8,0:0:0:0:
256,192,14316,1,0,0:0:0:0:
256,192,14406,1,0,0:0:0:0:
256,192,14495,1,0,0:0:0:0:
256,192,14585,1,0,0:0:0:0:
256,192,14674,1,8,0:0:0:0:
256,192,14764,1,8,0:0:0:0:
256,192,14854,1,8,0:0:0:0:
256,192,14943,1,8,0:0:0:0:
256,192,15033,1,0,0:0:0:0:
256,192,15122,1,0,0:0:0:0:
256,192,15212,1,8,0:0:0:0:
256,192,15301,1,8,0:0:0:0:
256,192,15391,1,0,0:0:0:0:
256,192,15480,1,8,0:0:0:0:
256,192,15570,1,0,0:0:0:0:
256,192,15660,1,0,0:0:0:0:
256,192,15749,1,8,0:0:0:0:
256,192,15839,1,8,0:0:0:0:
256,192,15928,1,8,0:0:0:0:
256,192,16018,1,8,0:0:0:0:
256,192,16107,1,0,0:0:0:0:
256,192,16197,1,8,0:0:0:0:
256,192,16286,1,0,0:0:0:0:
256,192,16376,1,8,0:0:0:0:
256,192,16466,1,0,0:0:0:0:
256,192,16555,1,0,0:0:0:0:
256,192,16645,1,8,0:0:0:0:
256,192,16734,1,8,0:0:0:0:
256,192,16824,1,0,0:0:0:0:
256,192,16913,1,0,0:0:0:0:
256,192,17003,1,0,0:0:0:0:
256,192,17092,1,0,0:0:0:0:
256,192,17182,1,8,0:0:0:0:
256,192,17271,1,0,0:0:0:0:
256,192,17361,1,0,0:0:0:0:
256,192,17451,1,0,0:0:0:0:
256,192,17540,1,8,0:0:0:0:
256,192,17630,1,0,0:0:0:0:
256,192,17719,1,8,0:0:0:0:
256,192,17764,1,8,0:0:0:0:
256,192,17809,1,8,0:0:0:0:
256,192,17854,1,8,0:0:0:0:
256,192,18973,1,8,0:0:0:0:
256,192,19331,1,4,0:0:0:0:
256,192,19510,1,8,0:0:0:0:
256,192,19600,1,8,0:0:0:0:
256,192,19689,1,0,0:0:0:0:
256,192,19779,1,8,0:0:0:0:
256,192,19958,1,8,0:0:0:0:
256,192,20048,1,0,0:0:0:0:
256,192,20137,1,0,0:0:0:0:
256,192,20227,1,8,0:0:0:0:
256,192,20316,1,0,0:0:0:0:
256,192,20406,1,8,0:0:0:0:
256,192,20585,1,0,0:0:0:0:
256,192,20674,1,0,0:0:0:0:
256,192,20719,1,0,0:0:0:0:
256,192,20764,1,8,0:0:0:0:
256,192,20943,1,0,0:0:0:0:
256,192,21033,1,0,0:0:0:0:
256,192,21122,1,8,0:0:0:0:
256,192,21212,1,8,0:0:0:0:
256,192,21301,1,0,0:0:0:0:
256,192,21391,1,8,0:0:0:0:
256,192,21436,1,8,0:0:0:0:
256,192,21480,1,8,0:0:0:0:
256,192,21660,1,0,0:0:0:0:
256,192,21749,1,8,0:0:0:0:
256,192,21794,1,8,0:0:0:0:
256,192,21839,1,0,0:0:0:0:
256,192,21928,1,0,0:0:0:0:
256,192,22018,1,8,0:0:0:0:
256,192,22107,1,0,0:0:0:0:
256,192,22197,1,8,0:0:0:0:
256,192,22376,1,0,0:0:0:0:
256,192,22466,1,0,0:0:0:0:
256,192,22555,1,8,0:0:0:0:
256,192,22645,1,0,0:0:0:0:
256,192,22734,1,8,0:0:0:0:
256,192,22824,1,8,0:0:0:0:
256,192,22913,1,0,0:0:0:0:
256,192,23092,1,8,0:0:0:0:
256,192,23182,1,8,0:0:0:0:
256,192,23271,1,0,0:0:0:0:
256,192,23316,1,0,0:0:0:0:
256,192,23361,1,0,0:0:0:0:
256,192,23451,1,8,0:0:0:0:
256,192,23630,1,8,0:0:0:0:
256,192,23719,1,0,0:0:0:0:
256,192,23764,1,0,0:0:0:0:
256,192,23809,1,8,0:0:0:0:
256,192,23898,1,8,0:0:0:0:
256,192,23988,1,0,0:0:0:0:
256,192,24167,1,0,0:0:0:0:
256,192,24257,1,8,0:0:0:0:
256,192,24301,1,8,0:0:0:0:
256,192,24346,1,0,0:0:0:0:
256,192,24436,1,0,0:0:0:0:
256,192,24525,1,8,0:0:0:0:
256,192,24615,1,0,0:0:0:0:
256,192,24704,1,8,0:0:0:0:
256,192,24749,1,8,0:0:0:0:
256,192,24794,1,0,0:0:0:0:
256,192,24839,1,0,0:0:0:0:
256,192,24883,1,8,0:0:0:0:
256,192,24973,1,8,0:0:0:0:
256,192,25063,1,0,0:0:0:0:
256,192,25242,1,8,0:0:0:0:
256,192,25331,1,8,0:0:0:0:
256,192,25421,1,0,0:0:0:0:
256,192,25510,1,8,0:0:0:0:
256,192,25689,1,8,0:0:0:0:
256,192,25779,1,0,0:0:0:0:
256,192,25868,1,0,0:0:0:0:
256,192,25958,1,8,0:0:0:0:
256,192,26048,1,0,0:0:0:0:
256,192,26137,1,8,0:0:0:0:
256,192,26316,1,8,0:0:0:0:
256,192,26406,1,8,0:0:0:0:
256,192,26451,1,8,0:0:0:0:
256,192,26495,1,0,0:0:0:0:
256,192,26674,1,8,0:0:0:0:
256,192,26764,1,8,0:0:0:0:
256,192,26854,1,0,0:0:0:0:
256,192,26943,1,8,0:0:0:0:
256,192,27033,1,8,0:0:0:0:
256,192,27122,1,0,0:0:0:0:
256,192,27167,1,0,0:0:0:0:
256,192,27212,1,0,0:0:0:0:
256,192,27391,1,0,0:0:0:0:
256,192,27480,1,8,0:0:0:0:
256,192,27525,1,8,0:0:0:0:
256,192,27570,1,0,0:0:0:0:
256,192,27660,1,0,0:0:0:0:
256,192,27749,1,8,0:0:0:0:
256,192,27839,1,8,0:0:0:0:
256,192,27928,1,0,0:0:0:0:
256,192,28107,1,0,0:0:0:0:
256,192,28197,1,8,0:0:0:0:
256,192,28242,1,8,0:0:0:0:
256,192,28286,1,8,0:0:0:0:
256,192,28376,1,0,0:0:0:0:
256,192,28466,1,8,0:0:0:0:
256,192,28510,1,8,0:0:0:0:
256,192,28555,1,8,0:0:0:0:
256,192,28600,1,8,0:0:0:0:
256,192,28645,1,0,0:0:0:0:
256,192,28764,1,0,0:0:0:0:
256,192,28883,1,0,0:0:0:0:
256,192,29003,1,8,0:0:0:0:
256,192,29122,1,8,0:0:0:0:
256,192,29242,1,8,0:0:0:0:
256,192,29451,1,4,0:0:0:0:
256,192,29719,1,4,0:0:0:0:
256,192,29988,1,4,0:0:0:0:
256,192,30257,1,4,0:0:0:0:
256,192,30525,1,12,0:0:0:0:
256,192,30794,1,0,0:0:0:0:
256,192,30883,1,0,0:0:0:0:
256,192,30973,1,8,0:0:0:0:
256,192,31063,1,0,0:0:0:0:
256,192,31152,1,8,0:0:0:0:
256,192,31242,1,8,0:0:0:0:
256,192,31331,1,0,0:0:0:0:
256,192,31421,1,8,0:0:0:0:
256,192,31510,1,0,0:0:0:0:
256,192,31600,1,8,0:0:0:0:
256,192,31689,1,8,0:0:0:0:
256,192,31779,1,0,0:0:0:0:
256,192,31868,1,8,0:0:0:0:
256,192,31958,1,8,0:0:0:0:
256,192,32048,1,0,0:0:0:0:
256,192,32137,1,0,0:0:0:0:
256,192,32227,1,8,0:0:0:0:
256,192,32316,1,0,0:0:0:0:
256,192,32406,1,8,0:0:0:0:
256,192,32495,1,8,0:0:0:0:
256,192,32585,1,8,0:0:0:0:
256,192,32674,1,8,0:0:0:0:
256,192,32764,1,0,0:0:0:0:
256,192,32854,1,8,0:0:0:0:
256,192,32943,1,0,0:0:0:0:
256,192,33033,1,8,0:0:0:0:
256,192,33122,1,8,0:0:0:0:
256,192,33212,1,0,0:0:0:0:
256,192,33301,1,8,0:0:0:0:
256,192,33391,1,8,0:0:0:0:
256,192,33480,1,0,0:0:0:0:
256,192,33570,1,8,0:0:0:0:
256,192,33839,1,0,0:0:0:0:
256,192,33928,1,0,0:0:0:0:
256,192,34018,1,8,0:0:0:0:
256,192,34107,1,8,0:0:0:0:
256,192,34197,1,0,0:0:0:0:
256,192,34286,1,8,0:0:0:0:
256,192,34376,1,0,0:0:0:0:
256,192,34466,1,8,0:0:0:0:
256,192,34555,1,8,0:0:0:0:
256,192,34645,1,0,0:0:0:0:
256,192,34734,1,8,0:0:0:0:
256,192,34824,1,8,0:0:0:0:
256,192,34913,1,0,0:0:0:0:
256,192,35003,1,0,0:0:0:0:
256,192,35092,1,8,0:0:0:0:
256,192,35182,1,0,0:0:0:0:
256,192,35271,1,8,0:0:0:0:
256,192,35361,1,8,0:0:0:0:
256,192,35451,1,8,0:0:0:0:
256,192,35540,1,8,0:0:0:0:
256,192,35630,1,0,0:0:0:0:
256,192,35719,1,8,0:0:0:0:
256,192,35809,1,0,0:0:0:0:
256,192,35898,1,8,0:0:0:0:
256,192,35988,1,8,0:0:0:0:
256,192,36077,1,0,0:0:0:0:
256,192,36167,1,8,0:0:0:0:
256,192,36346,1,8,0:0:0:0:
256,192,36525,1,0,0:0:0:0:
256,192,36615,1,8,0:0:0:0:
256,192,36704,1,0,0:0:0:0:
256,192,36794,1,0,0:0:0:0:
256,192,36883,1,8,0:0:0:0:
256,192,36973,1,8,0:0:0:0:
256,192,37063,1,0,0:0:0:0:
256,192,37152,1,8,0:0:0:0:
256,192,37242,1,0,0:0:0:0:
256,192,37331,1,8,0:0:0:0:
256,192,37421,1,8,0:0:0:0:
256,192,37510,1,0,0:0:0:0:
256,192,37600,1,8,0:0:0:0:
256,192,37689,1,8,0:0:0:0:
256,192,37779,1,8,0:0:0:0:
256,192,37868,1,8,0:0:0:0:
256,192,37958,1,0,0:0:0:0:
256,192,38048,1,0,0:0:0:0:
256,192,38137,1,8,0:0:0:0:
256,192,38227,1,0,0:0:0:0:
256,192,38316,1,8,0:0:0:0:
256,192,38406,1,8,0:0:0:0:
256,192,38495,1,0,0:0:0:0:
256,192,38585,1,8,0:0:0:0:
256,192,38674,1,0,0:0:0:0:
256,192,38764,1,8,0:0:0:0:
256,192,38854,1,8,0:0:0:0:
256,192,38943,1,0,0:0:0:0:
256,192,39033,1,8,0:0:0:0:
256,192,39122,1,8,0:0:0:0:
256,192,39212,1,0,0:0:0:0:
256,192,39301,1,8,0:0:0:0:
256,192,39391,1,0,0:0:0:0:
256,192,39480,1,0,0:0:0:0:
256,192,39570,1,8,0:0:0:0:
256,192,39660,1,8,0:0:0:0:
256,192,39749,1,8,0:0:0:0:
256,192,39839,1,8,0:0:0:0:
256,192,39928,1,0,0:0:0:0:
256,192,40018,1,8,0:0:0:0:
256,192,40107,1,0,0:0:0:0:
256,192,40197,1,8,0:0:0:0:
256,192,40286,1,8,0:0:0:0:
256,192,40376,1,0,0:0:0:0:
256,192,40466,1,8,0:0:0:0:
256,192,40555,1,0,0:0:0:0:
256,192,40645,1,8,0:0:0:0:
256,192,40734,1,8,0:0:0:0:
256,192,40824,1,0,0:0:0:0:
256,192,40913,1,0,0:0:0:0:
256,192,42257,1,4,0:0:0:0:
256,192,42436,1,0,0:0:0:0:
256,192,42525,1,0,0:0:0:0:
256,192,42615,1,8,0:0:0:0:
256,192,42704,1,8,0:0:0:0:
256,192,42794,1,0,0:0:0:0:
256,192,42883,1,8,0:0:0:0:
256,192,42928,1,8,0:0:0:0:
256,192,42973,1,0,0:0:0:0:
256,192,43063,1,8,0:0:0:0:
256,192,43152,1,8,0:0:0:0:
256,192,43242,1,0,0:0:0:0:
256,192,43331,1,8,0:0:0:0:
256,192,43421,1,0,0:0:0:0:
256,192,43510,1,8,0:0:0:0:
256,192,43600,1,8,0:0:0:0:
256,192,43689,1,0,0:0:0:0:
256,192,43868,1,0,0:0:0:0:
256,192,43958,1,0,0:0:0:0:
256,192,44048,1,8,0:0:0:0:
256,192,44137,1,8,0:0:0:0:
256,192,44227,1,0,0:0:0:0:
256,192,44316,1,8,0:0:0:0:
256,192,44361,1,8,0:0:0:0:
256,192,44406,1,8,0:0:0:0:
256,192,44495,1,0,0:0:0:0:
256,192,44585,1,8,0:0:0:0:
256,192,44674,1,8,0:0:0:0:
256,192,44764,1,0,0:0:0:0:
256,192,44854,1,8,0:0:0:0:
256,192,44943,1,0,0:0:0:0:
256,192,45033,1,0,0:0:0:0:
256,192,45122,1,8,0:0:0:0:
256,192,45301,1,8,0:0:0:0:
256,192,45391,1,8,0:0:0:0:
256,192,45480,1,0,0:0:0:0:
256,192,45570,1,0,0:0:0:0:
256,192,45660,1,8,0:0:0:0:
256,192,45749,1,0,0:0:0:0:
256,192,45794,1,0,0:0:0:0:
256,192,45839,1,8,0:0:0:0:
256,192,45928,1,0,0:0:0:0:
256,192,46018,1,8,0:0:0:0:
256,192,46107,1,8,0:0:0:0:
256,192,46197,1,0,0:0:0:0:
256,192,46286,1,0,0:0:0:0:
256,192,46376,1,8,0:0:0:0:
256,192,46466,1,0,0:0:0:0:
256,192,46555,1,8,0:0:0:0:
256,192,46645,1,8,0:0:0:0:
256,192,46824,1,8,0:0:0:0:
256,192,47003,1,8,0:0:0:0:
256,192,47182,1,8,0:0:0:0:
256,192,47361,1,0,0:0:0:0:
256,192,47451,1,8,0:0:0:0:
256,192,47630,1,0,0:0:0:0:
256,192,47719,1,0,0:0:0:0:
256,192,47809,1,0,0:0:0:0:
256,192,47854,1,0,0:0:0:0:
256,192,47898,1,0,0:0:0:0:
256,192,47943,1,0,0:0:0:0:
256,192,47988,1,8,0:0:0:0:
256,192,48167,1,8,0:0:0:0:
256,192,48257,1,0,0:0:0:0:
256,192,48346,1,8,0:0:0:0:
256,192,48391,1,8,0:0:0:0:
256,192,48436,1,0,0:0:0:0:
256,192,48525,1,8,0:0:0:0:
256,192,48615,1,8,0:0:0:0:
256,192,48794,1,0,0:0:0:0:
256,192,48883,1,8,0:0:0:0:
256,192,48928,1,8,0:0:0:0:
256,192,48973,1,8,0:0:0:0:
256,192,49063,1,0,0:0:0:0:
256,192,49152,1,0,0:0:0:0:
256,192,49242,1,8,0:0:0:0:
256,192,49331,1,8,0:0:0:0:
256,192,49421,1,0,0:0:0:0:
256,192,49600,1,8,0:0:0:0:
256,192,49689,1,8,0:0:0:0:
256,192,49779,1,0,0:0:0:0:
256,192,49824,1,0,0:0:0:0:
256,192,49868,1,0,0:0:0:0:
256,192,49958,1,8,0:0:0:0:
256,192,50048,1,0,0:0:0:0:
256,192,50227,1,0,0:0:0:0:
256,192,50316,1,8,0:0:0:0:
256,192,50361,1,8,0:0:0:0:
256,192,50406,1,0,0:0:0:0:
256,192,50495,1,8,0:0:0:0:
256,192,50585,1,8,0:0:0:0:
256,192,50674,1,0,0:0:0:0:
256,192,50764,1,0,0:0:0:0:
256,192,50854,1,8,0:0:0:0:
256,192,51033,1,0,0:0:0:0:
256,192,51122,1,8,0:0:0:0:
256,192,51212,1,0,0:0:0:0:
256,192,51257,1,0,0:0:0:0:
256,192,51301,1,8,0:0:0:0:
256,192,51391,1,8,0:0:0:0:
256,192,51480,1,0,0:0:0:0:
256,192,51660,1,0,0:0:0:0:
256,192,51749,1,8,0:0:0:0:
256,192,51794,1,8,0:0:0:0:
256,192,51839,1,0,0:0:0:0:
256,192,51883,1,0,0:0:0:0:
256,192,51928,1,8,0:0:0:0:
256,192,52018,1,0,0:0:0:0:
256,192,52107,1,8,0:0:0:0:
256,192,52197,1,0,0:0:0:0:
256,192,52286,1,12,0:0:0:0:
256,192,52555,1,12,0:0:0:0:
256,192,52824,1,12,0:0:0:0:
256,192,53092,1,12,0:0:0:0:
256,192,53361,1,4,0:0:0:0:
256,192,53719,1,0,0:0:0:0:
256,192,53809,1,0,0:0:0:0:
256,192,53898,1,8,0:0:0:0:
256,192,53988,1,8,0:0:0:0:
256,192,54077,1,0,0:0:0:0:
256,192,54167,1,8,0:0:0:0:
256,192,54257,1,0,0:0:0:0:
256,192,54346,1,8,0:0:0:0:
256,192,54391,1,8,0:0:0:0:
256,192,54436,1,0,0:0:0:0:
256,192,54525,1,0,0:0:0:0:
256,192,54615,1,8,0:0:0:0:
256,192,54660,1,8,0:0:0:0:
256,192,54704,1,8,0:0:0:0:
256,192,54794,1,0,0:0:0:0:
256,192,54883,1,0,0:0:0:0:
256,192,54973,1,8,0:0:0:0:
256,192,55063,1,8,0:0:0:0:
256,192,55152,1,0,0:0:0:0:
256,192,55242,1,8,0:0:0:0:
256,192,55421,1,8,0:0:0:0:
256,192,55600,1,8,0:0:0:0:
256,192,55779,1,8,0:0:0:0:
256,192,55868,1,0,0:0:0:0:
256,192,55958,1,8,0:0:0:0:
256,192,56137,1,8,0:0:0:0:
256,192,56316,1,8,0:0:0:0:
256,192,56406,1,0,0:0:0:0:
256,192,56585,1,8,0:0:0:0:
256,192,56674,1,8,0:0:0:0:
256,192,56764,1,0,0:0:0:0:
256,192,56854,1,0,0:0:0:0:
256,192,56943,1,8,0:0:0:0:
256,192,57033,1,0,0:0:0:0:
256,192,57122,1,8,0:0:0:0:
256,192,57212,1,0,0:0:0:0:
256,192,57257,1,0,0:0:0:0:
256,192,57301,1,8,0:0:0:0:
256,192,57391,1,8,0:0:0:0:
256,192,57480,1,0,0:0:0:0:
256,192,57525,1,0,0:0:0:0:
256,192,57570,1,0,0:0:0:0:
256,192,57660,1,8,0:0:0:0:
256,192,57749,1,0,0:0:0:0:
256,192,57839,1,8,0:0:0:0:
256,192,57883,1,8,0:0:0:0:
256,192,57928,1,8,0:0:0:0:
256,192,57973,1,8,0:0:0:0:
256,192,58018,1,0,0:0:0:0:
256,192,58107,1,0,0:0:0:0:
256,192,58197,1,0,0:0:0:0:
256,192,58286,1,0,0:0:0:0:
256,192,58376,1,0,0:0:0:0:
256,192,58466,1,0,0:0:0:0:
256,192,58555,1,0,0:0:0:0:
256,192,58645,1,0,0:0:0:0:
256,192,58734,1,0,0:0:0:0:
256,192,58824,1,0,0:0:0:0:
256,192,58913,1,0,0:0:0:0:
256,192,59003,1,0,0:0:0:0:
256,192,59451,1,12,0:0:0:0:
256,192,59630,1,0,0:0:0:0:
256,192,59719,1,0,0:0:0:0:
256,192,59809,1,0,0:0:0:0:
256,192,59988,1,0,0:0:0:0:
256,192,60167,1,12,0:0:0:0:
256,192,60346,1,0,0:0:0:0:
256,192,60436,1,0,0:0:0:0:
256,192,60615,1,0,0:0:0:0:
256,192,60704,1,0,0:0:0:0:
256,192,60883,1,12,0:0:0:0:
256,192,61063,1,0,0:0:0:0:
256,192,61152,1,0,0:0:0:0:
256,192,61242,1,0,0:0:0:0:
256,192,61331,1,0,0:0:0:0:
256,192,61421,1,0,0:0:0:0:
256,192,61510,1,0,0:0:0:0:
256,192,61600,1,12,0:0:0:0:
256,192,61779,1,0,0:0:0:0:
256,192,61868,1,0,0:0:0:0:
256,192,62048,1,0,0:0:0:0:
256,192,62137,1,0,0:0:0:0:
256,192,62227,1,0,0:0:0:0:
256,192,62316,1,12,0:0:0:0:
256,192,62495,1,0,0:0:0:0:
256,192,62585,1,0,0:0:0:0:
256,192,62764,1,0,0:0:0:0:
256,192,62943,1,0,0:0:0:0:
256,192,63033,1,12,0:0:0:0:
256,192,63212,1,0,0:0:0:0:
256,192,63301,1,0,0:0:0:0:
256,192,63480,1,0,0:0:0:0:
256,192,63525,1,0,0:0:0:0:
256,192,63570,1,0,0:0:0:0:
256,192,63660,1,0,0:0:0:0:
256,192,63749,1,12,0:0:0:0:
256,192,63928,1,0,0:0:0:0:
256,192,64107,1,0,0:0:0:0:
256,192,64197,1,0,0:0:0:0:
256,192,64242,1,0,0:0:0:0:
256,192,64286,1,0,0:0:0:0:
256,192,64376,1,0,0:0:0:0:
256,192,64466,1,12,0:0:0:0:
256,192,67331,5,4,0:0:0:0:
256,192,67510,1,0,0:0:0:0:
256,192,67599,1,8,0:0:0:0:
256,192,67778,1,8,0:0:0:0:
256,192,67868,1,0,0:0:0:0:
256,192,68047,1,8,0:0:0:0:
256,192,68136,1,8,0:0:0:0:
256,192,68226,1,0,0:0:0:0:
256,192,68405,1,8,0:0:0:0:
256,192,68584,1,0,0:0:0:0:
256,192,68674,1,0,0:0:0:0:
256,192,68853,1,8,0:0:0:0:
256,192,68942,1,0,0:0:0:0:
256,192,69032,1,8,0:0:0:0:
256,192,69122,1,0,0:0:0:0:
256,192,69211,1,0,0:0:0:0:
256,192,69301,1,8,0:0:0:0:
256,192,69480,1,0,0:0:0:0:
256,192,69569,1,0,0:0:0:0:
256,192,69659,1,8,0:0:0:0:
256,192,69748,1,0,0:0:0:0:
256,192,69838,1,8,0:0:0:0:
256,192,69928,1,8,0:0:0:0:
256,192,70017,1,0,0:0:0:0:
256,192,70196,1,8,0:0:0:0:
256,192,70375,1,0,0:0:0:0:
256,192,70465,1,8,0:0:0:0:
256,192,70644,1,8,0:0:0:0:
256,192,70733,1,0,0:0:0:0:
256,192,70913,1,8,0:0:0:0:
256,192,71002,1,8,0:0:0:0:
256,192,71092,1,0,0:0:0:0:
256,192,71271,1,0,0:0:0:0:
256,192,71360,1,0,0:0:0:0:
256,192,71450,1,8,0:0:0:0:
256,192,71539,1,8,0:0:0:0:
256,192,71629,1,0,0:0:0:0:
256,192,71808,1,8,0:0:0:0:
256,192,71898,1,0,0:0:0:0:
256,192,72077,1,0,0:0:0:0:
256,192,72166,1,8,0:0:0:0:
256,192,72345,1,0,0:0:0:0:
256,192,72435,1,0,0:0:0:0:
256,192,72525,1,8,0:0:0:0:
256,192,72614,1,0,0:0:0:0:
256,192,72704,1,8,0:0:0:0:
256,192,72883,1,0,0:0:0:0:
256,192,72972,1,8,0:0:0:0:
256,192,73062,1,8,0:0:0:0:
256,192,73241,1,0,0:0:0:0:
256,192,73330,1,0,0:0:0:0:
256,192,73420,1,8,0:0:0:0:
256,192,73599,1,8,0:0:0:0:
256,192,73689,1,8,0:0:0:0:
256,192,73778,1,0,0:0:0:0:
256,192,73957,1,8,0:0:0:0:
256,192,74047,1,0,0:0:0:0:
256,192,74136,1,8,0:0:0:0:
256,192,74226,1,8,0:0:0:0:
256,192,74316,1,0,0:0:0:0:
256,192,74405,1,0,0:0:0:0:
256,192,74495,1,8,0:0:0:0:
256,192,74674,1,8,0:0:0:0:
256,192,74763,1,8,0:0:0:0:
256,192,74853,1,0,0:0:0:0:
256,192,74942,1,8,0:0:0:0:
256,192,75032,1,8,0:0:0:0:
256,192,75211,1,0,0:0:0:0:
256,192,75301,1,8,0:0:0:0:
256,192,75480,1,8,0:0:0:0:
256,192,75569,1,0,0:0:0:0:
256,192,75659,1,0,0:0:0:0:
256,192,75748,1,8,0:0:0:0:
256,192,75838,1,8,0:0:0:0:
256,192,75928,1,0,0:0:0:0:
256,192,76107,1,8,0:0:0:0:
256,192,76196,1,0,0:0:0:0:
256,192,76286,1,8,0:0:0:0:
256,192,76375,1,8,0:0:0:0:
256,192,76465,1,0,0:0:0:0:
256,192,76554,1,8,0:0:0:0:
256,192,76733,1,8,0:0:0:0:
256,192,76778,1,0,0:0:0:0:
256,192,76823,1,0,0:0:0:0:
256,192,76913,1,0,0:0:0:0:
256,192,77002,1,8,0:0:0:0:
256,192,77181,1,8,0:0:0:0:
256,192,77360,1,4,0:0:0:0:
256,192,77629,1,4,0:0:0:0:
256,192,77898,1,4,0:0:0:0:
256,192,78166,1,12,0:0:0:0:
256,192,78793,1,0,0:0:0:0:
256,192,78972,1,8,0:0:0:0:
256,192,79151,1,0,0:0:0:0:
256,192,79241,1,0,0:0:0:0:
256,192,79330,1,8,0:0:0:0:
256,192,79420,1,8,0:0:0:0:
256,192,79510,1,0,0:0:0:0:
256,192,79689,1,8,0:0:0:0:
256,192,79778,1,8,0:0:0:0:
256,192,79868,1,0,0:0:0:0:
256,192,79957,1,8,0:0:0:0:
256,192,80047,1,0,0:0:0:0:
256,192,80136,1,0,0:0:0:0:
256,192,80226,1,8,0:0:0:0:
256,192,80405,1,0,0:0:0:0:
256,192,80584,1,8,0:0:0:0:
256,192,80674,1,8,0:0:0:0:
256,192,80763,1,0,0:0:0:0:
256,192,80853,1,0,0:0:0:0:
256,192,80942,1,8,0:0:0:0:
256,192,81122,1,0,0:0:0:0:
256,192,81211,1,8,0:0:0:0:
256,192,81301,1,0,0:0:0:0:
256,192,81390,1,0,0:0:0:0:
256,192,81480,1,8,0:0:0:0:
256,192,81569,1,0,0:0:0:0:
256,192,81614,1,0,0:0:0:0:
256,192,81659,1,0,0:0:0:0:
256,192,81838,1,8,0:0:0:0:
256,192,82017,1,0,0:0:0:0:
256,192,82107,1,0,0:0:0:0:
256,192,82196,1,8,0:0:0:0:
256,192,82286,1,8,0:0:0:0:
256,192,82375,1,0,0:0:0:0:
256,192,82554,1,8,0:0:0:0:
256,192,82644,1,0,0:0:0:0:
256,192,82733,1,8,0:0:0:0:
256,192,82823,1,8,0:0:0:0:
256,192,82913,1,0,0:0:0:0:
256,192,83002,1,8,0:0:0:0:
256,192,83092,1,0,0:0:0:0:
256,192,83271,1,8,0:0:0:0:
256,192,83450,1,0,0:0:0:0:
256,192,83539,1,0,0:0:0:0:
256,192,83629,1,8,0:0:0:0:
256,192,83719,1,0,0:0:0:0:
256,192,83808,1,8,0:0:0:0:
256,192,83987,1,0,0:0:0:0:
256,192,84077,1,0,0:0:0:0:
256,192,84166,1,8,0:0:0:0:
256,192,84256,1,8,0:0:0:0:
256,192,84345,1,0,0:0:0:0:
256,192,84435,1,0,0:0:0:0:
256,192,84525,1,12,0:0:0:0:
256,192,84704,1,0,0:0:0:0:
256,192,84793,1,0,0:0:0:0:
256,192,84883,1,8,0:0:0:0:
256,192,84972,1,0,0:0:0:0:
256,192,85062,1,8,0:0:0:0:
256,192,85151,1,8,0:0:0:0:
333,160,85241,1,0,0:0:0:0:
227,204,85420,1,8,0:0:0:0:
256,192,85510,1,8,0:0:0:0:
256,192,85599,1,0,0:0:0:0:
256,192,85689,1,0,0:0:0:0:
256,192,85778,1,8,0:0:0:0:
260,199,85868,1,0,0:0:0:0:
260,199,85957,1,8,0:0:0:0:
256,192,86136,1,0,0:0:0:0:
260,199,86226,1,8,0:0:0:0:
241,186,86316,1,8,0:0:0:0:
247,179,86405,1,0,0:0:0:0:
247,179,86495,1,8,0:0:0:0:
247,179,86584,1,8,0:0:0:0:
247,179,86674,1,0,0:0:0:0:
247,179,86853,1,8,0:0:0:0:
247,179,86942,1,0,0:0:0:0:
247,179,87032,1,8,0:0:0:0:
247,179,87211,1,8,0:0:0:0:
256,192,87390,1,0,0:0:0:0:
256,192,87480,1,8,0:0:0:0:
256,192,87569,1,8,0:0:0:0:
256,192,87659,1,8,0:0:0:0:
256,192,87748,1,0,0:0:0:0:
256,192,87838,1,0,0:0:0:0:
256,192,87928,1,8,0:0:0:0:
256,192,88017,1,8,0:0:0:0:
256,192,88107,1,8,0:0:0:0:
256,192,88196,1,0,0:0:0:0:
256,192,88286,1,8,0:0:0:0:
256,192,88375,1,8,0:0:0:0:
256,192,88823,1,0,0:0:0:0:
256,192,88913,1,0,0:0:0:0:
256,192,89002,1,8,0:0:0:0:
256,192,89092,1,0,0:0:0:0:
256,192,89181,1,8,0:0:0:0:
256,192,89271,1,8,0:0:0:0:
256,192,89360,1,0,0:0:0:0:
257,191,89405,1,8,0:0:0:0:
256,192,89450,1,8,0:0:0:0:
256,192,89539,1,0,0:0:0:0:
256,192,89629,1,0,0:0:0:0:
256,192,89719,1,8,0:0:0:0:
256,192,89808,1,8,0:0:0:0:
256,192,90256,1,0,0:0:0:0:
256,192,90345,1,8,0:0:0:0:
259,191,90390,1,8,0:0:0:0:
256,192,90435,1,0,0:0:0:0:
256,192,90525,1,0,0:0:0:0:
256,192,90614,1,8,0:0:0:0:
256,192,90704,1,0,0:0:0:0:
256,192,90793,1,8,0:0:0:0:
256,192,90883,1,8,0:0:0:0:
256,192,90972,1,0,0:0:0:0:
256,192,91062,1,0,0:0:0:0:
256,192,91151,1,8,0:0:0:0:
255,194,91196,1,8,0:0:0:0:
256,192,91241,1,8,0:0:0:0:
255,194,91330,1,0,0:0:0:0:
258,192,91420,1,0,0:0:0:0:
258,192,91510,1,8,0:0:0:0:
258,192,91599,1,8,0:0:0:0:
258,192,92763,1,12,0:0:0:0:
256,192,93122,1,0,0:0:0:0:
288,256,93211,1,0,0:0:0:0:
256,192,93301,1,8,0:0:0:0:
256,224,93390,1,8,0:0:0:0:
256,128,93569,1,0,0:0:0:0:
256,192,93659,1,0,0:0:0:0:
256,192,93748,1,8,0:0:0:0:
256,160,93838,1,0,0:0:0:0:
256,160,93928,1,8,0:0:0:0:
256,224,94017,1,8,0:0:0:0:
256,128,94196,1,0,0:0:0:0:
256,160,94241,1,0,0:0:0:0:
256,128,94286,1,0,0:0:0:0:
256,224,94375,1,8,0:0:0:0:
256,160,94465,1,8,0:0:0:0:
256,224,94554,1,0,0:0:0:0:
288,128,94733,1,8,0:0:0:0:
288,160,94823,1,0,0:0:0:0:
256,224,94913,1,0,0:0:0:0:
224,224,95002,1,8,0:0:0:0:
256,192,95047,1,8,0:0:0:0:
256,160,95092,1,0,0:0:0:0:
288,160,95181,1,8,0:0:0:0:
256,192,95360,1,0,0:0:0:0:
256,256,95450,1,8,0:0:0:0:
256,192,95539,1,0,0:0:0:0:
288,224,95584,1,0,0:0:0:0:
288,224,95629,1,8,0:0:0:0:
256,288,95719,1,0,0:0:0:0:
256,224,95808,1,8,0:0:0:0:
288,256,95898,1,8,0:0:0:0:
256,224,95987,1,0,0:0:0:0:
352,288,96166,1,8,0:0:0:0:
320,256,96256,1,0,0:0:0:0:
256,224,96345,1,8,0:0:0:0:
256,224,96390,1,8,0:0:0:0:
224,192,96435,1,0,0:0:0:0:
288,224,96525,1,0,0:0:0:0:
320,256,96614,1,8,0:0:0:0:
224,192,96793,1,0,0:0:0:0:
256,224,96883,1,8,0:0:0:0:
384,256,97062,1,0,0:0:0:0:
352,256,97151,1,0,0:0:0:0:
320,192,97241,1,8,0:0:0:0:
288,192,97286,1,8,0:0:0:0:
256,224,97330,1,8,0:0:0:0:
256,224,97375,1,8,0:0:0:0:
288,96,97420,1,0,0:0:0:0:
288,192,97599,1,8,0:0:0:0:
288,128,97689,1,8,0:0:0:0:
288,192,97778,1,0,0:0:0:0:
352,224,97868,1,8,0:0:0:0:
320,224,97913,1,8,0:0:0:0:
288,192,97957,1,0,0:0:0:0:
288,160,98047,1,8,0:0:0:0:
288,192,98226,1,8,0:0:0:0:
288,160,98316,1,0,0:0:0:0:
288,192,98360,1,0,0:0:0:0:
288,192,98405,1,0,0:0:0:0:
192,64,98495,1,8,0:0:0:0:
224,128,98584,1,8,0:0:0:0:
256,128,98674,1,0,0:0:0:0:
256,192,98763,1,8,0:0:0:0:
256,224,98853,1,0,0:0:0:0:
192,320,99032,1,0,0:0:0:0:
224,288,99122,1,8,0:0:0:0:
256,256,99166,1,8,0:0:0:0:
256,224,99211,1,8,0:0:0:0:
256,192,99301,1,0,0:0:0:0:
256,256,99390,1,8,0:0:0:0:
256,224,99480,1,8,0:0:0:0:
224,192,99569,1,0,0:0:0:0:
128,288,99659,1,8,0:0:0:0:
160,256,99748,1,8,0:0:0:0:
224,256,99838,1,0,0:0:0:0:
288,224,99928,1,8,0:0:0:0:
128,64,100286,1,8,0:0:0:0:
160,96,100375,1,0,0:0:0:0:
224,128,100465,1,8,0:0:0:0:
256,160,100554,1,0,0:0:0:0:
256,160,100599,1,0,0:0:0:0:
256,160,100644,1,8,0:0:0:0:
256,160,100733,1,8,0:0:0:0:
256,160,100823,1,0,0:0:0:0:
256,160,100913,1,8,0:0:0:0:
256,160,100957,1,8,0:0:0:0:
256,160,101002,1,0,0:0:0:0:
256,160,101092,1,8,0:0:0:0:
256,160,101181,1,0,0:0:0:0:
256,160,101271,1,0,0:0:0:0:
256,160,101360,1,8,0:0:0:0:
256,160,101719,1,8,0:0:0:0:
256,160,101808,1,0,0:0:0:0:
288,224,101898,1,8,0:0:0:0:
288,224,101942,1,8,0:0:0:0:
256,192,101987,1,8,0:0:0:0:
288,224,102077,1,0,0:0:0:0:
256,192,102166,1,8,0:0:0:0:
192,192,102256,1,0,0:0:0:0:
320,288,102345,1,8,0:0:0:0:
288,288,102390,1,8,0:0:0:0:
256,256,102435,1,0,0:0:0:0:
256,192,102525,1,8,0:0:0:0:
288,224,102614,1,0,0:0:0:0:
256,256,102704,1,0,0:0:0:0:
192,224,102793,1,8,0:0:0:0:
192,192,102838,1,8,0:0:0:0:
192,192,102883,1,0,0:0:0:0:
192,160,102928,1,0,0:0:0:0:
224,160,102972,1,8,0:0:0:0:
192,160,103062,1,0,0:0:0:0:
320,256,103151,1,12,0:0:0:0:
288,224,103420,1,12,0:0:0:0:
224,288,103689,1,12,0:0:0:0:
352,224,103957,1,12,0:0:0:0:
224,192,104226,1,0,0:0:0:0:
288,192,104316,1,8,0:0:0:0:
256,192,104405,1,8,0:0:0:0:
224,192,104495,1,8,0:0:0:0:
320,256,104584,1,4,0:0:0:0:
256,192,104763,1,8,0:0:0:0:
256,224,104853,1,0,0:0:0:0:
256,128,105032,1,0,0:0:0:0:
256,192,105122,1,8,0:0:0:0:
256,192,105211,1,0,0:0:0:0:
256,160,105256,1,0,0:0:0:0:
256,160,105301,1,8,0:0:0:0:
256,160,105390,1,8,0:0:0:0:
256,224,105480,1,0,0:0:0:0:
256,128,105659,1,8,0:0:0:0:
256,128,105748,1,0,0:0:0:0:
256,224,105838,1,8,0:0:0:0:
256,160,105928,1,8,0:0:0:0:
256,224,106017,1,0,0:0:0:0:
288,128,106196,1,0,0:0:0:0:
288,160,106286,1,8,0:0:0:0:
256,192,106330,1,8,0:0:0:0:
256,224,106375,1,0,0:0:0:0:
224,224,106465,1,8,0:0:0:0:
256,160,106554,1,8,0:0:0:0:
288,160,106644,1,0,0:0:0:0:
256,192,106823,1,0,0:0:0:0:
256,256,106913,1,8,0:0:0:0:
256,192,107002,1,0,0:0:0:0:
288,224,107047,1,0,0:0:0:0:
288,224,107092,1,0,0:0:0:0:
256,288,107181,1,8,0:0:0:0:
256,224,107271,1,0,0:0:0:0:
288,256,107360,1,0,0:0:0:0:
256,224,107450,1,8,0:0:0:0:
352,288,107629,1,0,0:0:0:0:
320,256,107719,1,8,0:0:0:0:
256,224,107808,1,0,0:0:0:0:
224,192,107898,1,8,0:0:0:0:
256,224,107942,1,8,0:0:0:0:
288,224,107987,1,0,0:0:0:0:
320,256,108077,1,8,0:0:0:0:
224,192,108256,1,8,0:0:0:0:
256,224,108345,1,0,0:0:0:0:
288,192,108390,1,0,0:0:0:0:
256,224,108435,1,8,0:0:0:0:
384,256,108525,1,0,0:0:0:0:
352,256,108614,1,0,0:0:0:0:
320,192,108704,1,8,0:0:0:0:
256,224,108793,1,0,0:0:0:0:
288,96,108883,1,8,0:0:0:0:
288,192,108972,1,8,0:0:0:0:
288,128,109151,1,8,0:0:0:0:
288,192,109241,1,0,0:0:0:0:
352,224,109330,1,8,0:0:0:0:
288,160,109510,1,8,0:0:0:0:
320,224,109599,1,0,0:0:0:0:
288,192,109689,1,8,0:0:0:0:
288,192,109733,1,8,0:0:0:0:
288,160,109778,1,8,0:0:0:0:
288,192,109868,1,0,0:0:0:0:
192,64,109957,1,8,0:0:0:0:
224,128,110047,1,8,0:0:0:0:
256,128,110136,1,0,0:0:0:0:
256,224,110316,1,0,0:0:0:0:
256,192,110405,1,0,0:0:0:0:
192,320,110495,1,8,0:0:0:0:
256,224,110674,1,8,0:0:0:0:
256,192,110763,1,0,0:0:0:0:
128,288,110808,1,0,0:0:0:0:
256,256,110853,1,8,0:0:0:0:
256,192,110942,1,8,0:0:0:0:
224,192,111032,1,0,0:0:0:0:
160,256,111211,1,8,0:0:0:0:
224,256,111301,1,8,0:0:0:0:
288,224,111390,1,0,0:0:0:0:
192,192,111569,1,0,0:0:0:0:
224,192,111659,1,8,0:0:0:0:
256,256,111748,1,0,0:0:0:0:
256,224,111793,1,0,0:0:0:0:
224,224,111838,1,8,0:0:0:0:
224,192,111883,1,8,0:0:0:0:
224,224,111928,1,0,0:0:0:0:
288,224,112017,1,0,0:0:0:0:
256,256,112107,1,8,0:0:0:0:
256,224,112196,1,0,0:0:0:0:
288,256,112286,1,8,0:0:0:0:
256,224,112375,1,8,0:0:0:0:
288,288,112465,1,0,0:0:0:0:
256,256,112554,1,8,0:0:0:0:
256,224,112644,1,8,0:0:0:0:
256,160,112733,1,8,0:0:0:0:
256,224,113181,1,4,0:0:0:0:
320,320,113360,1,8,0:0:0:0:
288,288,113450,1,0,0:0:0:0:
256,256,113539,1,8,0:0:0:0:
288,192,113629,1,8,0:0:0:0:
256,224,113719,1,0,0:0:0:0:
256,256,113763,1,0,0:0:0:0:
288,256,113808,1,0,0:0:0:0:
256,224,113853,1,0,0:0:0:0:
256,224,113898,1,8,0:0:0:0:
288,256,113987,1,0,0:0:0:0:
224,192,114077,1,8,0:0:0:0:
256,224,114166,1,0,0:0:0:0:
288,192,114211,1,0,0:0:0:0:
288,192,114256,1,8,0:0:0:0:
256,160,114345,1,0,0:0:0:0:
288,192,114435,1,8,0:0:0:0:
288,192,114525,1,8,0:0:0:0:
288,192,114614,1,0,0:0:0:0:
256,224,114704,1,12,0:0:0:0:
224,128,114883,1,0,0:0:0:0:
352,96,114973,1,12,0:0:0:0:
288,192,115152,1,0,0:0:0:0:
256,224,115241,1,12,0:0:0:0:
224,128,115420,1,0,0:0:0:0:
352,96,115510,1,12,0:0:0:0:
288,192,115689,1,0,0:0:0:0:
256,224,115868,1,8,0:0:0:0:
288,160,115958,1,4,0:0:0:0:
224,256,116137,1,8,0:0:0:0:
256,224,116226,1,4,0:0:0:0:
288,128,116406,1,8,0:0:0:0:
256,160,116495,1,4,0:0:0:0:
288,256,116674,1,8,0:0:0:0:
288,224,116764,1,4,0:0:0:0:
224,160,116943,1,8,0:0:0:0:
256,192,117032,1,8,0:0:0:0:
320,192,117122,1,0,0:0:0:0:
256,192,118196,1,8,0:0:0:0:
256,192,118554,1,0,0:0:0:0:
256,192,118644,1,0,0:0:0:0:
256,192,118734,1,0,0:0:0:0:
256,192,118823,1,0,0:0:0:0:
256,192,118913,1,8,0:0:0:0:
256,192,119002,1,8,0:0:0:0:
256,192,119092,1,8,0:0:0:0:
256,192,119181,1,8,0:0:0:0:
256,192,119271,1,0,0:0:0:0:
256,192,119360,1,0,0:0:0:0:
256,192,119450,1,8,0:0:0:0:
256,192,119540,1,8,0:0:0:0:
256,192,119629,1,0,0:0:0:0:
256,192,119719,1,8,0:0:0:0:
256,192,119808,1,8,0:0:0:0:
256,192,119898,1,8,0:0:0:0:
256,192,119987,1,0,0:0:0:0:
256,192,120166,1,0,0:0:0:0:
256,192,120346,1,0,0:0:0:0:
256,192,120525,1,0,0:0:0:0:
256,192,120704,1,0,0:0:0:0:
256,192,120793,1,0,0:0:0:0:
256,192,120972,1,0,0:0:0:0:
256,192,121062,1,0,0:0:0:0:
256,192,121241,1,0,0:0:0:0:
256,192,121331,1,0,0:0:0:0:
256,192,121420,1,8,0:0:0:0:
256,192,121599,1,8,0:0:0:0:
256,192,121689,1,8,0:0:0:0:
256,192,121778,1,8,0:0:0:0:
256,192,121868,1,8,0:0:0:0:
256,192,121957,1,8,0:0:0:0:
256,192,122137,1,8,0:0:0:0:
256,192,122316,1,8,0:0:0:0:
256,192,122405,1,8,0:0:0:0:
256,192,122495,1,8,0:0:0:0:
256,192,122584,1,8,0:0:0:0:
256,192,122674,1,8,0:0:0:0:
256,192,122853,1,0,0:0:0:0:
256,192,122943,1,0,0:0:0:0:
256,192,123032,1,8,0:0:0:0:
256,192,123122,1,0,0:0:0:0:
256,192,123211,1,8,0:0:0:0:
256,192,123301,1,8,0:0:0:0:
256,192,123390,1,0,0:0:0:0:
256,192,123480,1,8,0:0:0:0:
256,256,123569,1,0,0:0:0:0:
256,224,123659,1,0,0:0:0:0:
256,192,123749,1,8,0:0:0:0:
256,224,123838,1,8,0:0:0:0:
288,288,124286,1,0,0:0:0:0:
256,256,124376,1,0,0:0:0:0:
224,224,124466,1,8,0:0:0:0:
192,160,124555,1,8,0:0:0:0:
224,192,124645,1,0,0:0:0:0:
256,160,124734,1,8,0:0:0:0:
224,160,124779,1,8,0:0:0:0:
224,160,124824,1,8,0:0:0:0:
256,192,124913,1,0,0:0:0:0:
320,224,125003,1,8,0:0:0:0:
288,224,125048,1,8,0:0:0:0:
288,192,125092,1,0,0:0:0:0:
288,160,125137,1,0,0:0:0:0:
320,256,125182,1,8,0:0:0:0:
288,192,125272,1,0,0:0:0:0:
320,256,125361,1,8,0:0:0:0:
288,224,125451,1,0,0:0:0:0:
320,256,125495,1,0,0:0:0:0:
288,192,125540,1,8,0:0:0:0:
256,224,125630,1,0,0:0:0:0:
288,192,125719,1,8,0:0:0:0:
256,224,125809,1,8,0:0:0:0:
480,320,125898,1,0,0:0:0:0:
448,288,125988,1,8,0:0:0:0:
416,288,126078,1,0,0:0:0:0:
448,288,126167,1,8,0:0:0:0:
416,288,126212,1,8,0:0:0:0:
384,320,126257,1,0,0:0:0:0:
288,224,126346,1,0,0:0:0:0:
288,224,126436,1,8,0:0:0:0:
224,160,126570,1,8,0:0:0:0:
288,224,126704,1,8,0:0:0:0:
256,192,126794,1,0,0:0:0:0:
224,160,126884,1,0,0:0:0:0:
256,192,126973,1,8,0:0:0:0:
256,160,127018,1,8,0:0:0:0:
256,192,127063,1,8,0:0:0:0:
256,160,127107,1,8,0:0:0:0:
256,160,127152,1,0,0:0:0:0:
160,224,127331,1,8,0:0:0:0:
192,192,127421,1,0,0:0:0:0:
256,192,127510,1,8,0:0:0:0:
192,192,127600,1,0,0:0:0:0:
224,192,127645,1,0,0:0:0:0:
192,192,127689,1,8,0:0:0:0:
256,192,127779,1,8,0:0:0:0:
224,192,127869,1,0,0:0:0:0:
192,192,127913,1,0,0:0:0:0:
224,192,127958,1,0,0:0:0:0:
256,224,128048,1,8,0:0:0:0:
288,192,128137,1,0,0:0:0:0:
256,224,128227,1,8,0:0:0:0:
256,224,128272,1,8,0:0:0:0:
288,192,128316,1,0,0:0:0:0:
256,224,128361,1,0,0:0:0:0:
256,192,128406,1,8,0:0:0:0:
288,192,128495,1,0,0:0:0:0:
256,224,128585,1,8,0:0:0:0:
288,192,128675,1,8,0:0:0:0:
256,224,128764,1,0,0:0:0:0:
256,224,128809,1,0,0:0:0:0:
256,224,128854,1,0,0:0:0:0:
288,192,128898,1,0,0:0:0:0:
288,192,128943,1,8,0:0:0:0:
320,160,129033,1,0,0:0:0:0:
288,224,129301,1,8,0:0:0:0:
256,256,129391,1,0,0:0:0:0:
288,224,129570,1,0,0:0:0:0:
288,224,129660,1,8,0:0:0:0:
192,224,129839,1,8,0:0:0:0:
224,192,130018,1,0,0:0:0:0:
288,224,130107,1,0,0:0:0:0:
288,224,130197,1,8,0:0:0:0:
288,224,130286,1,8,0:0:0:0:
288,224,130376,1,0,0:0:0:0:
288,224,130466,1,8,0:0:0:0:
288,224,130555,1,0,0:0:0:0:
288,224,130645,1,8,0:0:0:0:
288,192,130689,1,8,0:0:0:0:
288,224,130734,1,0,0:0:0:0:
224,224,130824,1,0,0:0:0:0:
256,224,130913,1,8,0:0:0:0:
256,224,131003,1,8,0:0:0:0:
256,224,131182,1,0,0:0:0:0:
256,224,131272,1,8,0:0:0:0:
256,224,131316,1,8,0:0:0:0:
256,224,131361,1,8,0:0:0:0:
256,224,131406,1,8,0:0:0:0:
256,224,131451,1,0,0:0:0:0:
256,224,131540,1,0,0:0:0:0:
256,224,131630,1,8,0:0:0:0:
256,224,131719,1,0,0:0:0:0:
256,224,131764,1,0,0:0:0:0:
256,224,131809,1,8,0:0:0:0:
256,224,131898,1,0,0:0:0:0:
256,224,132078,1,8,0:0:0:0:
256,224,132122,1,8,0:0:0:0:
256,224,132167,1,8,0:0:0:0:
256,224,132257,1,0,0:0:0:0:
256,224,132301,1,0,0:0:0:0:
256,224,132346,1,0,0:0:0:0:
256,224,132436,1,8,0:0:0:0:
256,224,132525,1,0,0:0:0:0:
256,224,132615,1,0,0:0:0:0:
256,224,132704,1,8,0:0:0:0:
256,224,132884,1,0,0:0:0:0:
256,224,132973,1,8,0:0:0:0:
256,224,133063,1,0,0:0:0:0:
256,224,133152,1,8,0:0:0:0:
256,224,133197,1,8,0:0:0:0:
256,224,133242,1,0,0:0:0:0:
256,224,133331,1,0,0:0:0:0:
256,224,133421,1,8,0:0:0:0:
256,224,133510,1,0,0:0:0:0:
256,224,133555,1,0,0:0:0:0:
256,224,133600,1,8,0:0:0:0:
256,224,133689,1,8,0:0:0:0:
256,224,133779,1,0,0:0:0:0:
256,224,133869,1,8,0:0:0:0:
256,224,133913,1,8,0:0:0:0:
256,224,133958,1,8,0:0:0:0:
256,224,134048,1,0,0:0:0:0:
256,224,134137,1,8,0:0:0:0:
256,224,134182,1,8,0:0:0:0:
256,224,134227,1,8,0:0:0:0:
256,224,134406,1,4,0:0:0:0:
224,128,134675,1,4,0:0:0:0:
288,224,134943,1,4,0:0:0:0:
192,96,135212,1,4,0:0:0:0:
288,224,135481,1,12,0:0:0:0:
160,128,135749,1,4,0:0:0:0:
96,160,136017,1,4,0:0:0:0:
192,160,136286,1,4,0:0:0:0:
192,160,136554,1,4,0:0:0:0:
160,128,137002,1,12,0:0:0:0:
96,160,137271,1,12,0:0:0:0:
192,160,137540,1,12,0:0:0:0:
192,160,137808,1,12,0:0:0:0:
160,128,138256,1,8,0:0:0:0:
192,160,138346,1,4,0:0:0:0:
96,160,138525,1,8,0:0:0:0:
128,160,138614,1,4,0:0:0:0:
192,160,138793,1,8,0:0:0:0:
128,160,138883,1,4,0:0:0:0:
192,160,139062,1,8,0:0:0:0:
128,160,139151,1,4,0:0:0:0:
160,128,139510,1,0,0:0:0:0:
192,160,139599,1,12,0:0:0:0:
96,160,139778,1,0,0:0:0:0:
128,160,139868,1,12,0:0:0:0:
192,160,140047,1,0,0:0:0:0:
128,160,140136,1,12,0:0:0:0:
192,160,140315,1,0,0:0:0:0:
128,160,140405,1,12,0:0:0:0:
224,192,140584,1,0,0:0:0:0:
256,192,140674,1,12,0:0:0:0:
352,192,140853,1,0,0:0:0:0:
384,224,140942,1,12,0:0:0:0:
352,128,141121,1,0,0:0:0:0:
352,160,141211,1,12,0:0:0:0:
384,256,141390,1,0,0:0:0:0:
384,224,141480,1,12,0:0:0:0:
288,192,141659,1,0,0:0:0:0:
256,192,142733,12,8,145956,0:0:0:0:
