osu file format v14

[General]
AudioFilename: audio.ogg
AudioLeadIn: 0
PreviewTime: 93077
Countdown: 0
SampleSet: Normal
StackLeniency: 0.7
Mode: 1
LetterboxInBreaks: 0
WidescreenStoryboard: 1

[Editor]
DistanceSpacing: 0.8
BeatDivisor: 2
GridSize: 32
TimelineZoom: 3.199999

[Metadata]
Title:Xronial Xero
TitleUnicode:Xroniàl Xéro
Artist:Camellia as "menaXe inXonnu"
ArtistUnicode:かめりあ as ”menaXe inXonnu”
Creator:Cynplytholowazy
Version:INFINITE
Source:SOUND VOLTEX VIVID WAVE
Tags:Electronic Speedcore Drumstep Instrumental SDVX 5 Xronièr Xronier Xéroa Xeroa menace inconnu Masaya Oya 大箭将也 Cametek KamelCamellia かめるかめりあ BEMANI KONAMI Ph0eNiiXZ ler1211 Rinze
BeatmapID:4009445
BeatmapSetID:1935359

[Difficulty]
HPDrainRate:6
CircleSize:10
OverallDifficulty:6
ApproachRate:10
SliderMultiplier:0.9
SliderTickRate:1

[Events]
//Background and Video events
0,0,"bg.jpg",0,0
//Break Periods
//Storyboard Layer 0 (Background)
//Storyboard Layer 1 (Fail)
//Storyboard Layer 2 (Pass)
//Storyboard Layer 3 (Foreground)
//Storyboard Layer 4 (Overlay)
//Storyboard Sound Samples

[TimingPoints]
705,179.10447761194,7,1,0,90,1,0
705,-90.9090909090909,7,1,0,90,0,1
5719,179.10447761194,4,1,0,90,1,0
5719,-80,4,1,0,90,0,0
5808,-50,4,1,0,30,0,0
6435,-100,4,1,0,30,0,0
7778,-100,4,1,0,80,0,0
7868,179.10447761194,4,1,0,80,1,8
7869,179.10447761194,4,1,0,80,1,0
7869,-100,4,1,0,80,0,0
8403,-100.648997498278,4,1,0,80,0,0
8492,-100.811649991829,4,1,0,80,0,0
8582,-100.976665514795,4,1,0,80,0,0
8761,-101.306473980001,4,1,0,80,0,0
9119,-101.972596701319,4,1,0,80,0,0
9298,-102.308953876205,4,1,0,80,0,0
9388,-102.478911715304,4,1,0,80,0,0
9477,-102.647537346546,4,1,0,80,0,0
9657,-102.990279735846,4,1,0,80,0,0
9746,-103.160593842323,4,1,0,80,0,0
9836,-103.333395373076,4,1,0,80,0,0
9925,-103.504847129008,4,1,0,80,0,0
10015,-103.678804855275,4,1,0,80,0,0
10194,-104.026531262296,4,1,0,80,0,0
10283,-104.200292781802,4,1,0,80,0,0
10373,-104.376597984659,4,1,0,80,0,0
10552,-104.729028728802,4,1,0,80,0,0
10731,-105.083847522429,4,1,0,80,0,0
10910,-105.44107871997,4,1,0,80,0,0
11268,-106.162877411706,4,1,0,80,0,0
11358,-106.345892313291,4,1,0,80,0,0
11448,-106.529539305793,4,1,0,80,0,0
11627,-106.896684508452,4,1,0,80,0,0
11985,-107.638619620008,4,1,0,80,0,0
12164,-108.013462773098,4,1,0,80,0,0
12254,-108.202919451969,4,1,0,80,0,0
12343,-108.390925774081,4,1,0,80,0,0
12522,-108.771036185177,4,1,0,80,0,0
12612,-108.963162129806,4,1,0,80,0,0
12701,-109.15382195659,4,1,0,80,0,0
12791,-109.347303738134,4,1,0,80,0,0
12880,-109.539311433363,4,1,0,80,0,0
13060,-109.92970992971,4,1,0,80,0,0
13149,-110.123770231672,4,1,0,80,0,0
13418,-110.714499371847,4,1,0,80,0,0
13597,-111.111111111111,4,1,0,80,0,0
13776,-110.345358641666,4,1,0,80,0,0
13865,-109.968536566649,4,1,0,80,0,0
13955,-109.590088712144,4,1,0,80,0,0
14134,-108.845087539402,4,1,0,80,0,0
14313,-108.110147114296,4,1,0,80,0,0
14403,-107.744360902256,4,1,0,80,0,0
14492,-107.385065008056,4,1,0,80,0,0
14582,-107.024160722955,4,1,0,80,0,0
14671,-106.669644186393,4,1,0,80,0,0
14851,-105.959775214434,4,1,0,80,0,0
15030,-105.263157894737,4,1,0,80,0,0
15209,-104.575640370722,4,1,0,80,0,0
15298,-104.237134024368,4,1,0,80,0,0
15388,-103.89704549574,4,1,0,80,0,0
15567,-103.227200691543,4,1,0,80,0,0
15746,-102.565937801954,4,1,0,80,0,0
15836,-102.236649662897,4,1,0,80,0,0
15925,-101.913092952137,4,1,0,80,0,0
16015,-101.587976747483,4,1,0,80,0,0
16104,-101.268506413201,4,1,0,80,0,0
16283,-100.63202247191,4,1,0,80,0,0
16463,-100,4,1,0,80,0,0
16552,-99.3823304878895,4,1,0,80,0,0
16642,-98.7654320987654,4,1,0,80,0,0
16731,-98.1628735947354,4,1,0,80,0,0
16821,-97.5609756097561,4,1,0,80,0,0
16910,-96.9729802938986,4,1,0,80,0,0
17000,-96.3855421686747,4,1,0,80,0,0
17089,-95.8115883848521,4,1,0,80,0,0
17179,-95.2380952380952,4,1,0,80,0,0
17358,-94.1176470588235,4,1,0,80,0,0
17448,-93.5641947076119,4,1,0,80,0,0
17537,-93.0232558139535,4,1,0,80,0,0
17627,-92.4825626453113,4,1,0,80,0,0
17716,-91.9540229885057,4,1,0,80,0,0
17895,-50,4,1,0,80,0,0
17943,-100,4,1,0,40,0,0
18883,-80,4,1,0,80,0,0
19242,-100,4,1,0,90,0,0
19331,-90.9090909090909,4,1,0,90,0,1
28015,-91.4256528123603,4,1,0,90,0,1
28105,-91.9540229885057,4,1,0,90,0,1
28195,-92.4885358134728,4,1,0,90,0,1
28284,-93.0232558139535,4,1,0,90,0,1
28374,-93.5703084161004,4,1,0,90,0,1
28463,-94.1176470588235,4,1,0,90,0,1
28552,-94.6714266825334,4,1,0,90,0,1
28645,-95.2380952380952,4,1,0,90,0,0
28761,-95.9978547965409,4,1,0,90,0,0
28880,-96.7698337613191,4,1,0,90,0,0
29000,-97.5609756097561,4,1,0,90,0,0
29119,-98.3584037365204,4,1,0,90,0,0
29239,-99.1758432024378,4,1,0,90,0,0
29358,-100,4,1,0,90,0,0
29451,-80,4,1,0,90,0,1
30794,-100,4,1,0,90,0,0
39567,-98.7662829967606,4,1,0,90,0,0
39657,-98.1574080416467,4,1,0,90,0,0
39746,-97.5626361655773,4,1,0,90,0,0
39836,-96.9684666395994,4,1,0,90,0,0
39925,-96.3879733638259,4,1,0,90,0,0
40015,-95.8079828842682,4,1,0,90,0,0
40104,-95.2412601355842,4,1,0,90,0,0
40194,-94.6749471458774,4,1,0,90,0,0
40283,-94.1215106732348,4,1,0,90,0,0
40373,-93.5683969964088,4,1,0,90,0,0
40463,-93.0217461863031,4,1,0,90,0,0
40552,-92.4874144830257,4,1,0,90,0,0
40642,-91.9532854209446,4,1,0,90,0,0
40731,-91.4311235883366,4,1,0,90,0,0
40821,-66.6666666666667,4,1,0,90,0,0
41540,-100,4,1,0,90,0,0
42257,-95.2380952380952,4,1,0,90,0,1
46552,-86.9565217391304,4,1,0,90,0,1
46642,-87.4340278837061,4,1,0,90,0,1
46821,-88.399494155023,4,1,0,90,0,1
47000,-89.3865202881826,4,1,0,90,0,1
47179,-90.3958366188298,4,1,0,90,0,1
47268,-90.9062073778032,4,1,0,90,0,1
47358,-91.4282068459502,4,1,0,90,0,1
47448,-91.9562357621844,4,1,0,90,0,1
47627,-93.0247654906034,4,1,0,90,0,1
47716,-93.565342300284,4,1,0,90,0,1
47806,-94.1184197563298,4,1,0,90,0,1
47895,-94.6718197733954,4,1,0,90,0,1
47985,-95.2380952380952,4,1,0,90,0,1
52286,-86.9565217391304,4,1,0,90,0,0
53719,-90.9090909090909,4,1,0,90,0,1
53806,-91.4311235883366,4,1,0,90,0,1
53895,-91.9532854209446,4,1,0,90,0,1
53985,-92.4874144830257,4,1,0,90,0,1
54164,-93.5683969964088,4,1,0,90,0,1
54254,-94.1215106732348,4,1,0,90,0,1
54343,-94.6749471458774,4,1,0,90,0,1
54433,-95.2412601355842,4,1,0,90,0,1
54522,-95.8079828842682,4,1,0,90,0,1
54612,-96.3879733638259,4,1,0,90,0,1
54701,-96.9684666395994,4,1,0,90,0,1
54880,-98.1574080416467,4,1,0,90,0,1
54970,-98.7662829967606,4,1,0,90,0,1
55152,-100,4,1,0,90,0,0
56585,-90.9090909090909,4,1,0,90,0,1
56672,-91.4311235883366,4,1,0,90,0,1
56761,-91.9532854209446,4,1,0,90,0,1
56851,-92.4874144830257,4,1,0,90,0,1
57030,-93.5683969964088,4,1,0,90,0,1
57120,-94.1215106732348,4,1,0,90,0,1
57209,-94.6749471458774,4,1,0,90,0,1
57298,-95.2349305509404,4,1,0,90,0,1
57388,-95.8079828842682,4,1,0,90,0,1
57478,-96.3879733638259,4,1,0,90,0,1
57567,-96.9684666395994,4,1,0,90,0,1
57746,-98.1574080416467,4,1,0,90,0,1
57836,-98.7662829967606,4,1,0,90,0,1
58018,-100,4,1,0,90,0,0
59451,-80,4,1,0,90,0,1
59540,-100,4,1,0,90,0,1
60167,-80,4,1,0,90,0,1
60256,-100,4,1,0,90,0,1
60883,-80,4,1,0,90,0,1
60972,-100,4,1,0,90,0,1
61600,-80,4,1,0,90,0,1
61689,-100,4,1,0,90,0,1
62316,-80,4,1,0,90,0,1
62405,-100,4,1,0,90,0,1
63033,-80,4,1,0,90,0,1
63122,-100,4,1,0,90,0,1
63749,-80,4,1,0,90,0,1
63838,-100,4,1,0,90,0,1
64466,-80,4,1,0,90,0,1
64555,-100,4,1,0,90,0,1
65182,-50,4,1,0,90,0,0
65898,-100,4,1,0,90,0,0
66615,-105.263157894737,4,1,0,90,0,0
67331,179.10447761194,4,1,0,80,1,0
67331,-90.9090909090909,4,1,0,80,0,0
67420,-133.333333333333,4,1,0,65,0,0
68044,-113.473913473913,4,1,0,65,0,0
68760,-115.939390261172,4,1,0,65,0,0
69298,-117.86360644949,4,1,0,65,0,0
69477,-118.518058959167,4,1,0,65,0,0
69835,-119.849012411514,4,1,0,65,0,0
70193,-121.210198492011,4,1,0,65,0,0
70910,-124.03151105917,4,1,0,65,0,0
71626,-126.983071878047,4,1,0,65,0,0
72163,-129.290604942867,4,1,0,65,0,0
72342,-130.07853284307,4,1,0,65,0,0
72701,-131.68809384299,4,1,0,65,0,0
73059,-133.333333333333,4,1,0,65,0,0
73417,-130.953567986173,4,1,0,65,0,0
73596,-129.795259508162,4,1,0,65,0,0
73775,-128.657262277952,4,1,0,65,0,0
73954,-127.539046694181,4,1,0,65,0,0
74133,-126.440101408812,4,1,0,65,0,0
74492,-124.292181264689,4,1,0,65,0,0
74671,-123.248248248248,4,1,0,65,0,0
75029,-121.212121212121,4,1,0,65,0,0
75208,-120.219079439181,4,1,0,65,0,0
75566,-118.281022500413,4,1,0,65,0,0
75745,-117.335239286459,4,1,0,65,0,0
75925,-116.399302785902,4,1,0,65,0,0
76104,-115.483256393347,4,1,0,65,0,0
76283,-114.581515733147,4,1,0,65,0,0
76462,-113.693748286658,4,1,0,65,0,0
76641,-112.819631761303,4,1,0,65,0,0
76999,-111.111111111111,4,1,0,65,0,0
77271,-90.9090909090909,4,1,0,80,0,0
78793,-100,4,1,0,80,0,0
87390,-90.9090909090909,4,1,0,80,0,1
87477,-91.6705444392741,4,1,0,80,0,1
87566,-92.4361861861862,4,1,0,80,0,1
87656,-93.2235472269544,4,1,0,80,0,1
87745,-94.0154624415386,4,1,0,80,0,1
87835,-94.8300760566092,4,1,0,80,0,1
87925,-95.6589297853744,4,1,0,80,0,1
88014,-96.4929467084639,4,1,0,80,0,1
88104,-97.3512551887725,4,1,0,80,0,1
88193,-98.2151759896301,4,1,0,80,0,1
88283,-99.1045376798471,4,1,0,80,0,1
88372,-100,4,1,0,80,0,1
88465,-100,4,1,0,80,0,0
88823,-90.9090909090909,4,1,0,80,0,1
88910,-91.6705444392741,4,1,0,80,0,1
88999,-92.4361861861862,4,1,0,80,0,1
89089,-93.2235472269544,4,1,0,80,0,1
89178,-94.0154624415386,4,1,0,80,0,1
89268,-94.8300760566092,4,1,0,80,0,1
89357,-95.6496407069334,4,1,0,80,0,1
89447,-96.4929467084639,4,1,0,80,0,1
89536,-97.3416345488685,4,1,0,80,0,1
89626,-98.2151759896301,4,1,0,80,0,1
89716,-99.1045376798471,4,1,0,80,0,1
89805,-100,4,1,0,80,0,1
89898,-100,4,1,0,80,0,0
90256,-100,4,1,0,80,0,1
90342,-99.0769868980537,4,1,0,80,0,1
90432,-98.1607699421173,4,1,0,80,0,1
90522,-97.2613431974752,4,1,0,80,0,1
90611,-96.3879733638259,4,1,0,80,0,1
90701,-95.5205972536995,4,1,0,80,0,1
90790,-94.6780747249843,4,1,0,80,0,1
90880,-93.841066107855,4,1,0,80,0,1
90969,-93.0277849909115,4,1,0,80,0,1
91059,-92.2195765493275,4,1,0,80,0,1
91148,-91.4340405168288,4,1,0,80,0,1
91238,-90.6531709631504,4,1,0,80,0,1
91327,-89.8939840662443,4,1,0,80,0,1
91417,-89.1390893257029,4,1,0,80,0,1
91507,-88.39676762692,4,1,0,80,0,1
91596,-87.6747529750069,4,1,0,80,0,1
91689,-50,4,1,0,80,0,0
92405,-90.9090909090909,4,1,0,80,0,0
93032,-100,4,1,0,90,0,0
93122,-86.9565217391304,4,1,0,90,0,1
99928,-86.9565217391304,4,1,0,90,0,0
100286,-86.9565217391304,4,1,0,90,0,1
101360,-86.9565217391304,4,1,0,90,0,0
101719,-86.9565217391304,4,1,0,90,0,1
103151,-80,4,1,0,90,0,1
104226,-86.9565217391304,4,1,0,90,0,0
104584,-86.9565217391304,4,1,0,90,0,1
111390,-86.9565217391304,4,1,0,90,0,0
111748,-86.9565217391304,4,1,0,90,0,1
112823,-86.9565217391304,4,1,0,90,0,0
113181,-86.9565217391304,4,1,0,90,0,1
114614,179.10447761194,4,1,0,90,1,9
114615,179.10447761194,7,1,0,90,1,0
114615,-80,7,1,0,90,0,0
117032,-80,7,1,0,60,0,0
117122,179.10447761194,4,1,0,60,1,0
117122,-50,4,1,0,60,0,0
117838,-100,4,1,0,60,0,0
118465,-100,4,1,0,70,0,0
118554,179.10447761194,4,1,0,70,1,8
118555,179.10447761194,4,1,0,70,1,0
118555,-111.111111111111,4,1,0,70,0,0
119987,-100,4,1,0,80,0,0
123029,-98.0413611992559,4,1,0,80,0,0
123208,-96.1579738141232,4,1,0,80,0,0
123387,-94.345582815626,4,1,0,80,0,0
123566,-92.6002480363787,4,1,0,80,0,0
123746,-90.9090909090909,4,1,0,80,0,0
124196,-100,4,1,0,90,0,0
124286,179.10447761194,4,1,0,90,1,8
124287,179.10447761194,4,1,0,90,1,1
124287,-83.3333333333333,4,1,0,90,0,1
127152,-83.3333333333333,4,1,0,90,0,0
127331,-83.3333333333333,4,1,0,90,0,1
128585,-83.3333333333333,4,1,0,90,0,0
130018,-83.3333333333333,4,1,0,90,0,1
134227,-83.3333333333333,4,1,0,90,0,0
134316,-71.4285714285714,4,1,0,90,0,0
134406,-71.4285714285714,4,1,0,90,0,1
135481,-71.4285714285714,4,1,0,90,0,0
135749,179.10447761194,7,1,0,90,1,1
135749,-80,7,1,0,90,0,1
139510,179.10447761194,6,1,0,90,1,1
139510,-80,6,1,0,90,0,1
141659,-66.6666666666667,6,1,0,90,0,0
142733,179.10447761194,8,1,0,90,1,8
142734,179.10447761194,8,1,0,90,1,1
142734,-80,8,1,0,90,0,1
142913,-50,8,1,0,90,0,1
144166,-80,8,1,0,90,0,1
145957,-80,8,1,0,90,0,0

[HitObjects]
256,192,705,5,8,0:0:0:0:
256,192,794,1,8,0:0:0:0:
256,192,973,1,0,0:0:0:0:
256,192,1063,1,0,0:0:0:0:
256,192,1242,1,8,0:0:0:0:
256,192,1331,1,8,0:0:0:0:
256,192,1510,1,0,0:0:0:0:
256,192,1600,1,0,0:0:0:0:
256,192,1958,1,8,0:0:0:0:
256,192,2048,1,8,0:0:0:0:
256,192,2227,1,0,0:0:0:0:
256,192,2316,1,0,0:0:0:0:
256,192,2496,1,8,0:0:0:0:
256,192,2585,1,8,0:0:0:0:
256,192,2764,1,0,0:0:0:0:
256,192,2854,1,0,0:0:0:0:
256,192,3212,1,8,0:0:0:0:
256,192,3302,1,8,0:0:0:0:
256,192,3481,1,0,0:0:0:0:
256,192,3570,1,0,0:0:0:0:
256,192,3749,1,8,0:0:0:0:
256,192,3839,1,8,0:0:0:0:
256,192,4018,1,0,0:0:0:0:
256,192,4107,1,0,0:0:0:0:
256,192,4466,1,8,0:0:0:0:
256,192,4555,1,8,0:0:0:0:
256,192,4734,1,0,0:0:0:0:
256,192,4824,1,0,0:0:0:0:
256,192,5003,1,8,0:0:0:0:
256,192,5093,1,8,0:0:0:0:
256,192,5272,1,0,0:0:0:0:
256,192,5361,1,0,0:0:0:0:
256,192,5719,1,12,0:0:0:0:
256,192,5898,12,12,7689,0:0:0:0:
256,192,7868,5,12,0:0:0:0:
256,192,8048,1,0,0:0:0:0:
256,192,8406,1,0,0:0:0:0:
256,192,8495,1,0,0:0:0:0:
256,192,8585,1,8,0:0:0:0:
256,192,8764,1,0,0:0:0:0:
256,192,9122,1,8,0:0:0:0:
256,192,9301,1,0,0:0:0:0:
256,192,9391,1,0,0:0:0:0:
256,192,9480,1,8,0:0:0:0:
256,192,9660,1,0,0:0:0:0:
256,192,9749,1,0,0:0:0:0:
256,192,9839,1,8,0:0:0:0:
256,192,9928,1,0,0:0:0:0:
256,192,10018,1,8,0:0:0:0:
256,192,10197,1,0,0:0:0:0:
256,192,10286,1,8,0:0:0:0:
256,192,10376,1,0,0:0:0:0:
256,192,10555,1,0,0:0:0:0:
256,192,10734,1,8,0:0:0:0:
256,192,10913,1,0,0:0:0:0:
256,192,11271,1,0,0:0:0:0:
256,192,11361,1,0,0:0:0:0:
256,192,11451,1,8,0:0:0:0:
256,192,11630,1,0,0:0:0:0:
256,192,11988,1,8,0:0:0:0:
256,192,12167,1,0,0:0:0:0:
256,192,12257,1,0,0:0:0:0:
256,192,12346,1,8,0:0:0:0:
256,192,12525,1,0,0:0:0:0:
256,192,12615,1,0,0:0:0:0:
256,192,12704,1,8,0:0:0:0:
256,192,12794,1,0,0:0:0:0:
256,192,12883,1,8,0:0:0:0:
256,192,13063,1,0,0:0:0:0:
256,192,13152,1,8,0:0:0:0:
256,192,13421,1,0,0:0:0:0:
256,192,13600,1,8,0:0:0:0:
256,192,13779,1,0,0:0:0:0:
256,192,13868,1,0,0:0:0:0:
256,192,13958,1,8,0:0:0:0:
256,192,14137,1,0,0:0:0:0:
256,192,14316,1,8,0:0:0:0:
256,192,14406,1,8,0:0:0:0:
256,192,14495,1,0,0:0:0:0:
256,192,14585,1,0,0:0:0:0:
256,192,14674,1,8,0:0:0:0:
256,192,14854,1,0,0:0:0:0:
256,192,15033,1,8,0:0:0:0:
256,192,15212,1,0,0:0:0:0:
256,192,15301,1,0,0:0:0:0:
256,192,15391,1,8,0:0:0:0:
256,192,15570,1,0,0:0:0:0:
256,192,15749,1,8,0:0:0:0:
256,192,15839,1,8,0:0:0:0:
256,192,15928,1,0,0:0:0:0:
256,192,16018,1,0,0:0:0:0:
256,192,16107,1,8,0:0:0:0:
256,192,16286,1,0,0:0:0:0:
256,192,16466,1,8,0:0:0:0:
256,192,16555,1,8,0:0:0:0:
256,192,16645,1,0,0:0:0:0:
256,192,16734,1,0,0:0:0:0:
256,192,16824,1,8,0:0:0:0:
256,192,16913,1,0,0:0:0:0:
256,192,17003,1,8,0:0:0:0:
256,192,17092,1,8,0:0:0:0:
256,192,17182,1,0,0:0:0:0:
256,192,17361,1,8,0:0:0:0:
256,192,17451,1,8,0:0:0:0:
256,192,17540,1,0,0:0:0:0:
256,192,17630,1,0,0:0:0:0:
256,192,17719,1,8,0:0:0:0:
256,192,17898,12,8,18794,0:0:0:0:
256,192,18973,5,12,0:0:0:0:
256,192,19331,1,0,0:0:0:0:
256,192,19421,1,0,0:0:0:0:
256,192,19510,1,8,0:0:0:0:
256,192,19600,1,0,0:0:0:0:
256,192,19689,1,8,0:0:0:0:
256,192,19779,1,8,0:0:0:0:
256,192,19868,1,0,0:0:0:0:
256,192,19958,1,0,0:0:0:0:
256,192,20048,1,8,0:0:0:0:
256,192,20227,1,0,0:0:0:0:
256,192,20316,1,8,0:0:0:0:
256,192,20495,1,0,0:0:0:0:
256,192,20585,1,8,0:0:0:0:
256,192,20764,1,8,0:0:0:0:
256,192,20854,1,0,0:0:0:0:
256,192,20943,1,8,0:0:0:0:
256,192,21033,1,0,0:0:0:0:
256,192,21122,1,8,0:0:0:0:
256,192,21212,1,8,0:0:0:0:
256,192,21301,1,0,0:0:0:0:
256,192,21391,1,0,0:0:0:0:
256,192,21480,1,8,0:0:0:0:
256,192,21660,1,8,0:0:0:0:
256,192,21749,1,0,0:0:0:0:
256,192,21928,1,0,0:0:0:0:
256,192,22018,1,8,0:0:0:0:
256,192,22197,1,8,0:0:0:0:
256,192,22286,1,0,0:0:0:0:
256,192,22376,1,8,0:0:0:0:
256,192,22466,1,8,0:0:0:0:
256,192,22555,1,0,0:0:0:0:
256,192,22645,1,0,0:0:0:0:
256,192,22734,1,8,0:0:0:0:
256,192,22824,1,0,0:0:0:0:
256,192,22913,1,8,0:0:0:0:
256,192,23092,1,0,0:0:0:0:
256,192,23182,1,8,0:0:0:0:
256,192,23361,1,0,0:0:0:0:
256,192,23451,1,8,0:0:0:0:
256,192,23630,1,8,0:0:0:0:
256,192,23719,1,0,0:0:0:0:
256,192,23809,1,8,0:0:0:0:
256,192,23898,1,0,0:0:0:0:
256,192,23988,1,8,0:0:0:0:
256,192,24077,1,8,0:0:0:0:
256,192,24167,1,0,0:0:0:0:
256,192,24257,1,0,0:0:0:0:
256,192,24346,1,8,0:0:0:0:
256,192,24525,1,0,0:0:0:0:
256,192,24615,1,0,0:0:0:0:
256,192,24704,1,8,0:0:0:0:
256,192,24794,1,8,0:0:0:0:
256,192,24883,1,0,0:0:0:0:
256,192,25063,1,0,0:0:0:0:
256,192,25152,1,0,0:0:0:0:
256,192,25242,1,8,0:0:0:0:
256,192,25332,1,0,0:0:0:0:
256,192,25421,1,8,0:0:0:0:
256,192,25511,1,8,0:0:0:0:
256,192,25600,1,0,0:0:0:0:
256,192,25690,1,0,0:0:0:0:
256,192,25780,1,8,0:0:0:0:
256,192,25959,1,0,0:0:0:0:
256,192,26048,1,8,0:0:0:0:
256,192,26227,1,0,0:0:0:0:
256,192,26317,1,8,0:0:0:0:
256,192,26496,1,8,0:0:0:0:
256,192,26586,1,0,0:0:0:0:
256,192,26675,1,8,0:0:0:0:
256,192,26765,1,0,0:0:0:0:
256,192,26854,1,8,0:0:0:0:
256,192,26944,1,8,0:0:0:0:
256,192,27033,1,0,0:0:0:0:
256,192,27123,1,0,0:0:0:0:
256,192,27212,1,8,0:0:0:0:
256,192,27392,1,8,0:0:0:0:
256,192,27481,1,0,0:0:0:0:
256,192,27660,1,0,0:0:0:0:
256,192,27750,1,8,0:0:0:0:
256,192,27929,1,8,0:0:0:0:
256,192,28018,1,0,0:0:0:0:
256,192,28108,1,8,0:0:0:0:
256,192,28198,1,8,0:0:0:0:
256,192,28287,1,0,0:0:0:0:
256,192,28377,1,0,0:0:0:0:
256,192,28466,1,8,0:0:0:0:
256,192,28555,1,8,0:0:0:0:
256,192,28645,1,0,0:0:0:0:
256,192,28764,1,0,0:0:0:0:
256,192,28883,1,0,0:0:0:0:
256,192,29003,1,0,0:0:0:0:
256,192,29122,1,0,0:0:0:0:
256,192,29242,1,0,0:0:0:0:
256,192,29451,1,12,0:0:0:0:
256,192,29719,1,12,0:0:0:0:
256,192,29988,1,12,0:0:0:0:
256,192,30257,1,12,0:0:0:0:
256,192,30525,1,12,0:0:0:0:
256,192,30794,1,0,0:0:0:0:
256,192,30973,1,0,0:0:0:0:
256,192,31063,1,0,0:0:0:0:
256,192,31152,1,8,0:0:0:0:
256,192,31242,1,0,0:0:0:0:
256,192,31421,1,8,0:0:0:0:
256,192,31600,1,8,0:0:0:0:
256,192,31689,1,0,0:0:0:0:
256,192,31868,1,8,0:0:0:0:
256,192,31958,1,8,0:0:0:0:
256,192,32048,1,0,0:0:0:0:
256,192,32137,1,0,0:0:0:0:
256,192,32227,1,8,0:0:0:0:
256,192,32406,1,0,0:0:0:0:
256,192,32495,1,0,0:0:0:0:
256,192,32585,1,8,0:0:0:0:
256,192,32674,1,0,0:0:0:0:
256,192,32854,1,8,0:0:0:0:
256,192,33033,1,8,0:0:0:0:
256,192,33122,1,0,0:0:0:0:
256,192,33301,1,8,0:0:0:0:
256,192,33391,1,8,0:0:0:0:
256,192,33480,1,8,0:0:0:0:
256,192,33570,1,0,0:0:0:0:
256,192,33839,1,0,0:0:0:0:
256,192,34018,1,8,0:0:0:0:
256,192,34107,1,0,0:0:0:0:
256,192,34286,1,8,0:0:0:0:
256,192,34466,1,8,0:0:0:0:
256,192,34555,1,0,0:0:0:0:
256,192,34734,1,0,0:0:0:0:
256,192,34824,1,8,0:0:0:0:
256,192,34913,1,0,0:0:0:0:
256,192,35003,1,0,0:0:0:0:
256,192,35092,1,8,0:0:0:0:
256,192,35271,1,0,0:0:0:0:
256,192,35361,1,0,0:0:0:0:
256,192,35451,1,8,0:0:0:0:
256,192,35540,1,0,0:0:0:0:
256,192,35719,1,8,0:0:0:0:
256,192,35898,1,8,0:0:0:0:
256,192,35988,1,0,0:0:0:0:
256,192,36525,1,0,0:0:0:0:
256,192,36704,1,0,0:0:0:0:
256,192,36794,1,0,0:0:0:0:
256,192,36883,1,8,0:0:0:0:
256,192,36973,1,0,0:0:0:0:
256,192,37152,1,8,0:0:0:0:
256,192,37331,1,8,0:0:0:0:
256,192,37421,1,0,0:0:0:0:
256,192,37600,1,8,0:0:0:0:
256,192,37689,1,8,0:0:0:0:
256,192,37779,1,0,0:0:0:0:
256,192,37868,1,0,0:0:0:0:
256,192,37958,1,8,0:0:0:0:
256,192,38137,1,0,0:0:0:0:
256,192,38227,1,0,0:0:0:0:
256,192,38316,1,8,0:0:0:0:
256,192,38406,1,0,0:0:0:0:
256,192,38585,1,8,0:0:0:0:
256,192,38764,1,8,0:0:0:0:
256,192,38854,1,0,0:0:0:0:
256,192,39033,1,0,0:0:0:0:
256,192,39122,1,0,0:0:0:0:
256,192,39212,1,8,0:0:0:0:
256,192,39301,1,8,0:0:0:0:
256,192,39391,1,0,0:0:0:0:
256,192,39570,1,8,0:0:0:0:
256,192,39660,1,0,0:0:0:0:
256,192,39749,1,8,0:0:0:0:
256,192,39839,1,8,0:0:0:0:
256,192,39928,1,0,0:0:0:0:
256,192,40018,1,0,0:0:0:0:
256,192,40107,1,8,0:0:0:0:
256,192,40197,1,8,0:0:0:0:
256,192,40286,1,8,0:0:0:0:
256,192,40376,1,8,0:0:0:0:
256,192,40466,1,0,0:0:0:0:
256,192,40555,1,0,0:0:0:0:
256,192,40645,1,0,0:0:0:0:
256,192,40734,1,0,0:0:0:0:
256,192,40824,12,0,41898,0:0:0:0:
256,192,42257,5,0,0:0:0:0:
256,192,42436,1,0,0:0:0:0:
256,192,42525,1,0,0:0:0:0:
256,192,42615,1,8,0:0:0:0:
256,192,42704,1,0,0:0:0:0:
256,192,42883,1,8,0:0:0:0:
256,192,42973,1,0,0:0:0:0:
256,192,43063,1,8,0:0:0:0:
256,192,43152,1,0,0:0:0:0:
256,192,43331,1,0,0:0:0:0:
256,192,43421,1,0,0:0:0:0:
256,192,43510,1,8,0:0:0:0:
256,192,43600,1,8,0:0:0:0:
256,192,43689,1,0,0:0:0:0:
256,192,43868,1,0,0:0:0:0:
256,192,43958,1,0,0:0:0:0:
256,192,44048,1,8,0:0:0:0:
256,192,44137,1,0,0:0:0:0:
256,192,44316,1,8,0:0:0:0:
256,192,44406,1,0,0:0:0:0:
256,192,44495,1,8,0:0:0:0:
256,192,44585,1,0,0:0:0:0:
256,192,44764,1,8,0:0:0:0:
256,192,44854,1,0,0:0:0:0:
256,192,44943,1,8,0:0:0:0:
256,192,45033,1,8,0:0:0:0:
256,192,45122,1,0,0:0:0:0:
256,192,45212,1,0,0:0:0:0:
256,192,45301,1,0,0:0:0:0:
256,192,45480,1,8,0:0:0:0:
256,192,45570,1,0,0:0:0:0:
256,192,45749,1,8,0:0:0:0:
256,192,45839,1,0,0:0:0:0:
256,192,45928,1,8,0:0:0:0:
256,192,46018,1,0,0:0:0:0:
256,192,46197,1,0,0:0:0:0:
256,192,46286,1,0,0:0:0:0:
256,192,46376,1,8,0:0:0:0:
256,192,46466,1,8,0:0:0:0:
256,192,46555,1,0,0:0:0:0:
256,192,46645,1,8,0:0:0:0:
256,192,46824,1,8,0:0:0:0:
256,192,47003,1,8,0:0:0:0:
256,192,47182,1,8,0:0:0:0:
256,192,47361,1,8,0:0:0:0:
256,192,47451,1,0,0:0:0:0:
256,192,47630,1,8,0:0:0:0:
256,192,47719,1,8,0:0:0:0:
256,192,47809,1,0,0:0:0:0:
256,192,47898,1,0,0:0:0:0:
256,192,47988,1,8,0:0:0:0:
256,192,48167,1,0,0:0:0:0:
256,192,48257,1,0,0:0:0:0:
256,192,48346,1,8,0:0:0:0:
256,192,48436,1,0,0:0:0:0:
256,192,48615,1,8,0:0:0:0:
256,192,48704,1,8,0:0:0:0:
256,192,48794,1,8,0:0:0:0:
256,192,48883,1,0,0:0:0:0:
256,192,49063,1,8,0:0:0:0:
256,192,49152,1,0,0:0:0:0:
256,192,49242,1,8,0:0:0:0:
256,192,49331,1,8,0:0:0:0:
256,192,49421,1,0,0:0:0:0:
256,192,49600,1,0,0:0:0:0:
256,192,49689,1,0,0:0:0:0:
256,192,49779,1,8,0:0:0:0:
256,192,49868,1,0,0:0:0:0:
256,192,50048,1,8,0:0:0:0:
256,192,50137,1,8,0:0:0:0:
256,192,50227,1,8,0:0:0:0:
256,192,50316,1,0,0:0:0:0:
256,192,50495,1,8,0:0:0:0:
256,192,50585,1,8,0:0:0:0:
256,192,50674,1,8,0:0:0:0:
256,192,50764,1,8,0:0:0:0:
256,192,50854,1,0,0:0:0:0:
256,192,51033,1,0,0:0:0:0:
256,192,51122,1,0,0:0:0:0:
256,192,51212,1,8,0:0:0:0:
256,192,51301,1,0,0:0:0:0:
256,192,51480,1,8,0:0:0:0:
256,192,51570,1,8,0:0:0:0:
256,192,51660,1,8,0:0:0:0:
256,192,51749,1,0,0:0:0:0:
256,192,51928,1,8,0:0:0:0:
256,192,52018,1,8,0:0:0:0:
256,192,52107,1,0,0:0:0:0:
256,192,52197,1,0,0:0:0:0:
256,192,52286,1,8,0:0:0:0:
256,192,52376,1,8,0:0:0:0:
256,192,52555,1,0,0:0:0:0:
256,192,52645,1,0,0:0:0:0:
256,192,52824,1,8,0:0:0:0:
256,192,52913,1,8,0:0:0:0:
256,192,53092,1,0,0:0:0:0:
256,192,53182,1,0,0:0:0:0:
256,192,53361,1,8,0:0:0:0:
256,192,53719,1,0,0:0:0:0:
256,192,53809,1,0,0:0:0:0:
256,192,53898,1,8,0:0:0:0:
256,192,53988,1,8,0:0:0:0:
256,192,54167,1,8,0:0:0:0:
256,192,54257,1,0,0:0:0:0:
256,192,54346,1,8,0:0:0:0:
256,192,54525,1,8,0:0:0:0:
256,192,54615,1,0,0:0:0:0:
256,192,54704,1,8,0:0:0:0:
256,192,54883,1,8,0:0:0:0:
256,192,54973,1,8,0:0:0:0:
256,192,55152,1,0,0:0:0:0:
256,192,55242,1,8,0:0:0:0:
256,192,55331,1,0,0:0:0:0:
256,192,55421,1,8,0:0:0:0:
256,192,55510,1,0,0:0:0:0:
256,192,55600,1,8,0:0:0:0:
256,192,55689,1,0,0:0:0:0:
256,192,55779,1,8,0:0:0:0:
256,192,55868,1,0,0:0:0:0:
256,192,55958,1,8,0:0:0:0:
256,192,56048,1,0,0:0:0:0:
256,192,56137,1,8,0:0:0:0:
256,192,56227,1,0,0:0:0:0:
256,192,56316,1,8,0:0:0:0:
256,192,56406,1,0,0:0:0:0:
256,192,56585,1,0,0:0:0:0:
256,192,56675,1,0,0:0:0:0:
256,192,56764,1,8,0:0:0:0:
256,192,56854,1,8,0:0:0:0:
256,192,57033,1,8,0:0:0:0:
256,192,57123,1,0,0:0:0:0:
256,192,57212,1,8,0:0:0:0:
256,192,57391,1,8,0:0:0:0:
256,192,57481,1,0,0:0:0:0:
256,192,57570,1,8,0:0:0:0:
256,192,57749,1,8,0:0:0:0:
256,192,57839,1,8,0:0:0:0:
256,192,58018,1,0,0:0:0:0:
256,192,58107,1,0,0:0:0:0:
256,192,58197,1,0,0:0:0:0:
256,192,58286,1,0,0:0:0:0:
256,192,58376,1,0,0:0:0:0:
256,192,58466,1,0,0:0:0:0:
256,192,58555,1,0,0:0:0:0:
256,192,58645,1,0,0:0:0:0:
256,192,58734,1,0,0:0:0:0:
256,192,58824,1,0,0:0:0:0:
256,192,58913,1,0,0:0:0:0:
256,192,59003,1,0,0:0:0:0:
256,192,59451,1,12,0:0:0:0:
256,192,59630,2,0,L|304:192,4,45
256,192,60167,1,12,0:0:0:0:
256,192,60346,2,0,L|304:192,4,45
256,192,60883,1,12,0:0:0:0:
256,192,61063,2,0,L|304:192,4,45
256,192,61600,1,12,0:0:0:0:
256,192,61779,2,0,L|304:192,4,45
256,192,62316,1,12,0:0:0:0:
256,192,62495,2,0,L|304:192,4,45
256,192,63033,1,12,0:0:0:0:
256,192,63212,2,0,L|304:192,4,45
256,192,63749,1,12,0:0:0:0:
256,192,63928,2,0,L|304:192,4,45
256,192,64466,1,12,0:0:0:0:
256,192,64645,2,0,L|304:192,4,45
256,192,65182,12,0,67152,0:0:0:0:
256,192,67331,5,12,0:0:0:0:
256,192,68763,1,8,0:0:0:0:
256,192,69301,1,8,0:0:0:0:
256,192,69838,1,0,0:0:0:0:
256,192,70196,1,8,0:0:0:0:
256,192,71629,1,8,0:0:0:0:
256,192,72166,1,8,0:0:0:0:
256,192,72704,1,8,0:0:0:0:
256,192,73062,1,8,0:0:0:0:
256,192,73420,1,8,0:0:0:0:
256,192,73599,1,8,0:0:0:0:
256,192,73957,1,0,0:0:0:0:
256,192,74136,1,8,0:0:0:0:
256,192,74495,1,8,0:0:0:0:
256,192,74674,1,8,0:0:0:0:
256,192,75032,1,0,0:0:0:0:
256,192,75569,1,0,0:0:0:0:
256,192,75748,1,0,0:0:0:0:
256,192,75928,1,8,0:0:0:0:
256,192,76107,1,8,0:0:0:0:
256,192,76286,1,8,0:0:0:0:
256,192,76465,1,0,0:0:0:0:
256,192,77002,1,0,0:0:0:0:
256,192,77360,1,8,0:0:0:0:
256,192,77450,1,8,0:0:0:0:
256,192,77629,1,0,0:0:0:0:
256,192,77719,1,0,0:0:0:0:
256,192,77898,1,8,0:0:0:0:
256,192,77987,1,8,0:0:0:0:
256,192,78166,1,0,0:0:0:0:
256,192,78256,1,0,0:0:0:0:
256,192,78793,1,12,0:0:0:0:
256,192,78972,1,0,0:0:0:0:
256,192,79062,1,0,0:0:0:0:
256,192,79151,1,8,0:0:0:0:
256,192,79330,1,8,0:0:0:0:
256,192,79420,1,0,0:0:0:0:
256,192,79510,1,8,0:0:0:0:
256,192,79689,1,0,0:0:0:0:
256,192,79778,1,0,0:0:0:0:
256,192,79868,1,8,0:0:0:0:
256,192,79957,1,0,0:0:0:0:
256,192,80047,1,8,0:0:0:0:
256,192,80136,1,8,0:0:0:0:
256,192,80226,1,0,0:0:0:0:
256,192,80405,1,0,0:0:0:0:
256,192,80495,1,0,0:0:0:0:
256,192,80584,1,8,0:0:0:0:
256,192,80763,1,0,0:0:0:0:
256,192,80942,1,8,0:0:0:0:
256,192,81122,1,8,0:0:0:0:
256,192,81211,1,8,0:0:0:0:
256,192,81301,1,0,0:0:0:0:
256,192,81480,1,0,0:0:0:0:
256,192,81569,1,0,0:0:0:0:
256,192,81659,1,8,0:0:0:0:
256,192,81838,1,8,0:0:0:0:
256,192,81928,1,0,0:0:0:0:
256,192,82017,1,8,0:0:0:0:
256,192,82196,1,0,0:0:0:0:
256,192,82286,1,8,0:0:0:0:
256,192,82375,1,0,0:0:0:0:
256,192,82554,1,0,0:0:0:0:
256,192,82644,1,0,0:0:0:0:
256,192,82733,1,8,0:0:0:0:
256,192,82823,1,0,0:0:0:0:
256,192,82913,1,8,0:0:0:0:
256,192,83002,1,8,0:0:0:0:
256,192,83092,1,0,0:0:0:0:
256,192,83271,1,0,0:0:0:0:
256,192,83360,1,0,0:0:0:0:
256,192,83450,1,8,0:0:0:0:
256,192,83629,1,8,0:0:0:0:
256,192,83719,1,0,0:0:0:0:
256,192,83808,1,8,0:0:0:0:
256,192,83987,1,0,0:0:0:0:
256,192,84077,1,0,0:0:0:0:
256,192,84166,1,8,0:0:0:0:
256,192,84256,1,8,0:0:0:0:
256,192,84345,1,0,0:0:0:0:
256,192,84435,1,0,0:0:0:0:
256,192,84525,1,8,0:0:0:0:
256,192,84704,1,0,0:0:0:0:
256,192,84793,1,0,0:0:0:0:
256,192,84883,1,8,0:0:0:0:
256,192,85062,1,0,0:0:0:0:
256,192,85151,1,8,0:0:0:0:
256,192,85241,1,0,0:0:0:0:
256,192,85420,1,0,0:0:0:0:
256,192,85510,1,0,0:0:0:0:
256,192,85599,1,8,0:0:0:0:
256,192,85689,1,0,0:0:0:0:
256,192,85778,1,8,0:0:0:0:
256,192,85868,1,8,0:0:0:0:
256,192,85957,1,8,0:0:0:0:
256,192,86136,1,0,0:0:0:0:
256,192,86226,1,0,0:0:0:0:
256,192,86316,1,8,0:0:0:0:
256,192,86495,1,8,0:0:0:0:
256,192,86584,1,0,0:0:0:0:
256,192,86674,1,8,0:0:0:0:
256,192,86853,1,0,0:0:0:0:
256,192,86942,1,0,0:0:0:0:
256,192,87032,1,8,0:0:0:0:
256,192,87211,1,0,0:0:0:0:
256,192,87390,1,8,0:0:0:0:
256,192,87480,1,8,0:0:0:0:
256,192,87569,1,0,0:0:0:0:
256,192,87659,1,0,0:0:0:0:
256,192,87748,1,8,0:0:0:0:
256,192,87838,1,0,0:0:0:0:
256,192,87928,1,8,0:0:0:0:
256,192,88017,1,8,0:0:0:0:
256,192,88107,1,0,0:0:0:0:
256,192,88196,1,0,0:0:0:0:
256,192,88286,1,8,0:0:0:0:
256,192,88375,1,8,0:0:0:0:
256,192,88823,1,8,0:0:0:0:
256,192,88913,1,0,0:0:0:0:
256,192,89002,1,8,0:0:0:0:
256,192,89092,1,8,0:0:0:0:
256,192,89181,1,0,0:0:0:0:
256,192,89271,1,0,0:0:0:0:
256,192,89360,1,8,0:0:0:0:
256,192,89450,1,0,0:0:0:0:
256,192,89539,1,8,0:0:0:0:
256,192,89629,1,0,0:0:0:0:
256,192,89719,1,8,0:0:0:0:
256,192,89808,1,8,0:0:0:0:
256,192,90256,1,8,0:0:0:0:
256,192,90345,1,8,0:0:0:0:
256,192,90435,1,8,0:0:0:0:
256,192,90525,1,8,0:0:0:0:
256,192,90614,1,0,0:0:0:0:
256,192,90704,1,0,0:0:0:0:
256,192,90793,1,0,0:0:0:0:
256,192,90883,1,0,0:0:0:0:
256,192,90972,1,8,0:0:0:0:
256,192,91062,1,8,0:0:0:0:
256,192,91151,1,8,0:0:0:0:
256,192,91241,1,8,0:0:0:0:
256,192,91330,1,0,0:0:0:0:
256,192,91420,1,0,0:0:0:0:
256,192,91510,1,0,0:0:0:0:
256,192,91599,1,0,0:0:0:0:
256,192,91689,12,0,92763,0:0:0:0:
256,192,93122,5,12,0:0:0:0:
256,192,93301,1,0,0:0:0:0:
256,192,93390,1,0,0:0:0:0:
256,192,93480,1,8,0:0:0:0:
256,192,93569,1,0,0:0:0:0:
256,192,93659,1,8,0:0:0:0:
256,192,93748,1,8,0:0:0:0:
256,192,93928,1,0,0:0:0:0:
256,192,94017,1,8,0:0:0:0:
256,192,94196,1,8,0:0:0:0:
256,192,94286,1,8,0:0:0:0:
256,192,94375,1,0,0:0:0:0:
256,192,94465,1,0,0:0:0:0:
256,192,94554,1,8,0:0:0:0:
256,192,94733,1,8,0:0:0:0:
256,192,94823,1,0,0:0:0:0:
256,192,94913,1,8,0:0:0:0:
256,192,95002,1,8,0:0:0:0:
256,192,95092,1,0,0:0:0:0:
256,192,95181,1,8,0:0:0:0:
256,192,95360,1,8,0:0:0:0:
256,192,95450,1,0,0:0:0:0:
256,192,95629,1,8,0:0:0:0:
256,192,95719,1,8,0:0:0:0:
256,192,95808,1,0,0:0:0:0:
256,192,95898,1,0,0:0:0:0:
256,192,95987,1,8,0:0:0:0:
256,192,96166,1,0,0:0:0:0:
256,192,96256,1,8,0:0:0:0:
256,192,96345,1,0,0:0:0:0:
256,192,96435,1,0,0:0:0:0:
256,192,96525,1,8,0:0:0:0:
256,192,96614,1,8,0:0:0:0:
256,192,96793,1,8,0:0:0:0:
256,192,96883,1,0,0:0:0:0:
256,192,97062,1,8,0:0:0:0:
256,192,97151,1,8,0:0:0:0:
256,192,97241,1,0,0:0:0:0:
256,192,97330,1,0,0:0:0:0:
256,192,97420,1,8,0:0:0:0:
256,192,97599,1,0,0:0:0:0:
256,192,97689,1,8,0:0:0:0:
256,192,97868,1,8,0:0:0:0:
256,192,97957,1,0,0:0:0:0:
256,192,98047,1,8,0:0:0:0:
256,192,98136,1,8,0:0:0:0:
256,192,98226,1,0,0:0:0:0:
256,192,98316,1,0,0:0:0:0:
256,192,98495,1,8,0:0:0:0:
256,192,98584,1,0,0:0:0:0:
256,192,98674,1,8,0:0:0:0:
256,192,98763,1,0,0:0:0:0:
256,192,98853,1,8,0:0:0:0:
256,192,99032,1,0,0:0:0:0:
256,192,99122,1,8,0:0:0:0:
256,192,99301,1,0,0:0:0:0:
256,192,99390,1,0,0:0:0:0:
256,192,99480,1,8,0:0:0:0:
256,192,99569,1,0,0:0:0:0:
256,192,99659,1,8,0:0:0:0:
256,192,99748,1,8,0:0:0:0:
256,192,100286,1,8,0:0:0:0:
256,192,100375,1,8,0:0:0:0:
256,192,100465,1,0,0:0:0:0:
256,192,100554,1,8,0:0:0:0:
256,192,100644,1,0,0:0:0:0:
256,192,100733,1,0,0:0:0:0:
256,192,100913,1,8,0:0:0:0:
256,192,101002,1,0,0:0:0:0:
256,192,101092,1,8,0:0:0:0:
256,192,101181,1,8,0:0:0:0:
256,192,101271,1,0,0:0:0:0:
256,192,101719,1,8,0:0:0:0:
256,192,101808,1,8,0:0:0:0:
256,192,101898,1,0,0:0:0:0:
256,192,101987,1,0,0:0:0:0:
256,192,102077,1,8,0:0:0:0:
256,192,102166,1,0,0:0:0:0:
256,192,102256,1,0,0:0:0:0:
256,192,102345,1,8,0:0:0:0:
256,192,102435,1,0,0:0:0:0:
256,192,102525,1,8,0:0:0:0:
256,192,102614,1,8,0:0:0:0:
256,192,102793,1,8,0:0:0:0:
256,192,102883,1,8,0:0:0:0:
256,192,102972,1,0,0:0:0:0:
256,192,103151,1,8,0:0:0:0:
256,192,103241,1,8,0:0:0:0:
256,192,103420,1,0,0:0:0:0:
256,192,103510,1,0,0:0:0:0:
256,192,103689,1,8,0:0:0:0:
256,192,103778,1,8,0:0:0:0:
256,192,103957,1,0,0:0:0:0:
256,192,104047,1,0,0:0:0:0:
256,192,104584,1,12,0:0:0:0:
256,192,104763,1,0,0:0:0:0:
256,192,104853,1,0,0:0:0:0:
256,192,104942,1,8,0:0:0:0:
256,192,105032,1,0,0:0:0:0:
256,192,105122,1,8,0:0:0:0:
256,192,105211,1,8,0:0:0:0:
256,192,105301,1,0,0:0:0:0:
256,192,105390,1,0,0:0:0:0:
256,192,105480,1,8,0:0:0:0:
256,192,105569,1,0,0:0:0:0:
256,192,105659,1,8,0:0:0:0:
256,192,105838,1,0,0:0:0:0:
256,192,105928,1,0,0:0:0:0:
256,192,106017,1,8,0:0:0:0:
256,192,106107,1,0,0:0:0:0:
256,192,106196,1,8,0:0:0:0:
256,192,106286,1,8,0:0:0:0:
256,192,106375,1,0,0:0:0:0:
256,192,106465,1,0,0:0:0:0:
256,192,106554,1,8,0:0:0:0:
256,192,106644,1,8,0:0:0:0:
256,192,106733,1,0,0:0:0:0:
256,192,106823,1,8,0:0:0:0:
256,192,106913,1,8,0:0:0:0:
256,192,107092,1,0,0:0:0:0:
256,192,107181,1,0,0:0:0:0:
256,192,107271,1,8,0:0:0:0:
256,192,107360,1,0,0:0:0:0:
256,192,107450,1,8,0:0:0:0:
256,192,107539,1,8,0:0:0:0:
256,192,107629,1,0,0:0:0:0:
256,192,107719,1,0,0:0:0:0:
256,192,107808,1,8,0:0:0:0:
256,192,107898,1,0,0:0:0:0:
256,192,107987,1,8,0:0:0:0:
256,192,108077,1,8,0:0:0:0:
256,192,108166,1,0,0:0:0:0:
256,192,108256,1,8,0:0:0:0:
256,192,108345,1,0,0:0:0:0:
256,192,108525,1,8,0:0:0:0:
256,192,108614,1,8,0:0:0:0:
256,192,108704,1,0,0:0:0:0:
256,192,108793,1,0,0:0:0:0:
256,192,108883,1,8,0:0:0:0:
256,192,108972,1,0,0:0:0:0:
256,192,109062,1,8,0:0:0:0:
256,192,109151,1,0,0:0:0:0:
256,192,109241,1,8,0:0:0:0:
256,192,109330,1,0,0:0:0:0:
256,192,109420,1,8,0:0:0:0:
256,192,109510,1,0,0:0:0:0:
256,192,109599,1,8,0:0:0:0:
256,192,109778,1,8,0:0:0:0:
256,192,109868,1,0,0:0:0:0:
256,192,110136,1,0,0:0:0:0:
256,192,110316,1,8,0:0:0:0:
256,192,110405,1,8,0:0:0:0:
256,192,110495,1,0,0:0:0:0:
256,192,110674,1,8,0:0:0:0:
256,192,110763,1,0,0:0:0:0:
256,192,110853,1,8,0:0:0:0:
256,192,110942,1,8,0:0:0:0:
256,192,111032,1,0,0:0:0:0:
256,192,111122,1,0,0:0:0:0:
256,192,111211,1,8,0:0:0:0:
256,192,111748,1,8,0:0:0:0:
256,192,111838,1,8,0:0:0:0:
256,192,111928,1,0,0:0:0:0:
256,192,112107,1,8,0:0:0:0:
256,192,112196,1,0,0:0:0:0:
256,192,112286,1,8,0:0:0:0:
256,192,112375,1,8,0:0:0:0:
256,192,112465,1,0,0:0:0:0:
256,192,112554,1,0,0:0:0:0:
256,192,112644,1,8,0:0:0:0:
256,192,113181,1,8,0:0:0:0:
256,192,113271,1,8,0:0:0:0:
256,192,113360,1,0,0:0:0:0:
256,192,113450,1,0,0:0:0:0:
256,192,113539,1,8,0:0:0:0:
256,192,113629,1,0,0:0:0:0:
256,192,113719,1,8,0:0:0:0:
256,192,113808,1,8,0:0:0:0:
256,192,113898,1,0,0:0:0:0:
256,192,113987,1,0,0:0:0:0:
256,192,114077,1,0,0:0:0:0:
256,192,114166,1,0,0:0:0:0:
256,192,114256,1,8,0:0:0:0:
256,192,114345,1,8,0:0:0:0:
256,192,114435,1,0,0:0:0:0:
256,192,114525,1,0,0:0:0:0:
256,192,114615,1,8,0:0:0:0:
256,192,114704,1,8,0:0:0:0:
256,192,114883,1,0,0:0:0:0:
256,192,114973,1,0,0:0:0:0:
256,192,115152,1,8,0:0:0:0:
256,192,115241,1,8,0:0:0:0:
256,192,115420,1,0,0:0:0:0:
256,192,115510,1,0,0:0:0:0:
256,192,115868,1,8,0:0:0:0:
256,192,115958,1,8,0:0:0:0:
256,192,116137,1,0,0:0:0:0:
256,192,116226,1,0,0:0:0:0:
256,192,116406,1,8,0:0:0:0:
256,192,116495,1,8,0:0:0:0:
256,192,116674,1,0,0:0:0:0:
256,192,116764,1,0,0:0:0:0:
256,192,117122,12,8,118196,0:0:0:0:
256,192,118555,6,0,L|320:192,14,40.4999987640381
256,192,119987,1,8,0:0:0:0:
256,192,120077,1,0,0:0:0:0:
256,192,120166,1,8,0:0:0:0:
256,192,120256,1,0,0:0:0:0:
256,192,120346,1,8,0:0:0:0:
256,192,120435,1,0,0:0:0:0:
256,192,120525,1,8,0:0:0:0:
256,192,120704,1,8,0:0:0:0:
256,192,120793,1,8,0:0:0:0:
256,192,120883,1,0,0:0:0:0:
256,192,120972,1,8,0:0:0:0:
256,192,121062,1,0,0:0:0:0:
256,192,121152,1,0,0:0:0:0:
256,192,121241,1,8,0:0:0:0:
256,192,121420,1,0,0:0:0:0:
256,192,122853,1,8,0:0:0:0:
256,192,123032,1,8,0:0:0:0:
256,192,123211,1,0,0:0:0:0:
256,192,123390,1,0,0:0:0:0:
256,192,123569,1,8,0:0:0:0:
256,192,123749,1,0,0:0:0:0:
256,192,124287,1,8,0:0:0:0:
256,192,124376,1,8,0:0:0:0:
256,192,124466,1,0,0:0:0:0:
256,192,124555,1,8,0:0:0:0:
256,192,124645,1,0,0:0:0:0:
256,192,124734,1,0,0:0:0:0:
256,192,124824,1,8,0:0:0:0:
256,192,124913,1,0,0:0:0:0:
256,192,125003,1,8,0:0:0:0:
256,192,125092,1,8,0:0:0:0:
256,192,125182,1,0,0:0:0:0:
256,192,125272,1,8,0:0:0:0:
256,192,125361,1,0,0:0:0:0:
256,192,125451,1,0,0:0:0:0:
256,192,125540,1,8,0:0:0:0:
256,192,125719,1,8,0:0:0:0:
256,192,125809,1,8,0:0:0:0:
256,192,125898,1,0,0:0:0:0:
256,192,125988,1,8,0:0:0:0:
256,192,126078,1,0,0:0:0:0:
256,192,126167,1,8,0:0:0:0:
256,192,126257,1,0,0:0:0:0:
256,192,126346,1,0,0:0:0:0:
256,192,126436,1,8,0:0:0:0:
256,192,126570,1,0,0:0:0:0:
256,192,126704,1,0,0:0:0:0:
256,192,126794,1,8,0:0:0:0:
256,192,126973,1,8,0:0:0:0:
256,192,127331,1,0,0:0:0:0:
256,192,127421,1,0,0:0:0:0:
256,192,127510,1,8,0:0:0:0:
256,192,127600,1,0,0:0:0:0:
256,192,127689,1,8,0:0:0:0:
256,192,127779,1,0,0:0:0:0:
256,192,127869,1,8,0:0:0:0:
256,192,127958,1,8,0:0:0:0:
256,192,128048,1,0,0:0:0:0:
256,192,128137,1,8,0:0:0:0:
256,192,128227,1,0,0:0:0:0:
256,192,128316,1,0,0:0:0:0:
256,192,128406,1,8,0:0:0:0:
256,192,128585,1,0,0:0:0:0:
256,192,128675,1,0,0:0:0:0:
256,192,128764,1,8,0:0:0:0:
256,192,128943,1,8,0:0:0:0:
256,192,129122,1,0,0:0:0:0:
256,192,129301,1,8,0:0:0:0:
256,192,129481,1,0,0:0:0:0:
256,192,129570,1,0,0:0:0:0:
256,192,129660,1,8,0:0:0:0:
256,192,130018,1,8,0:0:0:0:
256,192,130107,1,0,0:0:0:0:
256,192,130197,1,8,0:0:0:0:
256,192,130286,1,8,0:0:0:0:
256,192,130376,1,0,0:0:0:0:
256,192,130466,1,8,0:0:0:0:
256,192,130555,1,0,0:0:0:0:
256,192,130645,1,0,0:0:0:0:
256,192,130734,1,8,0:0:0:0:
256,192,130824,1,8,0:0:0:0:
256,192,130913,1,0,0:0:0:0:
256,192,131003,1,8,0:0:0:0:
256,192,131092,1,0,0:0:0:0:
256,192,131182,1,0,0:0:0:0:
256,192,131272,1,8,0:0:0:0:
256,192,131451,1,8,0:0:0:0:
256,192,131540,1,8,0:0:0:0:
256,192,131630,1,0,0:0:0:0:
256,192,131719,1,8,0:0:0:0:
256,192,131809,1,0,0:0:0:0:
256,192,131898,1,0,0:0:0:0:
256,192,131988,1,8,0:0:0:0:
256,192,132078,1,0,0:0:0:0:
256,192,132167,1,8,0:0:0:0:
256,192,132301,1,0,0:0:0:0:
256,192,132436,1,0,0:0:0:0:
256,192,132525,1,8,0:0:0:0:
256,192,132704,1,0,0:0:0:0:
256,192,132884,1,8,0:0:0:0:
256,192,132973,1,8,0:0:0:0:
256,192,133063,1,0,0:0:0:0:
256,192,133152,1,8,0:0:0:0:
256,192,133242,1,0,0:0:0:0:
256,192,133331,1,0,0:0:0:0:
256,192,133421,1,8,0:0:0:0:
256,192,133510,1,0,0:0:0:0:
256,192,133600,1,8,0:0:0:0:
256,192,133689,1,8,0:0:0:0:
256,192,133779,1,0,0:0:0:0:
256,192,133869,1,8,0:0:0:0:
256,192,133958,1,8,0:0:0:0:
256,192,134048,1,0,0:0:0:0:
256,192,134137,1,8,0:0:0:0:
256,192,134406,1,12,0:0:0:0:
256,192,134675,1,12,0:0:0:0:
256,192,134943,1,12,0:0:0:0:
256,192,135212,1,12,0:0:0:0:
256,192,135481,1,12,0:0:0:0:
256,192,135749,1,0,0:0:0:0:
256,192,135838,1,0,0:0:0:0:
256,192,136017,1,8,0:0:0:0:
256,192,136107,1,8,0:0:0:0:
256,192,136286,1,0,0:0:0:0:
256,192,136375,1,0,0:0:0:0:
256,192,136554,1,8,0:0:0:0:
256,192,136644,1,8,0:0:0:0:
256,192,137002,1,0,0:0:0:0:
256,192,137092,1,0,0:0:0:0:
256,192,137271,1,8,0:0:0:0:
256,192,137360,1,8,0:0:0:0:
256,192,137540,1,0,0:0:0:0:
256,192,137629,1,0,0:0:0:0:
256,192,137808,1,8,0:0:0:0:
256,192,137898,1,8,0:0:0:0:
256,192,138256,1,0,0:0:0:0:
256,192,138346,1,0,0:0:0:0:
256,192,138525,1,8,0:0:0:0:
256,192,138614,1,8,0:0:0:0:
256,192,138793,1,0,0:0:0:0:
256,192,138883,1,0,0:0:0:0:
256,192,139062,1,8,0:0:0:0:
256,192,139151,1,8,0:0:0:0:
256,192,139510,1,0,0:0:0:0:
256,192,139599,1,0,0:0:0:0:
256,192,139778,1,8,0:0:0:0:
256,192,139868,1,8,0:0:0:0:
256,192,140047,1,0,0:0:0:0:
256,192,140136,1,0,0:0:0:0:
256,192,140315,1,8,0:0:0:0:
256,192,140405,1,8,0:0:0:0:
256,192,140584,1,0,0:0:0:0:
256,192,140674,1,0,0:0:0:0:
256,192,140853,1,8,0:0:0:0:
256,192,140942,1,8,0:0:0:0:
256,192,141121,1,0,0:0:0:0:
256,192,141211,1,0,0:0:0:0:
256,192,141390,1,8,0:0:0:0:
256,192,141480,1,8,0:0:0:0:
256,192,141659,12,8,142554,0:0:0:0:
256,192,142734,5,4,0:0:0:0:
256,192,142913,12,4,145957,0:0:0:0:
