osu file format v14

[General]
AudioFilename: audio.ogg
AudioLeadIn: 0
PreviewTime: 93077
Countdown: 0
SampleSet: Normal
StackLeniency: 0.7
Mode: 1
LetterboxInBreaks: 0
WidescreenStoryboard: 1

[Editor]
DistanceSpacing: 0.8
BeatDivisor: 4
GridSize: 32
TimelineZoom: 3.999999

[Metadata]
Title:Xronial Xero
TitleUnicode:Xroniàl Xéro
Artist:Camellia as "menaXe inXonnu"
ArtistUnicode:かめりあ as ”menaXe inXonnu”
Creator:Cynplytholowazy
Version:EXCEED
Source:SOUND VOLTEX VIVID WAVE
Tags:Electronic Speedcore Drumstep Instrumental SDVX 5 Xronièr Xronier Xéroa Xeroa menace inconnu Masaya Oya 大箭将也 Cametek KamelCamellia かめるかめりあ BEMANI KONAMI Ph0eNiiXZ ler1211 Rinze
BeatmapID:3999736
BeatmapSetID:1935359

[Difficulty]
HPDrainRate:3.3
CircleSize:10
OverallDifficulty:8.8
ApproachRate:10
SliderMultiplier:1.4
SliderTickRate:3

[Events]
//Background and Video events
0,0,"bg.jpg",0,0
//Break Periods
//Storyboard Layer 0 (Background)
//Storyboard Layer 1 (Fail)
//Storyboard Layer 2 (Pass)
//Storyboard Layer 3 (Foreground)
//Storyboard Layer 4 (Overlay)
//Storyboard Sound Samples

[TimingPoints]
705,179.10447761194,7,1,0,90,1,0
705,-90.9090909090909,7,1,0,90,0,1
5719,179.10447761194,4,1,0,90,1,0
5719,-83.3333333333333,4,1,0,90,0,0
5808,-50,4,1,0,30,0,0
6435,-100,4,1,0,30,0,0
7151,-111.111111111111,4,1,0,30,0,0
7778,-100,4,1,0,80,0,0
7868,179.10447761194,4,1,0,80,1,8
7869,179.10447761194,4,1,0,80,1,0
7869,-125,4,1,0,80,0,0
13686,-124.516661597949,4,1,0,80,0,0
13776,-124.031678712079,4,1,0,80,0,0
13865,-123.555785480255,4,1,0,80,0,0
13955,-123.078244438719,4,1,0,80,0,0
14045,-122.604380561259,4,1,0,80,0,0
14134,-122.139356488387,4,1,0,80,0,0
14224,-121.672680959457,4,1,0,80,0,0
14313,-121.21468448655,4,1,0,80,0,0
14403,-120.755034970928,4,1,0,80,0,0
14492,-120.303907988079,4,1,0,80,0,0
14582,-119.851127002049,4,1,0,80,0,0
14671,-119.406716106991,4,1,0,80,0,0
14761,-118.960650838453,4,1,0,80,0,0
14851,-118.517905880407,4,1,0,80,0,0
14940,-118.083309299164,4,1,0,80,0,0
15030,-117.647058823529,4,1,0,80,0,0
15119,-117.21881390593,4,1,0,80,0,0
15209,-116.78891605542,4,1,0,80,0,0
15298,-116.366884566974,4,1,0,80,0,0
15388,-115.943201585825,4,1,0,80,0,0
15477,-115.527249274428,4,1,0,80,0,0
15567,-115.109647361234,4,1,0,80,0,0
15657,-114.69505362574,4,1,0,80,0,0
15746,-114.287992981617,4,1,0,80,0,0
15836,-113.879286367068,4,1,0,80,0,0
15925,-113.477985429205,4,1,0,80,0,0
16015,-113.075041426655,4,1,0,80,0,0
16104,-112.679378808728,4,1,0,80,0,0
16194,-112.28207639569,4,1,0,80,0,0
16283,-111.89193409854,4,1,0,80,0,0
16373,-111.500155617803,4,1,0,80,0,0
16463,-111.111111111111,4,1,0,80,0,0
16507,-110.73306526446,4,1,0,80,0,0
16552,-110.349079140017,4,1,0,80,0,0
16597,-109.967746889879,4,1,0,80,0,0
16642,-109.58904109589,4,1,0,80,0,0
16731,-108.847674065065,4,1,0,80,0,0
16821,-108.108108108108,4,1,0,80,0,0
16865,-107.750188111362,4,1,0,80,0,0
16910,-107.386576677915,4,1,0,80,0,0
16955,-107.025411061286,4,1,0,80,0,0
17000,-106.666666666667,4,1,0,80,0,0
17089,-105.96418528933,4,1,0,80,0,0
17179,-105.263157894737,4,1,0,80,0,0
17224,-104.916111070408,4,1,0,80,0,0
17268,-104.578981961586,4,1,0,80,0,0
17313,-104.236424515941,4,1,0,80,0,0
17358,-103.896103896104,4,1,0,80,0,0
17448,-103.22208606646,4,1,0,80,0,0
17537,-102.564102564103,4,1,0,80,0,0
17582,-102.234596987221,4,1,0,80,0,0
17627,-101.907201821805,4,1,0,80,0,0
17671,-101.589103291714,4,1,0,80,0,0
17716,-101.26582278481,4,1,0,80,0,0
17761,-100.944593260962,4,1,0,80,0,0
17806,-100.625395263861,4,1,0,80,0,0
17851,-100.308209582516,4,1,0,80,0,0
17895,-100,4,1,0,80,0,0
17943,-50,4,1,0,40,0,0
18615,-100,4,1,0,40,0,0
18883,-111.111111111111,4,1,0,80,0,0
19242,-100,4,1,0,90,0,0
19331,-100,4,1,0,90,0,1
28645,-100,4,1,0,90,0,0
28761,-98.3651600494573,4,1,0,90,0,0
28880,-96.7829143011625,4,1,0,90,0,0
29000,-95.2380952380952,4,1,0,90,0,0
29119,-93.7540919209114,4,1,0,90,0,0
29239,-92.3037256671394,4,1,0,90,0,0
29358,-90.9090909090909,4,1,0,90,0,0
29451,-83.3333333333333,4,1,0,90,0,1
29716,-86.2002567394095,4,1,0,90,0,1
29985,-89.2833399813855,4,1,0,90,0,1
30077,-90.293453724605,4,1,0,90,0,1
30254,-92.5951461665747,4,1,0,90,0,1
30522,-96.1483390607102,4,1,0,90,0,1
30794,-100,4,1,0,90,0,0
30970,-105.263157894737,4,1,0,90,0,0
31060,-105.662285136502,4,1,0,90,0,0
31149,-106.059965323297,4,1,0,90,0,0
31239,-106.465169588657,4,1,0,90,0,0
31328,-106.868927901824,4,1,0,90,0,0
31418,-107.280349046112,4,1,0,90,0,0
31507,-107.690325904934,4,1,0,90,0,0
31597,-108.108108108108,4,1,0,90,0,0
31686,-108.524448290783,4,1,0,90,0,0
31776,-108.948740225891,4,1,0,90,0,0
31865,-109.37159303999,4,1,0,90,0,0
31955,-109.80254804956,4,1,0,90,0,0
32045,-110.23691266318,4,1,0,90,0,0
32134,-110.669843791369,4,1,0,90,0,0
32224,-111.111111111111,4,1,0,90,0,0
39477,-110.349607269367,4,1,0,90,0,0
39522,-109.968536566649,4,1,0,90,0,0
39567,-109.590088712144,4,1,0,90,0,0
39657,-108.840953972353,4,1,0,90,0,0
39746,-108.110147114296,4,1,0,90,0,0
39791,-107.744360902256,4,1,0,90,0,0
39836,-107.38104158861,4,1,0,90,0,0
39880,-107.028157442677,4,1,0,90,0,0
39925,-106.669644186393,4,1,0,90,0,0
40015,-105.959775214434,4,1,0,90,0,0
40104,-105.267024168075,4,1,0,90,0,0
40149,-104.920193293308,4,1,0,90,0,0
40194,-104.575640370722,4,1,0,90,0,0
40283,-103.900812064965,4,1,0,90,0,0
40328,-103.562911035629,4,1,0,90,0,0
40373,-103.227200691543,4,1,0,90,0,0
40463,-102.562267391927,4,1,0,90,0,0
40507,-102.240296803653,4,1,0,90,0,0
40552,-101.913092952137,4,1,0,90,0,0
40597,-101.587976747483,4,1,0,90,0,0
40642,-101.26492827362,4,1,0,90,0,0
40731,-100.63202247191,4,1,0,90,0,0
40821,-50,4,1,0,90,0,0
41540,-100,4,1,0,90,0,0
42257,-100,4,1,0,90,0,1
52286,-86.9565217391304,4,1,0,90,0,0
52373,-87.9165814761808,4,1,0,90,0,0
52552,-89.890459068484,4,1,0,90,0,0
52642,-90.9167794316644,4,1,0,90,0,0
52821,-93.0292934100645,4,1,0,90,0,0
52910,-94.1166170548065,4,1,0,90,0,0
53000,-95.2423141667405,4,1,0,90,0,0
53089,-96.3823015197023,4,1,0,90,0,0
53179,-97.5631891818306,4,1,0,90,0,0
53358,-100,4,1,0,90,0,0
53719,-95.2380952380952,4,1,0,90,0,1
53761,-95.6672675078443,4,1,0,90,0,1
53806,-96.100325252322,4,1,0,90,0,1
53851,-96.5373214766909,4,1,0,90,0,1
53895,-96.9684666395994,4,1,0,90,0,1
53985,-97.8624598784402,4,1,0,90,0,1
54074,-98.7628794927461,4,1,0,90,0,1
54164,-99.6904240147483,4,1,0,90,0,1
54209,-100.160760466904,4,1,0,90,0,1
54254,-100.635556023737,4,1,0,90,0,1
54343,-101.587976747483,4,1,0,90,0,1
54433,-102.569608474698,4,1,0,90,0,1
54477,-103.056454512765,4,1,0,90,0,1
54522,-103.559168925023,4,1,0,90,0,1
54567,-104.066811909949,4,1,0,90,0,1
54612,-104.579456303594,4,1,0,90,0,1
54701,-105.608372024468,4,1,0,90,0,1
54791,-106.669644186393,4,1,0,90,0,1
54880,-107.740310514642,4,1,0,90,0,1
54925,-108.289881357213,4,1,0,90,0,1
54970,-108.845087539402,4,1,0,90,0,1
55060,-109.972756225778,4,1,0,90,0,1
55152,-111.111111111111,4,1,0,90,0,0
56585,-95.2380952380952,4,1,0,90,0,1
56627,-95.6672675078443,4,1,0,90,0,1
56672,-96.100325252322,4,1,0,90,0,1
56717,-96.5373214766909,4,1,0,90,0,1
56761,-96.9684666395994,4,1,0,90,0,1
56851,-97.8624598784402,4,1,0,90,0,1
56940,-98.7628794927461,4,1,0,90,0,1
57030,-99.6904240147483,4,1,0,90,0,1
57075,-100.160760466904,4,1,0,90,0,1
57120,-100.635556023737,4,1,0,90,0,1
57209,-101.587976747483,4,1,0,90,0,1
57299,-102.569608474698,4,1,0,90,0,1
57343,-103.056454512765,4,1,0,90,0,1
57388,-103.559168925023,4,1,0,90,0,1
57433,-104.066811909949,4,1,0,90,0,1
57478,-104.579456303594,4,1,0,90,0,1
57567,-105.608372024468,4,1,0,90,0,1
57657,-106.669644186393,4,1,0,90,0,1
57746,-107.740310514642,4,1,0,90,0,1
57791,-108.289881357213,4,1,0,90,0,1
57836,-108.845087539402,4,1,0,90,0,1
57880,-109.39348830108,4,1,0,90,0,1
57926,-109.972756225778,4,1,0,90,0,1
57970,-110.532608276447,4,1,0,90,0,1
58018,-111.111111111111,4,1,0,90,0,0
59451,-100,4,1,0,90,0,1
65182,-66.6666666666667,4,1,0,90,0,0
65898,-111.111111111111,4,1,0,90,0,0
66615,-125,4,1,0,90,0,0
67331,179.10447761194,4,1,0,80,1,0
67331,-117.647058823529,4,1,0,80,0,0
67420,-100,4,1,0,65,0,0
67507,-118.737827870551,4,1,0,65,0,0
67596,-119.287728829082,4,1,0,65,0,0
67775,-120.409278090596,4,1,0,65,0,0
67954,-121.552117246572,4,1,0,65,0,0
68044,-122.134964356879,4,1,0,65,0,0
68133,-122.716858311385,4,1,0,65,0,0
68223,-123.310956192443,4,1,0,65,0,0
68402,-124.509814571407,4,1,0,65,0,0
68581,-125.73221298348,4,1,0,65,0,0
68671,-126.35593967722,4,1,0,65,0,0
68760,-126.978851629056,4,1,0,65,0,0
68939,-128.250458756658,4,1,0,65,0,0
69029,-128.899484941859,4,1,0,65,0,0
69208,-130.210049189453,4,1,0,65,0,0
69387,-131.547537070192,4,1,0,65,0,0
69477,-132.230451535498,4,1,0,65,0,0
69566,-132.91278685483,4,1,0,65,0,0
69745,-134.306671978627,4,1,0,65,0,0
69835,-135.018611883334,4,1,0,65,0,0
69925,-135.738139788257,4,1,0,65,0,0
70014,-136.457254425753,4,1,0,65,0,0
70104,-137.19223909895,4,1,0,65,0,0
70193,-137.926885032851,4,1,0,65,0,0
70372,-139.428515819821,4,1,0,65,0,0
70462,-140.195946524457,4,1,0,65,0,0
70641,-141.747668867948,4,1,0,65,0,0
70820,-143.334125326697,4,1,0,65,0,0
70910,-144.145277110555,4,1,0,65,0,0
70999,-144.956495346014,4,1,0,65,0,0
71089,-145.786166721783,4,1,0,65,0,0
71268,-147.464844905889,4,1,0,65,0,0
71357,-148.313967029839,4,1,0,65,0,0
71447,-149.182632236568,4,1,0,65,0,0
71536,-150.051710369566,4,1,0,65,0,0
71626,-150.940911545097,4,1,0,65,0,0
71805,-152.741131632952,4,1,0,65,0,0
71895,-153.662591162591,4,1,0,65,0,0
72074,-155.528718943783,4,1,0,65,0,0
72253,-157.440729650284,4,1,0,65,0,0
72342,-158.408999820335,4,1,0,65,0,0
72432,-159.400336545816,4,1,0,65,0,0
72522,-160.40415914466,4,1,0,65,0,0
72701,-162.438706385873,4,1,0,65,0,0
72790,-163.469629333828,4,1,0,65,0,0
72880,-164.525528585988,4,1,0,65,0,0
72969,-165.583196093727,4,1,0,65,0,0
73059,-166.666666666667,4,1,0,65,0,0
73238,-164.487073779132,4,1,0,65,0,0
73327,-163.424447301837,4,1,0,65,0,0
73507,-161.316737635113,4,1,0,65,0,0
73686,-159.273969418589,4,1,0,65,0,0
73775,-158.277427389226,4,1,0,65,0,0
73865,-157.282289774655,4,1,0,65,0,0
73954,-156.310438879246,4,1,0,65,0,0
74133,-154.391739650072,4,1,0,65,0,0
74313,-152.509241518125,4,1,0,65,0,0
74402,-151.595309779629,4,1,0,65,0,0
74492,-150.682181067205,4,1,0,65,0,0
74671,-148.898378746079,4,1,0,65,0,0
74760,-148.027088205735,4,1,0,65,0,0
74939,-146.305235796509,4,1,0,65,0,0
75119,-144.613690585429,4,1,0,65,0,0
75208,-143.791684534182,4,1,0,65,0,0
75298,-142.96989104896,4,1,0,65,0,0
75387,-142.166414086743,4,1,0,65,0,0
75566,-140.577473708623,4,1,0,65,0,0
75745,-139.023658721617,4,1,0,65,0,0
75835,-138.255316162538,4,1,0,65,0,0
75925,-137.495419727452,4,1,0,65,0,0
76104,-136.008629989213,4,1,0,65,0,0
76193,-135.281292382702,4,1,0,65,0,0
76372,-133.841750813157,4,1,0,65,0,0
76551,-132.432523276529,4,1,0,65,0,0
76641,-131.735125466005,4,1,0,65,0,0
76730,-131.052662215089,4,1,0,65,0,0
76820,-130.369684085137,4,1,0,65,0,0
76999,-129.032258064516,4,1,0,65,0,0
77271,-100,4,1,0,80,0,0
77357,-90.9090909090909,4,1,0,80,0,0
77447,-91.7468769199263,4,1,0,80,0,0
77626,-93.4598936059247,4,1,0,80,0,0
77716,-94.345582815626,4,1,0,80,0,0
77895,-96.1579738141232,4,1,0,80,0,0
77984,-97.0852746776465,4,1,0,80,0,0
78074,-98.0413611992559,4,1,0,80,0,0
78163,-99.0055248618785,4,1,0,80,0,0
78253,-100,4,1,0,80,0,0
78793,-102.564102564103,4,1,0,80,0,0
87390,-95.2380952380952,4,1,0,80,0,1
87477,-96.0741282613997,4,1,0,80,0,1
87566,-96.9154326757515,4,1,0,80,0,1
87656,-97.7813073906785,4,1,0,80,0,1
87745,-98.6529120136211,4,1,0,80,0,1
87835,-99.5502551922785,4,1,0,80,0,1
87925,-100.464072619715,4,1,0,80,0,1
88014,-101.384385775307,4,1,0,80,0,1
88104,-102.332346371617,4,1,0,80,0,1
88193,-103.287369580035,4,1,0,80,0,1
88283,-104.271423278463,4,1,0,80,0,1
88372,-105.263157894737,4,1,0,80,0,1
88465,-100,4,1,0,80,0,0
88823,-95.2380952380952,4,1,0,80,0,1
88910,-96.0741282613997,4,1,0,80,0,1
88999,-96.9154326757515,4,1,0,80,0,1
89089,-97.7813073906785,4,1,0,80,0,1
89133,-98.2102796749589,4,1,0,80,0,1
89178,-98.6529120136211,4,1,0,80,0,1
89268,-99.5502551922785,4,1,0,80,0,1
89357,-100.453826933864,4,1,0,80,0,1
89402,-100.916961221249,4,1,0,80,0,1
89447,-101.384385775307,4,1,0,80,0,1
89492,-101.856160488082,4,1,0,80,0,1
89536,-102.321716096193,4,1,0,80,0,1
89626,-103.287369580035,4,1,0,80,0,1
89671,-103.777063688563,4,1,0,80,0,1
89716,-104.271423278463,4,1,0,80,0,1
89805,-105.263157894737,4,1,0,80,0,1
89898,-100,4,1,0,80,0,0
90256,-105.263157894737,4,1,0,80,0,1
90298,-104.743805277392,4,1,0,80,0,1
90342,-104.240925292791,4,1,0,80,0,1
90387,-103.731586376633,4,1,0,80,0,1
90432,-103.227200691543,4,1,0,80,0,1
90477,-102.727696333202,4,1,0,80,0,1
90522,-102.233002782336,4,1,0,80,0,1
90566,-101.75388766598,4,1,0,80,0,1
90611,-101.268506413201,4,1,0,80,0,1
90656,-100.787733858489,4,1,0,80,0,1
90701,-100.31150467257,4,1,0,80,0,1
90745,-99.8501898756227,4,1,0,80,0,1
90790,-99.3827588598377,4,1,0,80,0,1
90835,-98.9196838435785,4,1,0,80,0,1
90880,-98.4609042187715,4,1,0,80,0,1
90925,-98.0063604965291,4,1,0,80,0,1
90969,-97.5659574468085,4,1,0,80,0,1
91014,-97.1196204676381,4,1,0,80,0,1
91059,-96.6773486254006,4,1,0,80,0,1
91104,-96.2390866353257,4,1,0,80,0,1
91148,-95.8143888740305,4,1,0,80,0,1
91193,-95.3838985589243,4,1,0,80,0,1
91238,-94.9572592936187,4,1,0,80,0,1
91283,-94.5344196325494,4,1,0,80,0,1
91327,-94.1246017931623,4,1,0,80,0,1
91372,-93.709128956317,4,1,0,80,0,1
91417,-93.2973078550734,4,1,0,80,0,1
91462,-92.8890905555195,4,1,0,80,0,1
91507,-92.4844299590177,4,1,0,80,0,1
91551,-92.0921564217088,4,1,0,80,0,1
91596,-91.6943946762221,4,1,0,80,0,1
91641,-91.3000541556497,4,1,0,80,0,1
91689,-50,4,1,0,80,0,0
92405,-100,4,1,0,80,0,0
93032,-100,4,1,0,90,0,0
93122,-95.2380952380952,4,1,0,90,0,1
98850,-86.9565217391304,4,1,0,90,0,1
98939,-87.2994770894266,4,1,0,90,0,1
98984,-87.4739132365348,4,1,0,90,0,1
99029,-87.6490478732871,4,1,0,90,0,1
99074,-87.824885203513,4,1,0,90,0,1
99119,-88.0014294648441,4,1,0,90,0,1
99208,-88.3526931874243,4,1,0,90,0,1
99253,-88.5313679669243,4,1,0,90,0,1
99298,-88.7107668753096,4,1,0,90,0,1
99342,-88.8868835446465,4,1,0,90,0,1
99387,-89.067727642644,4,1,0,90,0,1
99477,-89.4316324677683,4,1,0,90,0,1
99522,-89.6147022699359,4,1,0,90,0,1
99566,-89.7944300104836,4,1,0,90,0,1
99656,-90.1643095793858,4,1,0,90,0,1
99701,-90.3503944230416,4,1,0,90,0,1
99745,-90.5330882352941,4,1,0,90,0,1
99790,-90.7206999769744,4,1,0,90,0,1
99835,-90.9090909090909,4,1,0,90,0,1
99928,-100,4,1,0,90,0,0
100286,-86.9565217391304,4,1,0,90,0,1
100327,-87.1257352615984,4,1,0,90,0,1
100372,-87.2994770894266,4,1,0,90,0,1
100417,-87.4739132365348,4,1,0,90,0,1
100462,-87.6490478732871,4,1,0,90,0,1
100551,-87.9974985482646,4,1,0,90,0,1
100641,-88.3526931874243,4,1,0,90,0,1
100730,-88.7067723342939,4,1,0,90,0,1
100820,-89.067727642644,4,1,0,90,0,1
100910,-89.4316324677683,4,1,0,90,0,1
100954,-89.6106259097525,4,1,0,90,0,1
100999,-89.7944300104836,4,1,0,90,0,1
101044,-89.9789896775372,4,1,0,90,0,1
101089,-90.1643095793858,4,1,0,90,0,1
101133,-90.3462508598945,4,1,0,90,0,1
101178,-90.5330882352941,4,1,0,90,0,1
101268,-90.9090909090909,4,1,0,90,0,1
101360,-100,4,1,0,90,0,0
101719,-95.2380952380952,4,1,0,90,0,1
101760,-94.9602122015915,4,1,0,90,0,1
101805,-94.6776859504132,4,1,0,90,0,1
101850,-94.3968358602505,4,1,0,90,0,1
101895,-94.1176470588235,4,1,0,90,0,1
101984,-93.5703084161004,4,1,0,90,0,1
102074,-93.0232558139535,4,1,0,90,0,1
102163,-92.4885358134728,4,1,0,90,0,1
102253,-91.9540229885058,4,1,0,90,0,1
102342,-91.4314902311327,4,1,0,90,0,1
102432,-90.9090909090909,4,1,0,90,0,1
102477,-90.6501234411597,4,1,0,90,0,1
102522,-90.3926271935362,4,1,0,90,0,1
102566,-90.142263628352,4,1,0,90,0,1
102611,-89.8876404494382,4,1,0,90,0,1
102656,-89.6344516775163,4,1,0,90,0,1
102701,-89.3826852256414,4,1,0,90,0,1
102745,-89.1378773731715,4,1,0,90,0,1
102790,-88.8888888888889,4,1,0,90,0,1
102835,-88.6412875270814,4,1,0,90,0,1
102880,-88.3950617283951,4,1,0,90,0,1
102925,-88.1502000615574,4,1,0,90,0,1
102969,-87.9120879120879,4,1,0,90,0,1
103014,-87.6698910248561,4,1,0,90,0,1
103059,-87.4290249709995,4,1,0,90,0,1
103104,-87.1894788114954,4,1,0,90,0,1
103148,-76.9230769230769,4,1,0,90,0,1
103238,-77.6734104046243,4,1,0,90,0,1
103417,-79.2101094204767,4,1,0,90,0,1
103507,-80.0059539314554,4,1,0,90,0,1
103686,-81.6373025516403,4,1,0,90,0,1
103775,-82.4734358816986,4,1,0,90,0,1
103865,-83.3365634326912,4,1,0,90,0,1
103954,-84.2080526398245,4,1,0,90,0,1
104044,-85.1080674530916,4,1,0,90,0,1
104226,-95.2380952380952,4,1,0,90,0,0
104584,-95.2380952380952,4,1,0,90,0,1
109868,-80,4,1,0,90,0,1
110313,-86.9565217391304,4,1,0,90,0,1
110357,-87.2956086320734,4,1,0,90,0,1
110402,-87.6451483738933,4,1,0,90,0,1
110447,-87.9974985482646,4,1,0,90,0,1
110492,-88.3526931874243,4,1,0,90,0,1
110581,-89.063700890637,4,1,0,90,0,1
110671,-89.7944300104836,4,1,0,90,0,1
110760,-90.5289278985341,4,1,0,90,0,1
110805,-90.9048959438882,4,1,0,90,0,1
110850,-91.2839998146518,4,1,0,90,0,1
110895,-91.6662789074496,4,1,0,90,0,1
110939,-92.0431715180115,4,1,0,90,0,1
110984,-92.4318491061793,4,1,0,90,0,1
111029,-92.8238232106677,4,1,0,90,0,1
111119,-93.617830157297,4,1,0,90,0,1
111208,-94.4164869398514,4,1,0,90,0,1
111298,-95.2380952380952,4,1,0,90,0,1
111390,-100,4,1,0,90,0,0
111748,-86.9565217391304,4,1,0,90,0,1
111790,-87.3033458896521,4,1,0,90,0,1
111835,-87.6529477196885,4,1,0,90,0,1
111880,-88.0053607326335,4,1,0,90,0,1
111925,-88.3606189728639,4,1,0,90,0,1
112014,-89.0717547587828,4,1,0,90,0,1
112104,-89.8026165838538,4,1,0,90,0,1
112193,-90.5372489544556,4,1,0,90,0,1
112238,-90.9132862614795,4,1,0,90,0,1
112283,-91.292460262292,4,1,0,90,0,1
112372,-92.0517732816224,4,1,0,90,0,1
112462,-92.8325715093539,4,1,0,90,0,1
112507,-93.2279589229095,4,1,0,90,0,1
112551,-93.617830157297,4,1,0,90,0,1
112596,-94.0199494105856,4,1,0,90,0,1
112641,-94.4255380338398,4,1,0,90,0,1
112730,-95.2380952380952,4,1,0,90,0,1
112823,-100,4,1,0,90,0,0
113181,-86.9565217391304,4,1,0,90,0,1
113357,-95.2380952380952,4,1,0,90,0,1
113402,-94.9016837395502,4,1,0,90,0,1
113447,-94.5676405021706,4,1,0,90,0,1
113492,-94.2359406056354,4,1,0,90,0,1
113536,-93.9138540412475,4,1,0,90,0,1
113581,-93.5867167240779,4,1,0,90,0,1
113626,-93.261850580476,4,1,0,90,0,1
113671,-92.9392320405888,4,1,0,90,0,1
113716,-92.6188378595779,4,1,0,90,0,1
113760,-92.3076923076923,4,1,0,90,0,1
113805,-91.9916302073426,4,1,0,90,0,1
113850,-91.6777251184834,4,1,0,90,0,1
113895,-91.3659550349518,4,1,0,90,0,1
113939,-91.063156705457,4,1,0,90,0,1
113984,-90.7555455466727,4,1,0,90,0,1
114029,-90.4500056110425,4,1,0,90,0,1
114074,-90.1465160496589,4,1,0,90,0,1
114119,-89.8450562924981,4,1,0,90,0,1
114163,-89.5522388059701,4,1,0,90,0,1
114208,-89.2547340445166,4,1,0,90,0,1
114253,-88.9591994407858,4,1,0,90,0,1
114298,-88.665615488981,4,1,0,90,0,1
114342,-88.3804232610841,4,1,0,90,0,1
114387,-88.0906408248024,4,1,0,90,0,1
114432,-87.8027524601474,4,1,0,90,0,1
114477,-87.5167396576062,4,1,0,90,0,1
114522,-87.2325841480573,4,1,0,90,0,1
114566,-86.9565217391304,4,1,0,90,0,1
114614,179.10447761194,4,1,0,90,1,9
114615,179.10447761194,7,1,0,90,1,0
114615,-80,7,1,0,90,0,0
117032,-100,7,1,0,60,0,0
117122,179.10447761194,4,1,0,60,1,0
117122,-50,4,1,0,60,0,0
117838,-100,4,1,0,60,0,0
118465,-100,4,1,0,70,0,0
118554,179.10447761194,4,1,0,70,1,8
118555,179.10447761194,4,1,0,70,1,0
118555,-111.111111111111,4,1,0,70,0,0
119987,-100,4,1,0,80,0,0
122137,-117.647058823529,4,1,0,80,0,0
122850,-142.857142857143,4,1,0,80,0,0
122940,-140.113798008535,4,1,0,80,0,0
123029,-137.502617435611,4,1,0,80,0,0
123119,-134.95923819963,4,1,0,80,0,0
123208,-132.534983853606,4,1,0,80,0,0
123298,-130.170477071495,4,1,0,80,0,0
123387,-127.913771832998,4,1,0,80,0,0
123477,-125.709910024887,4,1,0,80,0,0
123566,-123.603965365792,4,1,0,80,0,0
123656,-121.544916090819,4,1,0,80,0,0
123746,-119.553343852409,4,1,0,80,0,0
123835,-117.647058823529,4,1,0,80,0,0
124196,-100,4,1,0,90,0,0
124286,179.10447761194,4,1,0,90,1,8
124287,179.10447761194,4,1,0,90,1,1
124287,-90.9090909090909,4,1,0,90,0,1
127152,-90.9090909090909,4,1,0,90,0,0
127331,-90.9090909090909,4,1,0,90,0,1
128585,-86.9565217391304,4,1,0,90,0,0
128627,-87.2050557337483,4,1,0,90,0,0
128672,-87.4550144909074,4,1,0,90,0,0
128716,-87.7008080227396,4,1,0,90,0,0
128761,-87.9536209602511,4,1,0,90,0,0
128806,-88.2078956666988,4,1,0,90,0,0
128851,-88.4636448568023,4,1,0,90,0,0
128895,-88.7151487739476,4,1,0,90,0,0
128940,-88.9738521854648,4,1,0,90,0,0
129119,-90.0180298311752,4,1,0,90,0,0
129164,-90.2843991451586,4,1,0,90,0,0
129209,-90.5523495465787,4,1,0,90,0,0
129254,-90.8218951546221,4,1,0,90,0,0
129298,-91.0870069990381,4,1,0,90,0,0
129478,-92.1878671903851,4,1,0,90,0,0
129522,-92.4610256237584,4,1,0,90,0,0
129567,-92.7420716673984,4,1,0,90,0,0
129612,-93.0248314644805,4,1,0,90,0,0
129657,-93.3093207380475,4,1,0,90,0,0
129716,-93.6849646890246,4,1,0,90,0,0
129776,-94.0700900962625,4,1,0,90,0,0
129836,-94.4583949640535,4,1,0,90,0,0
129895,-94.8433668359065,4,1,0,90,0,0
129955,-95.2380952380952,4,1,0,90,0,0
130018,-90.9090909090909,4,1,0,90,0,1
134227,-90.9090909090909,4,1,0,90,0,0
134406,-76.9230769230769,4,1,0,90,0,1
134672,-79.3688316293363,4,1,0,90,0,1
134940,-81.9652120842234,4,1,0,90,0,1
135030,-82.8756556618328,4,1,0,90,0,1
135209,-84.7479018110683,4,1,0,90,0,1
135481,-87.7261741459272,4,1,0,90,0,0
135749,179.10447761194,7,1,0,90,1,1
135749,-90.9090909090909,7,1,0,90,0,1
139510,179.10447761194,6,1,0,90,1,1
139510,-90.9090909090909,6,1,0,90,0,1
139596,-90.568105192178,6,1,0,90,0,1
139775,-89.8899903793868,6,1,0,90,0,1
139865,-89.5528607742634,6,1,0,90,0,1
140044,-88.8898080741231,6,1,0,90,0,1
140133,-88.5637749845456,6,1,0,90,0,1
140312,-87.9152348224513,6,1,0,90,0,1
140402,-87.5927284584658,6,1,0,90,0,1
140581,-86.9582810666451,6,1,0,90,0,1
140671,-86.6427448292545,6,1,0,90,0,1
140850,-86.0219357937715,6,1,0,90,0,1
140939,-85.7165649555263,6,1,0,90,0,1
141118,-85.1089108910891,6,1,0,90,0,1
141208,-84.8066298342541,6,1,0,90,0,1
141387,-84.2117637838473,6,1,0,90,0,1
141477,-83.9158108477488,6,1,0,90,0,1
141659,-90.9090909090909,6,1,0,90,0,0
141715,-91.5952411411027,6,1,0,90,0,0
141775,-92.3037256671394,6,1,0,90,0,0
141835,-93.0232558139535,6,1,0,90,0,0
141895,-93.7540919209114,6,1,0,90,0,0
141954,-94.484032726313,6,1,0,90,0,0
142014,-95.2380952380952,6,1,0,90,0,0
142074,-96.0042906945562,6,1,0,90,0,0
142133,-96.7698337613191,6,1,0,90,0,0
142193,-97.5609756097561,6,1,0,90,0,0
142253,-98.3651600494573,6,1,0,90,0,0
142312,-99.1689750692521,6,1,0,90,0,0
142372,-100,6,1,0,90,0,0
142733,179.10447761194,8,1,0,90,1,8
142734,179.10447761194,8,1,0,90,1,1
142734,-80,8,1,0,90,0,1
142823,-33.3333333333333,8,1,0,90,0,1
144166,-80,8,1,0,90,0,1
145957,-90.9090909090909,8,1,0,90,0,0

[HitObjects]
256,192,705,5,12,0:0:0:0:
256,192,794,1,12,0:0:0:0:
256,192,973,1,4,0:0:0:0:
256,192,1063,1,4,0:0:0:0:
256,192,1242,1,12,0:0:0:0:
256,192,1331,1,12,0:0:0:0:
256,192,1510,1,4,0:0:0:0:
256,192,1600,1,4,0:0:0:0:
256,192,1958,1,12,0:0:0:0:
256,192,2048,1,12,0:0:0:0:
256,192,2227,1,4,0:0:0:0:
256,192,2316,1,4,0:0:0:0:
256,192,2496,1,12,0:0:0:0:
256,192,2585,1,12,0:0:0:0:
256,192,2764,1,4,0:0:0:0:
256,192,2854,1,4,0:0:0:0:
256,192,3212,1,12,0:0:0:0:
256,192,3302,1,12,0:0:0:0:
256,192,3481,1,4,0:0:0:0:
256,192,3570,1,4,0:0:0:0:
256,192,3750,1,12,0:0:0:0:
256,192,3839,1,12,0:0:0:0:
256,192,4018,1,4,0:0:0:0:
256,192,4108,1,4,0:0:0:0:
256,192,4466,1,12,0:0:0:0:
256,192,4556,1,12,0:0:0:0:
256,192,4735,1,4,0:0:0:0:
256,192,4824,1,4,0:0:0:0:
256,192,5004,1,12,0:0:0:0:
256,192,5093,1,12,0:0:0:0:
256,192,5272,1,4,0:0:0:0:
256,192,5362,1,4,0:0:0:0:
256,192,5719,1,12,0:0:0:0:
256,192,5898,8,0,7689,0:0:0:0:
256,192,7869,5,12,0:0:0:0:
256,192,8048,1,0,0:0:0:0:
256,192,8137,1,8,0:0:0:0:
256,192,8227,1,0,0:0:0:0:
256,192,8406,1,0,0:0:0:0:
256,192,8451,1,0,0:0:0:0:
256,192,8495,1,0,0:0:0:0:
256,192,8585,1,8,0:0:0:0:
256,192,8764,1,0,0:0:0:0:
256,192,8854,1,8,0:0:0:0:
256,192,8943,1,0,0:0:0:0:
256,192,9122,1,8,0:0:0:0:
256,192,9301,1,0,0:0:0:0:
256,192,9391,1,0,0:0:0:0:
256,192,9480,1,8,0:0:0:0:
256,192,9570,1,0,0:0:0:0:
256,192,9660,1,8,0:0:0:0:
256,192,9749,1,8,0:0:0:0:
256,192,9839,1,0,0:0:0:0:
256,192,9928,1,0,0:0:0:0:
256,192,10018,1,8,0:0:0:0:
256,192,10197,1,0,0:0:0:0:
256,192,10242,1,0,0:0:0:0:
256,192,10286,1,0,0:0:0:0:
256,192,10376,1,8,0:0:0:0:
256,192,10555,1,0,0:0:0:0:
256,192,10734,1,8,0:0:0:0:
256,192,10913,1,0,0:0:0:0:
256,192,11003,1,8,0:0:0:0:
256,192,11092,1,0,0:0:0:0:
256,192,11271,1,0,0:0:0:0:
256,192,11316,1,0,0:0:0:0:
256,192,11361,1,0,0:0:0:0:
256,192,11451,1,8,0:0:0:0:
256,192,11630,1,0,0:0:0:0:
256,192,11719,1,8,0:0:0:0:
256,192,11809,1,0,0:0:0:0:
256,192,11988,1,8,0:0:0:0:
256,192,12167,1,0,0:0:0:0:
256,192,12257,1,0,0:0:0:0:
256,192,12346,1,8,0:0:0:0:
256,192,12436,1,0,0:0:0:0:
256,192,12525,1,8,0:0:0:0:
256,192,12615,1,8,0:0:0:0:
256,192,12704,1,0,0:0:0:0:
256,192,12794,1,0,0:0:0:0:
256,192,12883,1,8,0:0:0:0:
256,192,12973,1,8,0:0:0:0:
256,192,13063,1,0,0:0:0:0:
256,192,13152,1,8,0:0:0:0:
256,192,13331,1,0,0:0:0:0:
256,192,13376,1,0,0:0:0:0:
256,192,13421,1,8,0:0:0:0:
256,192,13510,1,0,0:0:0:0:
256,192,13600,1,8,0:0:0:0:
256,192,13689,1,8,0:0:0:0:
256,192,13779,1,0,0:0:0:0:
256,192,13868,1,0,0:0:0:0:
256,192,13958,1,8,0:0:0:0:
256,192,14048,1,0,0:0:0:0:
256,192,14137,1,0,0:0:0:0:
256,192,14227,1,0,0:0:0:0:
256,192,14316,1,8,0:0:0:0:
256,192,14406,1,8,0:0:0:0:
256,192,14495,1,0,0:0:0:0:
256,192,14585,1,0,0:0:0:0:
256,192,14674,1,8,0:0:0:0:
256,192,14764,1,0,0:0:0:0:
256,192,14854,1,0,0:0:0:0:
256,192,14943,1,0,0:0:0:0:
256,192,15033,1,8,0:0:0:0:
256,192,15122,1,8,0:0:0:0:
256,192,15212,1,0,0:0:0:0:
256,192,15301,1,0,0:0:0:0:
256,192,15391,1,8,0:0:0:0:
256,192,15480,1,0,0:0:0:0:
256,192,15570,1,0,0:0:0:0:
256,192,15660,1,0,0:0:0:0:
256,192,15749,1,8,0:0:0:0:
256,192,15839,1,8,0:0:0:0:
256,192,15928,1,0,0:0:0:0:
256,192,16018,1,0,0:0:0:0:
256,192,16107,1,8,0:0:0:0:
256,192,16197,1,0,0:0:0:0:
256,192,16286,1,0,0:0:0:0:
256,192,16376,1,0,0:0:0:0:
256,192,16466,1,8,0:0:0:0:
256,192,16510,1,8,0:0:0:0:
256,192,16555,1,0,0:0:0:0:
256,192,16600,1,0,0:0:0:0:
256,192,16645,1,8,0:0:0:0:
256,192,16734,1,0,0:0:0:0:
256,192,16824,1,8,0:0:0:0:
256,192,16868,1,8,0:0:0:0:
256,192,16913,1,8,0:0:0:0:
256,192,16958,1,8,0:0:0:0:
256,192,17003,1,0,0:0:0:0:
256,192,17092,1,0,0:0:0:0:
256,192,17182,1,8,0:0:0:0:
256,192,17227,1,0,0:0:0:0:
256,192,17271,1,0,0:0:0:0:
256,192,17316,1,0,0:0:0:0:
256,192,17361,1,8,0:0:0:0:
256,192,17451,1,0,0:0:0:0:
256,192,17540,1,8,0:0:0:0:
256,192,17585,1,8,0:0:0:0:
256,192,17630,1,0,0:0:0:0:
256,192,17674,1,0,0:0:0:0:
256,192,17719,1,8,0:0:0:0:
256,192,17764,1,8,0:0:0:0:
256,192,17809,1,8,0:0:0:0:
256,192,17854,1,8,0:0:0:0:
256,192,17898,1,0,0:0:0:0:
256,192,17988,8,0,18794,0:0:0:0:
256,192,18973,5,4,0:0:0:0:
256,192,19331,1,12,0:0:0:0:
256,192,19421,1,0,0:0:0:0:
256,192,19466,1,0,0:0:0:0:
256,192,19510,1,8,0:0:0:0:
256,192,19600,1,0,0:0:0:0:
256,192,19689,1,8,0:0:0:0:
256,192,19734,1,8,0:0:0:0:
256,192,19779,1,8,0:0:0:0:
256,192,19824,1,8,0:0:0:0:
256,192,19868,1,0,0:0:0:0:
256,192,19958,1,8,0:0:0:0:
256,192,20048,1,0,0:0:0:0:
256,192,20092,1,0,0:0:0:0:
256,192,20137,1,0,0:0:0:0:
256,192,20182,1,0,0:0:0:0:
256,192,20227,1,8,0:0:0:0:
256,192,20316,1,0,0:0:0:0:
256,192,20406,1,8,0:0:0:0:
256,192,20451,1,8,0:0:0:0:
256,192,20495,1,0,0:0:0:0:
256,192,20540,1,0,0:0:0:0:
256,192,20585,1,8,0:0:0:0:
256,192,20674,1,0,0:0:0:0:
256,192,20719,1,0,0:0:0:0:
256,192,20764,1,8,0:0:0:0:
256,192,20809,1,8,0:0:0:0:
256,192,20854,1,0,0:0:0:0:
256,192,20898,1,0,0:0:0:0:
256,192,20943,1,8,0:0:0:0:
256,192,21033,1,0,0:0:0:0:
256,192,21122,1,8,0:0:0:0:
256,192,21212,1,8,0:0:0:0:
256,192,21301,1,0,0:0:0:0:
256,192,21391,1,8,0:0:0:0:
256,192,21436,1,0,0:0:0:0:
256,192,21480,1,8,0:0:0:0:
256,192,21525,1,8,0:0:0:0:
256,192,21570,1,0,0:0:0:0:
256,192,21615,1,0,0:0:0:0:
256,192,21660,1,8,0:0:0:0:
256,192,21749,1,0,0:0:0:0:
256,192,21794,1,0,0:0:0:0:
256,192,21839,1,8,0:0:0:0:
256,192,21898,1,8,0:0:0:0:
256,192,21958,1,0,0:0:0:0:
256,192,22018,1,8,0:0:0:0:
256,192,22077,1,0,0:0:0:0:
256,192,22137,1,0,0:0:0:0:
256,192,22197,1,8,0:0:0:0:
256,192,22242,1,8,0:0:0:0:
256,192,22286,1,0,0:0:0:0:
256,192,22331,1,0,0:0:0:0:
256,192,22376,1,8,0:0:0:0:
256,192,22466,1,0,0:0:0:0:
256,192,22555,1,8,0:0:0:0:
256,192,22600,1,8,0:0:0:0:
256,192,22645,1,8,0:0:0:0:
256,192,22689,1,8,0:0:0:0:
256,192,22734,1,0,0:0:0:0:
256,192,22824,1,8,0:0:0:0:
256,192,22913,1,0,0:0:0:0:
256,192,22958,1,0,0:0:0:0:
256,192,23003,1,0,0:0:0:0:
256,192,23048,1,0,0:0:0:0:
256,192,23092,1,8,0:0:0:0:
256,192,23182,1,0,0:0:0:0:
256,192,23271,1,8,0:0:0:0:
256,192,23316,1,8,0:0:0:0:
256,192,23361,1,8,0:0:0:0:
256,192,23451,1,0,0:0:0:0:
256,192,23630,1,8,0:0:0:0:
256,192,23674,1,8,0:0:0:0:
256,192,23719,1,0,0:0:0:0:
256,192,23764,1,0,0:0:0:0:
256,192,23809,1,8,0:0:0:0:
256,192,23898,1,0,0:0:0:0:
256,192,23988,1,8,0:0:0:0:
256,192,24077,1,8,0:0:0:0:
256,192,24167,1,0,0:0:0:0:
256,192,24212,1,0,0:0:0:0:
256,192,24257,1,0,0:0:0:0:
256,192,24301,1,0,0:0:0:0:
256,192,24346,1,8,0:0:0:0:
256,192,24436,1,0,0:0:0:0:
256,192,24480,1,0,0:0:0:0:
256,192,24525,1,8,0:0:0:0:
256,192,24570,1,8,0:0:0:0:
256,192,24615,1,0,0:0:0:0:
256,192,24704,1,8,0:0:0:0:
256,192,24749,1,8,0:0:0:0:
256,192,24794,1,8,0:0:0:0:
256,192,24839,1,8,0:0:0:0:
256,192,24883,1,0,0:0:0:0:
256,192,24973,1,0,0:0:0:0:
256,192,25063,1,8,0:0:0:0:
256,192,25152,1,0,0:0:0:0:
256,192,25197,1,0,0:0:0:0:
256,192,25241,1,8,0:0:0:0:
256,192,25331,1,0,0:0:0:0:
256,192,25420,1,8,0:0:0:0:
256,192,25510,1,8,0:0:0:0:
256,192,25599,1,0,0:0:0:0:
256,192,25689,1,8,0:0:0:0:
256,192,25779,1,0,0:0:0:0:
256,192,25823,1,0,0:0:0:0:
256,192,25868,1,0,0:0:0:0:
256,192,25913,1,0,0:0:0:0:
256,192,25958,1,8,0:0:0:0:
256,192,26047,1,0,0:0:0:0:
256,192,26137,1,8,0:0:0:0:
256,192,26182,1,8,0:0:0:0:
256,192,26226,1,0,0:0:0:0:
256,192,26271,1,0,0:0:0:0:
256,192,26316,1,8,0:0:0:0:
256,192,26405,1,0,0:0:0:0:
256,192,26450,1,0,0:0:0:0:
256,192,26495,1,8,0:0:0:0:
256,192,26540,1,8,0:0:0:0:
256,192,26585,1,0,0:0:0:0:
256,192,26629,1,0,0:0:0:0:
256,192,26674,1,8,0:0:0:0:
256,192,26764,1,0,0:0:0:0:
256,192,26853,1,8,0:0:0:0:
256,192,26943,1,8,0:0:0:0:
256,192,27032,1,0,0:0:0:0:
256,192,27122,1,8,0:0:0:0:
256,192,27167,1,0,0:0:0:0:
256,192,27211,1,8,0:0:0:0:
256,192,27256,1,8,0:0:0:0:
256,192,27301,1,0,0:0:0:0:
256,192,27346,1,0,0:0:0:0:
256,192,27391,1,8,0:0:0:0:
256,192,27480,1,0,0:0:0:0:
256,192,27525,1,0,0:0:0:0:
256,192,27570,1,8,0:0:0:0:
256,192,27629,1,8,0:0:0:0:
256,192,27689,1,0,0:0:0:0:
256,192,27749,1,8,0:0:0:0:
256,192,27808,1,0,0:0:0:0:
256,192,27868,1,0,0:0:0:0:
256,192,27928,1,8,0:0:0:0:
256,192,27973,1,8,0:0:0:0:
256,192,28017,1,0,0:0:0:0:
256,192,28062,1,0,0:0:0:0:
256,192,28107,1,8,0:0:0:0:
256,192,28197,1,0,0:0:0:0:
256,192,28242,1,0,0:0:0:0:
256,192,28286,1,8,0:0:0:0:
256,192,28331,1,8,0:0:0:0:
256,192,28376,1,0,0:0:0:0:
256,192,28421,1,0,0:0:0:0:
256,192,28466,1,8,0:0:0:0:
256,192,28510,1,8,0:0:0:0:
256,192,28555,1,8,0:0:0:0:
256,192,28600,1,8,0:0:0:0:
256,192,28645,1,0,0:0:0:0:
256,192,28764,1,0,0:0:0:0:
256,192,28883,1,0,0:0:0:0:
256,192,29003,1,0,0:0:0:0:
256,192,29122,1,0,0:0:0:0:
256,192,29242,1,0,0:0:0:0:
256,192,29451,1,12,0:0:0:0:
256,192,29719,1,12,0:0:0:0:
256,192,29988,1,12,0:0:0:0:
256,192,30257,1,12,0:0:0:0:
256,192,30525,1,12,0:0:0:0:
256,192,30794,1,4,0:0:0:0:
256,192,30973,1,0,0:0:0:0:
256,192,31063,1,0,0:0:0:0:
256,192,31152,1,8,0:0:0:0:
256,192,31242,1,0,0:0:0:0:
256,192,31331,1,8,0:0:0:0:
256,192,31421,1,8,0:0:0:0:
256,192,31510,1,0,0:0:0:0:
256,192,31600,1,8,0:0:0:0:
256,192,31689,1,0,0:0:0:0:
256,192,31779,1,0,0:0:0:0:
256,192,31868,1,8,0:0:0:0:
256,192,31958,1,0,0:0:0:0:
256,192,32048,1,8,0:0:0:0:
256,192,32137,1,8,0:0:0:0:
256,192,32227,1,0,0:0:0:0:
256,192,32406,1,0,0:0:0:0:
256,192,32495,1,0,0:0:0:0:
256,192,32585,1,8,0:0:0:0:
256,192,32674,1,0,0:0:0:0:
256,192,32764,1,8,0:0:0:0:
256,192,32854,1,8,0:0:0:0:
256,192,32943,1,0,0:0:0:0:
256,192,33033,1,8,0:0:0:0:
256,192,33122,1,0,0:0:0:0:
256,192,33212,1,0,0:0:0:0:
256,192,33301,1,8,0:0:0:0:
256,192,33391,1,0,0:0:0:0:
256,192,33480,1,8,0:0:0:0:
256,192,33570,1,8,0:0:0:0:
256,192,33660,1,0,0:0:0:0:
256,192,33704,1,0,0:0:0:0:
256,192,33749,1,0,0:0:0:0:
256,192,33794,1,0,0:0:0:0:
256,192,33839,1,8,0:0:0:0:
256,192,33928,1,0,0:0:0:0:
256,192,34018,1,8,0:0:0:0:
256,192,34107,1,8,0:0:0:0:
256,192,34197,1,0,0:0:0:0:
256,192,34286,1,8,0:0:0:0:
256,192,34376,1,0,0:0:0:0:
256,192,34466,1,8,0:0:0:0:
256,192,34555,1,0,0:0:0:0:
256,192,34645,1,0,0:0:0:0:
256,192,34734,1,8,0:0:0:0:
256,192,34824,1,0,0:0:0:0:
256,192,34913,1,8,0:0:0:0:
256,192,35003,1,8,0:0:0:0:
256,192,35092,1,0,0:0:0:0:
256,192,35271,1,0,0:0:0:0:
256,192,35361,1,0,0:0:0:0:
256,192,35451,1,8,0:0:0:0:
256,192,35540,1,0,0:0:0:0:
256,192,35630,1,8,0:0:0:0:
256,192,35719,1,8,0:0:0:0:
256,192,35809,1,0,0:0:0:0:
256,192,35854,1,0,0:0:0:0:
256,192,35898,1,0,0:0:0:0:
256,192,35943,1,0,0:0:0:0:
256,192,35988,1,8,0:0:0:0:
256,192,36077,1,0,0:0:0:0:
256,192,36167,1,8,0:0:0:0:
256,192,36525,1,4,0:0:0:0:
256,192,36704,1,0,0:0:0:0:
256,192,36794,1,0,0:0:0:0:
256,192,36883,1,8,0:0:0:0:
256,192,36973,1,0,0:0:0:0:
256,192,37063,1,8,0:0:0:0:
256,192,37152,1,8,0:0:0:0:
256,192,37242,1,0,0:0:0:0:
256,192,37331,1,8,0:0:0:0:
256,192,37421,1,0,0:0:0:0:
256,192,37510,1,0,0:0:0:0:
256,192,37600,1,8,0:0:0:0:
256,192,37689,1,0,0:0:0:0:
256,192,37779,1,8,0:0:0:0:
256,192,37868,1,8,0:0:0:0:
256,192,37958,1,0,0:0:0:0:
256,192,38137,1,0,0:0:0:0:
256,192,38227,1,0,0:0:0:0:
256,192,38316,1,8,0:0:0:0:
256,192,38406,1,0,0:0:0:0:
256,192,38495,1,8,0:0:0:0:
256,192,38585,1,8,0:0:0:0:
256,192,38674,1,0,0:0:0:0:
256,192,38764,1,8,0:0:0:0:
256,192,38854,1,0,0:0:0:0:
256,192,38943,1,0,0:0:0:0:
256,192,39033,1,8,0:0:0:0:
256,192,39122,1,8,0:0:0:0:
256,192,39212,1,0,0:0:0:0:
256,192,39301,1,0,0:0:0:0:
256,192,39391,1,8,0:0:0:0:
256,192,39480,1,0,0:0:0:0:
256,192,39525,1,0,0:0:0:0:
256,192,39570,1,8,0:0:0:0:
256,192,39660,1,0,0:0:0:0:
256,192,39749,1,8,0:0:0:0:
256,192,39794,1,8,0:0:0:0:
256,192,39839,1,0,0:0:0:0:
256,192,39883,1,0,0:0:0:0:
256,192,39928,1,8,0:0:0:0:
256,192,40018,1,0,0:0:0:0:
256,192,40107,1,8,0:0:0:0:
256,192,40152,1,8,0:0:0:0:
256,192,40197,1,8,0:0:0:0:
256,192,40286,1,0,0:0:0:0:
256,192,40331,1,0,0:0:0:0:
256,192,40376,1,0,0:0:0:0:
256,192,40466,1,8,0:0:0:0:
256,192,40510,1,8,0:0:0:0:
256,192,40555,1,0,0:0:0:0:
256,192,40600,1,0,0:0:0:0:
256,192,40645,1,8,0:0:0:0:
256,192,40734,1,0,0:0:0:0:
256,192,40824,8,0,41898,0:0:0:0:
256,192,42257,5,12,0:0:0:0:
256,192,42436,1,0,0:0:0:0:
256,192,42525,1,0,0:0:0:0:
256,192,42615,1,8,0:0:0:0:
256,192,42704,1,0,0:0:0:0:
256,192,42749,1,0,0:0:0:0:
256,192,42794,1,8,0:0:0:0:
256,192,42883,1,8,0:0:0:0:
256,192,42973,1,0,0:0:0:0:
256,192,43018,1,0,0:0:0:0:
256,192,43063,1,8,0:0:0:0:
256,192,43107,1,8,0:0:0:0:
256,192,43152,1,0,0:0:0:0:
256,192,43242,1,0,0:0:0:0:
256,192,43331,1,8,0:0:0:0:
256,192,43421,1,0,0:0:0:0:
256,192,43510,1,8,0:0:0:0:
256,192,43600,1,8,0:0:0:0:
256,192,43689,1,0,0:0:0:0:
256,192,43868,1,0,0:0:0:0:
256,192,43958,1,0,0:0:0:0:
256,192,44048,1,8,0:0:0:0:
256,192,44137,1,0,0:0:0:0:
256,192,44182,1,0,0:0:0:0:
256,192,44227,1,8,0:0:0:0:
256,192,44316,1,8,0:0:0:0:
256,192,44406,1,0,0:0:0:0:
256,192,44451,1,0,0:0:0:0:
256,192,44496,1,8,0:0:0:0:
256,192,44540,1,8,0:0:0:0:
256,192,44585,1,0,0:0:0:0:
256,192,44675,1,0,0:0:0:0:
256,192,44764,1,8,0:0:0:0:
256,192,44809,1,8,0:0:0:0:
256,192,44854,1,0,0:0:0:0:
256,192,44898,1,0,0:0:0:0:
256,192,44943,1,8,0:0:0:0:
256,192,45033,1,8,0:0:0:0:
256,192,45122,1,0,0:0:0:0:
256,192,45212,1,0,0:0:0:0:
256,192,45301,1,0,0:0:0:0:
256,192,45391,1,0,0:0:0:0:
256,192,45436,1,0,0:0:0:0:
256,192,45480,1,8,0:0:0:0:
256,192,45570,1,0,0:0:0:0:
256,192,45660,1,8,0:0:0:0:
256,192,45749,1,8,0:0:0:0:
256,192,45839,1,0,0:0:0:0:
256,192,45883,1,0,0:0:0:0:
256,192,45928,1,8,0:0:0:0:
256,192,45973,1,8,0:0:0:0:
256,192,46018,1,0,0:0:0:0:
256,192,46107,1,0,0:0:0:0:
256,192,46197,1,8,0:0:0:0:
256,192,46286,1,0,0:0:0:0:
256,192,46376,1,8,0:0:0:0:
256,192,46466,1,8,0:0:0:0:
256,192,46555,1,0,0:0:0:0:
256,192,46600,1,0,0:0:0:0:
256,192,46645,1,8,0:0:0:0:
256,192,46734,1,0,0:0:0:0:
256,192,46824,1,8,0:0:0:0:
256,192,46913,1,0,0:0:0:0:
256,192,47003,1,8,0:0:0:0:
256,192,47092,1,0,0:0:0:0:
256,192,47182,1,8,0:0:0:0:
256,192,47271,1,0,0:0:0:0:
256,192,47316,1,0,0:0:0:0:
256,192,47361,1,8,0:0:0:0:
256,192,47406,1,0,0:0:0:0:
256,192,47451,1,8,0:0:0:0:
256,192,47540,1,0,0:0:0:0:
256,192,47630,1,8,0:0:0:0:
256,192,47719,1,0,0:0:0:0:
256,192,47764,1,0,0:0:0:0:
256,192,47809,1,8,0:0:0:0:
256,192,47854,1,8,0:0:0:0:
256,192,47898,1,0,0:0:0:0:
256,192,47943,1,0,0:0:0:0:
256,192,47988,1,8,0:0:0:0:
256,192,48167,1,0,0:0:0:0:
256,192,48257,1,0,0:0:0:0:
256,192,48346,1,8,0:0:0:0:
256,192,48391,1,8,0:0:0:0:
256,192,48436,1,8,0:0:0:0:
256,192,48480,1,8,0:0:0:0:
256,192,48525,1,0,0:0:0:0:
256,192,48615,1,8,0:0:0:0:
256,192,48704,1,0,0:0:0:0:
256,192,48749,1,0,0:0:0:0:
256,192,48794,1,8,0:0:0:0:
256,192,48839,1,0,0:0:0:0:
256,192,48883,1,8,0:0:0:0:
256,192,48928,1,8,0:0:0:0:
256,192,48973,1,0,0:0:0:0:
256,192,49018,1,0,0:0:0:0:
256,192,49063,1,8,0:0:0:0:
256,192,49152,1,8,0:0:0:0:
256,192,49242,1,0,0:0:0:0:
256,192,49331,1,0,0:0:0:0:
256,192,49421,1,8,0:0:0:0:
256,192,49600,1,0,0:0:0:0:
256,192,49689,1,0,0:0:0:0:
256,192,49779,1,8,0:0:0:0:
256,192,49824,1,8,0:0:0:0:
256,192,49868,1,8,0:0:0:0:
256,192,49913,1,8,0:0:0:0:
256,192,49958,1,0,0:0:0:0:
256,192,50048,1,8,0:0:0:0:
256,192,50137,1,0,0:0:0:0:
256,192,50182,1,0,0:0:0:0:
256,192,50227,1,8,0:0:0:0:
256,192,50271,1,0,0:0:0:0:
256,192,50316,1,8,0:0:0:0:
256,192,50361,1,8,0:0:0:0:
256,192,50406,1,0,0:0:0:0:
256,192,50451,1,0,0:0:0:0:
256,192,50495,1,8,0:0:0:0:
256,192,50585,1,0,0:0:0:0:
256,192,50674,1,8,0:0:0:0:
256,192,50764,1,8,0:0:0:0:
256,192,50854,1,0,0:0:0:0:
256,192,51033,1,0,0:0:0:0:
256,192,51122,1,0,0:0:0:0:
256,192,51212,1,8,0:0:0:0:
256,192,51257,1,8,0:0:0:0:
256,192,51301,1,8,0:0:0:0:
256,192,51346,1,8,0:0:0:0:
256,192,51391,1,0,0:0:0:0:
256,192,51480,1,8,0:0:0:0:
256,192,51570,1,0,0:0:0:0:
256,192,51615,1,0,0:0:0:0:
256,192,51660,1,8,0:0:0:0:
256,192,51704,1,0,0:0:0:0:
256,192,51749,1,8,0:0:0:0:
256,192,51794,1,8,0:0:0:0:
256,192,51839,1,0,0:0:0:0:
256,192,51883,1,0,0:0:0:0:
256,192,51928,1,8,0:0:0:0:
256,192,52018,1,0,0:0:0:0:
256,192,52107,1,8,0:0:0:0:
256,192,52197,1,8,0:0:0:0:
256,192,52286,1,4,0:0:0:0:
256,192,52376,1,12,0:0:0:0:
256,192,52555,1,4,0:0:0:0:
256,192,52645,1,12,0:0:0:0:
256,192,52824,1,4,0:0:0:0:
256,192,52913,1,12,0:0:0:0:
256,192,53092,1,4,0:0:0:0:
256,192,53182,1,12,0:0:0:0:
256,192,53361,1,4,0:0:0:0:
256,192,53719,1,0,0:0:0:0:
256,192,53764,1,0,0:0:0:0:
256,192,53809,1,0,0:0:0:0:
256,192,53854,1,0,0:0:0:0:
256,192,53898,1,8,0:0:0:0:
256,192,53988,1,8,0:0:0:0:
256,192,54077,1,0,0:0:0:0:
256,192,54167,1,8,0:0:0:0:
256,192,54212,1,8,0:0:0:0:
256,192,54257,1,0,0:0:0:0:
256,192,54346,1,8,0:0:0:0:
256,192,54436,1,0,0:0:0:0:
256,192,54480,1,0,0:0:0:0:
256,192,54525,1,8,0:0:0:0:
256,192,54570,1,8,0:0:0:0:
256,192,54615,1,0,0:0:0:0:
256,192,54704,1,8,0:0:0:0:
256,192,54794,1,0,0:0:0:0:
256,192,54883,1,8,0:0:0:0:
256,192,54928,1,8,0:0:0:0:
256,192,54973,1,0,0:0:0:0:
256,192,55063,1,8,0:0:0:0:
256,192,55152,1,0,0:0:0:0:
256,192,55242,1,8,0:0:0:0:
256,192,55331,1,0,0:0:0:0:
256,192,55421,1,8,0:0:0:0:
256,192,55510,1,0,0:0:0:0:
256,192,55600,1,8,0:0:0:0:
256,192,55689,1,0,0:0:0:0:
256,192,55779,1,8,0:0:0:0:
256,192,55868,1,0,0:0:0:0:
256,192,55958,1,8,0:0:0:0:
256,192,56048,1,0,0:0:0:0:
256,192,56137,1,8,0:0:0:0:
256,192,56227,1,0,0:0:0:0:
256,192,56316,1,8,0:0:0:0:
256,192,56406,1,0,0:0:0:0:
256,192,56495,1,8,0:0:0:0:
256,192,56585,1,0,0:0:0:0:
256,192,56630,1,0,0:0:0:0:
256,192,56675,1,0,0:0:0:0:
256,192,56720,1,0,0:0:0:0:
256,192,56764,1,8,0:0:0:0:
256,192,56854,1,8,0:0:0:0:
256,192,56943,1,0,0:0:0:0:
256,192,57033,1,8,0:0:0:0:
256,192,57078,1,8,0:0:0:0:
256,192,57123,1,0,0:0:0:0:
256,192,57212,1,8,0:0:0:0:
256,192,57302,1,0,0:0:0:0:
256,192,57346,1,0,0:0:0:0:
256,192,57391,1,8,0:0:0:0:
256,192,57436,1,8,0:0:0:0:
256,192,57481,1,0,0:0:0:0:
256,192,57570,1,8,0:0:0:0:
256,192,57660,1,0,0:0:0:0:
256,192,57749,1,8,0:0:0:0:
256,192,57794,1,8,0:0:0:0:
256,192,57839,1,0,0:0:0:0:
256,192,57883,1,0,0:0:0:0:
256,192,57929,1,8,0:0:0:0:
256,192,57973,1,8,0:0:0:0:
256,192,58018,1,0,0:0:0:0:
256,192,58107,1,0,0:0:0:0:
256,192,58197,1,0,0:0:0:0:
256,192,58286,1,0,0:0:0:0:
256,192,58376,1,0,0:0:0:0:
256,192,58466,1,0,0:0:0:0:
256,192,58555,1,0,0:0:0:0:
256,192,58645,1,0,0:0:0:0:
256,192,58734,1,0,0:0:0:0:
256,192,58824,1,0,0:0:0:0:
256,192,58913,1,0,0:0:0:0:
256,192,59003,1,0,0:0:0:0:
256,192,59451,1,12,0:0:0:0:
256,192,59630,1,0,0:0:0:0:
256,192,59674,1,0,0:0:0:0:
256,192,59719,1,0,0:0:0:0:
256,192,59764,1,0,0:0:0:0:
256,192,59809,1,8,0:0:0:0:
256,192,59898,1,0,0:0:0:0:
256,192,59943,1,0,0:0:0:0:
256,192,59988,1,0,0:0:0:0:
256,192,60033,1,0,0:0:0:0:
256,192,60077,1,0,0:0:0:0:
256,192,60167,1,12,0:0:0:0:
256,192,60346,1,8,0:0:0:0:
256,192,60391,1,8,0:0:0:0:
256,192,60436,1,8,0:0:0:0:
256,192,60480,1,8,0:0:0:0:
256,192,60525,1,0,0:0:0:0:
256,192,60615,1,8,0:0:0:0:
256,192,60660,1,8,0:0:0:0:
256,192,60704,1,0,0:0:0:0:
256,192,60749,1,0,0:0:0:0:
256,192,60794,1,0,0:0:0:0:
256,192,60883,1,12,0:0:0:0:
256,192,61063,1,0,0:0:0:0:
256,192,61107,1,0,0:0:0:0:
256,192,61152,1,0,0:0:0:0:
256,192,61197,1,0,0:0:0:0:
256,192,61242,1,8,0:0:0:0:
256,192,61331,1,8,0:0:0:0:
256,192,61376,1,8,0:0:0:0:
256,192,61421,1,8,0:0:0:0:
256,192,61466,1,8,0:0:0:0:
256,192,61510,1,0,0:0:0:0:
256,192,61600,1,12,0:0:0:0:
256,192,61779,1,8,0:0:0:0:
256,192,61823,1,8,0:0:0:0:
256,192,61868,1,0,0:0:0:0:
256,192,61913,1,0,0:0:0:0:
256,192,61958,1,8,0:0:0:0:
256,192,62047,1,0,0:0:0:0:
256,192,62092,1,0,0:0:0:0:
256,192,62137,1,8,0:0:0:0:
256,192,62182,1,8,0:0:0:0:
256,192,62226,1,0,0:0:0:0:
256,192,62316,1,12,0:0:0:0:
256,192,62495,1,0,0:0:0:0:
256,192,62539,1,0,0:0:0:0:
256,192,62584,1,0,0:0:0:0:
256,192,62629,1,0,0:0:0:0:
256,192,62674,1,8,0:0:0:0:
256,192,62719,1,8,0:0:0:0:
256,192,62763,1,0,0:0:0:0:
256,192,62808,1,0,0:0:0:0:
256,192,62853,1,8,0:0:0:0:
256,192,62898,1,8,0:0:0:0:
256,192,62942,1,0,0:0:0:0:
256,192,63032,1,12,0:0:0:0:
256,192,63212,1,8,0:0:0:0:
256,192,63256,1,8,0:0:0:0:
256,192,63301,1,8,0:0:0:0:
256,192,63346,1,8,0:0:0:0:
256,192,63391,1,0,0:0:0:0:
256,192,63480,1,8,0:0:0:0:
256,192,63525,1,8,0:0:0:0:
256,192,63570,1,8,0:0:0:0:
256,192,63615,1,8,0:0:0:0:
256,192,63659,1,0,0:0:0:0:
256,192,63749,1,12,0:0:0:0:
256,192,63928,1,0,0:0:0:0:
256,192,63972,1,0,0:0:0:0:
256,192,64017,1,0,0:0:0:0:
256,192,64062,1,0,0:0:0:0:
256,192,64107,1,8,0:0:0:0:
256,192,64196,1,0,0:0:0:0:
256,192,64241,1,0,0:0:0:0:
256,192,64286,1,0,0:0:0:0:
256,192,64331,1,0,0:0:0:0:
256,192,64375,1,0,0:0:0:0:
256,192,64465,1,12,0:0:0:0:
256,192,64645,1,8,0:0:0:0:
256,192,64689,1,8,0:0:0:0:
256,192,64734,1,8,0:0:0:0:
256,192,64779,1,8,0:0:0:0:
256,192,64824,1,0,0:0:0:0:
256,192,64913,1,8,0:0:0:0:
256,192,64958,1,8,0:0:0:0:
256,192,65003,1,8,0:0:0:0:
256,192,65048,1,8,0:0:0:0:
256,192,65092,1,8,0:0:0:0:
256,192,65182,12,0,67152,0:0:0:0:
256,192,67331,5,4,0:0:0:0:
256,192,67510,1,0,0:0:0:0:
256,192,67599,1,8,0:0:0:0:
256,192,67778,1,8,0:0:0:0:
256,192,67957,1,8,0:0:0:0:
256,192,68136,1,0,0:0:0:0:
256,192,68226,1,8,0:0:0:0:
256,192,68405,1,8,0:0:0:0:
256,192,68584,1,0,0:0:0:0:
256,192,68674,1,0,0:0:0:0:
256,192,68763,1,8,0:0:0:0:
256,192,68942,1,8,0:0:0:0:
256,192,69032,1,0,0:0:0:0:
256,192,69211,1,0,0:0:0:0:
256,192,69390,1,8,0:0:0:0:
256,192,69569,1,0,0:0:0:0:
256,192,69748,1,0,0:0:0:0:
256,192,69838,1,8,0:0:0:0:
256,192,69928,1,0,0:0:0:0:
256,192,70017,1,8,0:0:0:0:
256,192,70107,1,8,0:0:0:0:
256,192,70196,1,0,0:0:0:0:
256,192,70375,1,0,0:0:0:0:
256,192,70465,1,8,0:0:0:0:
256,192,70644,1,0,0:0:0:0:
256,192,70823,1,8,0:0:0:0:
256,192,71002,1,8,0:0:0:0:
256,192,71092,1,0,0:0:0:0:
256,192,71271,1,8,0:0:0:0:
256,192,71360,1,8,0:0:0:0:
256,192,71450,1,0,0:0:0:0:
256,192,71539,1,0,0:0:0:0:
256,192,71629,1,8,0:0:0:0:
256,192,71808,1,0,0:0:0:0:
256,192,71898,1,8,0:0:0:0:
256,192,72077,1,0,0:0:0:0:
256,192,72256,1,8,0:0:0:0:
256,192,72435,1,8,0:0:0:0:
256,192,72525,1,0,0:0:0:0:
256,192,72704,1,8,0:0:0:0:
256,192,72793,1,8,0:0:0:0:
256,192,72883,1,0,0:0:0:0:
256,192,72972,1,0,0:0:0:0:
256,192,73062,1,8,0:0:0:0:
256,192,73241,1,0,0:0:0:0:
256,192,73330,1,8,0:0:0:0:
256,192,73510,1,0,0:0:0:0:
256,192,73689,1,8,0:0:0:0:
256,192,73868,1,8,0:0:0:0:
256,192,73957,1,0,0:0:0:0:
256,192,74136,1,8,0:0:0:0:
256,192,74316,1,0,0:0:0:0:
256,192,74405,1,0,0:0:0:0:
256,192,74495,1,8,0:0:0:0:
256,192,74674,1,0,0:0:0:0:
256,192,74763,1,8,0:0:0:0:
256,192,74942,1,0,0:0:0:0:
256,192,75122,1,8,0:0:0:0:
256,192,75301,1,8,0:0:0:0:
256,192,75390,1,0,0:0:0:0:
256,192,75569,1,0,0:0:0:0:
256,192,75748,1,0,0:0:0:0:
256,192,75838,1,0,0:0:0:0:
256,192,75928,1,8,0:0:0:0:
256,192,76107,1,8,0:0:0:0:
256,192,76196,1,8,0:0:0:0:
256,192,76375,1,0,0:0:0:0:
256,192,76554,1,8,0:0:0:0:
256,192,76733,1,0,0:0:0:0:
256,192,76823,1,8,0:0:0:0:
256,192,77002,1,0,0:0:0:0:
256,192,77360,1,12,0:0:0:0:
256,192,77450,1,12,0:0:0:0:
256,192,77629,1,4,0:0:0:0:
256,192,77719,1,4,0:0:0:0:
256,192,77898,1,12,0:0:0:0:
256,192,77987,1,12,0:0:0:0:
256,192,78166,1,4,0:0:0:0:
256,192,78256,1,4,0:0:0:0:
256,192,78793,1,12,0:0:0:0:
256,192,78972,1,0,0:0:0:0:
256,192,79062,1,0,0:0:0:0:
256,192,79151,1,8,0:0:0:0:
256,192,79241,1,0,0:0:0:0:
256,192,79286,1,0,0:0:0:0:
256,192,79330,1,8,0:0:0:0:
256,192,79420,1,8,0:0:0:0:
256,192,79510,1,8,0:0:0:0:
256,192,79689,1,0,0:0:0:0:
256,192,79778,1,0,0:0:0:0:
256,192,79868,1,8,0:0:0:0:
256,192,79957,1,0,0:0:0:0:
256,192,80002,1,0,0:0:0:0:
256,192,80047,1,8,0:0:0:0:
256,192,80136,1,0,0:0:0:0:
256,192,80226,1,8,0:0:0:0:
256,192,80271,1,8,0:0:0:0:
256,192,80316,1,0,0:0:0:0:
256,192,80360,1,0,0:0:0:0:
256,192,80405,1,8,0:0:0:0:
256,192,80450,1,0,0:0:0:0:
256,192,80495,1,0,0:0:0:0:
256,192,80539,1,0,0:0:0:0:
256,192,80584,1,8,0:0:0:0:
256,192,80674,1,0,0:0:0:0:
256,192,80763,1,8,0:0:0:0:
256,192,80808,1,8,0:0:0:0:
256,192,80853,1,0,0:0:0:0:
256,192,80898,1,0,0:0:0:0:
256,192,80942,1,8,0:0:0:0:
256,192,81122,1,8,0:0:0:0:
256,192,81211,1,0,0:0:0:0:
256,192,81301,1,8,0:0:0:0:
256,192,81345,1,8,0:0:0:0:
256,192,81390,1,8,0:0:0:0:
256,192,81435,1,8,0:0:0:0:
256,192,81480,1,0,0:0:0:0:
256,192,81525,1,0,0:0:0:0:
256,192,81569,1,0,0:0:0:0:
256,192,81614,1,0,0:0:0:0:
256,192,81659,1,8,0:0:0:0:
256,192,81838,1,0,0:0:0:0:
256,192,81928,1,0,0:0:0:0:
256,192,82017,1,8,0:0:0:0:
256,192,82107,1,0,0:0:0:0:
256,192,82151,1,0,0:0:0:0:
256,192,82196,1,8,0:0:0:0:
256,192,82286,1,8,0:0:0:0:
256,192,82375,1,0,0:0:0:0:
256,192,82554,1,0,0:0:0:0:
256,192,82644,1,0,0:0:0:0:
256,192,82733,1,8,0:0:0:0:
256,192,82823,1,0,0:0:0:0:
256,192,82868,1,0,0:0:0:0:
256,192,82913,1,8,0:0:0:0:
256,192,83002,1,0,0:0:0:0:
256,192,83092,1,8,0:0:0:0:
256,192,83136,1,8,0:0:0:0:
256,192,83181,1,8,0:0:0:0:
256,192,83226,1,8,0:0:0:0:
256,192,83271,1,0,0:0:0:0:
256,192,83316,1,0,0:0:0:0:
256,192,83360,1,0,0:0:0:0:
256,192,83405,1,0,0:0:0:0:
256,192,83450,1,8,0:0:0:0:
256,192,83539,1,0,0:0:0:0:
256,192,83629,1,8,0:0:0:0:
256,192,83674,1,8,0:0:0:0:
256,192,83719,1,0,0:0:0:0:
256,192,83763,1,0,0:0:0:0:
256,192,83808,1,8,0:0:0:0:
256,192,83987,1,0,0:0:0:0:
256,192,84077,1,0,0:0:0:0:
256,192,84166,1,8,0:0:0:0:
256,192,84211,1,8,0:0:0:0:
256,192,84256,1,0,0:0:0:0:
256,192,84301,1,0,0:0:0:0:
256,192,84345,1,8,0:0:0:0:
256,192,84390,1,0,0:0:0:0:
256,192,84435,1,0,0:0:0:0:
256,192,84480,1,0,0:0:0:0:
256,192,84525,1,8,0:0:0:0:
256,192,84704,1,0,0:0:0:0:
256,192,84793,1,0,0:0:0:0:
256,192,84883,1,8,0:0:0:0:
256,192,84972,1,0,0:0:0:0:
256,192,85017,1,0,0:0:0:0:
256,192,85062,1,8,0:0:0:0:
256,192,85151,1,8,0:0:0:0:
256,192,85241,1,0,0:0:0:0:
256,192,85420,1,8,0:0:0:0:
256,192,85510,1,0,0:0:0:0:
256,192,85599,1,8,0:0:0:0:
256,192,85644,1,0,0:0:0:0:
256,192,85689,1,8,0:0:0:0:
256,192,85733,1,8,0:0:0:0:
256,192,85778,1,0,0:0:0:0:
256,192,85823,1,0,0:0:0:0:
256,192,85868,1,8,0:0:0:0:
256,192,85913,1,0,0:0:0:0:
256,192,85957,1,8,0:0:0:0:
256,192,86047,1,0,0:0:0:0:
256,192,86136,1,8,0:0:0:0:
256,192,86181,1,8,0:0:0:0:
256,192,86226,1,0,0:0:0:0:
256,192,86271,1,0,0:0:0:0:
256,192,86316,1,8,0:0:0:0:
256,192,86405,1,0,0:0:0:0:
256,192,86495,1,8,0:0:0:0:
256,192,86539,1,8,0:0:0:0:
256,192,86584,1,8,0:0:0:0:
256,192,86629,1,8,0:0:0:0:
256,192,86674,1,0,0:0:0:0:
256,192,86763,1,0,0:0:0:0:
256,192,86853,1,8,0:0:0:0:
256,192,86898,1,8,0:0:0:0:
256,192,86942,1,0,0:0:0:0:
256,192,86987,1,0,0:0:0:0:
256,192,87032,1,8,0:0:0:0:
256,192,87077,1,0,0:0:0:0:
256,192,87122,1,0,0:0:0:0:
256,192,87166,1,0,0:0:0:0:
256,192,87211,1,8,0:0:0:0:
256,192,87390,1,0,0:0:0:0:
256,192,87480,1,0,0:0:0:0:
256,192,87569,1,8,0:0:0:0:
256,192,87659,1,0,0:0:0:0:
256,192,87748,1,8,0:0:0:0:
256,192,87838,1,8,0:0:0:0:
256,192,87928,1,0,0:0:0:0:
256,192,88017,1,0,0:0:0:0:
256,192,88107,1,8,0:0:0:0:
256,192,88196,1,0,0:0:0:0:
256,192,88286,1,8,0:0:0:0:
256,192,88375,1,8,0:0:0:0:
256,192,88823,1,0,0:0:0:0:
256,192,88913,1,0,0:0:0:0:
256,192,89002,1,8,0:0:0:0:
256,192,89092,1,0,0:0:0:0:
256,192,89136,1,0,0:0:0:0:
256,192,89181,1,8,0:0:0:0:
256,192,89271,1,0,0:0:0:0:
256,192,89360,1,8,0:0:0:0:
256,192,89405,1,8,0:0:0:0:
256,192,89450,1,0,0:0:0:0:
256,192,89495,1,0,0:0:0:0:
256,192,89539,1,8,0:0:0:0:
256,192,89629,1,0,0:0:0:0:
256,192,89674,1,0,0:0:0:0:
256,192,89719,1,8,0:0:0:0:
256,192,89808,1,8,0:0:0:0:
256,192,90256,1,0,0:0:0:0:
256,192,90301,1,0,0:0:0:0:
256,192,90345,1,0,0:0:0:0:
256,192,90390,1,0,0:0:0:0:
256,192,90435,1,8,0:0:0:0:
256,192,90480,1,8,0:0:0:0:
256,192,90525,1,0,0:0:0:0:
256,192,90569,1,0,0:0:0:0:
256,192,90614,1,8,0:0:0:0:
256,192,90659,1,8,0:0:0:0:
256,192,90704,1,8,0:0:0:0:
256,192,90748,1,8,0:0:0:0:
256,192,90793,1,0,0:0:0:0:
256,192,90838,1,0,0:0:0:0:
256,192,90883,1,0,0:0:0:0:
256,192,90928,1,0,0:0:0:0:
256,192,90972,1,8,0:0:0:0:
256,192,91017,1,8,0:0:0:0:
256,192,91062,1,0,0:0:0:0:
256,192,91107,1,0,0:0:0:0:
256,192,91151,1,8,0:0:0:0:
256,192,91196,1,0,0:0:0:0:
256,192,91241,1,8,0:0:0:0:
256,192,91286,1,8,0:0:0:0:
256,192,91330,1,0,0:0:0:0:
256,192,91375,1,0,0:0:0:0:
256,192,91420,1,0,0:0:0:0:
256,192,91465,1,0,0:0:0:0:
256,192,91510,1,8,0:0:0:0:
256,192,91554,1,8,0:0:0:0:
256,192,91599,1,8,0:0:0:0:
256,192,91644,1,8,0:0:0:0:
256,192,91689,12,8,92763,0:0:0:0:
256,192,93122,5,12,0:0:0:0:
256,192,93211,1,0,0:0:0:0:
256,192,93256,1,0,0:0:0:0:
256,192,93301,1,8,0:0:0:0:
256,192,93390,1,0,0:0:0:0:
256,192,93480,1,8,0:0:0:0:
256,192,93525,1,8,0:0:0:0:
256,192,93569,1,0,0:0:0:0:
256,192,93614,1,0,0:0:0:0:
256,192,93659,1,8,0:0:0:0:
256,192,93704,1,0,0:0:0:0:
256,192,93748,1,8,0:0:0:0:
256,192,93793,1,8,0:0:0:0:
256,192,93838,1,0,0:0:0:0:
256,192,93928,1,8,0:0:0:0:
256,192,93972,1,0,0:0:0:0:
256,192,94017,1,8,0:0:0:0:
256,192,94107,1,0,0:0:0:0:
256,192,94196,1,8,0:0:0:0:
256,192,94241,1,8,0:0:0:0:
256,192,94286,1,0,0:0:0:0:
256,192,94330,1,0,0:0:0:0:
256,192,94375,1,8,0:0:0:0:
256,192,94465,1,0,0:0:0:0:
256,192,94510,1,0,0:0:0:0:
256,192,94554,1,8,0:0:0:0:
256,192,94599,1,0,0:0:0:0:
256,192,94644,1,8,0:0:0:0:
256,192,94689,1,8,0:0:0:0:
256,192,94733,1,0,0:0:0:0:
256,192,94823,1,8,0:0:0:0:
256,192,94868,1,0,0:0:0:0:
256,192,94913,1,8,0:0:0:0:
256,192,95002,1,0,0:0:0:0:
256,192,95047,1,0,0:0:0:0:
256,192,95092,1,8,0:0:0:0:
256,192,95136,1,0,0:0:0:0:
256,192,95181,1,8,0:0:0:0:
256,192,95226,1,8,0:0:0:0:
256,192,95271,1,8,0:0:0:0:
256,192,95360,1,0,0:0:0:0:
256,192,95405,1,0,0:0:0:0:
256,192,95450,1,8,0:0:0:0:
256,192,95495,1,8,0:0:0:0:
256,192,95539,1,0,0:0:0:0:
256,192,95629,1,8,0:0:0:0:
256,192,95719,1,0,0:0:0:0:
256,192,95808,1,8,0:0:0:0:
256,192,95898,1,8,0:0:0:0:
256,192,95987,1,0,0:0:0:0:
256,192,96077,1,8,0:0:0:0:
256,192,96122,1,8,0:0:0:0:
256,192,96166,1,0,0:0:0:0:
256,192,96211,1,0,0:0:0:0:
256,192,96256,1,8,0:0:0:0:
256,192,96345,1,0,0:0:0:0:
256,192,96390,1,0,0:0:0:0:
256,192,96435,1,8,0:0:0:0:
256,192,96480,1,0,0:0:0:0:
256,192,96525,1,8,0:0:0:0:
256,192,96569,1,8,0:0:0:0:
256,192,96614,1,0,0:0:0:0:
256,192,96659,1,0,0:0:0:0:
256,192,96704,1,8,0:0:0:0:
256,192,96793,1,8,0:0:0:0:
256,192,96883,1,0,0:0:0:0:
256,192,96972,1,0,0:0:0:0:
256,192,97062,1,8,0:0:0:0:
256,192,97107,1,8,0:0:0:0:
256,192,97151,1,0,0:0:0:0:
256,192,97196,1,0,0:0:0:0:
256,192,97241,1,8,0:0:0:0:
256,192,97286,1,8,0:0:0:0:
256,192,97330,1,0,0:0:0:0:
256,192,97420,1,8,0:0:0:0:
256,192,97510,1,0,0:0:0:0:
256,192,97554,1,0,0:0:0:0:
256,192,97599,1,8,0:0:0:0:
256,192,97644,1,8,0:0:0:0:
256,192,97689,1,0,0:0:0:0:
256,192,97778,1,8,0:0:0:0:
256,192,97823,1,8,0:0:0:0:
256,192,97868,1,0,0:0:0:0:
256,192,97913,1,0,0:0:0:0:
256,192,97957,1,0,0:0:0:0:
256,192,98047,1,8,0:0:0:0:
256,192,98092,1,8,0:0:0:0:
256,192,98136,1,0,0:0:0:0:
256,192,98226,1,8,0:0:0:0:
256,192,98271,1,0,0:0:0:0:
256,192,98316,1,8,0:0:0:0:
256,192,98360,1,8,0:0:0:0:
256,192,98405,1,0,0:0:0:0:
256,192,98495,1,8,0:0:0:0:
256,192,98539,1,8,0:0:0:0:
256,192,98584,1,0,0:0:0:0:
256,192,98629,1,0,0:0:0:0:
256,192,98674,1,8,0:0:0:0:
256,192,98719,1,0,0:0:0:0:
256,192,98763,1,0,0:0:0:0:
256,192,98808,1,0,0:0:0:0:
256,192,98853,1,8,0:0:0:0:
256,192,98942,1,0,0:0:0:0:
256,192,98987,1,0,0:0:0:0:
256,192,99032,1,8,0:0:0:0:
256,192,99077,1,0,0:0:0:0:
256,192,99122,1,8,0:0:0:0:
256,192,99211,1,0,0:0:0:0:
256,192,99256,1,0,0:0:0:0:
256,192,99301,1,8,0:0:0:0:
256,192,99345,1,8,0:0:0:0:
256,192,99390,1,0,0:0:0:0:
256,192,99480,1,8,0:0:0:0:
256,192,99525,1,8,0:0:0:0:
256,192,99569,1,8,0:0:0:0:
256,192,99659,1,0,0:0:0:0:
256,192,99704,1,0,0:0:0:0:
256,192,99748,1,8,0:0:0:0:
256,192,99793,1,8,0:0:0:0:
256,192,99838,1,0,0:0:0:0:
256,192,100286,1,8,0:0:0:0:
256,192,100330,1,8,0:0:0:0:
256,192,100375,1,8,0:0:0:0:
256,192,100420,1,8,0:0:0:0:
256,192,100465,1,0,0:0:0:0:
256,192,100554,1,8,0:0:0:0:
256,192,100644,1,0,0:0:0:0:
256,192,100733,1,0,0:0:0:0:
256,192,100823,1,8,0:0:0:0:
256,192,100913,1,0,0:0:0:0:
256,192,100957,1,0,0:0:0:0:
256,192,101002,1,8,0:0:0:0:
256,192,101047,1,0,0:0:0:0:
256,192,101092,1,8,0:0:0:0:
256,192,101136,1,8,0:0:0:0:
256,192,101181,1,0,0:0:0:0:
256,192,101271,1,0,0:0:0:0:
256,192,101719,1,8,0:0:0:0:
256,192,101763,1,8,0:0:0:0:
256,192,101808,1,8,0:0:0:0:
256,192,101853,1,8,0:0:0:0:
256,192,101898,1,0,0:0:0:0:
256,192,101987,1,0,0:0:0:0:
256,192,102077,1,8,0:0:0:0:
256,192,102166,1,0,0:0:0:0:
256,192,102256,1,8,0:0:0:0:
256,192,102345,1,8,0:0:0:0:
256,192,102435,1,0,0:0:0:0:
256,192,102480,1,0,0:0:0:0:
256,192,102525,1,8,0:0:0:0:
256,192,102569,1,0,0:0:0:0:
256,192,102614,1,8,0:0:0:0:
256,192,102659,1,8,0:0:0:0:
256,192,102704,1,0,0:0:0:0:
256,192,102748,1,0,0:0:0:0:
256,192,102793,1,8,0:0:0:0:
256,192,102838,1,8,0:0:0:0:
256,192,102883,1,8,0:0:0:0:
256,192,102928,1,8,0:0:0:0:
256,192,102972,1,0,0:0:0:0:
256,192,103017,1,0,0:0:0:0:
256,192,103062,1,0,0:0:0:0:
256,192,103107,1,0,0:0:0:0:
256,192,103151,1,12,0:0:0:0:
256,192,103241,1,12,0:0:0:0:
256,192,103420,1,4,0:0:0:0:
256,192,103510,1,4,0:0:0:0:
256,192,103689,1,12,0:0:0:0:
256,192,103778,1,12,0:0:0:0:
256,192,103957,1,4,0:0:0:0:
256,192,104047,1,4,0:0:0:0:
256,192,104226,1,0,0:0:0:0:
256,192,104316,1,0,0:0:0:0:
256,192,104405,1,0,0:0:0:0:
256,192,104495,1,0,0:0:0:0:
256,192,104584,1,12,0:0:0:0:
256,192,104674,1,0,0:0:0:0:
256,192,104719,1,0,0:0:0:0:
256,192,104763,1,8,0:0:0:0:
256,192,104853,1,0,0:0:0:0:
256,192,104942,1,8,0:0:0:0:
256,192,104987,1,8,0:0:0:0:
256,192,105032,1,0,0:0:0:0:
256,192,105077,1,0,0:0:0:0:
256,192,105122,1,8,0:0:0:0:
256,192,105211,1,0,0:0:0:0:
256,192,105301,1,8,0:0:0:0:
256,192,105345,1,8,0:0:0:0:
256,192,105390,1,0,0:0:0:0:
256,192,105435,1,0,0:0:0:0:
256,192,105480,1,8,0:0:0:0:
256,192,105525,1,0,0:0:0:0:
256,192,105569,1,0,0:0:0:0:
256,192,105614,1,0,0:0:0:0:
256,192,105659,1,8,0:0:0:0:
256,192,105748,1,0,0:0:0:0:
256,192,105838,1,8,0:0:0:0:
256,192,105883,1,8,0:0:0:0:
256,192,105928,1,0,0:0:0:0:
256,192,105972,1,0,0:0:0:0:
256,192,106017,1,8,0:0:0:0:
256,192,106107,1,0,0:0:0:0:
256,192,106151,1,0,0:0:0:0:
256,192,106196,1,8,0:0:0:0:
256,192,106241,1,0,0:0:0:0:
256,192,106286,1,8,0:0:0:0:
256,192,106330,1,8,0:0:0:0:
256,192,106375,1,0,0:0:0:0:
256,192,106465,1,8,0:0:0:0:
256,192,106554,1,0,0:0:0:0:
256,192,106644,1,8,0:0:0:0:
256,192,106689,1,0,0:0:0:0:
256,192,106733,1,8,0:0:0:0:
256,192,106778,1,8,0:0:0:0:
256,192,106823,1,0,0:0:0:0:
256,192,106868,1,0,0:0:0:0:
256,192,106913,1,8,0:0:0:0:
256,192,107002,1,0,0:0:0:0:
256,192,107092,1,8,0:0:0:0:
256,192,107136,1,8,0:0:0:0:
256,192,107181,1,8,0:0:0:0:
256,192,107226,1,8,0:0:0:0:
256,192,107271,1,0,0:0:0:0:
256,192,107360,1,8,0:0:0:0:
256,192,107450,1,0,0:0:0:0:
256,192,107539,1,8,0:0:0:0:
256,192,107584,1,8,0:0:0:0:
256,192,107629,1,0,0:0:0:0:
256,192,107674,1,0,0:0:0:0:
256,192,107719,1,8,0:0:0:0:
256,192,107808,1,0,0:0:0:0:
256,192,107853,1,0,0:0:0:0:
256,192,107898,1,8,0:0:0:0:
256,192,107942,1,0,0:0:0:0:
256,192,107987,1,8,0:0:0:0:
256,192,108032,1,8,0:0:0:0:
256,192,108077,1,0,0:0:0:0:
256,192,108122,1,0,0:0:0:0:
256,192,108166,1,8,0:0:0:0:
256,192,108256,1,0,0:0:0:0:
256,192,108301,1,0,0:0:0:0:
256,192,108345,1,8,0:0:0:0:
256,192,108435,1,0,0:0:0:0:
256,192,108525,1,8,0:0:0:0:
256,192,108569,1,8,0:0:0:0:
256,192,108614,1,0,0:0:0:0:
256,192,108659,1,0,0:0:0:0:
256,192,108704,1,8,0:0:0:0:
256,192,108748,1,0,0:0:0:0:
256,192,108793,1,8,0:0:0:0:
256,192,108838,1,8,0:0:0:0:
256,192,108883,1,0,0:0:0:0:
256,192,108972,1,8,0:0:0:0:
256,192,109017,1,8,0:0:0:0:
256,192,109062,1,0,0:0:0:0:
256,192,109151,1,8,0:0:0:0:
256,192,109241,1,0,0:0:0:0:
256,192,109330,1,8,0:0:0:0:
256,192,109420,1,0,0:0:0:0:
256,192,109510,1,8,0:0:0:0:
256,192,109599,1,0,0:0:0:0:
256,192,109644,1,0,0:0:0:0:
256,192,109689,1,0,0:0:0:0:
256,192,109733,1,0,0:0:0:0:
256,192,109778,1,8,0:0:0:0:
256,192,109868,1,4,0:0:0:0:
256,192,110136,1,4,0:0:0:0:
256,192,110316,1,8,0:0:0:0:
256,192,110360,1,8,0:0:0:0:
256,192,110405,1,8,0:0:0:0:
256,192,110450,1,8,0:0:0:0:
256,192,110495,1,8,0:0:0:0:
256,192,110584,1,0,0:0:0:0:
256,192,110674,1,8,0:0:0:0:
256,192,110763,1,0,0:0:0:0:
256,192,110808,1,0,0:0:0:0:
256,192,110853,1,8,0:0:0:0:
256,192,110898,1,0,0:0:0:0:
256,192,110942,1,8,0:0:0:0:
256,192,110987,1,8,0:0:0:0:
256,192,111032,1,0,0:0:0:0:
256,192,111122,1,0,0:0:0:0:
256,192,111211,1,8,0:0:0:0:
256,192,111301,1,0,0:0:0:0:
256,192,111748,1,8,0:0:0:0:
256,192,111793,1,8,0:0:0:0:
256,192,111838,1,8,0:0:0:0:
256,192,111883,1,8,0:0:0:0:
256,192,111928,1,0,0:0:0:0:
256,192,112017,1,8,0:0:0:0:
256,192,112107,1,0,0:0:0:0:
256,192,112196,1,8,0:0:0:0:
256,192,112241,1,8,0:0:0:0:
256,192,112286,1,0,0:0:0:0:
256,192,112375,1,8,0:0:0:0:
256,192,112465,1,0,0:0:0:0:
256,192,112510,1,0,0:0:0:0:
256,192,112554,1,8,0:0:0:0:
256,192,112599,1,0,0:0:0:0:
256,192,112644,1,8,0:0:0:0:
256,192,112733,1,0,0:0:0:0:
256,192,113181,1,8,0:0:0:0:
256,192,113360,1,0,0:0:0:0:
256,192,113405,1,0,0:0:0:0:
256,192,113450,1,0,0:0:0:0:
256,192,113495,1,0,0:0:0:0:
256,192,113539,1,8,0:0:0:0:
256,192,113584,1,8,0:0:0:0:
256,192,113629,1,8,0:0:0:0:
256,192,113674,1,8,0:0:0:0:
256,192,113719,1,0,0:0:0:0:
256,192,113763,1,0,0:0:0:0:
256,192,113808,1,0,0:0:0:0:
256,192,113853,1,0,0:0:0:0:
256,192,113898,1,8,0:0:0:0:
256,192,113942,1,8,0:0:0:0:
256,192,113987,1,0,0:0:0:0:
256,192,114032,1,0,0:0:0:0:
256,192,114077,1,8,0:0:0:0:
256,192,114122,1,0,0:0:0:0:
256,192,114166,1,8,0:0:0:0:
256,192,114211,1,8,0:0:0:0:
256,192,114256,1,0,0:0:0:0:
256,192,114301,1,0,0:0:0:0:
256,192,114345,1,8,0:0:0:0:
256,192,114390,1,0,0:0:0:0:
256,192,114435,1,8,0:0:0:0:
256,192,114480,1,8,0:0:0:0:
256,192,114525,1,0,0:0:0:0:
256,192,114569,1,0,0:0:0:0:
256,192,114615,5,12,0:0:0:0:
256,192,114704,1,12,0:0:0:0:
256,192,114883,1,4,0:0:0:0:
256,192,114973,1,4,0:0:0:0:
256,192,115152,1,12,0:0:0:0:
256,192,115241,1,12,0:0:0:0:
256,192,115420,1,4,0:0:0:0:
256,192,115510,1,4,0:0:0:0:
256,192,115868,1,12,0:0:0:0:
256,192,115958,1,12,0:0:0:0:
256,192,116137,1,4,0:0:0:0:
256,192,116226,1,4,0:0:0:0:
256,192,116406,1,12,0:0:0:0:
256,192,116495,1,12,0:0:0:0:
256,192,116674,1,4,0:0:0:0:
256,192,116764,1,4,0:0:0:0:
256,192,117122,8,4,118196,0:0:0:0:
256,192,118555,5,8,0:0:0:0:
256,192,118599,1,8,0:0:0:0:
256,192,118644,1,8,0:0:0:0:
256,192,118689,1,8,0:0:0:0:
256,192,118734,1,0,0:0:0:0:
256,192,118778,1,0,0:0:0:0:
256,192,118823,1,0,0:0:0:0:
256,192,118868,1,0,0:0:0:0:
256,192,118913,1,8,0:0:0:0:
256,192,118957,1,8,0:0:0:0:
256,192,119002,1,8,0:0:0:0:
256,192,119047,1,8,0:0:0:0:
256,192,119092,1,0,0:0:0:0:
256,192,119137,1,0,0:0:0:0:
256,192,119181,1,0,0:0:0:0:
256,192,119226,1,0,0:0:0:0:
256,192,119271,1,8,0:0:0:0:
256,192,119315,1,8,0:0:0:0:
256,192,119360,1,8,0:0:0:0:
256,192,119405,1,8,0:0:0:0:
256,192,119450,1,0,0:0:0:0:
256,192,119494,1,0,0:0:0:0:
256,192,119539,1,0,0:0:0:0:
256,192,119584,1,0,0:0:0:0:
256,192,119629,1,8,0:0:0:0:
256,192,119673,1,8,0:0:0:0:
256,192,119718,1,8,0:0:0:0:
256,192,119763,1,8,0:0:0:0:
256,192,119808,1,0,0:0:0:0:
256,192,119853,1,0,0:0:0:0:
256,192,119897,1,0,0:0:0:0:
256,192,119942,1,0,0:0:0:0:
256,192,119987,1,8,0:0:0:0:
256,192,120032,1,8,0:0:0:0:
256,192,120077,1,0,0:0:0:0:
256,192,120166,1,8,0:0:0:0:
256,192,120211,1,8,0:0:0:0:
256,192,120256,1,0,0:0:0:0:
256,192,120346,1,8,0:0:0:0:
256,192,120391,1,8,0:0:0:0:
256,192,120436,1,0,0:0:0:0:
256,192,120525,1,8,0:0:0:0:
256,192,120570,1,8,0:0:0:0:
256,192,120615,1,0,0:0:0:0:
256,192,120704,1,8,0:0:0:0:
256,192,120749,1,8,0:0:0:0:
256,192,120793,1,8,0:0:0:0:
256,192,120838,1,8,0:0:0:0:
256,192,120883,1,0,0:0:0:0:
256,192,120972,1,8,0:0:0:0:
256,192,121017,1,8,0:0:0:0:
256,192,121062,1,8,0:0:0:0:
256,192,121107,1,8,0:0:0:0:
256,192,121152,1,0,0:0:0:0:
256,192,121241,1,8,0:0:0:0:
256,192,121286,1,8,0:0:0:0:
256,192,121331,1,8,0:0:0:0:
256,192,121375,1,8,0:0:0:0:
256,192,121420,1,0,0:0:0:0:
256,192,122853,1,0,0:0:0:0:
256,192,122943,1,0,0:0:0:0:
256,192,123032,1,8,0:0:0:0:
256,192,123122,1,0,0:0:0:0:
256,192,123211,1,8,0:0:0:0:
256,192,123301,1,0,0:0:0:0:
256,192,123390,1,8,0:0:0:0:
256,192,123480,1,0,0:0:0:0:
256,192,123569,1,8,0:0:0:0:
256,192,123659,1,8,0:0:0:0:
256,192,123749,1,0,0:0:0:0:
256,192,123838,1,0,0:0:0:0:
256,192,124287,1,8,0:0:0:0:
256,192,124331,1,8,0:0:0:0:
256,192,124376,1,0,0:0:0:0:
256,192,124421,1,0,0:0:0:0:
256,192,124466,1,8,0:0:0:0:
256,192,124510,1,0,0:0:0:0:
256,192,124555,1,8,0:0:0:0:
256,192,124600,1,8,0:0:0:0:
256,192,124645,1,0,0:0:0:0:
256,192,124689,1,0,0:0:0:0:
256,192,124734,1,8,0:0:0:0:
256,192,124779,1,0,0:0:0:0:
256,192,124824,1,8,0:0:0:0:
256,192,124869,1,8,0:0:0:0:
256,192,124913,1,0,0:0:0:0:
256,192,124958,1,0,0:0:0:0:
256,192,125003,1,8,0:0:0:0:
256,192,125048,1,8,0:0:0:0:
256,192,125092,1,8,0:0:0:0:
256,192,125137,1,8,0:0:0:0:
256,192,125182,1,0,0:0:0:0:
256,192,125227,1,0,0:0:0:0:
256,192,125272,1,8,0:0:0:0:
256,192,125316,1,8,0:0:0:0:
256,192,125361,1,0,0:0:0:0:
256,192,125406,1,0,0:0:0:0:
256,192,125451,1,8,0:0:0:0:
256,192,125495,1,0,0:0:0:0:
256,192,125540,1,8,0:0:0:0:
256,192,125585,1,8,0:0:0:0:
256,192,125630,1,0,0:0:0:0:
256,192,125675,1,0,0:0:0:0:
256,192,125719,1,8,0:0:0:0:
256,192,125764,1,8,0:0:0:0:
256,192,125809,1,0,0:0:0:0:
256,192,125854,1,0,0:0:0:0:
256,192,125898,1,8,0:0:0:0:
256,192,125943,1,0,0:0:0:0:
256,192,125988,1,8,0:0:0:0:
256,192,126033,1,8,0:0:0:0:
256,192,126078,1,0,0:0:0:0:
256,192,126122,1,0,0:0:0:0:
256,192,126167,1,8,0:0:0:0:
256,192,126212,1,8,0:0:0:0:
256,192,126257,1,0,0:0:0:0:
256,192,126301,1,0,0:0:0:0:
256,192,126346,1,0,0:0:0:0:
256,192,126391,1,0,0:0:0:0:
256,192,126436,1,8,0:0:0:0:
256,192,126481,1,8,0:0:0:0:
256,192,126525,1,0,0:0:0:0:
256,192,126570,1,8,0:0:0:0:
256,192,126615,1,0,0:0:0:0:
256,192,126660,1,0,0:0:0:0:
256,192,126704,1,8,0:0:0:0:
256,192,126749,1,8,0:0:0:0:
256,192,126794,1,0,0:0:0:0:
256,192,126839,1,0,0:0:0:0:
256,192,126884,1,0,0:0:0:0:
256,192,126928,1,0,0:0:0:0:
256,192,126973,1,8,0:0:0:0:
256,192,127018,1,8,0:0:0:0:
256,192,127063,1,8,0:0:0:0:
256,192,127107,1,8,0:0:0:0:
256,192,127331,1,8,0:0:0:0:
256,192,127376,1,0,0:0:0:0:
256,192,127421,1,8,0:0:0:0:
256,192,127466,1,8,0:0:0:0:
256,192,127510,1,0,0:0:0:0:
256,192,127555,1,0,0:0:0:0:
256,192,127600,1,8,0:0:0:0:
256,192,127645,1,0,0:0:0:0:
256,192,127689,1,0,0:0:0:0:
256,192,127734,1,0,0:0:0:0:
256,192,127779,1,8,0:0:0:0:
256,192,127824,1,0,0:0:0:0:
256,192,127869,1,8,0:0:0:0:
256,192,127913,1,0,0:0:0:0:
256,192,127958,1,8,0:0:0:0:
256,192,128003,1,8,0:0:0:0:
256,192,128048,1,0,0:0:0:0:
256,192,128092,1,0,0:0:0:0:
256,192,128137,1,8,0:0:0:0:
256,192,128182,1,0,0:0:0:0:
256,192,128227,1,8,0:0:0:0:
256,192,128257,1,8,0:0:0:0:
256,192,128287,1,8,0:0:0:0:
256,192,128316,1,0,0:0:0:0:
256,192,128361,1,0,0:0:0:0:
256,192,128406,1,8,0:0:0:0:
256,192,128451,1,8,0:0:0:0:
256,192,128495,1,0,0:0:0:0:
256,192,128540,1,0,0:0:0:0:
256,192,128585,1,8,0:0:0:0:
256,192,128630,1,0,0:0:0:0:
256,192,128675,1,0,0:0:0:0:
256,192,128719,1,0,0:0:0:0:
256,193,128764,1,8,0:0:0:0:
256,193,128809,1,8,0:0:0:0:
256,193,128854,1,8,0:0:0:0:
256,193,128898,1,8,0:0:0:0:
256,193,128943,1,0,0:0:0:0:
256,193,129122,1,0,0:0:0:0:
256,193,129167,1,0,0:0:0:0:
256,193,129212,1,0,0:0:0:0:
256,193,129257,1,0,0:0:0:0:
256,193,129301,1,8,0:0:0:0:
256,193,129481,1,0,0:0:0:0:
256,193,129525,1,0,0:0:0:0:
256,193,129570,1,8,0:0:0:0:
256,193,129615,1,0,0:0:0:0:
256,193,129660,1,8,0:0:0:0:
256,193,129719,1,8,0:0:0:0:
256,193,129779,1,0,0:0:0:0:
256,193,129839,1,8,0:0:0:0:
256,193,129898,1,0,0:0:0:0:
256,193,129958,1,0,0:0:0:0:
256,192,130018,1,8,0:0:0:0:
256,192,130063,1,8,0:0:0:0:
256,192,130107,1,8,0:0:0:0:
256,192,130152,1,8,0:0:0:0:
256,192,130197,1,0,0:0:0:0:
256,192,130242,1,0,0:0:0:0:
256,192,130286,1,8,0:0:0:0:
256,192,130331,1,8,0:0:0:0:
256,192,130376,1,0,0:0:0:0:
256,192,130421,1,0,0:0:0:0:
256,192,130466,1,8,0:0:0:0:
256,192,130510,1,8,0:0:0:0:
256,192,130556,1,0,0:0:0:0:
256,192,130600,1,0,0:0:0:0:
256,192,130645,1,8,0:0:0:0:
256,192,130689,1,8,0:0:0:0:
256,192,130735,1,0,0:0:0:0:
256,192,130779,1,0,0:0:0:0:
256,192,130824,1,8,0:0:0:0:
256,192,130869,1,0,0:0:0:0:
256,192,130913,1,8,0:0:0:0:
256,192,130958,1,8,0:0:0:0:
256,192,131003,1,0,0:0:0:0:
256,192,131048,1,0,0:0:0:0:
256,192,131092,1,8,0:0:0:0:
256,192,131137,1,0,0:0:0:0:
256,192,131182,1,0,0:0:0:0:
256,192,131227,1,0,0:0:0:0:
256,192,131272,1,8,0:0:0:0:
256,192,131301,1,8,0:0:0:0:
256,192,131331,1,8,0:0:0:0:
256,192,131361,1,8,0:0:0:0:
256,192,131451,1,0,0:0:0:0:
256,192,131495,1,0,0:0:0:0:
256,192,131540,1,0,0:0:0:0:
256,192,131585,1,0,0:0:0:0:
256,192,131630,1,8,0:0:0:0:
256,192,131675,1,0,0:0:0:0:
256,192,131719,1,8,0:0:0:0:
256,192,131764,1,8,0:0:0:0:
256,192,131809,1,0,0:0:0:0:
256,192,131854,1,0,0:0:0:0:
256,192,131898,1,8,0:0:0:0:
256,192,131943,1,8,0:0:0:0:
256,192,131988,1,8,0:0:0:0:
256,192,132033,1,8,0:0:0:0:
256,192,132078,1,0,0:0:0:0:
256,192,132122,1,0,0:0:0:0:
256,192,132167,1,8,0:0:0:0:
256,192,132197,1,8,0:0:0:0:
256,192,132227,1,8,0:0:0:0:
256,192,132257,1,0,0:0:0:0:
256,192,132301,1,0,0:0:0:0:
256,192,132346,1,8,0:0:0:0:
256,192,132391,1,0,0:0:0:0:
256,192,132436,1,8,0:0:0:0:
256,192,132481,1,8,0:0:0:0:
256,192,132525,1,0,0:0:0:0:
256,192,132570,1,0,0:0:0:0:
256,192,132615,1,0,0:0:0:0:
256,192,132660,1,0,0:0:0:0:
256,192,132704,1,8,0:0:0:0:
256,192,132749,1,8,0:0:0:0:
256,192,132794,1,8,0:0:0:0:
256,192,132839,1,8,0:0:0:0:
256,192,132884,1,0,0:0:0:0:
256,192,132928,1,0,0:0:0:0:
256,192,132973,1,0,0:0:0:0:
256,192,133018,1,0,0:0:0:0:
256,192,133063,1,8,0:0:0:0:
256,192,133107,1,0,0:0:0:0:
256,192,133152,1,8,0:0:0:0:
256,192,133197,1,8,0:0:0:0:
256,192,133242,1,0,0:0:0:0:
256,192,133287,1,0,0:0:0:0:
256,192,133331,1,8,0:0:0:0:
256,192,133376,1,0,0:0:0:0:
256,192,133421,1,0,0:0:0:0:
256,192,133466,1,0,0:0:0:0:
256,192,133510,1,8,0:0:0:0:
256,192,133555,1,8,0:0:0:0:
256,192,133600,1,8,0:0:0:0:
256,192,133645,1,8,0:0:0:0:
256,192,133689,1,0,0:0:0:0:
256,192,133734,1,0,0:0:0:0:
256,192,133779,1,0,0:0:0:0:
256,192,133824,1,0,0:0:0:0:
256,192,133869,1,8,0:0:0:0:
256,192,133913,1,8,0:0:0:0:
256,192,133958,1,0,0:0:0:0:
256,192,134003,1,0,0:0:0:0:
256,192,134048,1,0,0:0:0:0:
256,192,134092,1,0,0:0:0:0:
256,192,134137,1,8,0:0:0:0:
256,192,134182,1,8,0:0:0:0:
256,192,134227,1,0,0:0:0:0:
256,192,134406,1,12,0:0:0:0:
256,192,134675,1,12,0:0:0:0:
256,192,134943,1,12,0:0:0:0:
256,192,135212,1,12,0:0:0:0:
256,192,135481,1,12,0:0:0:0:
256,192,135749,1,4,0:0:0:0:
256,192,135838,1,4,0:0:0:0:
256,192,136017,1,12,0:0:0:0:
256,192,136107,1,12,0:0:0:0:
256,192,136286,1,4,0:0:0:0:
256,192,136375,1,4,0:0:0:0:
256,192,136554,1,12,0:0:0:0:
256,192,136644,1,12,0:0:0:0:
256,192,137002,1,4,0:0:0:0:
256,192,137092,1,4,0:0:0:0:
256,192,137271,1,12,0:0:0:0:
256,192,137360,1,12,0:0:0:0:
256,192,137540,1,4,0:0:0:0:
256,192,137629,1,4,0:0:0:0:
256,192,137808,1,12,0:0:0:0:
256,192,137898,1,12,0:0:0:0:
256,192,138256,1,4,0:0:0:0:
256,192,138346,1,4,0:0:0:0:
256,192,138525,1,12,0:0:0:0:
256,192,138614,1,12,0:0:0:0:
256,192,138793,1,4,0:0:0:0:
256,192,138883,1,4,0:0:0:0:
256,192,139062,1,12,0:0:0:0:
256,192,139151,1,12,0:0:0:0:
256,192,139510,1,4,0:0:0:0:
256,192,139599,1,4,0:0:0:0:
256,192,139778,1,12,0:0:0:0:
256,192,139868,1,12,0:0:0:0:
256,192,140047,1,4,0:0:0:0:
256,192,140136,1,4,0:0:0:0:
256,192,140315,1,12,0:0:0:0:
256,192,140405,1,12,0:0:0:0:
256,192,140584,1,4,0:0:0:0:
256,192,140674,1,4,0:0:0:0:
256,192,140853,1,12,0:0:0:0:
256,192,140942,1,12,0:0:0:0:
256,192,141121,1,4,0:0:0:0:
256,192,141211,1,4,0:0:0:0:
256,192,141390,1,12,0:0:0:0:
256,192,141480,1,12,0:0:0:0:
256,192,141659,1,8,0:0:0:0:
256,192,141718,1,8,0:0:0:0:
256,192,141778,1,0,0:0:0:0:
256,192,141838,1,8,0:0:0:0:
256,192,141898,1,0,0:0:0:0:
256,192,141957,1,0,0:0:0:0:
256,192,142017,1,8,0:0:0:0:
256,192,142077,1,8,0:0:0:0:
256,192,142136,1,8,0:0:0:0:
256,192,142196,1,0,0:0:0:0:
256,192,142256,1,0,0:0:0:0:
256,192,142315,1,0,0:0:0:0:
256,192,142375,1,8,0:0:0:0:
256,192,142420,1,8,0:0:0:0:
256,192,142465,1,8,0:0:0:0:
256,192,142510,1,8,0:0:0:0:
256,192,142554,1,8,0:0:0:0:
256,192,142599,1,8,0:0:0:0:
256,192,142644,1,8,0:0:0:0:
256,192,142689,1,8,0:0:0:0:
256,192,142734,1,4,0:0:0:0:
256,192,142823,8,0,145957,0:0:0:0:
