osu file format v14

[General]
AudioFilename: audio.mp3
AudioLeadIn: 0
PreviewTime: 202690
Countdown: 0
SampleSet: Normal
StackLeniency: 0.7
Mode: 2
LetterboxInBreaks: 0
WidescreenStoryboard: 1

[Editor]
DistanceSpacing: 0.5
BeatDivisor: 3
GridSize: 8
TimelineZoom: 4.499999

[Metadata]
Title:Xronier ("geneXe" Long ver.)
TitleUnicode:Xronièr ("genèXe" Long ver.)
Artist:Camellia as "fluX Xroise"
ArtistUnicode:かめりあ as "fluX Xroisé"
Creator:x_angelkawaii_x
Version:Will
Source:SOUND VOLTEX IV HEAVENLY HAVEN
Tags:rocma version sdvx Xroniàl Xéro cametek xronial xero omega dimension 5+ electronic instrumental video rhythm game konami
BeatmapID:3109464
BeatmapSetID:1506066

[Difficulty]
HPDrainRate:1.5
CircleSize:4.2
OverallDifficulty:9.9
ApproachRate:9.9
SliderMultiplier:1.92
SliderTickRate:2

[Events]
//Background and Video events
0,0,"bg.jpg",0,0
//Break Periods
//Storyboard Layer 0 (Background)
//Storyboard Layer 1 (Fail)
//Storyboard Layer 2 (Pass)
//Storyboard Layer 3 (Foreground)
//Storyboard Layer 4 (Overlay)
//Storyboard Sound Samples

[TimingPoints]
727,256.410256410256,4,3,2,80,1,0
2778,-100,4,2,2,50,0,0
6880,-100,4,1,2,70,0,0
10983,-100,4,2,2,50,0,0
13034,-100,4,1,2,70,0,0
28419,-100,4,2,2,50,0,0
29444,-100,4,1,2,60,0,0
37650,-100,4,1,2,70,0,0
45983,-100,4,1,2,50,0,0
49957,-100,4,3,2,70,0,0
58162,-100,4,2,2,50,0,0
64316,-100,4,3,2,70,0,0
68419,-100,4,2,2,50,0,0
70470,-100,4,3,2,80,0,0
72521,-100,4,1,2,70,0,0
86880,-100,4,2,2,50,0,0
93162,-100,4,1,2,70,0,0
97137,-100,4,2,2,50,0,0
101239,-100,4,1,2,70,0,0
109444,-50,4,1,2,70,0,0
109701,-100,4,1,2,70,0,0
111496,-50,4,1,2,70,0,0
111752,-100,4,1,2,70,0,0
113034,-50,4,1,2,70,0,0
113547,-100,4,1,2,70,0,0
116624,-100,4,2,2,50,0,0
117650,-83.3333333333333,4,1,2,60,0,0
123803,-100,4,1,2,70,0,0
142265,-100,4,2,2,50,0,0
146368,-100,4,1,2,70,0,0
157650,-100,4,3,2,70,0,0
174060,-100,4,2,2,50,0,0
182265,-100,4,2,2,60,0,0
194573,-100,4,1,2,70,0,0
199957,-100,4,2,2,50,0,0
202778,-85.7142857142857,4,2,2,70,0,0
210983,-100,4,1,2,70,0,1
220214,-40,4,1,2,70,0,1
220726,-100,4,1,2,70,0,1
227393,-100,4,3,3,70,0,0
239701,256.410256410256,7,1,2,70,1,1
254059,256.410256410256,4,2,2,60,1,0
256110,-100,4,3,2,60,0,0
258161,-100,4,1,2,70,0,0
262264,-100,4,2,2,60,0,0
264315,-100,4,3,2,70,0,0
272520,-100,4,3,2,70,0,1
276623,-100,4,3,2,70,0,0
278674,-100,4,1,2,70,0,0
280725,-100,4,3,2,70,0,0
288930,-150.000015000001,4,2,2,60,0,0
290469,-100,4,2,2,60,0,0
296110,-100,4,3,2,80,0,0
298161,-100,4,2,2,60,0,0

[Colours]
Combo1 : 239,205,44
Combo2 : 0,230,230
Combo3 : 253,32,104
Combo4 : 224,136,3

[HitObjects]
32,304,727,6,0,L|16:256,1,32,0|0,3:0|3:0,0:0:0:0:
128,256,812,2,0,L|176:256,1,32,0|0,3:0|3:0,0:0:0:0:
272,240,897,2,0,L|288:192,1,32,0|0,3:0|3:0,0:0:0:0:
96,176,983,2,0,L|80:128,1,32,0|0,3:0|3:0,0:0:0:0:
192,128,1068,2,0,L|240:128,1,32,0|0,3:0|3:0,0:0:0:0:
336,112,1154,2,0,L|352:64,1,32,0|0,3:0|3:0,0:0:0:0:
160,304,1239,6,0,L|144:256,1,32,0|0,3:0|3:0,0:0:0:0:
256,256,1325,2,0,L|304:256,1,32,0|0,3:0|3:0,0:0:0:0:
400,240,1410,2,0,L|416:192,1,32,0|0,3:0|3:0,0:0:0:0:
224,176,1495,2,0,L|208:128,1,32,0|0,3:0|3:0,0:0:0:0:
320,128,1581,2,0,L|368:128,1,32,0|0,3:0|3:0,0:0:0:0:
464,112,1667,2,0,L|480:64,1,32,0|0,3:0|3:0,0:0:0:0:
336,64,1752,6,0,L|304:64,1,32,0|0,3:0|3:0,0:0:0:0:
192,96,1838,2,0,L|192:144,1,32,0|0,3:0|3:0,0:0:0:0:
304,160,1923,2,0,L|336:160,1,32,0|0,3:0|3:0,0:0:0:0:
208,192,2009,2,0,L|176:192,1,32,0|0,3:0|3:0,0:0:0:0:
64,224,2095,2,0,L|64:272,1,32,0|0,3:0|3:0,0:0:0:0:
176,288,2180,2,0,L|208:288,1,32,0|0,3:0|3:0,0:0:0:0:
352,288,2265,5,0,3:0:0:0:
379,272,2307,1,0,3:0:0:0:
390,242,2350,1,0,3:0:0:0:
379,213,2393,1,0,3:0:0:0:
352,197,2435,1,0,3:0:0:0:
304,192,2479,1,0,3:0:0:0:
160,192,2521,2,0,L|128:192,1,32,0|0,3:0|3:0,0:0:0:0:
272,144,2607,2,0,L|320:144,1,32,0|0,3:0|3:0,0:0:0:0:
160,192,2692,2,0,L|128:192,1,32,0|0,3:0|3:0,0:0:0:0:
272,224,2778,6,0,L|288:112,1,96,4|0,0:3|0:0,0:0:0:0:
192,128,3034,2,0,L|176:16,1,96,0|0,0:0|0:0,0:0:0:0:
272,224,3291,2,0,L|288:112,1,96
192,128,3547,2,0,L|176:16,1,96,0|0,0:0|0:0,0:0:0:0:
272,224,3803,6,0,L|288:112,1,96,0|0,0:0|0:0,0:0:0:0:
192,128,4060,1,0,0:0:0:0:
416,288,4188,2,0,P|480:224|416:176,1,192,0|0,3:0|0:0,0:0:0:0:
216,192,4573,2,0,L|104:192,1,96,0|0,3:0|0:0,0:0:0:0:
417,175,4829,6,0,L|401:63,1,96,4|0,0:0|0:0,0:0:0:0:
301,113,5085,2,0,L|317:1,1,96,0|0,0:0|0:0,0:0:0:0:
208,144,5342,2,0,P|144:208|208:256,1,192,2|0,0:0|0:0,0:0:0:0:
448,320,5726,6,0,L|224:320,2,192,4|0|2,0:0|0:0|0:0,0:0:0:0:
352,288,6368,1,0,0:0:0:0:
344,240,6432,1,0,0:0:0:0:
336,192,6496,2,0,L|128:192,1,192,0|0,0:0|0:0,0:0:0:0:
416,304,6880,6,0,P|476:255|391:189,1,192,4|0,0:0|0:0,0:0:0:0:
304,176,7265,2,0,L|240:176,1,48,0|0,0:0|0:0,0:0:0:0:
400,208,7393,2,0,L|416:96,1,96,2|0,0:0|0:0,0:0:0:0:
272,144,7585,2,0,L|256:32,1,96,0|0,0:0|0:0,0:0:0:0:
400,208,7778,2,0,L|416:144,1,48,2|0,0:0|0:0,0:0:0:0:
224,320,7906,6,0,P|164:271|249:205,1,192,4|0,0:0|0:0,0:0:0:0:
336,192,8291,2,0,L|400:192,1,48,0|0,0:0|0:0,0:0:0:0:
224,224,8419,1,2,0:0:0:0:
320,160,8547,2,0,L|256:160,1,48,0|0,0:0|0:0,0:0:0:0:
128,160,8675,2,0,L|48:160,3,48,0|0|2|0,0:0|0:0|0:0|0:0,0:0:0:0:
240,96,8932,6,0,L|368:96,1,96,2|0,0:0|0:0,0:0:0:0:
208,176,9124,2,0,L|304:176,1,96,0|0,0:0|0:0,0:0:0:0:
432,176,9316,1,2,0:0:0:0:
208,128,9444,2,0,L|80:128,1,96,2|0,0:0|0:0,0:0:0:0:
240,208,9636,2,0,L|144:208,1,96,0|0,0:0|0:0,0:0:0:0:
16,208,9829,2,0,L|80:208,1,48,2|0,0:0|0:0,0:0:0:0:
256,288,9957,6,0,L|272:160,1,96,2|0,0:0|0:0,0:0:0:0:
128,192,10150,2,0,L|112:64,1,96,0|0,0:0|0:0,0:0:0:0:
256,64,10342,2,2,L|304:64,1,48
496,192,10470,2,0,L|384:192,1,96,2|0,0:0|0:0,0:0:0:0:
267,192,10662,1,0,0:0:0:0:
400,256,10726,2,0,L|448:256,1,48,2|0,0:0|0:0,0:0:0:0:
272,256,10855,2,0,L|224:256,1,48,0|0,0:0|0:0,0:0:0:0:
448,320,10983,6,0,B|352:320|352:320|480:320,1,192,4|0,0:0|0:0,0:0:0:0:
256,320,11368,2,0,B|352:320|352:320|224:320,1,192,2|0,0:0|0:0,0:0:0:0:
112,272,12009,5,4,0:0:0:0:
144,272,12025,1,0,0:0:0:0:
176,272,12041,1,0,0:0:0:0:
160,208,12265,1,0,0:0:0:0:
128,208,12281,1,0,0:0:0:0:
144,128,12521,1,2,0:0:0:0:
256,112,12650,1,2,0:1:0:0:
16,144,12778,2,0,L|16:304,1,144,8|0,0:1|0:0,0:0:0:0:
256,304,13034,5,4,0:0:0:0:
352,256,13162,2,0,L|272:256,1,48,0|0,0:0|0:0,0:0:0:0:
128,240,13291,1,8,0:0:0:0:
224,192,13419,2,0,L|144:192,1,48,0|0,0:0|0:0,0:0:0:0:
16,160,13547,2,0,L|128:160,1,96,0|2,0:0|0:0,0:0:0:0:
304,144,13803,2,0,L|192:144,1,96,8|0,0:0|0:0,0:0:0:0:
448,224,14060,6,0,L|464:112,1,96,2|0,0:0|0:0,0:0:0:0:
416,128,14252,1,0,0:0:0:0:
272,128,14316,2,0,L|256:16,1,96,8|0,0:0|0:0,0:0:0:0:
304,32,14508,1,0,0:0:0:0:
448,32,14573,2,0,L|352:32,1,96,0|2,0:0|0:0,0:0:0:0:
448,144,14829,2,0,L|480:144,1,32,8|0,0:0|0:0,0:0:0:0:
495,115,14915,2,0,L|479:143,1,32,0|0,0:0|0:0,0:0:0:0:
416,144,15021,1,0,0:0:0:0:
256,304,15085,5,2,0:0:0:0:
160,256,15213,2,0,L|240:256,1,48,0|0,0:0|0:0,0:0:0:0:
384,240,15342,1,8,0:0:0:0:
288,192,15470,2,0,L|368:192,1,48,0|0,0:0|0:0,0:0:0:0:
496,160,15598,2,0,L|384:160,1,96,0|2,0:0|0:0,0:0:0:0:
208,144,15854,2,0,L|320:144,1,96,8|0,0:0|0:0,0:0:0:0:
96,160,16111,6,0,L|80:128,2,24,2|0|0,0:0|0:0|0:0,0:0:0:0:
160,144,16239,2,0,L|160:96,1,48,0|0,0:0|0:0,0:0:0:0:
304,96,16368,2,0,L|320:64,2,24,2|0|0,0:0|0:0|0:0,0:0:0:0:
240,80,16496,2,0,L|240:32,1,48,0|0,0:0|0:0,0:0:0:0:
432,80,16624,2,0,L|464:80,2,24,2|0|0,0:0|0:0|0:0,0:0:0:0:
384,128,16752,2,0,L|432:128,2,48,2|0|0,0:0|0:0|0:0,0:0:0:0:
160,256,17009,6,0,L|384:256,1,192,4|0,0:0|0:0,0:0:0:0:
304,256,17329,1,0,0:0:0:0:
160,256,17393,2,0,L|64:256,1,96,8|0,0:0|0:0,0:0:0:0:
112,256,17585,1,0,0:0:0:0:
304,208,17650,2,0,L|192:208,1,96,0|2,0:0|0:0,0:0:0:0:
416,160,17906,2,0,L|304:160,1,96,8|0,0:0|0:0,0:0:0:0:
64,224,18162,6,0,L|48:112,1,96,2|0,0:0|0:0,0:0:0:0:
96,128,18354,1,0,0:0:0:0:
240,128,18418,2,0,L|256:16,1,96,8|0,0:0|0:0,0:0:0:0:
208,32,18610,1,0,0:0:0:0:
64,32,18675,2,0,L|176:32,1,96,0|2,0:0|0:0,0:0:0:0:
272,32,18932,2,0,L|304:32,2,32,8|0|0,0:0|0:0|0:0,0:0:0:0:
160,48,19060,2,0,L|96:48,1,48,0|0,0:0|0:0,0:0:0:0:
304,128,19188,6,0,L|368:128,1,48,4|0,0:2|0:0,0:0:0:0:
192,176,19316,2,0,L|192:304,1,96,0|4,0:0|0:2,0:0:0:0:
352,304,19509,2,0,L|400:304,1,48,0|0,0:0|0:0,0:0:0:0:
160,304,19701,2,0,L|112:304,2,48,0|0|2,0:0|0:0|0:0,0:0:0:0:
256,320,19957,2,0,L|320:320,3,48,8|0|0|0,0:0|0:0|0:0|0:0,0:0:0:0:
144,256,20214,6,0,L|48:256,1,64,2|2,0:0|0:0,0:0:0:0:
16,256,20385,1,0,0:0:0:0:
192,160,20470,2,0,L|96:160,1,64,2|2,0:0|0:0,0:0:0:0:
64,160,20641,1,0,0:0:0:0:
256,112,20726,2,0,L|272:176,3,48,2|0|0|0,2:0|2:0|2:0|2:0,0:0:0:0:
208,176,20983,1,2,2:0:0:0:
191,219,21047,1,0,2:0:0:0:
210,262,21111,1,0,2:0:0:0:
253,281,21175,1,0,2:0:0:0:
448,288,21239,6,0,L|384:288,1,48,4|0,0:0|0:0,0:0:0:0:
256,288,21368,2,0,L|192:288,1,48,0|0,0:0|0:0,0:0:0:0:
352,288,21496,1,8,0:0:0:0:
256,208,21624,2,0,L|320:208,1,48,0|0,0:0|0:0,0:0:0:0:
448,208,21752,2,0,L|352:208,2,96,0|2|8,0:0|0:0|0:0,0:0:0:0:
256,304,22137,6,0,L|96:304,1,144,0|0,0:0|0:0,0:0:0:0:
256,256,22393,2,0,L|304:256,1,48,0|0,0:0|0:0,0:0:0:0:
160,224,22521,1,8,0:0:0:0:
256,192,22650,2,0,L|192:192,1,48,0|0,0:0|0:0,0:0:0:0:
64,192,22778,2,0,L|128:192,1,48,2|0,0:0|0:0,0:0:0:0:
256,192,22906,2,0,L|320:192,3,48,8|0|0|0,0:0|0:0|0:0|0:0,0:0:0:0:
160,144,23162,6,0,P|111:105|160:64,1,144,4|0,0:2|0:0,0:0:0:0:
352,112,23419,1,2,0:0:0:0:
256,176,23547,2,0,L|320:176,1,48,8|0,0:0|0:0,0:0:0:0:
448,176,23676,2,0,L|512:176,1,48,0|0,0:0|0:0,0:0:0:0:
352,176,23803,2,0,L|256:176,2,96,0|2|8,0:0|0:0|0:0,0:0:0:0:
128,256,24188,6,0,L|320:256,1,192,4|4,0:2|0:2,0:0:0:0:
344,256,24476,2,0,L|312:256,1,24,0|0,0:0|0:0,0:0:0:0:
176,256,24573,2,0,L|112:256,1,48,0|0,0:0|0:0,0:0:0:0:
176,208,24701,1,0,0:0:0:0:
200,208,24733,1,0,0:0:0:0:
224,208,24765,1,0,0:0:0:0:
384,208,24829,6,0,L|480:208,1,96,8|0,0:0|0:0,0:0:0:0:
320,160,25021,2,0,L|224:160,1,96,0|0,0:0|0:0,0:0:0:0:
384,96,25214,2,0,L|336:96,1,48,8|0,0:0|0:0,0:0:0:0:
96,96,25342,6,0,B|192:96|192:96|192:304,1,288,4|0,3:0|3:0,0:0:0:0:
144,304,25791,1,0,3:0:0:0:
192,288,25855,1,0,3:0:0:0:
144,304,25919,1,0,3:0:0:0:
288,304,25983,2,0,L|288:208,1,96,2|0,3:1|3:0,0:0:0:0:
144,256,26175,2,0,L|144:144,1,96,2|0,3:1|3:0,0:0:0:0:
288,80,26368,6,0,B|192:80|192:80|304:384,1,384,4|2,3:0|3:1,0:0:0:0:
48,336,26966,2,0,L|144:336,1,64,0|0,3:0|3:0,0:0:0:0:
288,336,27137,2,0,L|224:336,2,64,2|0|0,3:1|3:0|3:0,0:0:0:0:
144,288,27393,5,2,3:1:0:0:
320,240,27479,2,0,L|224:240,1,64,4|0,3:2|3:0,0:0:0:0:
352,176,27650,2,0,L|256:176,1,64,0|0,3:0|3:0,0:0:0:0:
112,160,27821,2,0,L|208:160,2,64,4|0|0,3:2|3:0|3:0,0:0:0:0:
256,128,28077,1,0,3:0:0:0:
80,96,28162,2,0,L|240:96,1,128,4|0,3:2|3:0,0:0:0:0:
416,144,28419,5,4,0:0:0:0:
336,176,28547,1,0,0:0:0:0:
416,256,28675,2,0,L|416:144,1,96,0|0,0:0|0:0,0:0:0:0:
336,176,28932,1,2,0:0:0:0:
416,144,29060,1,0,0:0:0:0:
176,208,29188,2,0,L|176:96,1,96,4|0,0:0|0:0,0:0:0:0:
448,304,29444,6,0,L|224:304,1,192,2|0,0:0|0:0,0:0:0:0:
352,304,29829,1,0,0:0:0:0:
448,304,29957,2,0,L|240:304,1,192,0|0,0:0|0:0,0:0:0:0:
448,304,30470,6,0,L|240:304,1,192,2|0,0:0|0:0,0:0:0:0:
448,304,30983,2,0,L|352:304,1,96,0|0,0:0|0:0,0:0:0:0:
256,304,31239,2,0,L|368:304,1,96,0|0,0:0|0:0,0:0:0:0:
64,304,31496,6,0,L|208:304,1,128,2|0,0:0|0:0,0:0:0:0:
224,304,31709,1,0,0:0:0:0:
256,304,31752,1,0,0:0:0:0:
160,304,31838,1,0,0:0:0:0:
64,304,32009,2,0,L|208:304,1,128,0|0,0:0|0:0,0:0:0:0:
224,304,32222,1,0,0:0:0:0:
256,304,32265,1,0,0:0:0:0:
64,304,32522,6,0,L|272:304,1,192,2|0,0:0|0:0,0:0:0:0:
160,304,32906,1,0,0:0:0:0:
64,304,33035,2,0,L|160:304,1,96,0|0,0:0|0:0,0:0:0:0:
208,304,33226,1,0,0:0:0:0:
256,304,33291,2,0,L|144:304,1,96,0|0,0:0|0:0,0:0:0:0:
448,304,33547,6,0,L|304:304,1,128,2|0,0:0|0:0,0:0:0:0:
256,304,33803,1,0,0:0:0:0:
320,304,33889,1,0,0:0:0:0:
448,304,34060,2,0,L|240:304,1,192,0|0,0:0|0:0,0:0:0:0:
448,304,34573,6,0,L|240:304,1,192,2|0,0:0|0:0,0:0:0:0:
448,304,35086,2,0,L|352:304,1,96,0|2,0:0|0:0,0:0:0:0:
160,304,35342,2,0,L|272:304,1,96,8|0,0:0|0:0,0:0:0:0:
304,304,35534,1,0,0:0:0:0:
96,272,35598,6,0,L|80:160,1,96,4|0,0:3|0:0,0:0:0:0:
192,144,35855,1,0,0:0:0:0:
80,272,35983,2,0,L|64:160,1,96,2|0,0:0|0:0,0:0:0:0:
176,144,36240,1,0,0:0:0:0:
304,192,36368,6,0,L|320:80,1,96,2|0,0:0|0:0,0:0:0:0:
208,64,36625,1,0,0:0:0:0:
320,192,36753,2,0,L|336:80,1,96,2|0,0:0|0:0,0:0:0:0:
224,64,37009,2,0,L|208:128,1,48,0|0,0:0|0:0,0:0:0:0:
352,112,37137,2,0,L|384:224,1,96,2|0,0:0|0:0,0:0:0:0:
288,272,37393,1,8,0:0:0:0:
336,272,37457,1,0,0:0:0:0:
384,272,37521,1,0,0:0:0:0:
128,256,37650,5,4,0:0:0:0:
16,256,37778,1,0,0:0:0:0:
240,176,37906,1,8,0:0:0:0:
128,176,38034,1,0,0:0:0:0:
384,256,38162,1,0,0:0:0:0:
496,256,38290,1,2,0:0:0:0:
272,176,38418,1,8,0:0:0:0:
160,176,38546,1,0,0:0:0:0:
208,176,38611,1,0,0:0:0:0:
496,128,38675,5,2,0:0:0:0:
400,128,38803,1,0,0:0:0:0:
208,96,38932,1,8,0:0:0:0:
304,96,39060,1,0,0:0:0:0:
112,128,39188,1,0,0:0:0:0:
16,128,39316,1,2,0:0:0:0:
336,192,39444,2,0,L|400:192,1,48,8|0,0:0|0:0,0:0:0:0:
176,192,39573,2,0,L|112:192,1,48,0|0,0:0|0:0,0:0:0:0:
384,304,39701,6,0,L|400:208,1,96,4|0,0:0|0:0,0:0:0:0:
256,144,39893,2,0,L|208:144,2,48,0|8|0,0:0|0:0|0:0,0:0:0:0:
400,144,40085,2,0,L|448:144,1,48,0|0,0:0|0:0,0:0:0:0:
240,208,40214,2,0,L|80:208,1,144,2|2,0:0|0:0,0:0:0:0:
240,160,40470,2,0,L|336:160,1,96,8|0,0:0|0:0,0:0:0:0:
80,272,40726,6,0,L|64:160,1,96,2|0,0:0|0:0,0:0:0:0:
176,192,40983,2,0,L|192:80,1,96,8|0,0:0|0:0,0:0:0:0:
432,272,41239,2,0,L|448:160,1,96,0|2,0:0|0:0,0:0:0:0:
400,160,41432,1,0,0:0:0:0:
240,128,41496,1,8,0:0:0:0:
352,96,41624,1,0,0:0:0:0:
112,256,41752,6,0,L|64:256,1,48,4|0,0:3|0:0,0:0:0:0:
208,240,41880,2,0,L|272:240,1,48,0|0,0:0|0:0,0:0:0:0:
112,208,42009,2,0,L|16:208,1,96,0|8,0:0|0:0,0:0:0:0:
256,160,42265,6,0,L|304:160,1,48,2|0,0:0|0:0,0:0:0:0:
160,144,42393,2,0,L|96:144,1,48,0|0,0:0|0:0,0:0:0:0:
256,112,42522,2,0,L|352:112,1,96,0|8,0:0|0:0,0:0:0:0:
304,112,42714,1,0,0:0:0:0:
464,272,42778,6,0,L|480:192,1,48,2|0,0:0|0:0,0:0:0:0:
336,256,42906,2,0,L|320:176,1,48,0|0,0:0|0:0,0:0:0:0:
464,272,43034,2,0,L|480:144,1,96,0|8,0:0|0:0,0:0:0:0:
208,176,43291,6,0,L|192:96,1,48,2|0,0:0|0:0,0:0:0:0:
336,160,43419,2,0,L|352:80,1,48,0|0,0:0|0:0,0:0:0:0:
293,98,43547,1,8,0:0:0:0:
144,96,43611,2,0,L|128:16,1,48,0|8,0:0|0:0,0:0:0:0:
352,32,43803,6,0,L|448:32,1,96,2|0,0:0|0:0,0:0:0:0:
288,96,43996,2,0,L|176:96,1,96,4|0,0:2|0:0,0:0:0:0:
352,160,44188,2,0,L|416:160,1,48,2|0,0:0|0:0,0:0:0:0:
192,224,44316,6,0,L|128:224,2,48,2|0|0,0:0|0:0|0:0,0:0:0:0:
320,224,44509,2,0,L|384:224,2,48,4|0|0,0:2|0:0|0:0,0:0:0:0:
192,288,44701,2,0,L|256:288,1,48,2|0,0:0|0:0,0:0:0:0:
64,256,44829,6,0,L|48:176,2,48,4|0|0,0:2|0:0|0:0,0:0:0:0:
128,256,45021,2,0,L|144:176,2,48,4|0|0,0:2|0:0|0:0,0:0:0:0:
288,192,45214,2,0,L|304:112,2,48,4|0|0,0:2|0:0|0:0,0:0:0:0:
224,192,45406,2,0,L|208:112,2,48,4|0|0,0:2|0:0|0:0,0:0:0:0:
400,192,45598,2,0,L|480:192,1,48,4|0,0:2|0:0,0:0:0:0:
304,128,45726,2,0,L|384:128,1,48,0|0,0:0|0:0,0:0:0:0:
208,192,45855,5,4,0:3:0:0:
256,192,45983,12,0,47650,0:0:0:0:
172,235,47778,6,0,L|156:203,1,32,0|0,0:0|0:0,0:0:0:0:
316,171,47906,5,4,0:2:0:0:
256,192,48034,12,0,48868,0:0:0:0:
288,208,49017,5,0,0:0:0:0:
256,192,49103,12,0,49316,0:0:0:0:
384,224,49444,5,0,0:0:0:0:
256,192,49573,12,0,49829,0:0:0:0:
432,272,49957,5,4,0:0:0:0:
496,272,50021,1,0,0:0:0:0:
432,272,50085,1,0,0:0:0:0:
496,272,50149,1,0,0:0:0:0:
432,272,50214,1,0,0:0:0:0:
240,272,50342,1,2,0:1:0:0:
176,272,50406,1,0,0:0:0:0:
240,272,50470,1,0,0:0:0:0:
176,272,50534,1,0,0:0:0:0:
240,272,50599,1,0,0:0:0:0:
344,272,50726,5,2,0:1:0:0:
400,272,50791,1,0,0:0:0:0:
288,192,50919,1,2,0:1:0:0:
400,192,51047,1,2,0:1:0:0:
176,272,51175,1,2,0:1:0:0:
120,272,51240,1,0,0:0:0:0:
232,192,51368,5,2,0:1:0:0:
288,192,51433,1,0,0:0:0:0:
232,96,51560,1,2,0:1:0:0:
288,96,51624,1,0,0:0:0:0:
120,112,51688,1,0,0:0:0:0:
176,208,51752,2,0,L|288:208,1,96,2|0,0:1|0:0,0:0:0:0:
80,272,52009,5,4,0:0:0:0:
16,272,52073,1,0,0:0:0:0:
80,272,52137,1,0,0:0:0:0:
16,272,52201,1,0,0:0:0:0:
80,272,52266,1,0,0:0:0:0:
272,272,52394,1,2,0:1:0:0:
336,272,52458,1,0,0:0:0:0:
272,272,52522,1,0,0:0:0:0:
336,272,52586,1,0,0:0:0:0:
272,272,52651,1,0,0:0:0:0:
176,272,52778,5,0,0:1:0:0:
120,272,52843,1,0,0:0:0:0:
240,192,52971,1,2,0:1:0:0:
240,144,53099,1,2,0:1:0:0:
184,144,53162,1,0,0:0:0:0:
416,320,53291,6,0,L|464:320,3,32,2|0|0|0,0:1|0:0|0:0|0:0,0:0:0:0:
336,320,53547,2,0,L|288:320,3,32,2|0|0|0,0:1|0:0|0:0|0:0,0:0:0:0:
192,288,53803,2,0,L|192:224,1,48,2|0,0:1|0:0,0:0:0:0:
256,224,53932,2,0,L|256:160,1,48,0|0,0:0|0:0,0:0:0:0:
432,272,54060,5,4,0:0:0:0:
496,272,54124,1,0,0:0:0:0:
432,272,54188,1,0,0:0:0:0:
496,272,54252,1,0,0:0:0:0:
432,272,54317,1,0,0:0:0:0:
240,272,54444,1,2,0:1:0:0:
176,272,54508,1,0,0:0:0:0:
240,272,54572,1,0,0:0:0:0:
176,272,54636,1,0,0:0:0:0:
240,272,54701,1,0,0:0:0:0:
336,272,54829,5,2,0:1:0:0:
280,272,54893,1,0,0:0:0:0:
400,240,55021,1,2,0:1:0:0:
280,208,55150,1,2,0:1:0:0:
400,160,55278,1,2,0:1:0:0:
456,160,55342,1,0,0:0:0:0:
336,96,55470,5,2,0:1:0:0:
392,96,55534,1,0,0:0:0:0:
272,96,55662,1,2,0:1:0:0:
328,160,55726,1,0,0:0:0:0:
384,160,55791,1,0,0:0:0:0:
256,160,55855,1,0,0:0:0:0:
56,208,55983,1,2,0:1:0:0:
112,208,56047,1,0,0:0:0:0:
24,272,56175,5,2,0:1:0:0:
80,272,56239,1,0,0:0:0:0:
80,272,56368,1,2,0:1:0:0:
280,272,56495,1,2,0:1:0:0:
336,272,56559,1,0,0:0:0:0:
208,320,56687,1,2,0:1:0:0:
152,320,56752,1,0,0:0:0:0:
400,272,56880,6,0,L|415:194,1,48,0|0,0:0|0:0,0:0:0:0:
336,208,57009,2,0,L|321:130,2,48,0|0|0,0:0|0:0|0:0,0:0:0:0:
400,272,57201,1,0,0:0:0:0:
240,240,57265,6,0,L|225:162,1,48,0|0,0:0|0:0,0:0:0:0:
291,174,57393,2,0,L|307:142,4,24,0|0|0|0|0,0:0|2:0|2:0|2:0|0:0,0:0:0:0:
230,192,57585,1,0,0:0:0:0:
80,240,57650,6,0,L|65:162,1,48,0|0,0:0|0:0,0:0:0:0:
131,176,57778,2,0,L|147:144,4,24,0|0|0|0|0,0:0|2:0|2:0|2:0|0:0,0:0:0:0:
70,192,57970,1,0,0:0:0:0:
224,160,58034,1,0,0:0:0:0:
16,96,58162,5,4,0:0:0:0:
112,112,58291,2,0,L|128:224,1,96,0|0,0:0|0:0,0:0:0:0:
32,144,58547,2,0,L|64:352,1,192,2|0,0:0|0:0,0:0:0:0:
160,256,58932,2,0,L|176:368,1,96,2|0,0:0|0:0,0:0:0:0:
304,256,59316,6,0,L|320:368,2,96,2|0|0,0:0|0:0|0:0,0:0:0:0:
448,256,59829,2,0,L|464:368,2,96,2|0|0,0:0|0:0|0:0,0:0:0:0:
254,255,60342,6,0,L|30:255,1,192,2|0,0:0|0:0,0:0:0:0:
256,208,60983,2,0,L|448:208,1,192,2|0,0:0|0:0,0:0:0:0:
272,288,61752,2,0,P|80:288|80:288,1,192,0|0,0:0|0:0,0:0:0:0:
80,240,62073,1,0,0:0:0:0:
80,240,62137,1,0,0:0:0:0:
80,240,62201,1,0,0:0:0:0:
144,224,62265,6,0,L|144:128,2,96,4|0|0,0:0|0:0|0:0,0:0:0:0:
192,224,62585,1,0,0:0:0:0:
240,224,62650,1,0,0:0:0:0:
336,160,62778,1,2,0:0:0:0:
288,160,62843,1,0,0:0:0:0:
240,160,62906,1,0,0:0:0:0:
336,224,63034,1,0,0:0:0:0:
384,224,63098,1,0,0:0:0:0:
432,224,63162,1,0,0:0:0:0:
224,304,63291,6,0,L|112:304,1,96,2|0,0:0|0:0,0:0:0:0:
80,304,63483,2,0,L|128:304,1,48,0|0,0:0|0:0,0:0:0:0:
224,304,63675,2,0,L|272:304,1,48,0|0,0:0|0:0,0:0:0:0:
224,304,63803,2,0,L|352:304,1,96,2|0,0:0|0:0,0:0:0:0:
368,304,63996,2,0,L|320:304,1,48,0|0,0:0|0:0,0:0:0:0:
224,304,64188,1,0,0:0:0:0:
496,304,64316,6,0,L|496:96,1,192,4|0,0:0|2:0,0:0:0:0:
256,288,64701,2,0,L|256:80,1,192,0|0,0:0|2:0,0:0:0:0:
16,320,65085,2,0,L|16:256,1,48,0|0,0:0|0:0,0:0:0:0:
160,288,65214,2,0,L|160:224,1,48,0|0,0:0|0:0,0:0:0:0:
16,304,65342,6,0,L|16:96,1,192,4|0,0:0|2:0,0:0:0:0:
256,288,65726,2,0,L|256:112,1,144,0|0,0:0|2:0,0:0:0:0:
400,240,65983,2,0,L|400:128,1,96,0|0,0:0|2:0,0:0:0:0:
256,288,66175,2,0,L|256:176,1,96,0|0,0:0|2:0,0:0:0:0:
16,304,66368,6,0,L|16:96,1,192,4|0,0:0|2:0,0:0:0:0:
256,288,66753,2,0,L|256:80,1,192,0|0,0:0|2:0,0:0:0:0:
496,320,67137,2,0,L|496:256,1,48,0|0,0:0|0:0,0:0:0:0:
352,288,67266,2,0,L|352:224,1,48,0|0,0:0|0:0,0:0:0:0:
496,304,67393,6,0,L|416:304,1,64,4|0,0:0|2:0,0:0:0:0:
256,320,67564,2,0,L|336:320,3,64,0|0|0|0,0:0|2:0|0:0|2:0,0:0:0:0:
80,240,67906,6,0,L|160:240,1,64,2|0,0:1|2:0,0:0:0:0:
320,256,68077,2,0,L|400:256,3,64,0|0|0|0,0:0|2:0|0:0|2:0,0:0:0:0:
160,176,68419,6,0,L|160:368,1,192,4|0,0:0|0:0,0:0:0:0:
256,352,68803,1,0,0:0:0:0:
352,176,68932,6,0,L|352:192,24,12,0|0|0|0|0|0|0|0|0|0|0|0|0|0|0|0|0|0|0|0|0|0|0|0|0,0:0|0:0|0:0|0:0|0:0|0:0|0:0|0:0|0:0|0:0|0:0|0:0|0:0|0:0|0:0|0:0|0:0|0:0|0:0|0:0|0:0|0:0|0:0|0:0|0:0,0:0:0:0:
256,192,69444,1,0,0:0:0:0:
352,176,69573,6,0,L|352:192,12,12,4|0|0|0|0|0|0|0|0|0|0|0|0,0:0|0:0|0:0|0:0|0:0|0:0|0:0|0:0|0:0|0:0|0:0|0:0|0:0,0:0:0:0:
304,176,69829,1,0,0:0:0:0:
416,176,69957,2,0,P|400:224|304:256,1,144,4|0,0:0|0:0,0:0:0:0:
192,259,70214,2,0,P|125:239|96:176,1,144,0|0,0:0|0:0,0:0:0:0:
480,304,70470,6,0,L|496:256,1,32,0|0,0:0|0:0,0:0:0:0:
384,256,70555,2,0,L|336:256,1,32,0|0,0:0|0:0,0:0:0:0:
240,240,70641,2,0,L|224:192,1,32,0|0,0:0|0:0,0:0:0:0:
416,176,70726,2,0,L|432:128,1,32,0|0,0:0|0:0,0:0:0:0:
320,128,70812,2,0,L|272:128,1,32,0|0,0:0|0:0,0:0:0:0:
176,112,70897,2,0,L|160:64,1,32,0|0,0:0|0:0,0:0:0:0:
352,304,70983,6,0,L|368:256,1,32,0|0,0:0|0:0,0:0:0:0:
256,256,71068,2,0,L|208:256,1,32,0|0,0:0|0:0,0:0:0:0:
112,240,71154,2,0,L|96:192,1,32,0|0,0:0|0:0,0:0:0:0:
288,176,71239,2,0,L|304:128,1,32,0|0,0:0|0:0,0:0:0:0:
192,128,71325,2,0,L|144:128,1,32,0|0,0:0|0:0,0:0:0:0:
48,112,71410,2,0,L|32:64,1,32,0|0,0:0|0:0,0:0:0:0:
272,144,71496,6,0,L|304:144,2,32,0|0|0,0:0|0:0|0:0,0:0:0:0:
240,144,71624,2,0,L|208:144,2,32,0|0|0,0:0|0:0|0:0,0:0:0:0:
352,224,71752,6,0,L|384:224,2,32,0|0|0,0:0|0:0|0:0,0:0:0:0:
160,224,71880,2,0,L|128:224,2,32,0|0|0,0:0|0:0|0:0,0:0:0:0:
384,320,72009,6,0,L|416:320,2,32,0|0|0,0:0|0:0|0:0,0:0:0:0:
128,320,72137,2,0,L|96:320,2,32,0|0|0,0:0|0:0|0:0,0:0:0:0:
448,208,72265,6,0,L|464:160,1,32,0|0,0:0|0:0,0:0:0:0:
336,192,72350,2,0,L|320:144,1,32,0|0,0:0|0:0,0:0:0:0:
448,208,72436,2,0,L|464:160,1,32,0|0,0:0|0:0,0:0:0:0:
256,192,72521,6,0,L|128:192,1,96,2|0,0:0|0:0,0:0:0:0:
256,192,72778,2,0,L|384:192,1,96,8|0,0:0|0:0,0:0:0:0:
352,160,72938,2,0,L|352:128,1,24,0|0,0:0|0:0,0:0:0:0:
176,144,73034,5,0,0:0:0:0:
272,128,73162,2,0,L|304:128,2,24,2|0|0,0:0|0:0|0:0,0:0:0:0:
112,64,73291,2,0,L|88:64,2,24,8|0|0,0:0|0:0|0:0,0:0:0:0:
176,64,73419,1,0,0:0:0:0:
384,176,73547,5,2,0:0:0:0:
176,208,73675,1,0,0:0:0:0:
384,160,73803,2,0,L|400:48,1,96,8|0,0:0|0:0,0:0:0:0:
160,64,74060,6,0,L|112:64,1,48,2|0,0:0|0:0,0:0:0:0:
256,32,74188,2,0,L|320:32,1,48,2|0,0:0|0:0,0:0:0:0:
160,112,74316,2,0,L|64:112,1,96,8|0,0:0|0:0,0:0:0:0:
272,192,74573,6,0,L|368:192,1,96,2|2,0:0|0:0,0:0:0:0:
160,304,74829,2,0,L|128:304,2,24,8|0|0,0:0|0:0|0:0,0:0:0:0:
224,304,74957,1,0,0:0:0:0:
464,272,75085,6,0,L|496:272,2,24
400,272,75213,1,2,0:0:0:0:
160,272,75342,2,0,L|112:272,1,48,8|0,0:0|0:0,0:0:0:0:
288,272,75470,2,0,L|336:272,1,48,0|0,0:0|0:0,0:0:0:0:
160,208,75598,6,0,L|64:208,1,96,4|0,0:0|0:0,0:0:0:0:
256,144,75855,1,8,0:0:0:0:
64,144,75983,2,0,L|32:144,2,24,0|0|0,0:0|0:0|0:0,0:0:0:0:
288,208,76111,6,0,L|384:208,1,96,0|2,0:0|0:0,0:0:0:0:
160,144,76368,1,8,0:0:0:0:
384,144,76496,1,0,0:0:0:0:
128,288,76624,6,0,L|224:288,2,96,4|0|8,0:2|0:0|0:0,0:0:0:0:
320,256,77009,1,0,0:0:0:0:
128,240,77137,6,0,P|84:196|128:144,1,144,2|0,0:0|0:0,0:0:0:0:
288,128,77393,1,8,0:0:0:0:
176,112,77521,1,0,0:0:0:0:
416,288,77650,6,0,L|320:288,2,96,2|0|8,0:0|0:0|0:0,0:0:0:0:
224,256,78035,1,0,0:0:0:0:
416,240,78162,6,0,L|432:144,1,96,2|2,0:0|0:0,0:0:0:0:
384,144,78355,1,0,0:0:0:0:
208,112,78419,1,8,0:0:0:0:
320,96,78547,1,0,0:0:0:0:
80,256,78675,5,4,0:2:0:0:
128,256,78739,1,0,0:0:0:0:
176,256,78803,1,0,0:0:0:0:
448,256,78932,2,0,L|464:144,1,96,8|0,0:0|0:0,0:0:0:0:
333,191,79124,2,0,L|317:79,1,96,0|0,0:0|0:0,0:0:0:0:
192,176,79316,2,0,L|208:64,1,96,8|0,0:0|0:0,0:0:0:0:
80,112,79509,2,0,L|73:51,1,48,8|0,0:0|0:0,0:0:0:0:
128,48,79637,1,0,0:0:0:0:
304,304,79701,5,4,0:2:0:0:
347,285,79765,1,0,0:0:0:0:
365,242,79829,1,0,0:0:0:0:
348,198,79893,1,0,0:0:0:0:
288,256,79957,1,0,0:0:0:0:
244,237,80021,1,0,0:0:0:0:
226,194,80085,1,0,0:0:0:0:
243,150,80149,1,0,0:0:0:0:
304,112,80214,6,0,L|352:112,1,48,2|0,0:0|0:0,0:0:0:0:
176,80,80342,2,0,L|160:16,1,48,0|0,0:0|0:0,0:0:0:0:
288,64,80470,2,0,L|304:0,1,48,2|0,0:0|0:0,0:0:0:0:
432,64,80598,2,0,L|416:0,1,48,2|0,0:0|0:0,0:0:0:0:
256,192,80726,6,0,L|384:192,1,96,4|0,0:0|0:0,0:0:0:0:
256,192,80983,2,0,L|128:192,1,96,8|0,0:0|0:0,0:0:0:0:
160,160,81143,2,0,L|160:128,1,24,0|0,0:0|0:0,0:0:0:0:
336,144,81239,5,0,0:0:0:0:
240,128,81367,2,0,L|208:128,2,24,2|0|0,0:0|0:0|0:0,0:0:0:0:
400,64,81496,2,0,L|424:64,2,24,8|0|0,0:0|0:0|0:0,0:0:0:0:
336,64,81624,1,0,0:0:0:0:
128,176,81752,5,2,0:0:0:0:
336,208,81880,1,0,0:0:0:0:
128,160,82008,2,0,L|112:48,1,96,8|0,0:0|0:0,0:0:0:0:
352,64,82265,6,0,L|400:64,1,48
256,32,82393,2,0,L|192:32,1,48,2|0,0:0|0:0,0:0:0:0:
352,112,82521,2,0,L|448:112,1,96,8|0,0:0|0:0,0:0:0:0:
240,192,82778,6,0,L|144:192,1,96,2|2,0:0|0:0,0:0:0:0:
352,304,83034,2,0,L|384:304,2,24,8|0|0,0:0|0:0|0:0,0:0:0:0:
288,304,83162,1,0,0:0:0:0:
96,304,83291,6,0,L|48:304,1,48,2|0,0:0|0:0,0:0:0:0:
112,272,83418,1,2,0:0:0:0:
352,272,83547,2,0,L|400:272,1,48,8|0,0:0|0:0,0:0:0:0:
224,272,83675,2,0,L|176:272,1,48,0|0,0:0|0:0,0:0:0:0:
352,208,83803,6,0,L|448:208,1,96,4|0,0:0|0:0,0:0:0:0:
256,144,84060,1,8,0:0:0:0:
448,128,84188,1,0,0:0:0:0:
224,208,84316,6,0,L|128:208,1,96,0|2,0:0|0:0,0:0:0:0:
352,144,84573,1,8,0:0:0:0:
128,144,84701,1,0,0:0:0:0:
384,288,84829,6,0,B|288:288|288:288|400:288,1,192,0|8,0:0|0:0,0:0:0:0:
192,256,85214,1,0,0:0:0:0:
400,224,85342,6,0,L|416:128,1,96,0|2,0:0|0:0,0:0:0:0:
224,128,85598,1,8,0:0:0:0:
336,112,85726,1,0,0:0:0:0:
96,288,85855,6,0,L|192:288,2,96,2|0|8,0:0|0:0|0:0,0:0:0:0:
288,256,86240,1,0,0:0:0:0:
96,240,86367,6,0,L|80:144,1,96,0|2,0:0|0:0,0:0:0:0:
128,144,86560,1,0,0:0:0:0:
304,112,86624,1,8,0:0:0:0:
192,96,86752,1,0,0:0:0:0:
416,192,86880,5,4,0:0:0:0:
416,192,87073,1,0,0:0:0:0:
416,192,87137,1,0,0:0:0:0:
416,192,87265,1,0,0:0:0:0:
416,288,87393,6,0,L|192:288,1,192
256,192,87906,12,0,88675,0:0:0:0:
336,304,88932,6,0,L|336:80,1,192,2|0,0:1|0:0,0:0:0:0:
307,169,89274,2,0,L|339:105,1,64,0|0,0:0|0:0,0:0:0:0:
272,96,89444,2,0,L|336:48,2,64,0|0|0,0:0|0:0|0:0,0:0:0:0:
352,16,89701,2,0,L|272:16,2,64,0|0|0,0:0|0:0|0:0,0:0:0:0:
176,304,89957,6,0,L|176:80,1,192,2|0,0:1|0:0,0:0:0:0:
205,169,90299,2,0,L|173:105,1,64,0|0,0:0|0:0,0:0:0:0:
240,96,90470,2,0,L|176:48,2,64,0|0|0,0:0|0:0|0:0,0:0:0:0:
160,16,90726,2,0,L|240:16,1,64,0|0,0:0|0:0,0:0:0:0:
288,16,90897,1,0,0:0:0:0:
96,304,90983,6,0,L|96:80,1,192,2|0,0:1|0:0,0:0:0:0:
125,169,91325,2,0,L|93:105,1,64,0|0,0:0|0:0,0:0:0:0:
160,96,91496,2,0,L|96:48,2,64,0|0|0,0:0|0:0|0:0,0:0:0:0:
80,16,91752,2,0,L|160:16,2,64,0|0|0,0:0|0:0|0:0,0:0:0:0:
256,112,92009,6,0,L|464:112,1,192,2|0,0:1|0:0,0:0:0:0:
432,174,92350,2,0,L|448:110,1,64,0|0,0:0|0:0,0:0:0:0:
384,208,92521,2,0,L|368:144,2,64,0|0|0,0:0|0:0|0:0,0:0:0:0:
448,240,92778,2,0,L|496:240,3,48,0|0|0|0,0:0|0:0|0:0|0:0,0:0:0:0:
501,207,93002,1,0,0:0:0:0:
496,224,93034,1,0,0:0:0:0:
448,208,93098,1,0,0:0:0:0:
160,192,93162,5,2,0:0:0:0:
352,160,93291,2,0,L|224:160,1,96,2|0,0:0|0:0,0:0:0:0:
448,128,93547,1,2,0:0:0:0:
256,96,93676,2,0,L|384:96,1,96,2|0,0:0|0:0,0:0:0:0:
146,287,93932,5,2,0:0:0:0:
338,255,94061,2,0,L|354:143,1,96,2|0,0:0|0:0,0:0:0:0:
160,160,94316,1,2,0:0:0:0:
352,128,94445,2,0,L|256:128,1,96,2|0,0:0|0:0,0:0:0:0:
448,240,94701,5,2,0:0:0:0:
256,208,94830,2,0,L|160:208,1,96,2|0,0:0|0:0,0:0:0:0:
112,208,95021,1,0,0:0:0:0:
84,168,95085,2,0,L|123:225,1,48,0|0,0:0|0:0,0:0:0:0:
352,192,95214,5,2,0:0:0:0:
160,160,95343,2,0,L|288:160,1,96,2|0,0:0|0:0,0:0:0:0:
64,128,95599,1,2,0:0:0:0:
256,96,95726,2,0,L|128:96,1,96,2|0,0:0|0:0,0:0:0:0:
366,287,95984,5,2,0:0:0:0:
174,255,96111,2,0,L|158:143,1,96,2|0,0:0|0:0,0:0:0:0:
352,160,96368,1,2,0:0:0:0:
160,128,96497,2,0,L|256:128,1,96,2|0,0:0|0:0,0:0:0:0:
64,240,96753,5,2,0:0:0:0:
256,208,96880,2,0,L|352:208,1,96,2|0,0:0|0:0,0:0:0:0:
304,208,97073,1,0,0:0:0:0:
160,208,97137,5,2,0:1:0:0:
256,160,97650,1,0,0:0:0:0:
384,208,98162,5,0,0:0:0:0:
256,160,98675,1,0,0:0:0:0:
96,192,99188,5,0,0:0:0:0:
256,192,99316,12,0,99957,0:0:0:0:
400,272,100214,5,0,0:0:0:0:
368,272,100230,1,0,0:0:0:0:
336,272,100246,1,0,0:0:0:0:
352,208,100470,1,0,0:0:0:0:
384,208,100486,1,0,0:0:0:0:
368,128,100726,1,0,0:0:0:0:
256,112,100855,1,0,0:1:0:0:
496,144,100983,2,0,L|496:304,1,144,8|0,0:1|0:0,0:0:0:0:
256,304,101239,5,4,0:0:0:0:
160,256,101367,2,0,L|240:256,1,48,0|0,0:0|0:0,0:0:0:0:
384,240,101496,1,8,0:0:0:0:
288,192,101624,2,0,L|368:192,1,48,0|0,0:0|0:0,0:0:0:0:
496,160,101752,2,0,L|384:160,1,96,0|2,0:0|0:0,0:0:0:0:
208,144,102008,2,0,L|320:144,1,96,8|0,0:0|0:0,0:0:0:0:
64,224,102265,6,0,L|48:112,1,96,2|0,0:0|0:0,0:0:0:0:
96,128,102457,1,0,0:0:0:0:
240,128,102521,2,0,L|256:16,1,96,8|0,0:0|0:0,0:0:0:0:
208,32,102713,1,0,0:0:0:0:
64,32,102778,2,0,L|160:32,1,96,0|2,0:0|0:0,0:0:0:0:
64,144,103034,2,0,L|32:144,1,32,8|0,0:0|0:0,0:0:0:0:
17,115,103120,2,0,L|33:143,1,32,0|0,0:0|0:0,0:0:0:0:
96,144,103226,1,0,0:0:0:0:
256,304,103290,5,2,0:0:0:0:
352,256,103418,2,0,L|272:256,1,48,0|0,0:0|0:0,0:0:0:0:
128,240,103547,1,8,0:0:0:0:
224,192,103675,2,0,L|144:192,1,48,0|0,0:0|0:0,0:0:0:0:
16,160,103803,2,0,L|128:160,1,96,0|2,0:0|0:0,0:0:0:0:
304,144,104059,2,0,L|192:144,1,96,8|0,0:0|0:0,0:0:0:0:
416,160,104316,6,0,L|432:128,2,24,2|0|0,0:0|0:0|0:0,0:0:0:0:
352,144,104444,2,0,L|352:96,1,48,0|0,0:0|0:0,0:0:0:0:
208,96,104573,2,0,L|192:64,2,24,2|0|0,0:0|0:0|0:0,0:0:0:0:
272,80,104701,2,0,L|272:32,1,48,0|0,0:0|0:0,0:0:0:0:
80,80,104829,2,0,L|48:80,2,24,2|0|0,0:0|0:0|0:0,0:0:0:0:
128,128,104957,2,0,L|80:128,2,48,2|0|0,0:0|0:0|0:0,0:0:0:0:
352,256,105214,6,0,L|128:256,1,192,4|0,0:0|0:0,0:0:0:0:
208,256,105534,1,0,0:0:0:0:
352,256,105598,2,0,L|448:256,1,96,8|0,0:0|0:0,0:0:0:0:
400,256,105790,1,0,0:0:0:0:
208,208,105855,2,0,L|320:208,1,96,0|2,0:0|0:0,0:0:0:0:
96,160,106111,2,0,L|208:160,1,96,8|0,0:0|0:0,0:0:0:0:
448,224,106367,6,0,L|464:112,1,96,2|0,0:0|0:0,0:0:0:0:
416,128,106559,1,0,0:0:0:0:
272,128,106623,2,0,L|256:16,1,96,8|0,0:0|0:0,0:0:0:0:
304,32,106815,1,0,0:0:0:0:
448,32,106880,2,0,L|336:32,1,96,0|2,0:0|0:0,0:0:0:0:
240,32,107137,2,0,L|208:32,2,32,8|0|0,0:0|0:0|0:0,0:0:0:0:
352,48,107265,2,0,L|416:48,1,48,0|0,0:0|0:0,0:0:0:0:
208,128,107393,6,0,L|144:128,1,48,4|0,0:2|0:0,0:0:0:0:
320,176,107521,2,0,L|320:304,1,96,0|4,0:0|0:2,0:0:0:0:
160,304,107714,2,0,L|112:304,1,48,0|0,0:0|0:0,0:0:0:0:
352,304,107906,2,0,L|400:304,2,48,0|0|2,0:0|0:0|0:0,0:0:0:0:
256,320,108162,2,0,L|192:320,3,48,8|0|0|0,0:0|0:0|0:0|0:0,0:0:0:0:
368,256,108419,6,0,L|464:256,1,64,2|2,0:0|0:0,0:0:0:0:
496,256,108590,1,0,0:0:0:0:
320,160,108675,2,0,L|416:160,1,64,2|2,0:0|0:0,0:0:0:0:
448,160,108846,1,0,0:0:0:0:
256,112,108931,6,0,L|240:176,3,48,2|0|0|0,2:0|2:0|2:0|2:0,0:0:0:0:
304,176,109188,1,2,2:0:0:0:
321,219,109252,1,0,2:0:0:0:
302,262,109316,1,0,2:0:0:0:
259,281,109380,1,0,2:0:0:0:
96,336,109444,6,0,B|288:336|288:336|304:224,1,288,0|0,0:0|0:0,0:0:0:0:
160,288,109701,2,0,L|112:288,1,48,8|0,0:0|0:0,0:0:0:0:
256,208,109829,2,0,L|192:208,1,48,0|0,0:0|0:0,0:0:0:0:
64,208,109957,2,0,L|160:208,1,96,0|2,0:0|0:0,0:0:0:0:
112,208,110150,2,0,L|160:208,1,48,0|8,0:0|0:0,0:0:0:0:
352,304,110342,6,0,L|400:304,1,48,0|0,0:0|0:0,0:0:0:0:
256,304,110470,2,0,L|252:265,2,24,2|0|0,0:0|0:0|0:0,0:0:0:0:
80,336,110598,2,0,L|32:336,1,48
176,320,110726,2,0,L|180:287,2,24,8|0|0,0:0|0:0|0:0,0:0:0:0:
352,240,110855,6,0,L|416:240,1,48,0|0,0:0|0:0,0:0:0:0:
336,240,110983,2,0,L|288:240,1,48,4|0,0:2|0:0,0:0:0:0:
432,208,111111,1,2,0:0:0:0:
496,176,111207,2,0,P|496:128|400:64,1,168,0|0,0:0|0:0,0:0:0:0:
224,192,111496,6,0,B|416:192|416:192|432:80,1,288,0|0,0:0|0:0,0:0:0:0:
256,176,111752,2,0,L|192:176,1,48,8|0,0:0|0:0,0:0:0:0:
64,176,111881,2,0,L|0:176,1,48,0|0,0:0|0:0,0:0:0:0:
160,176,112008,2,0,L|256:176,1,96,0|2,0:0|0:0,0:0:0:0:
208,176,112201,1,0,0:0:0:0:
160,176,112265,1,8,0:0:0:0:
368,176,112393,6,0,L|432:176,2,48,0|0|2,0:0|0:0|0:0,0:0:0:0:
304,224,112607,1,0,0:0:0:0:
368,272,112692,1,0,0:0:0:0:
176,240,112778,1,8,0:0:0:0:
240,288,112863,1,0,0:0:0:0:
176,240,112949,1,0,0:0:0:0:
32,224,113034,6,0,B|224:224|224:224|280:40|280:40|224:224,1,576,4|0,0:0|0:0,0:0:0:0:
416,96,113547,6,0,B|320:96|320:96|320:304,1,288,4|0,3:0|3:0,0:0:0:0:
368,304,113996,1,0,3:0:0:0:
320,288,114060,1,0,3:0:0:0:
368,304,114124,1,0,3:0:0:0:
224,304,114188,2,0,L|224:208,1,96,2|0,3:1|3:0,0:0:0:0:
368,256,114380,2,0,L|368:144,1,96,2|0,3:1|3:0,0:0:0:0:
224,80,114573,6,0,B|320:80|320:80|208:384,1,384,4|2,3:0|3:1,0:0:0:0:
464,336,115171,2,0,L|368:336,1,64,0|0,3:0|3:0,0:0:0:0:
224,336,115342,2,0,L|288:336,2,64,2|0|0,3:1|3:0|3:0,0:0:0:0:
368,288,115598,5,2,3:1:0:0:
192,240,115684,2,0,L|288:240,1,64,4|0,3:2|3:0,0:0:0:0:
160,176,115855,2,0,L|256:176,1,64,0|0,3:0|3:0,0:0:0:0:
400,160,116026,2,0,L|304:160,2,64,4|0|0,3:2|3:0|3:0,0:0:0:0:
256,128,116282,1,0,3:0:0:0:
432,96,116367,2,0,L|272:96,1,128,4|0,3:2|3:0,0:0:0:0:
96,144,116624,5,4,0:0:0:0:
176,176,116752,1,0,0:0:0:0:
96,256,116880,2,0,L|96:144,1,96,0|0,0:0|0:0,0:0:0:0:
176,176,117137,1,2,0:0:0:0:
96,144,117265,1,0,0:0:0:0:
336,208,117393,2,0,L|336:96,1,96,4|0,0:0|0:0,0:0:0:0:
25,224,117650,6,0,L|256:224,1,230.39999296875,2|0,0:0|0:0,0:0:0:0:
140,224,118034,1,0,0:0:0:0:
25,224,118162,2,0,L|256:224,1,230.39999296875,0|0,0:0|0:0,0:0:0:0:
25,224,118675,6,0,L|256:224,1,230.39999296875,2|0,0:0|0:0,0:0:0:0:
25,224,119188,2,0,L|153:224,1,115.199996484375,0|0,0:0|0:0,0:0:0:0:
256,224,119444,2,0,L|128:224,1,115.199996484375,0|0,0:0|0:0,0:0:0:0:
486,224,119701,6,0,L|310:224,1,153.5999953125,2|0,0:0|0:0,0:0:0:0:
294,224,119914,1,0,0:0:0:0:
256,224,119957,1,0,0:0:0:0:
371,224,120085,1,0,0:0:0:0:
487,224,120214,2,0,L|359:224,1,115.199996484375,0|0,0:0|0:0,0:0:0:0:
332,224,120384,1,0,0:0:0:0:
294,224,120427,1,0,0:0:0:0:
255,224,120470,1,0,0:0:0:0:
486,224,120726,6,0,L|214:224,1,230.39999296875,2|0,0:0|0:0,0:0:0:0:
352,304,121111,1,0,0:0:0:0:
486,224,121239,2,0,L|342:224,1,115.199996484375,0|0,0:0|0:0,0:0:0:0:
313,224,121431,1,0,0:0:0:0:
255,224,121496,2,0,L|399:224,1,115.199996484375,0|0,0:0|0:0,0:0:0:0:
25,224,121752,6,0,L|160:224,1,115.199996484375,2|0,0:0|0:0,0:0:0:0:
256,304,122008,1,0,0:0:0:0:
176,304,122094,1,0,0:0:0:0:
26,224,122265,2,0,L|298:224,1,230.39999296875
141,224,122650,1,0,0:0:0:0:
26,224,122778,6,0,L|298:224,1,230.39999296875,2|0,0:0|0:0,0:0:0:0:
25,224,123291,2,0,L|153:224,1,115.199996484375,0|2,0:0|0:0,0:0:0:0:
256,224,123547,2,0,L|128:224,1,115.199996484375,8|0,0:0|0:0,0:0:0:0:
200,224,123739,1,0,0:0:0:0:
448,272,123803,6,0,L|464:160,1,96,4|0,0:3|0:0,0:0:0:0:
240,144,124060,1,0,0:0:0:0:
464,272,124188,2,0,L|480:160,1,96,2|0,0:0|0:0,0:0:0:0:
256,144,124445,1,0,0:0:0:0:
64,272,124573,6,0,L|48:160,1,96,2|0,0:0|0:0,0:0:0:0:
272,144,124830,1,0,0:0:0:0:
48,272,124958,2,0,L|32:160,1,96,2|0,0:0|0:0,0:0:0:0:
288,64,125214,2,0,L|304:128,1,48,0|0,0:0|0:0,0:0:0:0:
160,112,125342,5,2,0:0:0:0:
112,112,125406,1,0,0:0:0:0:
64,112,125470,1,0,0:0:0:0:
256,176,125598,1,8,0:0:0:0:
64,240,125726,1,0,0:0:0:0:
384,256,125855,5,4,0:0:0:0:
496,256,125983,1,0,0:0:0:0:
272,176,126111,1,8,0:0:0:0:
384,176,126239,1,0,0:0:0:0:
128,256,126367,1,0,0:0:0:0:
16,256,126495,1,2,0:0:0:0:
240,176,126623,1,8,0:0:0:0:
352,176,126751,1,0,0:0:0:0:
304,176,126816,1,0,0:0:0:0:
16,128,126880,5,2,0:0:0:0:
112,128,127008,1,0,0:0:0:0:
304,96,127137,1,8,0:0:0:0:
208,96,127265,1,0,0:0:0:0:
400,128,127393,1,0,0:0:0:0:
496,128,127521,1,2,0:0:0:0:
176,192,127649,2,0,L|112:192,1,48,8|0,0:0|0:0,0:0:0:0:
336,192,127778,2,0,L|400:192,1,48,0|0,0:0|0:0,0:0:0:0:
144,288,127906,6,0,L|32:288,1,96,4|0,0:0|0:0,0:0:0:0:
192,240,128098,1,0,0:0:0:0:
240,224,128162,1,8,0:0:0:0:
192,208,128226,1,0,0:0:0:0:
336,176,128291,2,0,L|400:176,1,48,0|0,0:0|0:0,0:0:0:0:
224,272,128419,2,0,L|208:112,1,144,2|2,0:0|0:0,0:0:0:0:
64,160,128675,2,0,L|50:62,1,96,8|0,0:0|0:0,0:0:0:0:
288,112,128931,6,0,L|384:112,1,96,2|0,0:0|0:0,0:0:0:0:
192,48,129188,2,0,L|288:48,1,96,8|0,0:0|0:0,0:0:0:0:
80,272,129444,2,0,L|64:160,1,96,0|2,0:0|0:0,0:0:0:0:
112,160,129637,1,0,0:0:0:0:
272,128,129701,1,8,0:0:0:0:
160,96,129829,1,0,0:0:0:0:
400,256,129957,6,0,L|448:256,1,48,2|0,0:0|0:0,0:0:0:0:
272,240,130085,2,0,L|208:240,1,48,0|0,0:0|0:0,0:0:0:0:
400,208,130214,2,0,L|496:208,1,96,0|8,0:0|0:0,0:0:0:0:
256,160,130470,6,0,L|208:160,1,48,2|0,0:0|0:0,0:0:0:0:
384,144,130598,2,0,L|448:144,1,48,0|0,0:0|0:0,0:0:0:0:
256,112,130727,2,0,L|160:112,1,96,0|8,0:0|0:0,0:0:0:0:
208,112,130919,1,0,0:0:0:0:
48,272,130983,6,0,L|32:192,1,48,2|0,0:0|0:0,0:0:0:0:
208,256,131111,2,0,L|224:176,1,48,0|0,0:0|0:0,0:0:0:0:
48,272,131239,2,0,L|32:144,1,96,0|8,0:0|0:0,0:0:0:0:
304,176,131496,6,0,L|320:96,1,48,2|0,0:0|0:0,0:0:0:0:
176,160,131624,2,0,L|160:80,1,48,0|0,0:0|0:0,0:0:0:0:
219,98,131752,1,8,0:0:0:0:
368,96,131816,2,0,L|384:16,1,48,0|8,0:0|0:0,0:0:0:0:
160,32,132008,6,0,L|64:32,1,96,2|0,0:0|0:0,0:0:0:0:
224,96,132201,2,0,L|336:96,1,96,4|0,0:2|0:0,0:0:0:0:
160,160,132393,2,0,L|96:160,1,48,2|0,0:0|0:0,0:0:0:0:
320,224,132521,6,0,L|384:224,2,48,2|0|0,0:0|0:0|0:0,0:0:0:0:
160,224,132714,2,0,L|96:224,2,48,4|0|0,0:2|0:0|0:0,0:0:0:0:
320,288,132906,2,0,L|256:288,1,48,2|0,0:0|0:0,0:0:0:0:
64,208,133034,5,4,0:2:0:0:
112,208,133098,1,0,0:0:0:0:
160,208,133162,1,0,0:0:0:0:
304,160,133226,1,4,0:2:0:0:
256,160,133290,1,0,0:0:0:0:
208,160,133354,1,0,0:0:0:0:
352,208,133419,6,0,L|416:208,2,48,4|0|0,0:2|0:0|0:0,0:0:0:0:
160,208,133611,2,0,L|96:208,2,48,4|0|0,0:2|0:0|0:0,0:0:0:0:
400,160,133803,6,0,L|464:160,1,48,4|0,0:2|0:0,0:0:0:0:
288,80,133932,2,0,L|352:80,1,48,0|0,0:0|0:0,0:0:0:0:
160,144,134060,6,0,P|115:190|189:231,1,144,4|0,0:0|0:0,0:0:0:0:
320,256,134316,1,8,0:0:0:0:
224,256,134444,2,0,L|176:256,1,48,0|0,0:0|0:0,0:0:0:0:
320,192,134573,5,2,0:0:0:0:
432,160,134701,2,0,L|420:206,1,48,2|0,0:0|0:0,0:0:0:0:
292,158,134829,1,8,0:0:0:0:
420,206,134893,2,0,L|431:159,1,48,0|0,0:0|0:0,0:0:0:0:
240,128,135085,6,0,L|128:128,1,96,2|0,0:0|0:0,0:0:0:0:
336,80,135342,1,8,0:0:0:0:
144,64,135470,2,0,P|89:99|176:176,1,192,0|2,0:0|0:0,0:0:0:0:
256,224,135855,2,0,L|176:224,1,48,8|0,0:0|0:0,0:0:0:0:
64,224,135983,2,0,L|0:224,1,48,0|0,0:0|0:0,0:0:0:0:
160,288,136111,6,0,L|272:288,2,96,2|0|8,0:0|0:0|0:0,0:0:0:0:
352,256,136496,2,0,L|400:256,1,48,0|0,0:0|0:0,0:0:0:0:
224,208,136624,5,2,0:0:0:0:
112,176,136752,2,0,L|124:222,1,48,2|0,0:0|0:0,0:0:0:0:
252,174,136880,1,8,0:0:0:0:
124,222,136944,2,0,L|113:175,1,48,0|0,0:0|0:0,0:0:0:0:
304,144,137137,6,0,L|320:80,3,48,4|0|0|0,0:2|0:0|0:0|0:0,0:0:0:0:
240,96,137393,2,0,L|224:32,3,48,8|0|0|0,0:0|0:0|0:0|0:0,0:0:0:0:
384,48,137650,6,0,L|432:48,1,48
272,32,137778,2,0,L|208:32,1,48,2|0,0:0|0:0,0:0:0:0:
400,144,137906,2,0,L|448:144,3,48,8|0|0|0,0:0|0:0|0:0|0:0,0:0:0:0:
256,144,138162,6,0,L|128:144,1,96,4|0,0:0|0:0,0:0:0:0:
208,144,138355,1,0,0:0:0:0:
64,208,138419,2,0,L|48:304,1,96,8|0,0:0|0:0,0:0:0:0:
96,304,138611,1,0,0:0:0:0:
256,144,138675,6,0,L|384:144,1,96,2|2,0:2|0:0,0:0:0:0:
208,208,138868,1,0,0:0:0:0:
64,240,138932,2,0,L|80:336,1,96,8|0,0:0|0:0,0:0:0:0:
224,320,139124,1,0,0:0:0:0:
432,320,139188,6,0,L|448:208,1,96,4|0,0:0|0:0,0:0:0:0:
400,224,139380,1,0,0:0:0:0:
240,192,139444,2,0,L|336:192,1,96,8|0,0:0|0:0,0:0:0:0:
384,192,139637,1,0,0:0:0:0:
192,224,139701,6,0,L|176:112,1,96,2|0,0:0|0:0,0:0:0:0:
224,128,139893,1,0,0:0:0:0:
384,96,139957,2,0,L|288:96,1,96,8|0,0:0|0:0,0:0:0:0:
240,96,140150,1,0,0:0:0:0:
80,144,140214,6,0,P|16:192|96:240,1,192,4|0,0:0|0:0,0:0:0:0:
192,256,140598,2,0,L|144:256,1,48,0|0,0:0|0:0,0:0:0:0:
272,240,140726,6,0,L|400:240,1,96,8|0,0:0|0:0,0:0:0:0:
224,192,140919,2,0,L|176:192,2,48,2|0|0,0:0|0:0|0:0,0:0:0:0:
80,192,141111,2,0,L|0:192,1,48,8|0,0:0|0:0,0:0:0:0:
224,144,141239,6,0,L|336:144,1,96,4|0,0:2|0:0,0:0:0:0:
344,144,141400,1,0,0:0:0:0:
320,144,141432,1,0,0:0:0:0:
200,64,141496,1,8,0:0:0:0:
176,64,141528,1,0,0:0:0:0:
152,64,141560,1,0,0:0:0:0:
200,112,141624,2,0,L|136:112,1,48,0|0,0:0|0:0,0:0:0:0:
288,184,141752,5,0,0:0:0:0:
312,184,141784,1,0,0:0:0:0:
336,184,141816,1,0,0:0:0:0:
288,232,141880,2,0,L|352:232,1,48,2|0,0:0|0:0,0:0:0:0:
160,288,142009,2,0,L|48:288,1,96,8|0,0:0|0:0,0:0:0:0:
416,336,142265,5,4,0:1:0:0:
288,320,142778,1,8,0:0:0:0:
384,288,142906,1,0,0:0:0:0:
416,192,143034,1,0,0:0:0:0:
384,288,143162,1,0,0:0:0:0:
288,320,143290,5,0,0:0:0:0:
272,240,143419,1,0,0:0:0:0:
176,224,143547,1,0,0:0:0:0:
160,144,143676,1,0,0:0:0:0:
256,288,143803,5,8,0:0:0:0:
272,208,143932,1,0,0:0:0:0:
368,192,144060,1,0,0:0:0:0:
384,112,144189,1,0,0:0:0:0:
96,336,144316,5,4,0:2:0:0:
224,320,144829,1,8,0:0:0:0:
112,208,145000,1,0,0:0:0:0:
224,112,145171,1,0,0:0:0:0:
336,224,145342,6,0,L|320:112,1,96,2|0,0:0|0:0,0:0:0:0:
224,176,145598,2,0,L|208:64,1,96,0|0,0:0|0:0,0:0:0:0:
320,64,145855,2,0,L|368:64,3,48,8|0|0|0,0:0|0:0|0:0|0:0,0:0:0:0:
320,64,146111,2,0,L|176:64,1,144,0|0,0:0|0:0,0:0:0:0:
352,160,146368,6,0,L|464:160,1,96,4|0,0:0|0:0,0:0:0:0:
224,240,146624,1,8,0:0:0:0:
448,320,146752,2,0,L|288:320,1,144,2|0,0:0|0:0,0:0:0:0:
64,320,147009,2,0,L|256:320,1,192,2|8,0:0|0:0,0:0:0:0:
64,160,147393,6,0,L|160:160,1,96,4|0,0:0|0:0,0:0:0:0:
352,240,147649,1,8,0:0:0:0:
160,320,147777,2,0,L|320:320,1,144,2|0,0:0|0:0,0:0:0:0:
128,272,148034,2,0,L|112:160,1,96,2|0,0:0|0:0,0:0:0:0:
160,160,148226,1,0,0:0:0:0:
114,176,148291,1,8,0:0:0:0:
160,160,148355,1,0,0:0:0:0:
320,128,148419,6,0,L|432:128,1,96,4|0,0:0|0:0,0:0:0:0:
224,192,148611,2,0,L|224:304,1,96,2|0,0:0|0:0,0:0:0:0:
416,304,148803,2,0,L|368:304,1,48,8|0,0:0|0:0,0:0:0:0:
192,128,148932,6,0,L|80:128,1,96,4|0,0:0|0:0,0:0:0:0:
288,192,149124,2,0,L|288:304,1,96,2|0,0:0|0:0,0:0:0:0:
96,304,149316,2,0,L|144:304,1,48,2|0,0:0|0:0,0:0:0:0:
368,128,149444,6,0,L|480:128,1,96,4|0,0:0|0:0,0:0:0:0:
272,192,149636,2,0,L|176:192,1,96,2|0,0:0|0:0,0:0:0:0:
368,288,149829,2,0,L|416:288,1,48,8|0,0:0|0:0,0:0:0:0:
144,128,149957,6,0,L|32:128,1,96,4|0,0:0|0:0,0:0:0:0:
240,192,150149,2,0,L|336:192,1,96,2|0,0:0|0:0,0:0:0:0:
144,288,150342,2,0,L|96:288,1,48,2|0,0:0|0:0,0:0:0:0:
272,256,150470,5,4,0:0:0:0:
496,208,150598,2,0,L|336:208,1,144,4|0,0:2|0:0,0:0:0:0:
496,208,150855,2,0,L|336:208,1,144,0|0,0:0|0:0,0:0:0:0:
208,208,151111,2,0,L|320:208,2,96,4|0|0,0:2|0:0|0:0,0:0:0:0:
432,304,151496,2,0,L|448:192,1,96,4|0,0:2|0:0,0:0:0:0:
240,192,151752,5,4,0:0:0:0:
448,128,151880,2,0,L|288:128,1,144,4|0,0:2|0:0,0:0:0:0:
448,128,152137,2,0,L|288:128,1,144,0|0,0:0|0:0,0:0:0:0:
160,160,152393,2,0,L|256:160,2,96,4|0|0,0:2|0:0|0:0,0:0:0:0:
352,256,152778,2,0,L|192:256,1,144,4|0,0:2|0:0,0:0:0:0:
352,256,153034,5,4,0:0:0:0:
16,208,153162,2,0,L|176:208,1,144,4|0,0:2|0:0,0:0:0:0:
16,208,153419,2,0,L|176:208,1,144,0|0,0:0|0:0,0:0:0:0:
368,208,153675,2,0,L|256:208,2,96,4|0|0,0:2|0:0|0:0,0:0:0:0:
80,304,154060,2,0,L|64:192,1,96,4|0,0:2|0:0,0:0:0:0:
320,192,154316,5,4,0:0:0:0:
64,128,154444,2,0,L|224:128,1,144,4|0,0:2|0:0,0:0:0:0:
64,128,154701,2,0,L|224:128,1,144,0|0,0:0|0:0,0:0:0:0:
416,160,154957,2,0,L|320:160,2,96,4|0|0,0:2|0:0|0:0,0:0:0:0:
160,256,155342,2,0,L|320:256,1,144,4|0,0:2|0:0,0:0:0:0:
144,336,155598,6,0,L|112:336,2,24,0|0|0,0:0|0:0|0:0,0:0:0:0:
256,320,155694,1,0,0:0:0:0:
368,336,155726,2,0,L|400:336,2,24,0|0|0,0:0|0:0|0:0,0:0:0:0:
256,320,155823,1,0,0:0:0:0:
128,320,155855,6,0,L|96:320,2,24,0|0|0,0:0|0:0|0:0,0:0:0:0:
256,320,155951,1,0,0:0:0:0:
384,320,155983,2,0,L|416:320,2,24,0|0|0,0:0|0:0|0:0,0:0:0:0:
256,320,156080,1,0,0:0:0:0:
112,80,156111,6,0,L|80:80,2,24,0|0|0,0:0|0:0|0:0,0:0:0:0:
256,64,156207,1,0,0:0:0:0:
400,80,156239,2,0,L|432:80,2,24,0|0|0,0:0|0:0|0:0,0:0:0:0:
256,64,156336,1,0,0:0:0:0:
96,64,156368,6,0,L|64:64,2,24,0|0|0,0:0|0:0|0:0,0:0:0:0:
256,64,156464,1,0,0:0:0:0:
416,64,156496,2,0,L|448:64,2,24,0|0|0,0:0|0:0|0:0,0:0:0:0:
256,64,156593,1,0,0:0:0:0:
80,208,156624,6,0,L|48:208,2,24,0|0|0,0:0|0:0|0:0,0:0:0:0:
256,192,156720,1,0,0:0:0:0:
432,192,156752,2,0,L|464:192,2,24,0|0|0,0:0|0:0|0:0,0:0:0:0:
256,192,156849,1,0,0:0:0:0:
64,192,156880,6,0,L|32:192,2,24,0|0|0,0:0|0:0|0:0,0:0:0:0:
256,192,156976,1,0,0:0:0:0:
448,192,157008,2,0,L|480:192,2,24,0|0|0,0:0|0:0|0:0,0:0:0:0:
256,192,157105,1,0,0:0:0:0:
112,240,157137,6,0,L|48:240,2,64,0|0|0,3:0|3:0|3:0,0:0:0:0:
304,240,157393,2,0,L|368:240,2,64,4|0|0,3:1|3:0|3:0,0:0:0:0:
80,272,157650,5,4,0:0:0:0:
16,272,157714,1,0,0:0:0:0:
80,272,157778,1,0,0:0:0:0:
16,272,157842,1,0,0:0:0:0:
80,272,157907,1,0,0:0:0:0:
272,272,158035,1,2,0:1:0:0:
336,272,158099,1,0,0:0:0:0:
272,272,158163,1,0,0:0:0:0:
336,272,158227,1,0,0:0:0:0:
272,272,158292,1,0,0:0:0:0:
168,272,158419,5,2,0:1:0:0:
112,272,158484,1,0,0:0:0:0:
224,192,158612,1,2,0:1:0:0:
112,192,158740,1,2,0:1:0:0:
336,272,158868,1,2,0:1:0:0:
392,272,158933,1,0,0:0:0:0:
280,192,159060,5,2,0:1:0:0:
336,192,159124,1,0,0:0:0:0:
392,192,159253,1,2,0:1:0:0:
336,192,159317,1,0,0:0:0:0:
192,128,159381,1,0,0:0:0:0:
144,176,159445,2,0,L|256:176,1,96,2|0,0:1|0:0,0:0:0:0:
432,272,159702,5,4,0:0:0:0:
496,272,159766,1,0,0:0:0:0:
432,272,159830,1,0,0:0:0:0:
496,272,159894,1,0,0:0:0:0:
432,272,159957,1,0,0:0:0:0:
240,272,160085,1,0,0:0:0:0:
176,272,160151,1,0,0:0:0:0:
240,272,160215,1,0,0:0:0:0:
176,272,160279,1,0,0:0:0:0:
240,272,160342,1,0,0:0:0:0:
336,272,160471,5,0,0:1:0:0:
392,272,160534,1,0,0:0:0:0:
272,192,160662,1,0,0:0:0:0:
272,144,160792,1,2,0:1:0:0:
328,144,160855,1,0,0:0:0:0:
96,320,160984,6,0,L|48:320,3,32,2|0|0|0,0:1|0:0|0:0|0:0,0:0:0:0:
176,320,161240,2,0,L|224:320,3,32,2|0|0|0,0:1|0:0|0:0|0:0,0:0:0:0:
320,288,161496,2,0,L|320:224,1,48,2|0,0:1|0:0,0:0:0:0:
256,224,161625,2,0,L|256:160,1,48,0|0,0:0|0:0,0:0:0:0:
80,272,161753,5,4,0:0:0:0:
16,272,161817,1,0,0:0:0:0:
80,272,161881,1,0,0:0:0:0:
16,272,161945,1,0,0:0:0:0:
80,272,162010,1,0,0:0:0:0:
272,272,162137,1,2,0:1:0:0:
336,272,162201,1,0,0:0:0:0:
272,272,162265,1,0,0:0:0:0:
336,272,162329,1,0,0:0:0:0:
272,272,162394,1,0,0:0:0:0:
184,272,162522,5,2,0:1:0:0:
240,272,162586,1,0,0:0:0:0:
128,240,162714,1,2,0:1:0:0:
240,208,162843,1,2,0:1:0:0:
112,160,162971,1,2,0:1:0:0:
56,160,163035,1,0,0:0:0:0:
176,96,163163,5,2,0:1:0:0:
120,96,163227,1,0,0:0:0:0:
232,96,163355,1,2,0:1:0:0:
176,96,163419,1,0,0:0:0:0:
120,160,163484,1,0,0:0:0:0:
264,160,163548,1,0,0:0:0:0:
160,208,163676,1,2,0:1:0:0:
432,272,163803,5,4,0:0:0:0:
488,272,163868,1,0,0:0:0:0:
432,272,163932,1,0,0:0:0:0:
376,272,163996,1,0,0:0:0:0:
432,272,164061,1,2,0:1:0:0:
240,272,164188,1,2,0:1:0:0:
184,272,164252,1,0,0:0:0:0:
240,272,164316,1,0,0:0:0:0:
384,224,164380,1,2,0:1:0:0:
328,224,164445,1,0,0:0:0:0:
208,176,164573,1,0,0:0:0:0:
264,176,164638,1,0,0:0:0:0:
208,176,164701,1,0,0:0:0:0:
264,176,164766,1,0,0:0:0:0:
432,288,164829,6,0,L|448:224,2,48,0|0|0,0:0|0:0|0:0,0:0:0:0:
336,320,165085,1,0,0:0:0:0:
384,320,165149,1,0,0:0:0:0:
432,320,165213,1,0,0:0:0:0:
192,256,165342,6,0,L|128:256,2,48,0|0|0,0:0|0:0|0:0,0:0:0:0:
96,192,165598,1,0,0:0:0:0:
144,192,165662,1,0,0:0:0:0:
192,192,165726,1,0,0:0:0:0:
432,192,165855,6,0,L|384:192,1,48,4|0,0:1|0:0,0:0:0:0:
256,192,165983,2,0,L|304:192,1,48,0|0,0:0|0:0,0:0:0:0:
256,192,166111,2,0,L|192:192,1,48,8|0,0:1|0:0,0:0:0:0:
16,96,166239,6,0,L|64:96,1,48,0|0,0:0|0:0,0:0:0:0:
192,96,166367,2,0,L|144:96,1,48,0|0,0:0|0:0,0:0:0:0:
192,96,166495,2,0,L|256:96,1,48,8|0,0:1|0:0,0:0:0:0:
80,176,166624,6,0,L|32:176,2,48
256,192,166816,2,0,L|304:192,3,48,8|0|0|0,0:1|0:0|0:0|0:0,0:0:0:0:
464,240,167073,6,0,L|480:160,1,48,0|0,0:0|0:0,0:0:0:0:
352,160,167265,2,0,L|336:80,1,48,0|0,0:0|0:0,0:0:0:0:
400,96,167393,1,0,0:0:0:0:
240,96,167457,6,0,L|224:16,1,48
304,80,167585,2,0,L|320:0,1,48,0|0,0:0|0:0,0:0:0:0:
160,16,167714,2,0,L|96:16,2,48,0|0|0,0:0|0:0|0:0,0:0:0:0:
320,176,167906,6,0,L|384:176,1,48,4|0,0:1|0:0,0:0:0:0:
208,128,168034,2,0,L|272:128,1,48,0|0,0:0|0:0,0:0:0:0:
304,128,168162,2,0,L|240:128,1,48,8|0,0:1|0:0,0:0:0:0:
64,176,168291,6,0,L|0:176,1,48,0|0,0:0|0:0,0:0:0:0:
176,128,168419,2,0,L|112:128,1,48,0|0,0:0|0:0,0:0:0:0:
80,128,168547,2,0,L|144:128,1,48,8|0,0:1|0:0,0:0:0:0:
304,208,168675,6,0,L|240:208,2,48,0|0|0,0:0|0:0|0:0,0:0:0:0:
464,208,168868,2,0,L|400:208,3,48,8|0|0|0,0:1|0:0|0:0|0:0,0:0:0:0:
160,208,169188,6,0,L|128:208,1,32,0|0,0:0|0:0,0:0:0:0:
240,160,169274,2,0,L|288:160,1,32,0|0,0:0|0:0,0:0:0:0:
176,96,169444,2,0,L|144:96,1,32
288,48,169530,2,0,L|336:48,1,32,0|0,0:0|0:0,0:0:0:0:
80,64,169701,2,0,L|32:64,1,48
192,112,169829,2,0,L|240:112,1,48,0|0,0:0|0:0,0:0:0:0:
32,288,169957,6,0,L|96:288,1,48,4|0,0:1|0:0,0:0:0:0:
224,288,170085,2,0,L|288:288,1,48,0|0,0:0|0:0,0:0:0:0:
128,288,170214,1,8,0:1:0:0:
400,224,170342,6,0,L|336:224,1,48,0|0,0:0|0:0,0:0:0:0:
208,224,170470,2,0,L|144:224,1,48,0|0,0:0|0:0,0:0:0:0:
304,224,170599,1,8,0:1:0:0:
80,192,170726,6,0,L|32:192,2,48,0|0|0,0:0|0:0|0:0,0:0:0:0:
224,144,170919,2,0,L|176:144,1,48,8|0,0:1|0:0,0:0:0:0:
320,128,171047,2,0,L|368:128,1,48
224,64,171175,6,0,L|144:64,2,48
368,96,171368,2,0,L|288:96,1,48,0|0,0:0|0:0,0:0:0:0:
368,96,171496,2,0,L|416:96,1,48,0|0,0:0|0:0,0:0:0:0:
224,160,171624,2,0,L|176:160,1,48
400,224,171752,2,0,L|480:224,1,48,0|0,0:0|0:0,0:0:0:0:
208,304,171880,6,0,L|160:304,1,48,4|0,0:1|0:0,0:0:0:0:
288,208,172009,2,0,L|224:208,1,48,0|0,0:0|0:0,0:0:0:0:
96,208,172137,2,0,L|48:208,1,48,8|0,0:1|0:0,0:0:0:0:
304,304,172265,2,0,L|352:304,1,48,0|0,0:0|0:0,0:0:0:0:
224,208,172394,2,0,L|288:208,1,48,0|0,0:0|0:0,0:0:0:0:
416,208,172522,2,0,L|464:208,1,48,8|0,0:1|0:0,0:0:0:0:
320,208,172650,1,0,0:0:0:0:
224,176,172778,6,0,L|272:176,1,48,0|0,0:0|0:0,0:0:0:0:
96,176,172906,2,0,L|48:176,1,48,8|0,0:1|0:0,0:0:0:0:
256,112,173034,2,0,L|304:112,1,48,0|0,0:0|0:0,0:0:0:0:
64,112,173162,2,0,L|0:112,1,48,0|0,0:0|0:0,0:0:0:0:
160,64,173291,6,0,L|192:64,2,24,0|0|0,0:0|0:0|0:0,0:0:0:0:
16,112,173419,2,0,L|64:112,1,48,0|0,0:0|0:0,0:0:0:0:
208,112,173547,2,0,L|256:112,1,48,0|0,0:0|0:0,0:0:0:0:
400,112,173675,6,0,L|432:112,2,24,0|0|0,0:0|0:0|0:0,0:0:0:0:
240,192,173803,2,0,L|288:192,1,48
128,240,173931,2,0,L|80:240,1,48,0|0,0:0|0:0,0:0:0:0:
320,320,174060,5,4,0:1:0:0:
320,320,174573,1,8,0:0:0:0:
320,320,175085,1,0,0:0:0:0:
320,320,175598,1,8,0:0:0:0:
320,320,176111,1,0,0:0:0:0:
320,320,176624,1,8,0:0:0:0:
320,320,177137,1,0,0:0:0:0:
320,320,177650,1,8,0:0:0:0:
320,384,178162,6,0,L|320:-16,3,384,4|8|0|8,0:1|0:0|0:0|0:0,0:0:0:0:
304,352,180214,6,0,L|288:320,10,32,4|0|0|0|0|0|0|0|0|0|0,0:0|0:0|0:0|0:0|0:0|0:0|0:0|0:0|0:0|0:0|0:0,0:0:0:0:
384,336,180726,6,0,L|432:336,10,32,2|0|0|0|0|0|0|0|0|0|0,0:0|0:0|0:0|0:0|0:0|0:0|0:0|0:0|0:0|0:0|0:0,0:0:0:0:
304,352,181239,6,0,L|288:320,10,32,2|0|0|0|0|0|0|0|0|0|0,0:0|0:0|0:0|0:0|0:0|0:0|0:0|0:0|0:0|0:0|0:0,0:0:0:0:
208,336,181752,6,0,L|205:292,10,32,2|0|0|0|0|0|0|0|0|0|0,0:0|0:0|0:0|0:0|0:0|0:0|0:0|0:0|0:0|0:0|0:0,0:0:0:0:
432,224,182265,6,0,L|416:112,1,96,4|0,0:0|0:0,0:0:0:0:
320,128,182521,2,0,L|336:16,1,96,0|0,0:0|0:0,0:0:0:0:
240,224,182778,2,0,L|224:112,1,96
320,128,183034,2,0,L|336:16,1,96,0|0,0:0|0:0,0:0:0:0:
432,224,183291,6,0,L|416:112,1,96,0|0,0:0|0:0,0:0:0:0:
320,128,183547,2,0,L|336:16,1,96,0|0,0:0|0:0,0:0:0:0:
240,224,183804,2,0,L|224:112,1,96
320,128,184060,2,0,L|336:16,1,96,0|0,0:0|0:0,0:0:0:0:
432,224,184316,6,0,L|416:112,1,96,0|0,0:0|0:0,0:0:0:0:
320,128,184572,2,0,L|336:16,1,96,0|0,0:0|0:0,0:0:0:0:
240,224,184829,2,0,L|224:112,1,96
320,128,185085,2,0,L|336:16,1,96,0|0,0:0|0:0,0:0:0:0:
432,224,185342,6,0,L|416:112,1,96,0|0,0:0|0:0,0:0:0:0:
320,128,185598,2,0,L|336:16,1,96,0|0,0:0|0:0,0:0:0:0:
240,224,185855,5,0,0:0:0:0:
451,178,185983,2,0,L|333:174,1,96,2|0,0:1|0:0,0:0:0:0:
171,188,186175,2,0,L|289:184,1,96,2|0,0:1|0:0,0:0:0:0:
80,224,186368,6,0,L|96:112,1,96,2|0,0:1|0:0,0:0:0:0:
192,128,186624,2,0,L|176:16,1,96,0|0,0:0|0:0,0:0:0:0:
272,224,186881,2,0,L|288:112,1,96
192,128,187137,2,0,L|176:16,1,96,0|0,0:0|0:0,0:0:0:0:
80,224,187394,6,0,L|96:112,1,96,0|0,0:0|0:0,0:0:0:0:
192,128,187650,2,0,L|176:16,1,96,0|0,0:0|0:0,0:0:0:0:
272,224,187907,2,0,L|288:112,1,96
192,128,188163,2,0,L|176:16,1,96,0|0,0:0|0:0,0:0:0:0:
80,224,188419,6,0,L|112:16,1,192,2|0,0:1|0:0,0:0:0:0:
432,224,188803,2,0,L|400:16,1,192,2|0,0:1|0:0,0:0:0:0:
288,224,189188,2,0,L|320:16,1,192,2|0,0:1|0:0,0:0:0:0:
109,34,189573,2,0,L|80:224,1,192,2|0,0:1|0:0,0:0:0:0:
160,240,189957,1,0,0:0:0:0:
80,288,190085,1,0,0:0:0:0:
160,304,190214,1,0,0:0:0:0:
80,352,190342,1,0,0:0:0:0:
272,224,190470,6,0,L|288:112,1,96,4|0,0:3|0:0,0:0:0:0:
192,128,190726,2,0,L|176:16,1,96,0|0,0:0|0:0,0:0:0:0:
272,224,190983,2,0,L|288:112,1,96
192,128,191239,2,0,L|176:16,1,96,0|0,0:0|0:0,0:0:0:0:
272,224,191495,6,0,L|288:112,1,96,0|0,0:0|0:0,0:0:0:0:
192,128,191752,1,0,0:0:0:0:
416,288,191880,2,0,P|480:224|416:176,1,192,0|0,3:0|0:0,0:0:0:0:
216,176,192265,2,0,L|104:176,1,96,0|0,3:0|0:0,0:0:0:0:
416,152,192521,6,0,L|400:40,1,96,4|0,0:0|0:0,0:0:0:0:
299,111,192777,2,0,L|315:-1,1,96
208,144,193034,2,0,P|144:208|208:256,1,192,2|0,0:0|0:0,0:0:0:0:
448,320,193419,6,0,L|224:320,2,192,4|0|2,0:0|0:0|0:0,0:0:0:0:
464,272,193996,1,0,0:0:0:0:
320,256,194060,1,0,0:0:0:0:
312,208,194124,1,0,0:0:0:0:
304,160,194188,2,0,L|176:160,1,96,0|0,0:0|0:0,0:0:0:0:
200,116,194380,1,0,0:0:0:0:
192,68,194444,1,0,0:0:0:0:
183,19,194509,1,0,0:0:0:0:
416,304,194572,6,0,P|476:255|391:189,1,192,4|0,0:0|0:0,0:0:0:0:
304,176,194957,2,0,L|240:176,1,48,0|0,0:0|0:0,0:0:0:0:
400,208,195085,2,0,L|416:96,1,96,2|0,0:0|0:0,0:0:0:0:
272,144,195277,2,0,L|256:32,1,96,0|0,0:0|0:0,0:0:0:0:
400,208,195470,2,0,L|416:144,1,48,2|0,0:0|0:0,0:0:0:0:
224,320,195598,6,0,P|164:271|249:205,1,192,4|0,0:0|0:0,0:0:0:0:
336,192,195983,2,0,L|400:192,1,48,0|0,0:0|0:0,0:0:0:0:
224,224,196111,1,2,0:0:0:0:
320,160,196239,2,0,L|256:160,1,48,0|0,0:0|0:0,0:0:0:0:
128,160,196367,2,0,L|48:160,3,48,0|0|2|0,0:0|0:0|0:0|0:0,0:0:0:0:
240,96,196624,6,0,L|368:96,1,96,2|0,0:0|0:0,0:0:0:0:
208,176,196816,2,0,L|304:176,1,96,0|0,0:0|0:0,0:0:0:0:
432,176,197008,1,2,0:0:0:0:
208,128,197136,6,0,L|80:128,1,96,2|0,0:0|0:0,0:0:0:0:
240,208,197328,2,0,L|144:208,1,96,0|0,0:0|0:0,0:0:0:0:
16,208,197520,1,2,0:0:0:0:
64,208,197585,1,0,0:0:0:0:
256,288,197649,6,0,L|272:160,1,96,2|0,0:0|0:0,0:0:0:0:
128,192,197842,2,0,L|112:64,1,96,0|0,0:0|0:0,0:0:0:0:
256,64,198034,1,2,0:0:0:0:
304,64,198098,1,0,0:0:0:0:
496,192,198162,6,0,L|384:192,1,96,2|0,0:0|0:0,0:0:0:0:
267,192,198354,1,0,0:0:0:0:
400,256,198418,2,0,L|448:256,1,48,2|0,0:0|0:0,0:0:0:0:
272,256,198547,6,0,L|224:256,1,48
256,192,199957,12,0,202521,0:0:0:0:
320,304,202778,6,0,P|400:272|304:96,1,336,8|0,0:0|0:0,0:0:0:0:
192,96,203291,1,0,0:0:0:0:
320,96,203547,1,0,0:0:0:0:
192,304,203804,6,0,P|112:272|208:96,1,336,8|0,0:0|0:0,0:0:0:0:
320,304,204317,2,0,P|400:272|304:96,1,336,0|0,0:0|0:0,0:0:0:0:
192,304,204829,6,0,P|112:272|208:96,1,336,8|0,0:0|0:0,0:0:0:0:
320,96,205342,1,0,0:0:0:0:
192,96,205598,1,0,0:0:0:0:
320,304,205855,6,0,P|400:272|304:96,1,336,8|0,0:0|0:0,0:0:0:0:
192,304,206368,2,0,P|112:272|128:112,1,224,0|0,0:0|0:0,0:0:0:0:
160,96,206753,1,0,0:0:0:0:
256,96,206881,5,8,0:0:0:0:
256,224,207394,1,0,0:0:0:0:
256,96,207522,2,0,L|256:320,1,224,0|0,0:0|0:0,0:0:0:0:
256,96,207906,5,8,0:0:0:0:
256,176,208162,1,0,0:0:0:0:
256,240,208291,1,0,0:0:0:0:
256,96,208419,2,0,L|256:320,1,224,0|0,0:0|0:0,0:0:0:0:
256,176,208804,1,0,0:0:0:0:
256,272,208932,5,8,0:0:0:0:
256,240,209060,1,0,0:0:0:0:
256,96,209188,2,0,L|256:320,1,224,0|0,0:0|0:0,0:0:0:0:
256,272,209637,1,0,0:0:0:0:
320,256,209701,1,0,0:0:0:0:
341,204,209765,1,0,0:0:0:0:
320,144,209829,1,0,0:0:0:0:
256,128,209893,1,0,0:0:0:0:
128,272,209957,5,0,0:0:0:0:
96,272,209973,1,0,0:0:0:0:
64,272,209989,1,0,0:0:0:0:
80,208,210213,1,0,0:0:0:0:
112,208,210229,1,0,0:0:0:0:
224,160,210342,2,0,L|168:160,1,55.9999992879232,0|0,0:0|0:0,0:0:0:0:
336,96,210470,2,0,L|392:96,1,55.9999992879232,0|0,0:0|0:0,0:0:0:0:
336,128,210598,2,0,L|280:128,1,55.9999992879232,2|0,0:1|0:0,0:0:0:0:
440,160,210726,2,0,L|496:160,3,55.9999992879232,8|0|0|0,0:1|0:0|0:0|0:0,0:0:0:0:
256,224,210983,6,0,L|144:224,1,96,4|0,0:0|0:0,0:0:0:0:
208,224,211175,1,0,0:0:0:0:
48,224,211239,1,8,0:0:0:0:
256,176,211368,2,0,L|304:176,1,48,2|0,0:0|0:0,0:0:0:0:
160,128,211496,6,0,L|48:128,1,96,0|2,0:0|0:0,0:0:0:0:
320,96,211752,2,0,L|256:96,1,48,8|0,0:0|0:0,0:0:0:0:
208,128,211880,2,0,L|256:128,1,48,0|0,0:0|0:0,0:0:0:0:
448,288,212009,6,0,L|464:160,1,96,2|0,0:0|0:0,0:0:0:0:
400,176,212201,1,0,0:0:0:0:
208,160,212265,2,0,L|304:160,1,96,8|0,0:0|0:0,0:0:0:0:
256,160,212457,1,0,0:0:0:0:
64,256,212521,5,0,0:0:0:0:
272,304,212650,1,2,0:0:0:0:
80,352,212778,2,0,L|64:256,1,96,8|0,0:0|0:0,0:0:0:0:
256,224,213034,6,0,L|368:224,1,96,2|0,0:0|0:0,0:0:0:0:
304,224,213226,1,0,0:0:0:0:
464,224,213290,1,8,0:0:0:0:
256,176,213419,2,0,L|208:176,1,48,2|0,0:0|0:0,0:0:0:0:
352,128,213547,6,0,L|400:128,2,48,0|0|2,0:0|0:0|0:0,0:0:0:0:
256,96,213803,2,0,L|320:96,1,48,8|0,0:0|0:0,0:0:0:0:
144,96,213931,2,0,L|96:96,1,48,0|0,0:0|0:0,0:0:0:0:
288,288,214060,6,0,L|304:160,1,96,4|0,0:2|0:0,0:0:0:0:
256,192,214252,1,0,0:0:0:0:
80,192,214316,2,0,L|64:64,1,96,4|0,0:2|0:0,0:0:0:0:
112,96,214508,1,0,0:0:0:0:
320,192,214572,5,0,0:0:0:0:
112,240,214701,1,2,0:0:0:0:
304,288,214829,2,0,L|320:192,1,96,8|0,0:0|0:0,0:0:0:0:
96,208,215085,6,0,L|80:96,1,96,4|0,0:0|0:0,0:0:0:0:
132,96,215278,1,0,0:0:0:0:
288,64,215342,1,8,0:0:0:0:
80,48,215470,2,0,L|32:48,1,48,2|0,0:0|0:0,0:0:0:0:
176,128,215598,6,0,L|272:128,1,96,0|2,0:0|0:0,0:0:0:0:
64,208,215855,2,0,L|16:208,1,48,8|0,0:0|0:0,0:0:0:0:
160,256,215983,2,0,L|224:256,1,48,0|0,0:0|0:0,0:0:0:0:
384,256,216111,6,0,L|272:256,1,96,4|0,0:0|0:0,0:0:0:0:
336,256,216303,1,0,0:0:0:0:
496,256,216368,1,8,0:0:0:0:
288,208,216496,2,0,L|240:208,1,48,0|0,0:0|0:0,0:0:0:0:
416,176,216624,6,0,L|432:112,1,48,4|0,0:2|0:0,0:0:0:0:
288,80,216752,2,0,L|336:80,1,48,4|0,0:2|0:0,0:0:0:0:
176,128,216880,2,0,L|160:64,1,48,8|0,0:0|0:0,0:0:0:0:
224,32,217008,2,0,L|176:32,1,48,0|0,0:0|0:0,0:0:0:0:
16,208,217137,5,4,0:0:0:0:
224,144,217265,1,2,0:0:0:0:
16,208,217393,1,2,0:0:0:0:
256,192,217521,1,2,0:0:0:0:
496,272,217650,6,0,L|400:272,1,96,8|0,0:0|0:0,0:0:0:0:
256,272,217842,2,0,L|304:272,1,48,0|0,0:0|0:0,0:0:0:0:
160,272,217970,2,0,L|112:272,3,48,0|0|0|0,0:0|0:0|0:0|0:0,0:0:0:0:
368,192,218291,5,2,0:0:0:0:
160,192,218419,2,0,L|128:192,3,32,8|0|0|0,0:0|0:0|0:0|0:0,0:0:0:0:
224,160,218675,1,4,0:2:0:0:
448,128,218803,1,2,0:0:0:0:
224,96,218932,1,8,0:0:0:0:
448,64,219060,1,0,0:0:0:0:
224,256,219188,6,0,L|128:256,1,96,4|0,0:0|0:0,0:0:0:0:
176,256,219380,1,0,0:0:0:0:
320,256,219444,1,8,0:0:0:0:
112,176,219573,2,0,L|16:176,1,96,2|0,0:0|0:0,0:0:0:0:
64,176,219765,1,0,0:0:0:0:
208,176,219829,6,0,L|160:176,1,48,2|0,0:0|0:0,0:0:0:0:
304,144,219957,2,0,L|368:144,3,48,8|0|0|0,0:0|0:0|0:0|0:0,0:0:0:0:
496,288,220214,6,0,L|-32:288,2,480,4|2|4,0:3|0:0|0:2,0:0:0:0:
256,272,220855,2,0,L|240:160,1,96,2|8,0:0|0:0,0:0:0:0:
448,208,221111,6,0,P|496:176|419:75,1,192,4|2,0:0|0:0,0:0:0:0:
400,80,221432,1,0,0:0:0:0:
240,80,221496,1,8,0:0:0:0:
448,272,221624,2,0,L|464:160,1,96,2|0,0:0|0:0,0:0:0:0:
416,176,221816,1,0,0:0:0:0:
256,176,221880,6,0,L|304:176,1,48,2|0,0:0|0:0,0:0:0:0:
160,208,222009,2,0,L|144:272,1,48,8|0,0:0|0:0,0:0:0:0:
208,256,222137,2,0,L|224:320,1,48,0|0,0:0|0:0,0:0:0:0:
32,352,222265,6,0,L|160:352,1,96,4|0,0:2|0:0,0:0:0:0:
128,320,222425,1,0,0:0:0:0:
128,296,222457,1,0,0:0:0:0:
304,240,222521,6,0,L|176:240,1,96,4|0,0:2|0:0,0:0:0:0:
208,208,222681,1,0,0:0:0:0:
208,184,222713,1,0,0:0:0:0:
384,144,222778,5,4,0:2:0:0:
160,144,222906,2,0,L|48:144,1,96,2|8,0:0|0:0,0:0:0:0:
304,336,223162,6,0,P|365:280|301:216,1,192,4|2,0:0|0:0,0:0:0:0:
160,192,223483,1,0,0:0:0:0:
304,160,223547,2,0,L|384:160,1,48,8|0,0:0|0:0,0:0:0:0:
160,272,223675,6,0,L|144:160,1,96,2|8,0:0|0:0,0:0:0:0:
288,144,223868,1,0,0:0:0:0:
144,144,223932,2,0,L|96:144,1,48,0|0,0:0|0:0,0:0:0:0:
288,96,224060,2,0,L|352:96,1,48,2|0,0:0|0:0,0:0:0:0:
176,48,224188,2,0,L|224:48,1,48,0|0,0:0|0:0,0:0:0:0:
48,240,224316,6,0,L|32:144,1,96,4|0,0:0|0:0,0:0:0:0:
176,112,224509,1,0,0:0:0:0:
320,96,224573,2,0,L|272:96,1,48,8|0,0:0|0:0,0:0:0:0:
416,208,224701,2,0,L|432:112,1,96,2|0,0:0|0:0,0:0:0:0:
288,80,224893,1,0,0:0:0:0:
144,64,224957,6,0,L|192:64,1,48,2|0,0:0|0:0,0:0:0:0:
336,48,225085,2,0,L|288:48,1,48,8|0,0:0|0:0,0:0:0:0:
432,64,225214,2,0,L|496:64,1,48,0|0,0:0|0:0,0:0:0:0:
112,224,225342,6,0,L|-16:224,1,96,4|0,0:0|0:0,0:0:0:0:
176,224,225534,1,0,0:0:0:0:
496,224,225598,1,8,0:0:0:0:
336,224,225662,1,0,0:0:0:0:
112,224,225726,6,0,L|-16:224,1,96,4|0,0:0|0:0,0:0:0:0:
176,224,225918,1,0,0:0:0:0:
496,224,225983,1,2,0:0:0:0:
336,224,226047,1,0,0:0:0:0:
112,288,226111,6,0,L|16:288,1,96,8|0,0:0|0:0,0:0:0:0:
256,240,226368,5,4,0:0:0:0:
16,208,226496,2,0,L|128:208,1,96,0|0,0:0|0:0,0:0:0:0:
496,208,226752,2,0,L|384:208,1,96,4|0,0:2|0:0,0:0:0:0:
80,160,227009,1,2,0:0:0:0:
432,160,227137,1,8,0:0:0:0:
112,96,227265,1,0,0:0:0:0:
320,304,227393,5,2,0:0:0:0:
365,296,227457,1,0,0:0:0:0:
387,254,227521,1,0,0:0:0:0:
368,212,227585,1,0,0:0:0:0:
208,208,227650,2,0,L|160:208,1,48,8|0,0:0|0:0,0:0:0:0:
304,176,227778,2,0,L|352:176,1,48,0|0,0:0|0:0,0:0:0:0:
192,144,227906,6,0,L|176:80,1,48,0|0,0:0|0:0,0:0:0:0:
48,96,228034,2,0,L|32:32,1,48,2|0,0:0|0:0,0:0:0:0:
192,32,228162,2,0,L|240:32,1,48,8|0,0:0|0:0,0:0:0:0:
176,64,228291,2,0,L|96:64,1,48,0|0,0:0|0:0,0:0:0:0:
288,224,228419,6,0,L|304:160,3,48,2|0|0|0,0:0|0:0|0:0|0:0,0:0:0:0:
176,160,228675,2,0,L|160:96,3,48,8|0|0|0,0:0|0:0|0:0|0:0,0:0:0:0:
320,80,228932,6,0,L|336:144,1,48,0|0,0:0|0:0,0:0:0:0:
208,176,229060,2,0,L|192:240,1,48,8|0,0:0|0:0,0:0:0:0:
48,256,229188,1,8,0:0:0:0:
28,298,229252,1,0,0:0:0:0:
46,341,229316,1,0,0:0:0:0:
89,357,229380,1,0,0:0:0:0:
272,336,229444,6,0,L|224:336,1,48,2|0,0:0|0:0,0:0:0:0:
160,320,229573,2,0,L|208:320,1,48,0|0,0:0|0:0,0:0:0:0:
368,272,229701,2,0,L|432:272,1,48,8|0,0:0|0:0,0:0:0:0:
256,240,229829,2,0,L|192:240,1,48,0|0,0:0|0:0,0:0:0:0:
384,192,229957,5,0,0:0:0:0:
429,182,230021,1,0,0:0:0:0:
447,140,230085,1,2,0:0:0:0:
423,101,230149,1,0,0:0:0:0:
272,96,230214,2,0,L|224:96,1,48,8|0,0:0|0:0,0:0:0:0:
368,160,230342,2,0,L|288:160,1,48,0|0,0:0|0:0,0:0:0:0:
128,224,230470,6,0,L|64:224,3,48,2|0|0|0,0:0|0:0|0:0|0:0,0:0:0:0:
256,192,230726,2,0,L|272:112,1,48,8|0,0:0|0:0,0:0:0:0:
128,128,230855,2,0,L|112:48,1,48,0|0,0:0|0:0,0:0:0:0:
272,64,230983,6,0,L|336:64,2,48,0|0|0,0:0|0:0|0:0,0:0:0:0:
416,112,231175,2,0,L|480:112,2,48,2|0|0,0:0|0:0|0:0,0:0:0:0:
272,160,231368,2,0,L|208:160,1,48,8|0,0:0|0:0,0:0:0:0:
384,304,231496,5,2,0:0:0:0:
425,285,231560,1,0,0:0:0:0:
427,240,231624,1,0,0:0:0:0:
387,218,231688,1,0,0:0:0:0:
320,208,231752,2,0,L|272:208,1,48,8|0,0:0|0:0,0:0:0:0:
339,218,231880,2,0,L|387:218,1,48,0|0,0:0|0:0,0:0:0:0:
160,288,232009,6,0,B|144:193|144:193|155:159,1,120,4|0,0:0|0:0,0:0:0:0:
288,192,232201,2,0,B|304:97|304:97|293:63,1,120,0|0,0:0|0:0,0:0:0:0:
144,64,232393,2,0,L|96:64,1,48,0|0,0:0|0:0,0:0:0:0:
240,208,232521,5,2,0:0:0:0:
262,247,232585,1,0,0:0:0:0:
239,287,232649,1,0,0:0:0:0:
194,289,232713,1,0,0:0:0:0:
272,320,232778,2,0,L|320:320,1,48,8|0,0:0|0:0,0:0:0:0:
240,352,232906,2,0,L|192:352,1,48,0|0,0:0|0:0,0:0:0:0:
32,272,233034,6,0,L|144:272,1,96,0|0,0:0|0:0,0:0:0:0:
288,224,233226,2,0,L|160:224,1,96,8|0,0:0|0:0,0:0:0:0:
352,272,233419,2,0,L|416:272,1,48,8|0,0:0|0:0,0:0:0:0:
256,208,233547,5,2,0:0:0:0:
160,176,233675,1,8,0:0:0:0:
288,176,233739,1,0,0:0:0:0:
416,176,233803,1,0,0:0:0:0:
144,96,233932,1,8,0:0:0:0:
272,96,233996,1,0,0:0:0:0:
400,96,234060,6,0,L|480:96,2,64,8|8|8,0:0|0:0|0:0,0:0:0:0:
240,112,234316,2,0,L|304:112,1,64,8|8,0:0|0:0,0:0:0:0:
144,128,234487,1,8,0:0:0:0:
304,288,234573,6,0,B|320:176,1,96,2|0,0:0|0:0,0:0:0:0:
208,288,234744,2,0,B|192:176,1,96,8|0,0:0|0:0,0:0:0:0:
336,240,234915,2,0,B|352:128,1,96,8|0,0:0|0:0,0:0:0:0:
208,112,235085,6,0,L|112:112,1,96
304,112,235256,2,0,L|400:112,1,96,8|0,0:0|0:0,0:0:0:0:
192,176,235427,2,0,L|96:176,1,96,8|0,0:0|0:0,0:0:0:0:
224,224,235598,6,0,L|304:224,3,48,0|0|0|0,0:0|0:0|0:0|0:0,0:0:0:0:
64,240,235855,2,0,L|0:240,1,48,4|0,0:0|0:0,0:0:0:0:
160,288,235983,2,0,L|224:288,1,48,0|0,0:0|0:0,0:0:0:0:
368,224,236111,6,0,L|377:271,1,48,0|0,0:0|0:0,0:0:0:0:
240,208,236239,2,0,L|224:128,1,48,2|0,0:0|0:0,0:0:0:0:
80,144,236368,2,0,L|64:80,1,48,8|0,0:0|0:0,0:0:0:0:
100,47,236496,2,0,L|148:47,1,48,0|0,0:0|0:0,0:0:0:0:
304,112,236624,6,0,L|240:112,1,48,2|0,0:0|0:0,0:0:0:0:
192,112,236752,2,0,L|256:112,1,48,0|0,0:0|0:0,0:0:0:0:
96,192,236880,1,8,0:0:0:0:
50,199,236944,1,0,0:0:0:0:
29,240,237008,1,0,0:0:0:0:
50,281,237072,1,0,0:0:0:0:
224,288,237137,6,0,L|288:288,1,48,0|0,0:0|0:0,0:0:0:0:
208,256,237265,2,0,L|144:256,1,48,8|0,0:0|0:0,0:0:0:0:
336,192,237393,2,0,L|272:192,1,48,8|0,0:0|0:0,0:0:0:0:
352,176,237521,2,0,L|416:176,1,48,0|0,0:0|0:0,0:0:0:0:
240,304,237650,5,2,0:0:0:0:
195,290,237714,1,0,0:0:0:0:
175,248,237778,1,0,0:0:0:0:
194,206,237842,1,0,0:0:0:0:
352,160,237906,2,0,L|304:160,1,48,8|0,0:0|0:0,0:0:0:0:
160,160,238034,2,0,L|80:160,1,48,0|0,0:0|0:0,0:0:0:0:
288,80,238162,6,0,L|336:80,1,48,0|0,0:0|0:0,0:0:0:0:
176,32,238291,2,0,L|240:32,1,48,2|0,0:0|0:0,0:0:0:0:
80,128,238419,2,0,L|64:208,1,48,8|0,0:0|0:0,0:0:0:0:
256,176,238547,2,0,L|272:256,1,48,0|0,0:0|0:0,0:0:0:0:
96,336,238675,6,0,L|80:272,1,48,2|0,0:0|0:0,0:0:0:0:
144,272,238803,1,0,0:0:0:0:
288,256,238868,2,0,L|304:192,1,48,8|0,0:0|0:0,0:0:0:0:
160,176,238996,1,0,0:0:0:0:
304,160,239060,1,8,0:0:0:0:
448,144,239124,1,0,0:0:0:0:
224,288,239188,6,0,L|160:288,2,48,2|0|0,0:0|0:0|0:0,0:0:0:0:
384,240,239380,2,0,L|320:240,1,48,8|0,0:0|0:0,0:0:0:0:
192,192,239509,1,0,0:0:0:0:
336,176,239573,1,8,0:0:0:0:
480,160,239637,1,0,0:0:0:0:
176,288,239701,6,0,L|128:288,1,48,4|0,0:0|0:0,0:0:0:0:
320,272,239829,2,0,L|384:272,1,48,2|0,0:0|0:0,0:0:0:0:
176,288,239957,2,0,L|112:288,1,48,2|0,0:0|0:0,0:0:0:0:
416,320,240085,6,0,L|464:320,1,48,0|0,0:0|0:0,0:0:0:0:
272,304,240213,2,0,L|208:304,1,48,2|0,0:0|0:0,0:0:0:0:
416,320,240341,2,0,L|480:320,1,48,2|0,0:0|0:0,0:0:0:0:
240,176,240470,5,2,0:0:0:0:
48,144,240598,2,0,L|112:144,1,48,8|0,0:0|0:0,0:0:0:0:
352,96,240726,1,4,0:0:0:0:
160,96,240855,1,8,0:0:0:0:
256,128,240983,6,0,L|144:128,1,96,0|2,0:0|0:0,0:0:0:0:
208,192,241175,1,0,0:0:0:0:
384,256,241239,2,0,L|464:256,1,48,8|0,0:0|0:0,0:0:0:0:
288,320,241368,2,0,L|352:320,1,48,0|0,0:0|0:0,0:0:0:0:
144,320,241496,5,2,0:0:0:0:
99,307,241560,1,0,0:0:0:0:
85,263,241624,1,0,0:0:0:0:
112,227,241688,1,0,0:0:0:0:
256,192,241752,2,0,L|192:192,1,48,8|0,0:0|0:0,0:0:0:0:
336,128,241880,2,0,L|416:128,1,48,0|0,0:0|0:0,0:0:0:0:
192,128,242009,6,0,L|176:64,1,48,0|0,0:0|0:0,0:0:0:0:
240,80,242137,2,0,L|256:16,1,48,2|0,0:0|0:0,0:0:0:0:
64,48,242265,2,0,L|128:48,1,48,8|0,0:0|0:0,0:0:0:0:
288,48,242393,1,0,0:0:0:0:
192,112,242521,6,0,L|176:208,1,96,2|0,0:0|0:0,0:0:0:0:
384,240,242778,1,8,0:0:0:0:
288,240,242906,2,0,L|256:240,1,24,4|0,0:2|0:0,0:0:0:0:
384,192,242970,2,0,L|416:192,1,24,0|0,0:0|0:0,0:0:0:0:
224,192,243034,2,0,L|128:192,1,96,8|0,0:0|0:0,0:0:0:0:
176,192,243226,1,0,0:0:0:0:
448,272,243291,6,0,L|400:272,1,48,4|0,0:0|0:0,0:0:0:0:
208,256,243418,2,0,L|256:256,1,48,2|0,0:0|0:0,0:0:0:0:
448,272,243547,2,0,L|400:272,1,48,2|0,0:0|0:0,0:0:0:0:
64,272,243675,6,0,L|112:272,1,48,0|0,0:0|0:0,0:0:0:0:
304,256,243803,2,0,L|256:256,1,48,2|0,0:0|0:0,0:0:0:0:
64,272,243931,2,0,L|112:272,1,48,2|0,0:0|0:0,0:0:0:0:
352,192,244060,5,2,0:0:0:0:
160,160,244188,2,0,L|112:160,1,48,8|0,0:0|0:0,0:0:0:0:
256,96,244316,1,0,0:0:0:0:
448,96,244444,2,0,L|480:96,2,24,4|0|0,0:2|0:0|0:0,0:0:0:0:
336,96,244540,1,0,0:0:0:0:
208,96,244572,6,0,L|99:96,1,96,2|2,0:0|0:0,0:0:0:0:
160,96,244764,1,0,0:0:0:0:
304,160,244829,2,0,L|384:160,1,48,8|0,0:0|0:0,0:0:0:0:
176,256,244957,2,0,L|224:256,1,48,0|0,0:0|0:0,0:0:0:0:
416,304,245085,6,0,L|432:192,1,96,2|0,0:0|0:0,0:0:0:0:
384,192,245277,1,0,0:0:0:0:
240,160,245342,2,0,L|288:160,1,48,8|0,0:0|0:0,0:0:0:0:
464,224,245470,6,0,L|480:112,1,96,2|0,0:0|0:0,0:0:0:0:
432,112,245662,1,0,0:0:0:0:
288,80,245727,2,0,L|336:80,1,48,2|0,0:0|0:0,0:0:0:0:
160,80,245854,2,0,L|48:80,1,96,8|0,0:0|0:0,0:0:0:0:
304,192,246111,6,0,L|432:192,1,96,2|2,0:0|0:0,0:0:0:0:
192,272,246367,1,2,0:0:0:0:
400,288,246495,2,0,L|464:288,1,48,2|0,0:0|0:0,0:0:0:0:
256,272,246624,1,8,0:0:0:0:
352,224,246752,2,0,L|304:224,1,48,0|0,0:0|0:0,0:0:0:0:
16,224,246880,5,4,0:0:0:0:
304,176,247008,2,0,L|176:176,1,96,2|2,0:0|0:0,0:0:0:0:
496,224,247265,1,0,0:0:0:0:
208,176,247393,2,0,L|336:176,1,96,2|2,0:0|0:0,0:0:0:0:
16,224,247649,5,0,0:0:0:0:
352,144,247777,1,2,0:0:0:0:
160,144,247906,2,0,L|256:144,1,96,2|0,0:0|0:0,0:0:0:0:
64,144,248162,2,0,P|16:240|84:289,1,192,2|0,0:0|0:0,0:0:0:0:
176,288,248547,1,0,0:0:0:0:
496,224,248675,5,4,0:0:0:0:
208,176,248803,2,0,L|96:176,1,96,2|2,0:0|0:0,0:0:0:0:
400,160,249060,1,0,0:0:0:0:
112,112,249188,2,0,L|0:112,1,96,2|2,0:0|0:0,0:0:0:0:
320,224,249444,5,0,0:0:0:0:
112,288,249572,1,2,0:0:0:0:
320,288,249701,2,0,L|416:288,1,96,2|0,0:0|0:0,0:0:0:0:
160,160,249957,2,0,P|112:256|180:305,1,192,2|0,0:0|0:0,0:0:0:0:
272,304,250342,1,0,0:0:0:0:
496,224,250470,5,4,0:2:0:0:
208,176,250598,2,0,L|336:176,1,96,2|2,0:0|0:0,0:0:0:0:
16,224,250855,1,0,0:0:0:0:
304,176,250983,2,0,L|176:176,1,96,2|2,0:0|0:0,0:0:0:0:
496,224,251239,5,0,0:0:0:0:
160,144,251367,1,2,0:0:0:0:
352,144,251496,2,0,L|256:144,1,96,2|0,0:0|0:0,0:0:0:0:
448,144,251752,2,0,P|496:240|428:289,1,192,2|0,0:0|0:0,0:0:0:0:
336,288,252137,1,0,0:0:0:0:
16,224,252265,5,4,0:2:0:0:
304,176,252393,2,0,L|416:176,1,96,2|2,0:0|0:0,0:0:0:0:
112,160,252649,1,0,0:0:0:0:
400,112,252777,2,0,L|512:112,1,96,2|2,0:0|0:0,0:0:0:0:
192,224,253034,5,0,0:0:0:0:
400,288,253162,1,2,0:0:0:0:
192,288,253291,2,0,L|96:288,1,96,2|0,0:0|0:0,0:0:0:0:
352,160,253547,2,0,L|384:288,1,96,2|0,0:0|0:0,0:0:0:0:
160,160,253803,2,0,L|128:288,1,96,4|0,0:2|0:0,0:0:0:0:
416,336,254059,5,4,0:0:0:0:
336,272,254251,1,0,0:0:0:0:
416,304,254443,2,0,P|464:224|389:25,1,288,2|0,0:0|0:0,0:0:0:0:
384,48,254892,1,0,0:0:0:0:
352,48,254956,1,0,0:0:0:0:
320,48,255020,1,0,0:0:0:0:
96,336,255084,5,2,0:0:0:0:
224,256,255276,1,0,0:0:0:0:
96,304,255468,2,0,P|48:224|107:138,1,192,2|0,0:0|0:0,0:0:0:0:
192,128,255853,1,0,0:0:0:0:
96,96,255982,1,0,0:0:0:0:
320,192,256110,6,0,L|448:192,1,96,0|0,0:0|0:0,0:0:0:0:
368,192,256302,2,0,L|416:192,1,48,0|0,0:0|0:0,0:0:0:0:
192,192,256494,2,0,L|64:192,1,96,0|0,0:0|0:0,0:0:0:0:
144,192,256686,2,0,L|96:192,1,48,0|0,0:0|0:0,0:0:0:0:
320,256,256879,2,0,L|368:256,1,48,0|0,0:0|0:0,0:0:0:0:
192,256,257007,2,0,L|144:256,1,48,0|0,0:0|0:0,0:0:0:0:
480,240,257135,6,0,L|483:192,1,48,4|0,0:2|0:0,0:0:0:0:
336,240,257264,2,0,L|332:192,1,48,0|0,0:0|0:0,0:0:0:0:
179,192,257392,2,0,L|176:240,1,48,0|0,0:0|0:0,0:0:0:0:
28,192,257521,2,0,L|32:240,1,48,0|0,0:0|0:0,0:0:0:0:
320,160,257648,6,0,L|384:160,1,48,4|0,0:2|0:0,0:0:0:0:
192,160,257776,2,0,L|128:160,1,48,0|0,0:0|0:0,0:0:0:0:
416,80,257905,2,0,L|368:80,1,48,4|0,0:2|0:0,0:0:0:0:
96,80,258033,2,0,L|144:80,1,48,4|0,0:2|0:0,0:0:0:0:
400,256,258161,5,4,0:0:0:0:
208,240,258289,2,0,L|144:240,1,48,2|0,0:0|0:0,0:0:0:0:
336,192,258417,1,0,0:0:0:0:
448,192,258546,1,2,0:0:0:0:
176,192,258674,1,2,0:0:0:0:
64,192,258803,1,0,0:0:0:0:
256,144,258930,1,2,0:0:0:0:
64,112,259059,2,0,L|16:112,1,48,2|0,0:0|0:0,0:0:0:0:
176,256,259187,5,4,0:2:0:0:
368,240,259315,2,0,L|432:240,1,48,2|0,0:0|0:0,0:0:0:0:
256,192,259443,1,0,0:0:0:0:
144,192,259571,2,0,L|192:192,1,48,2|0,0:0|0:0,0:0:0:0:
368,192,259700,1,2,0:0:0:0:
128,144,259828,2,0,L|112:64,1,48,0|0,0:0|0:0,0:0:0:0:
288,80,259956,2,0,L|352:80,1,48,2|0,0:0|0:0,0:0:0:0:
176,176,260084,2,0,L|240:176,1,48,2|0,0:0|0:0,0:0:0:0:
464,256,260212,6,0,L|368:256,1,96,4|0,0:0|0:0,0:0:0:0:
224,256,260405,1,0,0:0:0:0:
80,256,260469,1,2,0:0:0:0:
368,256,260597,2,0,L|464:256,1,96,4|0,0:0|0:0,0:0:0:0:
320,192,260790,1,0,0:0:0:0:
176,192,260853,1,2,0:0:0:0:
416,128,260982,2,0,L|480:128,1,48,4|0,0:0|0:0,0:0:0:0:
96,128,261110,2,0,L|32:128,1,48,0|0,0:0|0:0,0:0:0:0:
496,336,261238,6,0,L|384:336,1,96,4|0,0:0|0:0,0:0:0:0:
186,336,261430,2,0,L|298:336,1,96,2|0,0:0|0:0,0:0:0:0:
64,336,261623,2,0,L|0:336,1,48,2|0,0:0|0:0,0:0:0:0:
304,240,261751,6,0,L|400:240,1,96,4|0,0:2|0:0,0:0:0:0:
208,240,261943,2,0,L|112:240,1,96,2|0,0:0|0:0,0:0:0:0:
304,240,262135,1,2,0:0:0:0:
496,256,262264,6,0,B|400:256|400:256|528:256,1,192,4|0,0:0|0:0,0:0:0:0:
304,256,262649,2,0,B|400:256|400:256|304:256|304:256|178:253|176:96,1,384,2|0,0:0|0:0,0:0:0:0:
384,160,263289,5,0,0:0:0:0:
416,160,263305,1,0,0:0:0:0:
448,160,263321,1,0,0:0:0:0:
432,96,263545,1,0,0:0:0:0:
400,96,263561,1,0,0:0:0:0:
416,48,263802,1,0,0:0:0:0:
320,48,263930,1,2,0:1:0:0:
96,80,264059,2,0,P|48:128|120:154,1,144,8|0,0:1|0:0,0:0:0:0:
352,192,264315,6,0,L|416:192,1,48,4|0,0:0|0:0,0:0:0:0:
256,192,264443,1,0,0:0:0:0:
112,192,264507,2,0,L|160:192,1,48,0|0,0:0|0:0,0:0:0:0:
400,304,264700,2,0,L|416:224,1,48,2|0,0:1|0:0,0:0:0:0:
256,256,264828,1,0,0:0:0:0:
102,256,264892,2,0,L|112:304,1,48,0|0,0:0|0:0,0:0:0:0:
368,352,265084,1,2,0:1:0:0:
144,352,265212,1,2,0:1:0:0:
400,304,265341,6,0,L|416:176,1,96,0|0,0:1|0:0,0:0:0:0:
363,208,265533,1,0,0:0:0:0:
192,160,265597,1,0,0:0:0:0:
363,208,265661,2,0,L|427:208,1,48,0|0,0:0|0:0,0:0:0:0:
144,224,265853,6,0,L|80:224,1,48,2|0,0:1|0:0,0:0:0:0:
256,176,265982,2,0,L|208:176,1,48,0|0,0:0|0:0,0:0:0:0:
368,96,266110,2,0,L|464:96,1,96,0|0,0:0|0:0,0:0:0:0:
416,128,266302,1,0,0:0:0:0:
112,304,266366,6,0,L|96:208,1,64,2|2,0:1|0:1,0:0:0:0:
410,240,266537,2,0,L|400:304,1,64,2|2,0:1|0:1,0:0:0:0:
112,304,266751,2,0,L|160:304,1,32,0|0,0:0|0:0,0:0:0:0:
400,304,266879,1,2,0:1:0:0:
112,304,267050,1,2,0:1:0:0:
400,304,267221,1,2,0:1:0:0:
112,256,267392,6,0,L|240:256,1,96,2|0,0:1|0:0,0:0:0:0:
160,256,267584,1,0,0:0:0:0:
304,240,267648,2,0,L|416:240,1,96,0|0,0:0|0:0,0:0:0:0:
352,240,267841,5,2,0:1:0:0:
160,208,267905,2,0,L|128:208,2,24,0|0|0,0:0|0:0|0:0,0:0:0:0:
336,192,268033,2,0,L|352:128,1,48,0|0,0:0|0:0,0:0:0:0:
176,192,268161,2,0,L|160:128,1,48,0|0,0:0|0:0,0:0:0:0:
336,192,268289,2,0,L|352:128,1,48,0|0,0:0|0:0,0:0:0:0:
128,96,268417,5,2,0:1:0:0:
64,96,268482,1,0,0:0:0:0:
128,96,268546,1,0,0:0:0:0:
64,96,268610,1,0,0:0:0:0:
256,96,268674,6,0,L|368:96,1,96,4|0,0:0|0:0,0:0:0:0:
304,96,268866,1,0,0:0:0:0:
160,112,268930,1,0,0:0:0:0:
384,160,269059,2,0,L|400:288,1,96,2|0,0:1|0:0,0:0:0:0:
128,160,269315,2,0,L|112:288,1,96,2|0,0:1|0:0,0:0:0:0:
352,288,269571,5,2,0:1:0:0:
304,288,269635,1,0,0:0:0:0:
256,288,269699,1,0,0:0:0:0:
464,224,269828,1,2,0:1:0:0:
416,224,269892,1,0,0:0:0:0:
368,224,269956,1,0,0:0:0:0:
128,224,270084,5,2,0:1:0:0:
224,208,270212,2,0,L|256:208,2,32,0|0|0,0:0|0:0|0:0,0:0:0:0:
96,224,270341,2,0,L|32:224,1,48,0|0,0:0|0:0,0:0:0:0:
256,176,270469,6,0,L|304:176,2,48,2|0|0,0:1|0:0|0:0,0:0:0:0:
448,128,270725,2,0,L|400:128,2,48,2|0|0,0:1|0:0|0:0,0:0:0:0:
224,240,270982,6,0,L|176:240,1,48
304,160,271110,2,0,L|240:160,1,48,0|0,0:0|0:0,0:0:0:0:
384,240,271238,1,0,0:0:0:0:
430,233,271302,1,0,0:0:0:0:
451,192,271366,1,0,0:0:0:0:
428,152,271430,1,0,0:0:0:0:
256,288,271494,6,0,L|144:288,1,64,2|2,0:1|0:1,0:0:0:0:
368,240,271665,1,2,0:1:0:0:
176,208,271751,2,0,L|288:208,1,64,2|2,0:1|0:1,0:0:0:0:
64,160,271922,1,2,0:1:0:0:
256,80,272007,6,0,L|256:96,24,12,0|0|0|0|0|0|0|0|0|0|0|0|0|0|0|0|0|0|0|0|0|0|0|0|0,2:0|2:0|2:0|2:0|2:0|2:0|2:0|2:0|2:0|2:0|2:0|2:0|2:0|2:0|2:0|2:0|2:0|2:0|2:0|2:0|2:0|2:0|2:0|2:0|2:0,0:0:0:0:
192,192,272520,6,0,L|144:192,1,48,4|0,0:1|0:0,0:0:0:0:
320,192,272648,2,0,L|368:192,1,48,0|0,0:0|0:0,0:0:0:0:
176,240,272776,2,0,L|112:240,1,48,0|0,0:0|0:0,0:0:0:0:
336,240,272905,2,0,L|400:240,1,48,0|0,0:0|0:0,0:0:0:0:
160,288,273033,6,0,L|80:288,1,48,0|0,0:0|0:0,0:0:0:0:
352,288,273161,2,0,L|400:288,1,48,0|0,0:0|0:0,0:0:0:0:
144,240,273289,2,0,L|96:240,1,48,0|0,0:0|0:0,0:0:0:0:
368,240,273417,2,0,L|416:240,1,48,0|0,0:0|0:0,0:0:0:0:
128,192,273546,6,0,L|80:192,1,48,0|0,0:0|0:0,0:0:0:0:
384,192,273674,2,0,L|432:192,1,48,0|0,0:0|0:0,0:0:0:0:
112,144,273802,2,0,L|64:144,1,48,0|0,0:0|0:0,0:0:0:0:
400,144,273930,2,0,L|448:144,1,48,0|0,0:0|0:0,0:0:0:0:
96,96,274058,6,0,L|48:96,1,48
416,96,274187,2,0,L|464:96,1,48,0|0,0:0|0:0,0:0:0:0:
80,144,274315,2,0,L|48:144,2,24
256,144,274411,1,0,0:0:0:0:
432,144,274443,2,0,L|464:144,2,24,0|0|0,0:0|0:0|0:0,0:0:0:0:
256,144,274539,1,0,0:0:0:0:
96,96,274571,6,0,L|48:96,1,48,0|0,0:0|0:0,0:0:0:0:
416,96,274700,2,0,L|464:96,1,48,0|0,0:0|0:0,0:0:0:0:
112,144,274828,2,0,L|64:144,1,48,0|0,0:0|0:0,0:0:0:0:
400,144,274956,2,0,L|448:144,1,48,0|0,0:0|0:0,0:0:0:0:
128,192,275084,6,0,L|80:192,1,48,0|0,0:0|0:0,0:0:0:0:
384,192,275212,2,0,L|432:192,1,48,0|0,0:0|0:0,0:0:0:0:
144,240,275341,2,0,L|96:240,1,48,0|0,0:0|0:0,0:0:0:0:
368,240,275469,2,0,L|416:240,1,48,0|0,0:0|0:0,0:0:0:0:
160,288,275597,6,0,L|112:288,1,48,0|0,0:0|0:0,0:0:0:0:
352,288,275725,2,0,L|400:288,2,48,0|0|0,0:0|0:0|0:0,0:0:0:0:
128,208,275982,2,0,L|96:208,2,24,0|0|0,0:0|1:0|0:0,0:0:0:0:
304,208,276110,5,4,0:2:0:0:
256,208,276174,1,0,0:0:0:0:
208,208,276238,1,0,0:0:0:0:
384,208,276302,2,0,L|432:208,2,48,4|0|0,0:2|0:0|0:0,0:0:0:0:
232,208,276494,1,4,0:2:0:0:
256,208,276526,1,0,1:0:0:0:
280,208,276558,1,0,0:0:0:0:
112,256,276623,6,0,L|96:192,9,48,4|0|0|0|0|0|0|0|0|0,0:0|0:0|0:0|0:0|0:0|0:0|0:0|0:0|0:0|0:0,0:0:0:0:
240,192,277264,6,0,L|256:128,2,48,2|0|0,1:0|0:0|0:0,0:0:0:0:
112,256,277456,2,0,L|96:192,2,48,2|0|0,1:0|0:0|0:0,0:0:0:0:
400,256,277648,6,0,L|416:192,7,48,2|0|0|0|0|0|0|0,1:0|0:0|0:0|0:0|0:0|0:0|0:0|0:0,0:0:0:0:
144,192,278161,6,0,L|224:192,2,64,2|2|2,1:0|1:0|1:0,0:0:0:0:
368,192,278417,2,0,L|288:192,2,64,2|2|2,1:0|1:0|1:0,0:0:0:0:
176,304,278674,5,4,0:2:0:0:
336,288,278759,2,0,L|432:288,1,96,2|0,0:0|0:0,0:0:0:0:
256,240,278930,2,0,L|160:240,1,96,0|0,0:0|0:0,0:0:0:0:
336,112,279101,6,0,L|351:206,1,96,2|0,0:0|0:0,0:0:0:0:
208,240,279272,2,0,L|288:240,1,64,2|2,0:0|0:0,0:0:0:0:
80,208,279443,2,0,L|65:302,1,96,2|0,0:0|0:0,0:0:0:0:
192,336,279614,1,0,0:0:0:0:
368,352,279700,5,4,0:2:0:0:
425,326,279785,1,0,0:0:0:0:
448,269,279870,1,0,0:0:0:0:
424,211,279956,1,0,0:0:0:0:
366,187,280041,1,0,0:0:0:0:
432,160,280127,1,0,0:0:0:0:
272,160,280212,6,0,L|262:108,1,32,0|0,0:0|0:0,0:0:0:0:
368,112,280298,2,0,L|378:60,1,32,0|0,0:0|0:0,0:0:0:0:
272,160,280383,2,0,L|262:108,1,32,0|0,0:0|0:0,0:0:0:0:
480,112,280469,2,0,L|480:288,1,144,4|0,0:2|0:0,0:0:0:0:
160,224,280725,5,4,0:0:0:0:
16,272,280789,1,0,0:0:0:0:
160,304,280853,1,0,0:0:0:0:
208,336,280917,1,0,0:0:0:0:
160,368,280982,1,0,0:0:0:0:
352,224,281110,5,2,1:0:0:0:
496,272,281174,1,0,0:0:0:0:
352,304,281238,1,0,0:0:0:0:
304,336,281302,1,0,0:0:0:0:
352,368,281367,1,0,0:0:0:0:
128,304,281494,5,2,1:0:0:0:
128,256,281559,1,0,0:0:0:0:
224,208,281687,1,2,1:0:0:0:
128,176,281815,1,2,1:0:0:0:
256,272,281943,5,2,1:0:0:0:
384,272,282008,1,0,0:0:0:0:
384,192,282136,1,2,1:0:0:0:
256,192,282201,1,0,0:0:0:0:
256,128,282328,1,2,1:0:0:0:
128,112,282392,1,0,0:0:0:0:
256,96,282456,1,0,0:0:0:0:
128,176,282520,2,0,L|32:176,1,96,0|0,0:0|0:0,0:0:0:0:
272,224,282776,5,4,0:2:0:0:
320,224,282840,1,0,0:0:0:0:
160,320,282904,1,0,0:0:0:0:
112,288,282968,1,0,0:0:0:0:
160,272,283033,1,0,0:0:0:0:
416,256,283161,5,2,1:0:0:0:
464,256,283225,1,0,0:0:0:0:
304,352,283289,1,0,0:0:0:0:
256,320,283353,1,0,0:0:0:0:
304,304,283418,1,0,0:0:0:0:
80,224,283546,5,2,1:0:0:0:
24,208,283611,1,0,0:0:0:0:
136,176,283739,1,2,1:0:0:0:
248,160,283867,1,2,1:0:0:0:
304,160,283930,1,0,0:0:0:0:
96,320,284058,6,0,L|48:320,2,32,2|0|0,1:0|0:0|0:0,0:0:0:0:
208,320,284187,1,0,0:0:0:0:
416,320,284315,2,0,L|464:320,2,32,2|0|0,1:0|0:0|0:0,0:0:0:0:
304,320,284444,1,0,0:0:0:0:
192,288,284571,2,0,L|144:288,1,48,2|0,1:0|0:0,0:0:0:0:
320,288,284700,2,0,L|368:288,1,48,0|0,0:0|0:0,0:0:0:0:
200,208,284828,5,2,1:0:0:0:
152,208,284892,1,0,0:0:0:0:
208,208,284956,1,0,0:0:0:0:
152,208,285020,1,0,0:0:0:0:
200,208,285085,1,0,0:0:0:0:
312,208,285212,1,2,1:0:0:0:
360,208,285276,1,0,0:0:0:0:
304,208,285340,1,0,0:0:0:0:
360,208,285404,1,0,0:0:0:0:
312,208,285469,1,0,0:0:0:0:
192,288,285597,5,2,1:0:0:0:
128,288,285661,1,0,0:0:0:0:
224,240,285789,1,2,1:0:0:0:
128,192,285918,1,2,1:0:0:0:
320,160,286046,1,2,1:0:0:0:
384,160,286110,1,0,0:0:0:0:
192,96,286238,5,2,1:0:0:0:
128,96,286302,1,0,0:0:0:0:
320,96,286430,1,2,1:0:0:0:
384,96,286494,1,0,0:0:0:0:
320,96,286559,1,0,0:0:0:0:
384,96,286623,1,0,0:0:0:0:
256,128,286751,1,2,1:0:0:0:
192,128,286815,1,0,0:0:0:0:
400,160,286943,5,2,1:0:0:0:
464,160,287007,1,0,0:0:0:0:
272,224,287136,1,2,1:0:0:0:
464,288,287263,1,2,1:0:0:0:
400,288,287327,1,0,0:0:0:0:
192,304,287455,1,2,1:0:0:0:
256,304,287520,1,0,0:0:0:0:
64,256,287648,1,2,1:0:0:0:
256,208,287776,1,2,1:0:0:0:
320,208,287841,1,0,0:0:0:0:
128,176,287905,6,0,L|112:96,1,48,2|0,1:0|0:0,0:0:0:0:
256,112,288033,2,0,L|272:32,1,48,0|0,0:0|0:0,0:0:0:0:
112,48,288161,2,0,L|80:48,2,24,0|0|0,0:0|2:0|0:0,0:0:0:0:
256,48,288257,1,0,2:0:0:0:
400,48,288289,2,0,L|432:48,2,24,0|0|0,0:0|2:0|0:0,0:0:0:0:
256,48,288385,1,0,2:0:0:0:
112,96,288417,5,0,0:0:0:0:
192,128,288546,2,0,L|207:96,2,24,0|0|0,0:0|2:0|0:0,0:0:0:0:
32,192,288674,2,0,L|80:192,1,48,0|0,0:0|0:0,0:0:0:0:
256,192,288802,1,0,0:0:0:0:
16,384,288930,6,0,B|-8:-29|243:20|243:20|296:280,1,767.999921875008,4|0,0:0|0:0,0:0:0:0:
96,224,290982,1,0,0:0:0:0:
320,160,291494,1,0,0:0:0:0:
48,96,292007,1,0,0:0:0:0:
384,32,292520,1,0,0:0:0:0:
256,192,293033,5,8,0:0:0:0:
256,128,293161,1,0,0:0:0:0:
256,192,293289,1,0,0:0:0:0:
256,144,293417,1,0,0:0:0:0:
256,80,293674,2,0,L|256:288,1,192,0|0,0:0|0:0,0:0:0:0:
256,256,294058,5,8,0:0:0:0:
256,320,294315,1,0,0:0:0:0:
256,240,294443,1,0,0:0:0:0:
256,192,294571,1,0,0:0:0:0:
256,80,294699,2,0,L|256:288,1,192,0|0,0:0|0:0,0:0:0:0:
256,112,295084,6,0,L|256:336,1,192,8|0,0:0|0:0,0:0:0:0:
256,256,295469,1,0,0:0:0:0:
256,112,295597,2,0,L|256:320,1,192,0|0,0:0|0:0,0:0:0:0:
32,304,296110,6,0,L|16:256,1,32,0|0,0:0|0:0,0:0:0:0:
128,256,296195,2,0,L|176:256,1,32,0|0,0:0|0:0,0:0:0:0:
272,240,296280,2,0,L|288:192,1,32,0|0,0:0|0:0,0:0:0:0:
96,176,296366,2,0,L|80:128,1,32,0|0,0:0|0:0,0:0:0:0:
192,128,296451,2,0,L|240:128,1,32,0|0,0:0|0:0,0:0:0:0:
336,112,296537,2,0,L|352:64,1,32,0|0,0:0|0:0,0:0:0:0:
160,304,296622,6,0,L|144:256,1,32,0|0,0:0|0:0,0:0:0:0:
256,256,296708,2,0,L|304:256,1,32,0|0,0:0|0:0,0:0:0:0:
400,240,296793,2,0,L|416:192,1,32,0|0,0:0|0:0,0:0:0:0:
224,176,296879,2,0,L|208:128,1,32,0|0,0:0|0:0,0:0:0:0:
320,128,296964,2,0,L|368:128,1,32,0|0,0:0|0:0,0:0:0:0:
464,112,297050,2,0,L|480:64,1,32,0|0,0:0|0:0,0:0:0:0:
336,64,297135,6,0,L|304:64,1,32,0|0,0:0|0:0,0:0:0:0:
192,96,297221,2,0,L|192:144,1,32,0|0,0:0|0:0,0:0:0:0:
304,160,297306,2,0,L|336:160,1,32,0|0,0:0|0:0,0:0:0:0:
208,192,297392,2,0,L|176:192,1,32,0|0,0:0|0:0,0:0:0:0:
64,224,297478,2,0,L|64:272,1,32,0|0,0:0|0:0,0:0:0:0:
176,288,297563,2,0,L|208:288,1,32,0|0,0:0|0:0,0:0:0:0:
160,288,297648,5,0,0:0:0:0:
133,272,297690,1,0,0:0:0:0:
122,242,297733,1,0,0:0:0:0:
133,213,297776,1,0,0:0:0:0:
160,197,297818,1,0,0:0:0:0:
208,192,297862,1,0,0:0:0:0:
352,192,297904,2,0,L|384:192,1,32,0|0,0:0|0:0,0:0:0:0:
240,144,297990,2,0,L|192:144,1,32,0|0,0:0|0:0,0:0:0:0:
352,192,298075,2,0,L|384:192,1,32,0|0,0:0|0:0,0:0:0:0:
160,288,298161,6,0,B|256:288|256:288|128:288,1,192,4|0,0:0|0:0,0:0:0:0:
352,288,298546,2,0,B|256:288|256:288|448:288,1,288,2|0,0:0|0:0,0:0:0:0:
